  0
SECTION
  2
HEADER
  9
$ACADVER
  1
AC1015
  9
$ACADMAINTVER
 70
     6
  9
$DWGCODEPAGE
  3
ANSI_1252
  9
$INSBASE
 10
0.0
 20
0.0
 30
0.0
  9
$EXTMIN
 10
0.0
 20
0.0
 30
0.0
  9
$EXTMAX
 10
3886.2
 20
2514.6
 30
0.0
  9
$LIMMIN
 10
0.0
 20
0.0
  9
$LIMMAX
 10
3886.2
 20
2514.6
  9
$ORTHOMODE
 70
     0
  9
$REGENMODE
 70
     1
  9
$FILLMODE
 70
     1
  9
$QTEXTMODE
 70
     0
  9
$MIRRTEXT
 70
     1
  9
$LTSCALE
 40
9.0
  9
$ATTMODE
 70
     1
  9
$TEXTSIZE
 40
28.575
  9
$TRACEWID
 40
1.0
  9
$TEXTSTYLE
  7
STANDARD
  9
$CLAYER
  8
0
  9
$CELTYPE
  6
ByLayer
  9
$CECOLOR
 62
   256
  9
$CELTSCALE
 40
1.0
  9
$DISPSILH
 70
     0
  9
$DIMSCALE
 40
1.0
  9
$DIMASZ
 40
18.0
  9
$DIMEXO
 40
6.858
  9
$DIMDLI
 40
3.75
  9
$DIMRND
 40
0.0
  9
$DIMDLE
 40
0.0
  9
$DIMEXE
 40
6.858
  9
$DIMTP
 40
0.0
  9
$DIMTM
 40
0.0
  9
$DIMTXT
 40
28.575
  9
$DIMCEN
 40
2.5
  9
$DIMTSZ
 40
0.0
  9
$DIMTOL
 70
     0
  9
$DIMLIM
 70
     0
  9
$DIMTIH
 70
     1
  9
$DIMTOH
 70
     1
  9
$DIMSE1
 70
     0
  9
$DIMSE2
 70
     0
  9
$DIMTAD
 70
     0
  9
$DIMZIN
 70
     1
  9
$DIMBLK
  1

  9
$DIMASO
 70
     1
  9
$DIMSHO
 70
     1
  9
$DIMPOST
  1

  9
$DIMAPOST
  1

  9
$DIMALT
 70
     0
  9
$DIMALTD
 70
     3
  9
$DIMALTF
 40
0.0393700787
  9
$DIMLFAC
 40
1.0
  9
$DIMTOFL
 70
     1
  9
$DIMTVP
 40
0.0
  9
$DIMTIX
 70
     0
  9
$DIMSOXD
 70
     0
  9
$DIMSAH
 70
     0
  9
$DIMBLK1
  1

  9
$DIMBLK2
  1

  9
$DIMSTYLE
  2
ISO-25
  9
$DIMCLRD
 70
     0
  9
$DIMCLRE
 70
     0
  9
$DIMCLRT
 70
     0
  9
$DIMTFAC
 40
1.0
  9
$DIMGAP
 40
13.716
  9
$DIMJUST
 70
     0
  9
$DIMSD1
 70
     0
  9
$DIMSD2
 70
     0
  9
$DIMTOLJ
 70
     0
  9
$DIMTZIN
 70
     1
  9
$DIMALTZ
 70
     0
  9
$DIMALTTZ
 70
     0
  9
$DIMUPT
 70
     0
  9
$DIMDEC
 70
     2
  9
$DIMTDEC
 70
     2
  9
$DIMALTU
 70
     2
  9
$DIMALTTD
 70
     3
  9
$DIMTXSTY
  7
STANDARD
  9
$DIMAUNIT
 70
     0
  9
$DIMADEC
 70
     0
  9
$DIMALTRND
 40
0.0
  9
$DIMAZIN
 70
     0
  9
$DIMDSEP
 70
    44
  9
$DIMATFIT
 70
     3
  9
$DIMFRAC
 70
     0
  9
$DIMLDRBLK
  1

  9
$DIMLUNIT
 70
     2
  9
$DIMLWD
 70
    -2
  9
$DIMLWE
 70
    -2
  9
$DIMTMOVE
 70
     0
  9
$LUNITS
 70
     2
  9
$LUPREC
 70
     6
  9
$SKETCHINC
 40
1.0
  9
$FILLETRAD
 40
0.0
  9
$AUNITS
 70
     0
  9
$AUPREC
 70
     0
  9
$MENU
  1
.
  9
$ELEVATION
 40
0.0
  9
$PELEVATION
 40
0.0
  9
$THICKNESS
 40
0.0
  9
$LIMCHECK
 70
     0
  9
$CHAMFERA
 40
0.0
  9
$CHAMFERB
 40
0.0
  9
$CHAMFERC
 40
0.0
  9
$CHAMFERD
 40
0.0
  9
$SKPOLY
 70
     0
  9
$TDCREATE
 40
2460461.477764514
  9
$TDUCREATE
 40
2460461.769431181
  9
$TDUPDATE
 40
2460461.477769144
  9
$TDUUPDATE
 40
2460461.769435811
  9
$TDINDWG
 40
0.0000000116
  9
$TDUSRTIMER
 40
0.0000000116
  9
$USRTIMER
 70
     1
  9
$ANGBASE
 50
0.0
  9
$ANGDIR
 70
     0
  9
$PDMODE
 70
     0
  9
$PDSIZE
 40
-1.0
  9
$PLINEWID
 40
0.0
  9
$SPLFRAME
 70
     0
  9
$SPLINETYPE
 70
     6
  9
$SPLINESEGS
 70
     8
  9
$HANDSEED
  5
586
  9
$SURFTAB1
 70
     6
  9
$SURFTAB2
 70
     6
  9
$SURFTYPE
 70
     6
  9
$SURFU
 70
     6
  9
$SURFV
 70
     6
  9
$UCSBASE
  2

  9
$UCSNAME
  2

  9
$UCSORG
 10
0.0
 20
0.0
 30
0.0
  9
$UCSXDIR
 10
1.0
 20
0.0
 30
0.0
  9
$UCSYDIR
 10
0.0
 20
1.0
 30
0.0
  9
$UCSORTHOREF
  2

  9
$UCSORTHOVIEW
 70
     0
  9
$UCSORGTOP
 10
0.0
 20
0.0
 30
0.0
  9
$UCSORGBOTTOM
 10
0.0
 20
0.0
 30
0.0
  9
$UCSORGLEFT
 10
0.0
 20
0.0
 30
0.0
  9
$UCSORGRIGHT
 10
0.0
 20
0.0
 30
0.0
  9
$UCSORGFRONT
 10
0.0
 20
0.0
 30
0.0
  9
$UCSORGBACK
 10
0.0
 20
0.0
 30
0.0
  9
$PUCSBASE
  2

  9
$PUCSNAME
  2

  9
$PUCSORG
 10
0.0
 20
0.0
 30
0.0
  9
$PUCSXDIR
 10
1.0
 20
0.0
 30
0.0
  9
$PUCSYDIR
 10
0.0
 20
1.0
 30
0.0
  9
$PUCSORTHOREF
  2

  9
$PUCSORTHOVIEW
 70
     0
  9
$PUCSORGTOP
 10
0.0
 20
0.0
 30
0.0
  9
$PUCSORGBOTTOM
 10
0.0
 20
0.0
 30
0.0
  9
$PUCSORGLEFT
 10
0.0
 20
0.0
 30
0.0
  9
$PUCSORGRIGHT
 10
0.0
 20
0.0
 30
0.0
  9
$PUCSORGFRONT
 10
0.0
 20
0.0
 30
0.0
  9
$PUCSORGBACK
 10
0.0
 20
0.0
 30
0.0
  9
$USERI1
 70
     0
  9
$USERI2
 70
     0
  9
$USERI3
 70
     0
  9
$USERI4
 70
     0
  9
$USERI5
 70
     0
  9
$USERR1
 40
0.0
  9
$USERR2
 40
0.0
  9
$USERR3
 40
0.0
  9
$USERR4
 40
0.0
  9
$USERR5
 40
0.0
  9
$WORLDVIEW
 70
     1
  9
$SHADEDGE
 70
     3
  9
$SHADEDIF
 70
    70
  9
$TILEMODE
 70
     1
  9
$MAXACTVP
 70
    64
  9
$PINSBASE
 10
0.0
 20
0.0
 30
0.0
  9
$PLIMCHECK
 70
     0
  9
$PEXTMIN
 10
1.0000000000E+20
 20
1.0000000000E+20
 30
1.0000000000E+20
  9
$PEXTMAX
 10
-1.0000000000E+20
 20
-1.0000000000E+20
 30
-1.0000000000E+20
  9
$PLIMMIN
 10
0.0
 20
0.0
  9
$PLIMMAX
 10
420.0
 20
297.0
  9
$UNITMODE
 70
     0
  9
$VISRETAIN
 70
     1
  9
$PLINEGEN
 70
     0
  9
$PSLTSCALE
 70
     1
  9
$TREEDEPTH
 70
  3020
  9
$CMLSTYLE
  2
Standard
  9
$CMLJUST
 70
     0
  9
$CMLSCALE
 40
20.0
  9
$PROXYGRAPHICS
 70
     1
  9
$MEASUREMENT
 70
     1
  9
$CELWEIGHT
370
    -1
  9
$ENDCAPS
280
     0
  9
$JOINSTYLE
280
     0
  9
$LWDISPLAY
290
     1
  9
$INSUNITS
 70
     4
  9
$HYPERLINKBASE
  1

  9
$STYLESHEET
  1

  9
$XEDIT
290
     1
  9
$CEPSNTYPE
380
     0
  9
$PSTYLEMODE
290
     1
  9
$FINGERPRINTGUID
  2
{8c183926-a90e-4e07-b803-9be80e4777e5}
  9
$VERSIONGUID
  2
{FAEB1C32-E019-11D5-929B-00C0DF256EC4}
  9
$EXTNAMES
290
     1
  9
$PSVPSCALE
 40
0.0
  9
$OLESTARTUP
290
     0
  0
ENDSEC
  0
SECTION
  2
CLASSES
  0
CLASS
  1
ACDBDICTIONARYWDFLT
  2
AcDbDictionaryWithDefault
  3
ObjectDBX Classes
 90
        0
280
     0
281
     0
  0
CLASS
  1
VISUALSTYLE
  2
AcDbVisualStyle
  3
ObjectDBX Classes
 90
     4095
280
     0
281
     0
  0
CLASS
  1
MATERIAL
  2
AcDbMaterial
  3
ObjectDBX Classes
 90
     1153
280
     0
281
     0
  0
CLASS
  1
SCALE
  2
AcDbScale
  3
ObjectDBX Classes
 90
     1153
280
     0
281
     0
  0
CLASS
  1
TABLESTYLE
  2
AcDbTableStyle
  3
ObjectDBX Classes
 90
     4095
280
     0
281
     0
  0
CLASS
  1
MLEADERSTYLE
  2
AcDbMLeaderStyle
  3
ACDB_MLEADERSTYLE_CLASS
 90
     4095
280
     0
281
     0
  0
CLASS
  1
SUN
  2
AcDbSun
  3
SCENEOE
 90
     1153
280
     0
281
     0
  0
CLASS
  1
ACDBPLACEHOLDER
  2
AcDbPlaceHolder
  3
ObjectDBX Classes
 90
        0
280
     0
281
     0
  0
CLASS
  1
LAYOUT
  2
AcDbLayout
  3
ObjectDBX Classes
 90
        0
280
     0
281
     0
  0
ENDSEC
  0
SECTION
  2
TABLES
  0
TABLE
  2
VPORT
  5
8
330
0
100
AcDbSymbolTable
 70
     1
  0
VPORT
  5
29
330
8
100
AcDbSymbolTableRecord
100
AcDbViewportTableRecord
  2
*Active
 70
     0
 10
0.0
 20
0.0
 11
1.0
 21
1.0
 12
1943.1
 22
1257.3
 13
0.0
 23
0.0
 14
10.0
 24
10.0
 15
10.0
 25
10.0
 16
0.0
 26
0.0
 36
1.0
 17
0.0
 27
0.0
 37
0.0
 40
2514.6
 41
1.5454545455
 42
50.0
 43
0.0
 44
0.0
 50
0.0
 51
0.0
 71
     0
 72
  2000
 73
     1
 74
     3
 75
     0
 76
     0
 77
     0
 78
     0
281
     0
 65
     1
110
0.0
120
0.0
130
0.0
111
1.0
121
0.0
131
0.0
112
0.0
122
1.0
132
0.0
 79
     0
146
0.0
  0
ENDTAB
  0
TABLE
  2
LTYPE
  5
5
330
0
100
AcDbSymbolTable
 70
     6
  0
LTYPE
  5
14
330
5
100
AcDbSymbolTableRecord
100
AcDbLinetypeTableRecord
  2
ByBlock
 70
     0
  3

 72
    65
 73
     0
 40
0.0
  0
LTYPE
  5
15
330
5
100
AcDbSymbolTableRecord
100
AcDbLinetypeTableRecord
  2
ByLayer
 70
     0
  3

 72
    65
 73
     0
 40
0.0
  0
LTYPE
  5
16
330
5
100
AcDbSymbolTableRecord
100
AcDbLinetypeTableRecord
  2
Continuous
 70
     0
  3
Solid line
 72
    65
 73
     0
 40
0.0
  0
LTYPE
  5
5E
330
5
100
AcDbSymbolTableRecord
100
AcDbLinetypeTableRecord
  2
HIDDEN
 70
     0
  3
Hidden __ __ __ __ __ __ __ __ __ __ __ __ __ __
 72
    65
 73
     2
 40
1.905
 49
1.27
 74
     0
 49
-0.635
 74
     0
  0
LTYPE
  5
5F
330
5
100
AcDbSymbolTableRecord
100
AcDbLinetypeTableRecord
  2
PHANTOM
 70
     0
  3
Phantom ______  __  __  ______  __  __  ______
 72
    65
 73
     6
 40
12.7
 49
6.35
 74
     0
 49
-1.27
 74
     0
 49
1.27
 74
     0
 49
-1.27
 74
     0
 49
1.27
 74
     0
 49
-1.27
 74
     0
  0
LTYPE
  5
60
330
5
100
AcDbSymbolTableRecord
100
AcDbLinetypeTableRecord
  2
CENTER
 70
     0
  3
Center ____ _ ____ _ ____ _ ____ _ ____ _ ____
 72
    65
 73
     4
 40
10.16
 49
6.35
 74
     0
 49
-1.27
 74
     0
 49
1.27
 74
     0
 49
-1.27
 74
     0
  0
LTYPE
  5
61
330
5
100
AcDbSymbolTableRecord
100
AcDbLinetypeTableRecord
  2
CENTERX2
 70
     0
  3
Center (2x) ________  __  ________  __  _____
 72
    65
 73
     4
 40
20.32
 49
12.7
 74
     0
 49
-2.54
 74
     0
 49
2.54
 74
     0
 49
-2.54
 74
     0
  0
LTYPE
  5
62
330
5
100
AcDbSymbolTableRecord
100
AcDbLinetypeTableRecord
  2
DOT2
 70
     0
  3
Dot (.5x) ........................................
 72
    65
 73
     2
 40
0.635
 49
0.0
 74
     0
 49
-0.635
 74
     0
  0
ENDTAB
  0
TABLE
  2
LAYER
  5
2
330
0
100
AcDbSymbolTable
 70
     6
  0
LAYER
  5
10
330
2
100
AcDbSymbolTableRecord
100
AcDbLayerTableRecord
  2
0
 70
     0
 62
     7
  6
Continuous
370
    -3
390
F
  0
LAYER
  5
63
330
2
100
AcDbSymbolTableRecord
100
AcDbLayerTableRecord
  2
SLD-0
 70
     0
 62
   179
  6
Continuous
370
    -3
390
F
  0
LAYER
  5
64
330
2
100
AcDbSymbolTableRecord
100
AcDbLayerTableRecord
  2
WIRE_BOND
 70
     0
 62
     6
  6
Continuous
370
   100
390
F
  0
LAYER
  5
65
330
2
100
AcDbSymbolTableRecord
100
AcDbLayerTableRecord
  2
HIGHLIGHT-BLUE
 70
     0
 62
     5
  6
Continuous
370
    70
390
F
  0
LAYER
  5
66
330
2
100
AcDbSymbolTableRecord
100
AcDbLayerTableRecord
  2
MANUAL_DIM
 70
     0
 62
   114
  6
Continuous
370
    -3
390
F
  0
LAYER
  5
67
330
2
100
AcDbSymbolTableRecord
100
AcDbLayerTableRecord
  2
TORQUE_9-10
 70
     0
 62
   155
  6
Continuous
370
    -3
390
F
  0
ENDTAB
  0
TABLE
  2
STYLE
  5
3
330
0
100
AcDbSymbolTable
 70
     5
  0
STYLE
  5
11
330
3
100
AcDbSymbolTableRecord
100
AcDbTextStyleTableRecord
  2
STANDARD
 70
     0
 40
0.0
 41
1.0
 50
0.0
 71
     0
 42
28.575
  3
GOTHIC.TTF
  4

1001
ACAD
1000
CENTURY GOTHIC
1071
       34
  0
STYLE
  5
7A
330
3
100
AcDbSymbolTableRecord
100
AcDbTextStyleTableRecord
  2
SLDTEXTSTYLE0
 70
     0
 40
0.0
 41
0.913
 50
0.0
 71
     0
 42
28.575
  3
GOTHIC.TTF
  4

1001
ACAD
1000
Century Gothic
1071
      290
  0
STYLE
  5
B1
330
3
100
AcDbSymbolTableRecord
100
AcDbTextStyleTableRecord
  2
SLDTEXTSTYLE1
 70
     0
 40
0.0
 41
0.87
 50
0.0
 71
     0
 42
28.575
  3
ARIALN.TTF
  4

1001
ACAD
1000
Arial Narrow
1071
      290
  0
STYLE
  5
BC
330
3
100
AcDbSymbolTableRecord
100
AcDbTextStyleTableRecord
  2
SLDTEXTSTYLE2
 70
     0
 40
0.0
 41
0.8969072165
 50
0.0
 71
     0
 42
28.575
  3
ARIALN.TTF
  4

1001
ACAD
1000
Arial Narrow
1071
      290
  0
STYLE
  5
C1
330
3
100
AcDbSymbolTableRecord
100
AcDbTextStyleTableRecord
  2
SLDTEXTSTYLE3
 70
     0
 40
0.0
 41
0.8969072165
 50
0.0
 71
     0
 42
28.575
  3
ARIALN.TTF
  4
bigfont
1001
ACAD
1000
Arial Narrow
1071
      290
  0
ENDTAB
  0
TABLE
  2
VIEW
  5
6
330
0
100
AcDbSymbolTable
 70
     0
  0
ENDTAB
  0
TABLE
  2
UCS
  5
7
330
0
100
AcDbSymbolTable
 70
     0
  0
ENDTAB
  0
TABLE
  2
APPID
  5
9
330
0
100
AcDbSymbolTable
 70
     1
  0
APPID
  5
12
330
9
100
AcDbSymbolTableRecord
100
AcDbRegAppTableRecord
  2
ACAD
 70
     0
  0
ENDTAB
  0
TABLE
  2
DIMSTYLE
  5
A
330
0
100
AcDbSymbolTable
 70
     5
100
AcDbDimStyleTable
  0
DIMSTYLE
105
27
330
A
100
AcDbSymbolTableRecord
100
AcDbDimStyleTableRecord
  2
ISO-25
 70
     0
 41
2.5
 42
0.625
 43
3.75
 44
1.25
 73
     0
 74
     0
 77
     1
 78
     8
140
2.5
141
2.5
143
0.0393700787
147
0.625
171
     3
172
     1
178
     0
271
     2
272
     2
274
     3
278
    44
283
     0
284
     8
340
11
  0
DIMSTYLE
105
11A
102
{ACAD_REACTORS
330
119
330
1B9
330
238
330
24C
330
450
102
}
330
A
100
AcDbSymbolTableRecord
100
AcDbDimStyleTableRecord
  2
SLDDIMSTYLE0
 70
     0
 41
18.0
 44
0.0
 45
0.000000001
 78
    12
 79
     3
140
21.43125
143
0.0393700787
147
5.3578125
148
0.000000001
170
     1
173
     1
178
     0
271
     1
272
     2
276
     2
284
    12
340
7A
  0
DIMSTYLE
105
12F
102
{ACAD_REACTORS
330
12E
330
169
330
17D
330
191
330
1A5
330
261
330
275
330
306
330
31A
330
343
330
360
330
374
330
39D
330
478
330
48D
102
}
330
A
100
AcDbSymbolTableRecord
100
AcDbDimStyleTableRecord
  2
SLDDIMSTYLE1
 70
     0
 41
18.0
 44
0.0
 45
0.000000001
 78
     4
 79
     1
140
21.43125
143
0.0393700787
147
5.3578125
148
0.000000001
170
     1
173
     1
178
     0
271
     1
272
     2
276
     2
284
    12
340
7A
  0
DIMSTYLE
105
1CE
102
{ACAD_REACTORS
330
1CD
330
289
330
32E
330
389
330
464
102
}
330
A
100
AcDbSymbolTableRecord
100
AcDbDimStyleTableRecord
  2
SLDDIMSTYLE2
 70
     0
 41
18.0
 44
0.0
 45
0.000000001
 78
    12
 79
     3
140
21.43125
143
0.0393700787
147
5.3578125
148
0.000000001
170
     1
172
     1
173
     1
178
     0
271
     1
272
     2
276
     2
284
    12
289
     0
340
7A
  0
DIMSTYLE
105
1EC
330
A
100
AcDbSymbolTableRecord
100
AcDbDimStyleTableRecord
  2
SLDDIMSTYLE3
 70
     0
 41
18.0
 44
0.0
 45
0.000000001
146
18.0
147
0.0
173
     1
178
     0
271
     0
272
     0
276
     2
340
11
  0
ENDTAB
  0
TABLE
  2
BLOCK_RECORD
  5
1
330
0
100
AcDbSymbolTable
 70
    60
  0
BLOCK_RECORD
  5
1F
330
1
100
AcDbSymbolTableRecord
100
AcDbBlockTableRecord
  2
*Model_Space
340
22
  0
BLOCK_RECORD
  5
1B
330
1
100
AcDbSymbolTableRecord
100
AcDbBlockTableRecord
  2
*Paper_Space
340
1E
  0
BLOCK_RECORD
  5
23
330
1
100
AcDbSymbolTableRecord
100
AcDbBlockTableRecord
  2
*Paper_Space0
340
26
  0
BLOCK_RECORD
  5
73
330
1
100
AcDbSymbolTableRecord
100
AcDbBlockTableRecord
  2
SW_NOTE_0
340
0
102
{BLKREFS
331
9C
102
}
  0
BLOCK_RECORD
  5
81
330
1
100
AcDbSymbolTableRecord
100
AcDbBlockTableRecord
  2
SW_SYMBOL_MOD_COM
340
0
102
{BLKREFS
331
8D
331
149
331
29E
102
}
  0
BLOCK_RECORD
  5
91
330
1
100
AcDbSymbolTableRecord
100
AcDbBlockTableRecord
  2
SW_SYMBOL_GTOL_CONC
340
0
102
{BLKREFS
331
96
102
}
  0
BLOCK_RECORD
  5
11B
330
1
100
AcDbSymbolTableRecord
100
AcDbBlockTableRecord
  2
_D
340
0
  0
BLOCK_RECORD
  5
130
330
1
100
AcDbSymbolTableRecord
100
AcDbBlockTableRecord
  2
_D_1
340
0
  0
BLOCK_RECORD
  5
143
330
1
100
AcDbSymbolTableRecord
100
AcDbBlockTableRecord
  2
SW_SYMBOL_MOD_CL
340
0
102
{BLKREFS
331
148
102
}
  0
BLOCK_RECORD
  5
16A
330
1
100
AcDbSymbolTableRecord
100
AcDbBlockTableRecord
  2
_D_2
340
0
  0
BLOCK_RECORD
  5
17E
330
1
100
AcDbSymbolTableRecord
100
AcDbBlockTableRecord
  2
_D_3
340
0
  0
BLOCK_RECORD
  5
192
330
1
100
AcDbSymbolTableRecord
100
AcDbBlockTableRecord
  2
_D_4
340
0
  0
BLOCK_RECORD
  5
1A6
330
1
100
AcDbSymbolTableRecord
100
AcDbBlockTableRecord
  2
_D_5
340
0
  0
BLOCK_RECORD
  5
1BA
330
1
100
AcDbSymbolTableRecord
100
AcDbBlockTableRecord
  2
_D_6
340
0
  0
BLOCK_RECORD
  5
1CF
330
1
100
AcDbSymbolTableRecord
100
AcDbBlockTableRecord
  2
_D_7
340
0
  0
BLOCK_RECORD
  5
1E3
330
1
100
AcDbSymbolTableRecord
100
AcDbBlockTableRecord
  2
SW_NOTE_0_1
340
0
102
{BLKREFS
331
1EB
102
}
  0
BLOCK_RECORD
  5
1EF
330
1
100
AcDbSymbolTableRecord
100
AcDbBlockTableRecord
  2
SW_CENTERMARKSYMBOL_0
340
0
102
{BLKREFS
331
1FA
102
}
  0
BLOCK_RECORD
  5
1FB
330
1
100
AcDbSymbolTableRecord
100
AcDbBlockTableRecord
  2
SW_CENTERMARKSYMBOL_1
340
0
102
{BLKREFS
331
206
102
}
  0
BLOCK_RECORD
  5
207
330
1
100
AcDbSymbolTableRecord
100
AcDbBlockTableRecord
  2
SW_CENTERMARKSYMBOL_2
340
0
102
{BLKREFS
331
212
102
}
  0
BLOCK_RECORD
  5
213
330
1
100
AcDbSymbolTableRecord
100
AcDbBlockTableRecord
  2
SW_CENTERMARKSYMBOL_3
340
0
102
{BLKREFS
331
21E
102
}
  0
BLOCK_RECORD
  5
239
330
1
100
AcDbSymbolTableRecord
100
AcDbBlockTableRecord
  2
_D_8
340
0
  0
BLOCK_RECORD
  5
24D
330
1
100
AcDbSymbolTableRecord
100
AcDbBlockTableRecord
  2
_D_9
340
0
  0
BLOCK_RECORD
  5
262
330
1
100
AcDbSymbolTableRecord
100
AcDbBlockTableRecord
  2
_D_10
340
0
  0
BLOCK_RECORD
  5
276
330
1
100
AcDbSymbolTableRecord
100
AcDbBlockTableRecord
  2
_D_11
340
0
  0
BLOCK_RECORD
  5
28A
330
1
100
AcDbSymbolTableRecord
100
AcDbBlockTableRecord
  2
_D_12
340
0
  0
BLOCK_RECORD
  5
29F
330
1
100
AcDbSymbolTableRecord
100
AcDbBlockTableRecord
  2
SW_NOTE_0_2
340
0
102
{BLKREFS
331
2A7
102
}
  0
BLOCK_RECORD
  5
2AA
330
1
100
AcDbSymbolTableRecord
100
AcDbBlockTableRecord
  2
SW_CENTERMARKSYMBOL_4
340
0
102
{BLKREFS
331
2B5
102
}
  0
BLOCK_RECORD
  5
2B6
330
1
100
AcDbSymbolTableRecord
100
AcDbBlockTableRecord
  2
SW_CENTERMARKSYMBOL_5
340
0
102
{BLKREFS
331
2C1
102
}
  0
BLOCK_RECORD
  5
307
330
1
100
AcDbSymbolTableRecord
100
AcDbBlockTableRecord
  2
_D_13
340
0
  0
BLOCK_RECORD
  5
31B
330
1
100
AcDbSymbolTableRecord
100
AcDbBlockTableRecord
  2
_D_14
340
0
  0
BLOCK_RECORD
  5
32F
330
1
100
AcDbSymbolTableRecord
100
AcDbBlockTableRecord
  2
_D_15
340
0
  0
BLOCK_RECORD
  5
344
330
1
100
AcDbSymbolTableRecord
100
AcDbBlockTableRecord
  2
_D_16
340
0
  0
BLOCK_RECORD
  5
361
330
1
100
AcDbSymbolTableRecord
100
AcDbBlockTableRecord
  2
_D_17
340
0
  0
BLOCK_RECORD
  5
375
330
1
100
AcDbSymbolTableRecord
100
AcDbBlockTableRecord
  2
_D_18
340
0
  0
BLOCK_RECORD
  5
38A
330
1
100
AcDbSymbolTableRecord
100
AcDbBlockTableRecord
  2
_D_19
340
0
  0
BLOCK_RECORD
  5
39E
330
1
100
AcDbSymbolTableRecord
100
AcDbBlockTableRecord
  2
_D_20
340
0
  0
BLOCK_RECORD
  5
3B1
330
1
100
AcDbSymbolTableRecord
100
AcDbBlockTableRecord
  2
SW_NOTE_0_3
340
0
102
{BLKREFS
331
3B9
102
}
  0
BLOCK_RECORD
  5
3BC
330
1
100
AcDbSymbolTableRecord
100
AcDbBlockTableRecord
  2
SW_CENTERMARKSYMBOL_6
340
0
102
{BLKREFS
331
3C7
102
}
  0
BLOCK_RECORD
  5
3C8
330
1
100
AcDbSymbolTableRecord
100
AcDbBlockTableRecord
  2
SW_CENTERMARKSYMBOL_7
340
0
102
{BLKREFS
331
3D3
102
}
  0
BLOCK_RECORD
  5
451
330
1
100
AcDbSymbolTableRecord
100
AcDbBlockTableRecord
  2
_D_21
340
0
  0
BLOCK_RECORD
  5
465
330
1
100
AcDbSymbolTableRecord
100
AcDbBlockTableRecord
  2
_D_22
340
0
  0
BLOCK_RECORD
  5
479
330
1
100
AcDbSymbolTableRecord
100
AcDbBlockTableRecord
  2
_D_23
340
0
  0
BLOCK_RECORD
  5
48E
330
1
100
AcDbSymbolTableRecord
100
AcDbBlockTableRecord
  2
_D_24
340
0
  0
BLOCK_RECORD
  5
4A1
330
1
100
AcDbSymbolTableRecord
100
AcDbBlockTableRecord
  2
SW_NOTE_0_4
340
0
102
{BLKREFS
331
4A9
102
}
  0
BLOCK_RECORD
  5
4AC
330
1
100
AcDbSymbolTableRecord
100
AcDbBlockTableRecord
  2
SW_CENTERMARKSYMBOL_8
340
0
102
{BLKREFS
331
4B7
102
}
  0
BLOCK_RECORD
  5
4B8
330
1
100
AcDbSymbolTableRecord
100
AcDbBlockTableRecord
  2
SW_CENTERMARKSYMBOL_9
340
0
102
{BLKREFS
331
4C3
102
}
  0
BLOCK_RECORD
  5
4C4
330
1
100
AcDbSymbolTableRecord
100
AcDbBlockTableRecord
  2
SW_CENTERMARKSYMBOL_10
340
0
102
{BLKREFS
331
4CF
102
}
  0
BLOCK_RECORD
  5
4D0
330
1
100
AcDbSymbolTableRecord
100
AcDbBlockTableRecord
  2
SW_CENTERMARKSYMBOL_11
340
0
102
{BLKREFS
331
4DB
102
}
  0
BLOCK_RECORD
  5
4DC
330
1
100
AcDbSymbolTableRecord
100
AcDbBlockTableRecord
  2
SW_CENTERMARKSYMBOL_12
340
0
102
{BLKREFS
331
4E7
102
}
  0
BLOCK_RECORD
  5
4E8
330
1
100
AcDbSymbolTableRecord
100
AcDbBlockTableRecord
  2
SW_CENTERMARKSYMBOL_13
340
0
102
{BLKREFS
331
4F3
102
}
  0
BLOCK_RECORD
  5
4F4
330
1
100
AcDbSymbolTableRecord
100
AcDbBlockTableRecord
  2
SW_CENTERMARKSYMBOL_14
340
0
102
{BLKREFS
331
4FF
102
}
  0
BLOCK_RECORD
  5
500
330
1
100
AcDbSymbolTableRecord
100
AcDbBlockTableRecord
  2
SW_CENTERMARKSYMBOL_15
340
0
102
{BLKREFS
331
50B
102
}
  0
BLOCK_RECORD
  5
50C
330
1
100
AcDbSymbolTableRecord
100
AcDbBlockTableRecord
  2
SW_CENTERMARKSYMBOL_16
340
0
102
{BLKREFS
331
517
102
}
  0
BLOCK_RECORD
  5
518
330
1
100
AcDbSymbolTableRecord
100
AcDbBlockTableRecord
  2
SW_CENTERMARKSYMBOL_17
340
0
102
{BLKREFS
331
523
102
}
  0
BLOCK_RECORD
  5
524
330
1
100
AcDbSymbolTableRecord
100
AcDbBlockTableRecord
  2
SW_CENTERMARKSYMBOL_18
340
0
102
{BLKREFS
331
52F
102
}
  0
BLOCK_RECORD
  5
530
330
1
100
AcDbSymbolTableRecord
100
AcDbBlockTableRecord
  2
SW_CENTERMARKSYMBOL_19
340
0
102
{BLKREFS
331
53B
102
}
  0
BLOCK_RECORD
  5
53C
330
1
100
AcDbSymbolTableRecord
100
AcDbBlockTableRecord
  2
SW_CENTERMARKSYMBOL_20
340
0
102
{BLKREFS
331
547
102
}
  0
BLOCK_RECORD
  5
548
330
1
100
AcDbSymbolTableRecord
100
AcDbBlockTableRecord
  2
SW_CENTERMARKSYMBOL_21
340
0
102
{BLKREFS
331
553
102
}
  0
BLOCK_RECORD
  5
554
330
1
100
AcDbSymbolTableRecord
100
AcDbBlockTableRecord
  2
SW_CENTERMARKSYMBOL_22
340
0
102
{BLKREFS
331
55F
102
}
  0
BLOCK_RECORD
  5
560
330
1
100
AcDbSymbolTableRecord
100
AcDbBlockTableRecord
  2
SW_CENTERMARKSYMBOL_23
340
0
102
{BLKREFS
331
56B
102
}
  0
BLOCK_RECORD
  5
56C
330
1
100
AcDbSymbolTableRecord
100
AcDbBlockTableRecord
  2
SW_CENTERMARKSYMBOL_24
340
0
102
{BLKREFS
331
577
102
}
  0
BLOCK_RECORD
  5
578
330
1
100
AcDbSymbolTableRecord
100
AcDbBlockTableRecord
  2
SW_CENTERMARKSYMBOL_25
340
0
102
{BLKREFS
331
583
102
}
  0
ENDTAB
  0
ENDSEC
  0
SECTION
  2
BLOCKS
  0
BLOCK
  5
20
330
1F
100
AcDbEntity
  8
0
100
AcDbBlockBegin
  2
*Model_Space
 70
     0
 10
0.0
 20
0.0
 30
0.0
  3
*Model_Space
  1

  0
ENDBLK
  5
21
330
1F
100
AcDbEntity
  8
0
100
AcDbBlockEnd
  0
BLOCK
  5
1C
330
1B
100
AcDbEntity
 67
     1
  8
0
100
AcDbBlockBegin
  2
*Paper_Space
 70
     0
 10
0.0
 20
0.0
 30
0.0
  3
*Paper_Space
  1

  0
ENDBLK
  5
1D
330
1B
100
AcDbEntity
 67
     1
  8
0
100
AcDbBlockEnd
  0
BLOCK
  5
24
330
23
100
AcDbEntity
  8
0
100
AcDbBlockBegin
  2
*Paper_Space0
 70
     0
 10
0.0
 20
0.0
 30
0.0
  3
*Paper_Space0
  1

  0
ENDBLK
  5
25
330
23
100
AcDbEntity
  8
0
100
AcDbBlockEnd
  0
BLOCK
  5
74
330
73
100
AcDbEntity
  8
0
100
AcDbBlockBegin
  2
SW_NOTE_0
 70
     0
 10
0.0
 20
0.0
 30
0.0
  3
SW_NOTE_0
  1

  0
LINE
  5
76
330
73
100
AcDbEntity
  8
0
  6
Continuous
 62
     0
370
     0
100
AcDbLine
 10
-9.4654689892
 20
-151.8370286794
 30
0.0
 11
-9.4654689892
 21
-117.0707781566
 31
0.0
  0
LINE
  5
77
330
73
100
AcDbEntity
  8
0
  6
Continuous
 62
     0
370
     0
100
AcDbLine
 10
-9.4654689892
 20
-117.0707781566
 30
0.0
 11
25.3007815336
 21
-117.0707781566
 31
0.0
  0
LINE
  5
78
330
73
100
AcDbEntity
  8
0
  6
Continuous
 62
     0
370
     0
100
AcDbLine
 10
25.3007815336
 20
-117.0707781566
 30
0.0
 11
25.3007815336
 21
-151.8370286794
 31
0.0
  0
LINE
  5
79
330
73
100
AcDbEntity
  8
0
  6
Continuous
 62
     0
370
     0
100
AcDbLine
 10
25.3007815336
 20
-151.8370286794
 30
0.0
 11
-9.4654689892
 21
-151.8370286794
 31
0.0
  0
MTEXT
  5
7B
330
73
100
AcDbEntity
  8
0
  6
Continuous
 62
     0
370
     0
100
AcDbMText
 10
0.0
 20
27.3750732422
 30
0.0
 40
21.43125
 41
0.0
 71
     1
 72
     1
  1
NOTES: UNLESS OTHERWISE SPECIFIED
  7
SLDTEXTSTYLE0
 73
     1
 44
1.0
  0
MTEXT
  5
7C
330
73
100
AcDbEntity
  8
0
  6
Continuous
 62
     0
370
     0
100
AcDbMText
 10
89.9999979883
 20
-10.1999257922
 30
0.0
 40
21.43125
 41
0.0
 71
     1
 72
     1
  1
NET WEIGHT APPROX. 25.9 KG [57.1 LBS].
  7
SLDTEXTSTYLE0
 73
     1
 44
1.0
  0
MTEXT
  5
7D
330
73
100
AcDbEntity
  8
0
  6
Continuous
 62
     0
370
     0
100
AcDbMText
 10
0.0
 20
-10.1999257922
 30
0.0
 40
21.43125
 41
0.0
 71
     1
 72
     1
  1
1.
  7
SLDTEXTSTYLE0
 73
     1
 44
1.0
  0
MTEXT
  5
7E
330
73
100
AcDbEntity
  8
0
  6
Continuous
 62
     0
370
     0
100
AcDbMText
 10
89.9999979883
 20
-47.7749248266
 30
0.0
 40
21.43125
 41
0.0
 71
     1
 72
     1
  1
PARTS ARE SYMMETRICAL ABOUT CENTER LINES UNLESS OTHERWISE NOTED.
  7
SLDTEXTSTYLE0
 73
     1
 44
1.0
  0
MTEXT
  5
7F
330
73
100
AcDbEntity
  8
0
  6
Continuous
 62
     0
370
     0
100
AcDbMText
 10
0.0
 20
-47.7749248266
 30
0.0
 40
21.43125
 41
0.0
 71
     1
 72
     1
  1
2.
  7
SLDTEXTSTYLE0
 73
     1
 44
1.0
  0
MTEXT
  5
80
330
73
100
AcDbEntity
  8
0
  6
Continuous
 62
     0
370
     0
100
AcDbMText
 10
89.9999979883
 20
-85.349923861
 30
0.0
 40
21.43125
 41
0.0
 71
     1
 72
     1
  1
SYMBOL 
  7
SLDTEXTSTYLE0
 73
     1
 44
1.0
  0
INSERT
  5
8D
330
73
100
AcDbEntity
  8
0
  6
Continuous
 62
     0
370
     0
100
AcDbBlockReference
  2
SW_SYMBOL_MOD_COM
 10
222.0623642206
 20
-109.0112184101
 30
0.0
 41
0.0023657471
 42
0.0023657471
 43
0.0023657471
  0
MTEXT
  5
8E
330
73
100
AcDbEntity
  8
0
  6
Continuous
 62
     0
370
     0
100
AcDbMText
 10
264.4380312413
 20
-85.349923861
 30
0.0
 40
21.43125
 41
0.0
 71
     1
 72
     1
  1
INDICATES CENTER OF GRAVITY.
  7
SLDTEXTSTYLE0
 73
     1
 44
1.0
  0
MTEXT
  5
8F
330
73
100
AcDbEntity
  8
0
  6
Continuous
 62
     0
370
     0
100
AcDbMText
 10
0.0
 20
-85.349923861
 30
0.0
 40
21.43125
 41
0.0
 71
     1
 72
     1
  1
3.
  7
SLDTEXTSTYLE0
 73
     1
 44
1.0
  0
MTEXT
  5
90
330
73
100
AcDbEntity
  8
0
  6
Continuous
 62
     0
370
     0
100
AcDbMText
 10
89.9999979883
 20
-121.3663310509
 30
0.0
 40
21.43125
 41
0.0
 71
     1
 72
     1
  1
SYMBOL 
  7
SLDTEXTSTYLE0
 73
     1
 44
1.0
  0
INSERT
  5
96
330
73
100
AcDbEntity
  8
0
  6
Continuous
 62
     0
370
     0
100
AcDbBlockReference
  2
SW_SYMBOL_GTOL_CONC
 10
209.7768746316
 20
-144.6566923259
 30
0.0
 41
0.0020277832
 42
0.0020277832
 43
0.0020277832
  0
MTEXT
  5
97
330
73
100
AcDbEntity
  8
0
  6
Continuous
 62
     0
370
     0
100
AcDbMText
 10
246.0988797247
 20
-121.3663310509
 30
0.0
 40
21.43125
 41
0.0
 71
     1
 72
     1
  1
INDICATES SUSPENSION POINT.
  7
SLDTEXTSTYLE0
 73
     1
 44
1.0
  0
MTEXT
  5
98
330
73
100
AcDbEntity
  8
0
  6
Continuous
 62
     0
370
     0
100
AcDbMText
 10
0.0
 20
-121.3663310509
 30
0.0
 40
21.43125
 41
0.0
 71
     1
 72
     1
  1
4
  7
SLDTEXTSTYLE0
 73
     1
 44
1.0
  0
MTEXT
  5
99
330
73
100
AcDbEntity
  8
0
  6
Continuous
 62
     0
370
     0
100
AcDbMText
 10
90.0
 20
-166.3827355251
 30
0.0
 40
21.43125
 41
0.0
 71
     1
 72
     1
  1
12 TOTAL: M10-1.5 THD
  7
SLDTEXTSTYLE0
 73
     1
 44
1.0
  0
MTEXT
  5
9A
330
73
100
AcDbEntity
  8
0
  6
Continuous
 62
     0
370
     0
100
AcDbMText
 10
89.9999979883
 20
-203.9577345595
 30
0.0
 40
21.43125
 41
0.0
 71
     1
 72
     1
  1
GRILLE NOT SHOWN FOR CLARITY.
  7
SLDTEXTSTYLE0
 73
     1
 44
1.0
  0
MTEXT
  5
9B
330
73
100
AcDbEntity
  8
0
  6
Continuous
 62
     0
370
     0
100
AcDbMText
 10
0.0
 20
-203.9577345595
 30
0.0
 40
21.43125
 41
0.0
 71
     1
 72
     1
  1
5.
  7
SLDTEXTSTYLE0
 73
     1
 44
1.0
  0
ENDBLK
  5
75
330
73
100
AcDbEntity
  8
0
100
AcDbBlockEnd
  0
BLOCK
  5
82
330
81
100
AcDbEntity
  8
0
100
AcDbBlockBegin
  2
SW_SYMBOL_MOD_COM
 70
     0
 10
0.0
 20
0.0
 30
0.0
  3
SW_SYMBOL_MOD_COM
  1

  0
CIRCLE
  5
84
330
81
100
AcDbEntity
  8
0
  6
Continuous
 62
     0
370
     0
100
AcDbCircle
 10
4500.0
 20
4500.0
 30
0.0
 40
4500.0
  0
LINE
  5
85
330
81
100
AcDbEntity
  8
0
  6
Continuous
 62
     0
370
     0
100
AcDbLine
 10
11250.0
 20
4500.0
 30
0.0
 11
13500.0
 21
4500.0
 31
0.0
  0
LINE
  5
86
330
81
100
AcDbEntity
  8
0
  6
Continuous
 62
     0
370
     0
100
AcDbLine
 10
4500.0
 20
13500.0
 30
0.0
 11
4500.0
 21
11250.0
 31
0.0
  0
LINE
  5
87
330
81
100
AcDbEntity
  8
0
  6
Continuous
 62
     0
370
     0
100
AcDbLine
 10
-4500.0
 20
4500.0
 30
0.0
 11
-2250.0
 21
4500.0
 31
0.0
  0
LINE
  5
88
330
81
100
AcDbEntity
  8
0
  6
Continuous
 62
     0
370
     0
100
AcDbLine
 10
4500.0
 20
-4500.0
 30
0.0
 11
4500.0
 21
-2250.0
 31
0.0
  0
SOLID
  5
89
330
81
100
AcDbEntity
  8
0
  6
Continuous
 62
     0
370
     0
100
AcDbTrace
 10
4500.0
 20
4500.0
 30
0.0
 11
0.0
 21
4500.0
 31
0.0
 12
4500.0
 22
9000.0
 32
0.0
 13
4500.0
 23
9000.0
 33
0.0
  0
SOLID
  5
8A
330
81
100
AcDbEntity
  8
0
  6
Continuous
 62
     0
370
     0
100
AcDbTrace
 10
4500.0
 20
4500.0
 30
0.0
 11
9000.0
 21
4500.0
 31
0.0
 12
4500.0
 22
0.0
 32
0.0
 13
4500.0
 23
0.0
 33
0.0
  0
HATCH
  5
8B
330
81
100
AcDbEntity
  8
0
  6
Continuous
 62
     0
100
AcDbHatch
 10
0.0
 20
0.0
 30
0.0
210
0.0
220
0.0
230
1.0
  2
SOLID
 70
     1
 71
     0
 91
        1
 92
        0
 93
        2
 72
     2
 10
4500.0
 20
4500.0
 40
4500.0
 50
90.0000000000002
 51
180.0000000000013
 73
     1
 72
     1
 10
0.0
 20
4499.999999999968
 11
4499.999999999985
 21
9000.0
 97
        0
 75
     0
 76
     1
 98
        1
 10
0.0
 20
0.0
  0
HATCH
  5
8C
330
81
100
AcDbEntity
  8
0
  6
Continuous
 62
     0
100
AcDbHatch
 10
0.0
 20
0.0
 30
0.0
210
0.0
220
0.0
230
1.0
  2
SOLID
 70
     1
 71
     0
 91
        1
 92
        0
 93
        2
 72
     2
 10
4500.0
 20
4500.0
 40
4500.0
 50
270.0000000000014
 51
360.0000000000016
 73
     1
 72
     1
 10
9000.0
 20
4500.000000000063
 11
4500.000000000048
 21
0.0
 97
        0
 75
     0
 76
     1
 98
        1
 10
0.0
 20
0.0
  0
ENDBLK
  5
83
330
81
100
AcDbEntity
  8
0
100
AcDbBlockEnd
  0
BLOCK
  5
92
330
91
100
AcDbEntity
  8
0
100
AcDbBlockBegin
  2
SW_SYMBOL_GTOL_CONC
 70
     0
 10
0.0
 20
0.0
 30
0.0
  3
SW_SYMBOL_GTOL_CONC
  1

  0
CIRCLE
  5
94
330
91
100
AcDbEntity
  8
0
  6
Continuous
 62
     0
370
     0
100
AcDbCircle
 10
6750.0
 20
4500.0
 30
0.0
 40
6750.0
  0
CIRCLE
  5
95
330
91
100
AcDbEntity
  8
0
  6
Continuous
 62
     0
370
     0
100
AcDbCircle
 10
6750.0
 20
4500.0
 30
0.0
 40
4500.0
  0
ENDBLK
  5
93
330
91
100
AcDbEntity
  8
0
100
AcDbBlockEnd
  0
BLOCK
  5
11C
330
11B
100
AcDbEntity
  8
0
100
AcDbBlockBegin
  2
_D
 70
     0
 10
0.0
 20
0.0
 30
0.0
  3
_D
  1

  0
SOLID
  5
11E
330
11B
100
AcDbEntity
  8
SLD-0
100
AcDbTrace
 10
1337.2169441553
 20
1061.1080719029
 30
0.0
 11
1355.2169441553
 21
1058.8580719029
 31
0.0
 12
1355.2169441553
 22
1063.3580719029
 32
0.0
 13
1355.2169441553
 23
1063.3580719029
 33
0.0
  0
SOLID
  5
11F
330
11B
100
AcDbEntity
  8
SLD-0
100
AcDbTrace
 10
1624.0869441553
 20
1061.1080719029
 30
0.0
 11
1606.0869441553
 21
1063.3580719029
 31
0.0
 12
1606.0869441553
 22
1058.8580719029
 32
0.0
 13
1606.0869441553
 23
1058.8580719029
 33
0.0
  0
LINE
  5
120
330
11B
100
AcDbEntity
  8
SLD-0
100
AcDbLine
 10
1445.0324137942
 20
1061.1080760938
 30
0.0
 11
1438.5137416902
 21
1061.1080760938
 31
0.0
  0
LINE
  5
121
330
11B
100
AcDbEntity
  8
SLD-0
100
AcDbLine
 10
1438.5137416902
 20
1061.1080760938
 30
0.0
 11
1438.5137416902
 21
1027.05620051
 31
0.0
  0
LINE
  5
122
330
11B
100
AcDbEntity
  8
SLD-0
100
AcDbLine
 10
1438.5137416902
 20
1027.05620051
 30
0.0
 11
1445.0324137942
 21
1027.05620051
 31
0.0
  0
LINE
  5
123
330
11B
100
AcDbEntity
  8
SLD-0
100
AcDbLine
 10
1516.2714745165
 20
1061.1080760938
 30
0.0
 11
1522.7901466205
 21
1061.1080760938
 31
0.0
  0
LINE
  5
124
330
11B
100
AcDbEntity
  8
SLD-0
100
AcDbLine
 10
1522.7901466205
 20
1061.1080760938
 30
0.0
 11
1522.7901466205
 21
1027.05620051
 31
0.0
  0
LINE
  5
125
330
11B
100
AcDbEntity
  8
SLD-0
100
AcDbLine
 10
1522.7901466205
 20
1027.05620051
 30
0.0
 11
1516.2714745165
 21
1027.05620051
 31
0.0
  0
LINE
  5
126
330
11B
100
AcDbEntity
  8
SLD-0
100
AcDbLine
 10
1337.2169441553
 20
1142.6903865286
 30
0.0
 11
1337.2169441553
 21
1054.2500719029
 31
0.0
  0
LINE
  5
127
330
11B
100
AcDbEntity
  8
SLD-0
100
AcDbLine
 10
1624.0869441553
 20
1279.8025351858
 30
0.0
 11
1624.0869441553
 21
1054.2500719029
 31
0.0
  0
LINE
  5
128
330
11B
100
AcDbEntity
  8
SLD-0
100
AcDbLine
 10
1337.2169441553
 20
1061.1080719029
 30
0.0
 11
1419.7527096435
 21
1061.1080719029
 31
0.0
  0
LINE
  5
129
330
11B
100
AcDbEntity
  8
SLD-0
100
AcDbLine
 10
1624.0869441553
 20
1061.1080719029
 30
0.0
 11
1541.5511786671
 21
1061.1080719029
 31
0.0
  0
MTEXT
  5
12A
330
11B
100
AcDbEntity
  8
SLD-0
100
AcDbMText
 10
1424.0972569459
 20
1092.828928294
 30
0.0
 40
21.43125
 41
0.0
 71
     1
 72
     1
  1
 
  7
SLDTEXTSTYLE0
 73
     1
 44
1.0
  0
MTEXT
  5
12B
330
11B
100
AcDbEntity
  8
SLD-0
100
AcDbMText
 10
1445.0324116987
 20
1092.8289303894
 30
0.0
 40
21.43125
 41
0.0
 71
     1
 72
     1
  1
286.9
  7
SLDTEXTSTYLE0
 73
     1
 44
1.0
  0
MTEXT
  5
12C
330
11B
100
AcDbEntity
  8
SLD-0
100
AcDbMText
 10
1445.0324137942
 20
1054.4312747999
 30
0.0
 40
21.43125
 41
0.0
 71
     1
 72
     1
  1
11.29
  7
SLDTEXTSTYLE0
 73
     1
 44
1.0
  0
MTEXT
  5
12D
330
11B
100
AcDbEntity
  8
SLD-0
100
AcDbMText
 10
1529.308816629
 20
1092.828928294
 30
0.0
 40
21.43125
 41
0.0
 71
     1
 72
     1
  1
 
  7
SLDTEXTSTYLE0
 73
     1
 44
1.0
  0
ENDBLK
  5
11D
330
11B
100
AcDbEntity
  8
0
100
AcDbBlockEnd
  0
BLOCK
  5
131
330
130
100
AcDbEntity
  8
0
100
AcDbBlockBegin
  2
_D_1
 70
     0
 10
0.0
 20
0.0
 30
0.0
  3
_D_1
  1

  0
SOLID
  5
133
330
130
100
AcDbEntity
  8
SLD-0
100
AcDbTrace
 10
1337.2169441553
 20
1595.5517635665
 30
0.0
 11
1355.2169441553
 21
1593.3017635665
 31
0.0
 12
1355.2169441553
 22
1597.8017635665
 32
0.0
 13
1355.2169441553
 23
1597.8017635665
 33
0.0
  0
SOLID
  5
134
330
130
100
AcDbEntity
  8
SLD-0
100
AcDbTrace
 10
1862.2169441553
 20
1595.5517635665
 30
0.0
 11
1844.2169441553
 21
1597.8017635665
 31
0.0
 12
1844.2169441553
 22
1593.3017635665
 32
0.0
 13
1844.2169441553
 23
1593.3017635665
 33
0.0
  0
LINE
  5
135
330
130
100
AcDbEntity
  8
SLD-0
100
AcDbLine
 10
1564.0974137942
 20
1595.5517677574
 30
0.0
 11
1557.5787416902
 21
1595.5517677574
 31
0.0
  0
LINE
  5
136
330
130
100
AcDbEntity
  8
SLD-0
100
AcDbLine
 10
1557.5787416902
 20
1595.5517677574
 30
0.0
 11
1557.5787416902
 21
1561.4998921736
 31
0.0
  0
LINE
  5
137
330
130
100
AcDbEntity
  8
SLD-0
100
AcDbLine
 10
1557.5787416902
 20
1561.4998921736
 30
0.0
 11
1564.0974137942
 21
1561.4998921736
 31
0.0
  0
LINE
  5
138
330
130
100
AcDbEntity
  8
SLD-0
100
AcDbLine
 10
1635.3364745165
 20
1595.5517677574
 30
0.0
 11
1641.8551466205
 21
1595.5517677574
 31
0.0
  0
LINE
  5
139
330
130
100
AcDbEntity
  8
SLD-0
100
AcDbLine
 10
1641.8551466205
 20
1595.5517677574
 30
0.0
 11
1641.8551466205
 21
1561.4998921736
 31
0.0
  0
LINE
  5
13A
330
130
100
AcDbEntity
  8
SLD-0
100
AcDbLine
 10
1641.8551466205
 20
1561.4998921736
 30
0.0
 11
1635.3364745165
 21
1561.4998921736
 31
0.0
  0
LINE
  5
13B
330
130
100
AcDbEntity
  8
SLD-0
100
AcDbLine
 10
1337.2169441553
 20
1476.4063865286
 30
0.0
 11
1337.2169441553
 21
1602.4097635665
 31
0.0
  0
LINE
  5
13C
330
130
100
AcDbEntity
  8
SLD-0
100
AcDbLine
 10
1862.2169441553
 20
1476.4063865286
 30
0.0
 11
1862.2169441553
 21
1602.4097635665
 31
0.0
  0
LINE
  5
13D
330
130
100
AcDbEntity
  8
SLD-0
100
AcDbLine
 10
1337.2169441553
 20
1595.5517635665
 30
0.0
 11
1538.8177096435
 21
1595.5517635665
 31
0.0
  0
LINE
  5
13E
330
130
100
AcDbEntity
  8
SLD-0
100
AcDbLine
 10
1862.2169441553
 20
1595.5517635665
 30
0.0
 11
1660.6161786671
 21
1595.5517635665
 31
0.0
  0
MTEXT
  5
13F
330
130
100
AcDbEntity
  8
SLD-0
100
AcDbMText
 10
1543.1622569459
 20
1627.2726199575
 30
0.0
 40
21.43125
 41
0.0
 71
     1
 72
     1
  1
 
  7
SLDTEXTSTYLE0
 73
     1
 44
1.0
  0
MTEXT
  5
140
330
130
100
AcDbEntity
  8
SLD-0
100
AcDbMText
 10
1564.0974116987
 20
1627.272622053
 30
0.0
 40
21.43125
 41
0.0
 71
     1
 72
     1
  1
525.0
  7
SLDTEXTSTYLE0
 73
     1
 44
1.0
  0
MTEXT
  5
141
330
130
100
AcDbEntity
  8
SLD-0
100
AcDbMText
 10
1564.0974137942
 20
1588.8749664635
 30
0.0
 40
21.43125
 41
0.0
 71
     1
 72
     1
  1
20.67
  7
SLDTEXTSTYLE0
 73
     1
 44
1.0
  0
MTEXT
  5
142
330
130
100
AcDbEntity
  8
SLD-0
100
AcDbMText
 10
1648.373816629
 20
1627.2726199575
 30
0.0
 40
21.43125
 41
0.0
 71
     1
 72
     1
  1
 
  7
SLDTEXTSTYLE0
 73
     1
 44
1.0
  0
ENDBLK
  5
132
330
130
100
AcDbEntity
  8
0
100
AcDbBlockEnd
  0
BLOCK
  5
144
330
143
100
AcDbEntity
  8
0
100
AcDbBlockBegin
  2
SW_SYMBOL_MOD_CL
 70
     0
 10
0.0
 20
0.0
 30
0.0
  3
SW_SYMBOL_MOD_CL
  1

  0
MTEXT
  5
146
330
143
100
AcDbEntity
  8
SLD-0
 62
     0
100
AcDbMText
 10
3600.0
 20
5400.0
 30
0.0
 40
7045.871559633
 41
0.0
 71
     5
 72
     1
  1
C
  7
SLDTEXTSTYLE0
 73
     1
 44
1.0
  0
MTEXT
  5
147
330
143
100
AcDbEntity
  8
SLD-0
 62
     0
100
AcDbMText
 10
5400.0
 20
2700.0
 30
0.0
 40
7045.871559633
 41
0.0
 71
     5
 72
     1
  1
L
  7
SLDTEXTSTYLE0
 73
     1
 44
1.0
  0
ENDBLK
  5
145
330
143
100
AcDbEntity
  8
0
100
AcDbBlockEnd
  0
BLOCK
  5
16B
330
16A
100
AcDbEntity
  8
0
100
AcDbBlockBegin
  2
_D_2
 70
     0
 10
0.0
 20
0.0
 30
0.0
  3
_D_2
  1

  0
SOLID
  5
16D
330
16A
100
AcDbEntity
  8
SLD-0
100
AcDbTrace
 10
2190.0250384307
 20
1469.5483865286
 30
0.0
 11
2187.7750384307
 21
1451.5483865286
 31
0.0
 12
2192.2750384307
 22
1451.5483865286
 32
0.0
 13
2192.2750384307
 23
1451.5483865286
 33
0.0
  0
SOLID
  5
16E
330
16A
100
AcDbEntity
  8
SLD-0
100
AcDbTrace
 10
2190.0250384307
 20
1149.5483865286
 30
0.0
 11
2192.2750384307
 21
1167.5483865286
 31
0.0
 12
2187.7750384307
 22
1167.5483865286
 32
0.0
 13
2187.7750384307
 23
1167.5483865286
 33
0.0
  0
LINE
  5
16F
330
16A
100
AcDbEntity
  8
SLD-0
100
AcDbLine
 10
2154.4055080695
 20
1309.5483907196
 30
0.0
 11
2147.8868359655
 21
1309.5483907196
 31
0.0
  0
LINE
  5
170
330
16A
100
AcDbEntity
  8
SLD-0
100
AcDbLine
 10
2147.8868359655
 20
1309.5483907196
 30
0.0
 11
2147.8868359655
 21
1275.4965151357
 31
0.0
  0
LINE
  5
171
330
16A
100
AcDbEntity
  8
SLD-0
100
AcDbLine
 10
2147.8868359655
 20
1275.4965151357
 30
0.0
 11
2154.4055080695
 21
1275.4965151357
 31
0.0
  0
LINE
  5
172
330
16A
100
AcDbEntity
  8
SLD-0
100
AcDbLine
 10
2225.6445687918
 20
1309.5483907196
 30
0.0
 11
2232.1632408958
 21
1309.5483907196
 31
0.0
  0
LINE
  5
173
330
16A
100
AcDbEntity
  8
SLD-0
100
AcDbLine
 10
2232.1632408958
 20
1309.5483907196
 30
0.0
 11
2232.1632408958
 21
1275.4965151357
 31
0.0
  0
LINE
  5
174
330
16A
100
AcDbEntity
  8
SLD-0
100
AcDbLine
 10
2232.1632408958
 20
1275.4965151357
 30
0.0
 11
2225.6445687918
 21
1275.4965151357
 31
0.0
  0
LINE
  5
175
330
16A
100
AcDbEntity
  8
SLD-0
100
AcDbLine
 10
2273.1670384307
 20
1469.5483865286
 30
0.0
 11
2183.1670384307
 21
1469.5483865286
 31
0.0
  0
LINE
  5
176
330
16A
100
AcDbEntity
  8
SLD-0
100
AcDbLine
 10
2273.1670384307
 20
1149.5483865286
 30
0.0
 11
2183.1670384307
 21
1149.5483865286
 31
0.0
  0
LINE
  5
177
330
16A
100
AcDbEntity
  8
SLD-0
100
AcDbLine
 10
2190.0250384307
 20
1469.5483865286
 30
0.0
 11
2190.0250384307
 21
1347.9460442136
 31
0.0
  0
LINE
  5
178
330
16A
100
AcDbEntity
  8
SLD-0
100
AcDbLine
 10
2190.0250384307
 20
1149.5483865286
 30
0.0
 11
2190.0250384307
 21
1271.1507288436
 31
0.0
  0
MTEXT
  5
179
330
16A
100
AcDbEntity
  8
SLD-0
100
AcDbMText
 10
2133.4703512212
 20
1341.2692429197
 30
0.0
 40
21.43125
 41
0.0
 71
     1
 72
     1
  1
 
  7
SLDTEXTSTYLE0
 73
     1
 44
1.0
  0
MTEXT
  5
17A
330
16A
100
AcDbEntity
  8
SLD-0
100
AcDbMText
 10
2154.4055059741
 20
1341.2692450152
 30
0.0
 40
21.43125
 41
0.0
 71
     1
 72
     1
  1
320.0
  7
SLDTEXTSTYLE0
 73
     1
 44
1.0
  0
MTEXT
  5
17B
330
16A
100
AcDbEntity
  8
SLD-0
100
AcDbMText
 10
2154.4055080695
 20
1302.8715894257
 30
0.0
 40
21.43125
 41
0.0
 71
     1
 72
     1
  1
12.60
  7
SLDTEXTSTYLE0
 73
     1
 44
1.0
  0
MTEXT
  5
17C
330
16A
100
AcDbEntity
  8
SLD-0
100
AcDbMText
 10
2238.6819109043
 20
1341.2692429197
 30
0.0
 40
21.43125
 41
0.0
 71
     1
 72
     1
  1
 
  7
SLDTEXTSTYLE0
 73
     1
 44
1.0
  0
ENDBLK
  5
16C
330
16A
100
AcDbEntity
  8
0
100
AcDbBlockEnd
  0
BLOCK
  5
17F
330
17E
100
AcDbEntity
  8
0
100
AcDbBlockBegin
  2
_D_3
 70
     0
 10
0.0
 20
0.0
 30
0.0
  3
_D_3
  1

  0
SOLID
  5
181
330
17E
100
AcDbEntity
  8
SLD-0
100
AcDbTrace
 10
2056.9871883776
 20
1469.5483865286
 30
0.0
 11
2054.7371883776
 21
1451.5483865286
 31
0.0
 12
2059.2371883776
 22
1451.5483865286
 32
0.0
 13
2059.2371883776
 23
1451.5483865286
 33
0.0
  0
SOLID
  5
182
330
17E
100
AcDbEntity
  8
SLD-0
100
AcDbTrace
 10
2056.9871883776
 20
1139.5483865286
 30
0.0
 11
2059.2371883776
 21
1157.5483865286
 31
0.0
 12
2054.7371883776
 22
1157.5483865286
 32
0.0
 13
2054.7371883776
 23
1157.5483865286
 33
0.0
  0
LINE
  5
183
330
17E
100
AcDbEntity
  8
SLD-0
100
AcDbLine
 10
2021.3676580164
 20
1304.5483907196
 30
0.0
 11
2014.8489859124
 21
1304.5483907196
 31
0.0
  0
LINE
  5
184
330
17E
100
AcDbEntity
  8
SLD-0
100
AcDbLine
 10
2014.8489859124
 20
1304.5483907196
 30
0.0
 11
2014.8489859124
 21
1270.4965151357
 31
0.0
  0
LINE
  5
185
330
17E
100
AcDbEntity
  8
SLD-0
100
AcDbLine
 10
2014.8489859124
 20
1270.4965151357
 30
0.0
 11
2021.3676580164
 21
1270.4965151357
 31
0.0
  0
LINE
  5
186
330
17E
100
AcDbEntity
  8
SLD-0
100
AcDbLine
 10
2092.6067187387
 20
1304.5483907196
 30
0.0
 11
2099.1253908427
 21
1304.5483907196
 31
0.0
  0
LINE
  5
187
330
17E
100
AcDbEntity
  8
SLD-0
100
AcDbLine
 10
2099.1253908427
 20
1304.5483907196
 30
0.0
 11
2099.1253908427
 21
1270.4965151357
 31
0.0
  0
LINE
  5
188
330
17E
100
AcDbEntity
  8
SLD-0
100
AcDbLine
 10
2099.1253908427
 20
1270.4965151357
 30
0.0
 11
2092.6067187387
 21
1270.4965151357
 31
0.0
  0
LINE
  5
189
330
17E
100
AcDbEntity
  8
SLD-0
100
AcDbLine
 10
2273.1670384307
 20
1469.5483865286
 30
0.0
 11
2050.1291883776
 21
1469.5483865286
 31
0.0
  0
LINE
  5
18A
330
17E
100
AcDbEntity
  8
SLD-0
100
AcDbLine
 10
2308.9170384307
 20
1139.5483865286
 30
0.0
 11
2050.1291883776
 21
1139.5483865286
 31
0.0
  0
LINE
  5
18B
330
17E
100
AcDbEntity
  8
SLD-0
100
AcDbLine
 10
2056.9871883776
 20
1469.5483865286
 30
0.0
 11
2056.9871883776
 21
1342.9460442136
 31
0.0
  0
LINE
  5
18C
330
17E
100
AcDbEntity
  8
SLD-0
100
AcDbLine
 10
2056.9871883776
 20
1139.5483865286
 30
0.0
 11
2056.9871883776
 21
1266.1507288436
 31
0.0
  0
MTEXT
  5
18D
330
17E
100
AcDbEntity
  8
SLD-0
100
AcDbMText
 10
2000.4325011681
 20
1336.2692429197
 30
0.0
 40
21.43125
 41
0.0
 71
     1
 72
     1
  1
 
  7
SLDTEXTSTYLE0
 73
     1
 44
1.0
  0
MTEXT
  5
18E
330
17E
100
AcDbEntity
  8
SLD-0
100
AcDbMText
 10
2021.3676559209
 20
1336.2692450152
 30
0.0
 40
21.43125
 41
0.0
 71
     1
 72
     1
  1
330.0
  7
SLDTEXTSTYLE0
 73
     1
 44
1.0
  0
MTEXT
  5
18F
330
17E
100
AcDbEntity
  8
SLD-0
100
AcDbMText
 10
2021.3676580164
 20
1297.8715894257
 30
0.0
 40
21.43125
 41
0.0
 71
     1
 72
     1
  1
12.99
  7
SLDTEXTSTYLE0
 73
     1
 44
1.0
  0
MTEXT
  5
190
330
17E
100
AcDbEntity
  8
SLD-0
100
AcDbMText
 10
2105.6440608512
 20
1336.2692429197
 30
0.0
 40
21.43125
 41
0.0
 71
     1
 72
     1
  1
 
  7
SLDTEXTSTYLE0
 73
     1
 44
1.0
  0
ENDBLK
  5
180
330
17E
100
AcDbEntity
  8
0
100
AcDbBlockEnd
  0
BLOCK
  5
193
330
192
100
AcDbEntity
  8
0
100
AcDbBlockBegin
  2
_D_4
 70
     0
 10
0.0
 20
0.0
 30
0.0
  3
_D_4
  1

  0
SOLID
  5
195
330
192
100
AcDbEntity
  8
SLD-0
100
AcDbTrace
 10
2280.0250384307
 20
1069.3150309768
 30
0.0
 11
2298.0250384307
 21
1067.0650309768
 31
0.0
 12
2298.0250384307
 22
1071.5650309768
 32
0.0
 13
2298.0250384307
 23
1071.5650309768
 33
0.0
  0
SOLID
  5
196
330
192
100
AcDbEntity
  8
SLD-0
100
AcDbTrace
 10
2380.0250384307
 20
1069.3150309768
 30
0.0
 11
2362.0250384307
 21
1071.5650309768
 31
0.0
 12
2362.0250384307
 22
1067.0650309768
 32
0.0
 13
2362.0250384307
 23
1067.0650309768
 33
0.0
  0
LINE
  5
197
330
192
100
AcDbEntity
  8
SLD-0
100
AcDbLine
 10
2162.3231627701
 20
1069.3150351677
 30
0.0
 11
2155.8044906661
 21
1069.3150351677
 31
0.0
  0
LINE
  5
198
330
192
100
AcDbEntity
  8
SLD-0
100
AcDbLine
 10
2155.8044906661
 20
1069.3150351677
 30
0.0
 11
2155.8044906661
 21
1035.2631595839
 31
0.0
  0
LINE
  5
199
330
192
100
AcDbEntity
  8
SLD-0
100
AcDbLine
 10
2155.8044906661
 20
1035.2631595839
 30
0.0
 11
2162.3231627701
 21
1035.2631595839
 31
0.0
  0
LINE
  5
19A
330
192
100
AcDbEntity
  8
SLD-0
100
AcDbLine
 10
2217.7269140912
 20
1069.3150351677
 30
0.0
 11
2224.2455861952
 21
1069.3150351677
 31
0.0
  0
LINE
  5
19B
330
192
100
AcDbEntity
  8
SLD-0
100
AcDbLine
 10
2224.2455861952
 20
1069.3150351677
 30
0.0
 11
2224.2455861952
 21
1035.2631595839
 31
0.0
  0
LINE
  5
19C
330
192
100
AcDbEntity
  8
SLD-0
100
AcDbLine
 10
2224.2455861952
 20
1035.2631595839
 30
0.0
 11
2217.7269140912
 21
1035.2631595839
 31
0.0
  0
LINE
  5
19D
330
192
100
AcDbEntity
  8
SLD-0
100
AcDbLine
 10
2280.0250384307
 20
1142.6903865286
 30
0.0
 11
2280.0250384307
 21
1062.4570309768
 31
0.0
  0
LINE
  5
19E
330
192
100
AcDbEntity
  8
SLD-0
100
AcDbLine
 10
2380.0250384307
 20
1171.0903865286
 30
0.0
 11
2380.0250384307
 21
1062.4570309768
 31
0.0
  0
LINE
  5
19F
330
192
100
AcDbEntity
  8
SLD-0
100
AcDbLine
 10
2280.0250384307
 20
1069.3150309768
 30
0.0
 11
2243.0066182419
 21
1069.3150309768
 31
0.0
  0
LINE
  5
1A0
330
192
100
AcDbEntity
  8
SLD-0
100
AcDbLine
 10
2380.0250384307
 20
1069.3150309768
 30
0.0
 11
2280.0250384307
 21
1069.3150309768
 31
0.0
  0
MTEXT
  5
1A1
330
192
100
AcDbEntity
  8
SLD-0
100
AcDbMText
 10
2141.3880059218
 20
1101.0358873679
 30
0.0
 40
21.43125
 41
0.0
 71
     1
 72
     1
  1
 
  7
SLDTEXTSTYLE0
 73
     1
 44
1.0
  0
MTEXT
  5
1A2
330
192
100
AcDbEntity
  8
SLD-0
100
AcDbMText
 10
2154.4055059741
 20
1101.0358894633
 30
0.0
 40
21.43125
 41
0.0
 71
     1
 72
     1
  1
100.0
  7
SLDTEXTSTYLE0
 73
     1
 44
1.0
  0
MTEXT
  5
1A3
330
192
100
AcDbEntity
  8
SLD-0
100
AcDbMText
 10
2162.3231627701
 20
1062.6382338738
 30
0.0
 40
21.43125
 41
0.0
 71
     1
 72
     1
  1
3.94
  7
SLDTEXTSTYLE0
 73
     1
 44
1.0
  0
MTEXT
  5
1A4
330
192
100
AcDbEntity
  8
SLD-0
100
AcDbMText
 10
2230.7642562038
 20
1101.0358873679
 30
0.0
 40
21.43125
 41
0.0
 71
     1
 72
     1
  1
 
  7
SLDTEXTSTYLE0
 73
     1
 44
1.0
  0
ENDBLK
  5
194
330
192
100
AcDbEntity
  8
0
100
AcDbBlockEnd
  0
BLOCK
  5
1A7
330
1A6
100
AcDbEntity
  8
0
100
AcDbBlockBegin
  2
_D_5
 70
     0
 10
0.0
 20
0.0
 30
0.0
  3
_D_5
  1

  0
SOLID
  5
1A9
330
1A6
100
AcDbEntity
  8
SLD-0
100
AcDbTrace
 10
2380.0250384307
 20
1069.3150309768
 30
0.0
 11
2398.0250384307
 21
1067.0650309768
 31
0.0
 12
2398.0250384307
 22
1071.5650309768
 32
0.0
 13
2398.0250384307
 23
1071.5650309768
 33
0.0
  0
SOLID
  5
1AA
330
1A6
100
AcDbEntity
  8
SLD-0
100
AcDbTrace
 10
2790.0250384307
 20
1069.3150309768
 30
0.0
 11
2772.0250384307
 21
1071.5650309768
 31
0.0
 12
2772.0250384307
 22
1067.0650309768
 32
0.0
 13
2772.0250384307
 23
1067.0650309768
 33
0.0
  0
LINE
  5
1AB
330
1A6
100
AcDbEntity
  8
SLD-0
100
AcDbLine
 10
2549.4055080695
 20
1069.3150351677
 30
0.0
 11
2542.8868359655
 21
1069.3150351677
 31
0.0
  0
LINE
  5
1AC
330
1A6
100
AcDbEntity
  8
SLD-0
100
AcDbLine
 10
2542.8868359655
 20
1069.3150351677
 30
0.0
 11
2542.8868359655
 21
1035.2631595839
 31
0.0
  0
LINE
  5
1AD
330
1A6
100
AcDbEntity
  8
SLD-0
100
AcDbLine
 10
2542.8868359655
 20
1035.2631595839
 30
0.0
 11
2549.4055080695
 21
1035.2631595839
 31
0.0
  0
LINE
  5
1AE
330
1A6
100
AcDbEntity
  8
SLD-0
100
AcDbLine
 10
2620.6445687918
 20
1069.3150351677
 30
0.0
 11
2627.1632408958
 21
1069.3150351677
 31
0.0
  0
LINE
  5
1AF
330
1A6
100
AcDbEntity
  8
SLD-0
100
AcDbLine
 10
2627.1632408958
 20
1069.3150351677
 30
0.0
 11
2627.1632408958
 21
1035.2631595839
 31
0.0
  0
LINE
  5
1B0
330
1A6
100
AcDbEntity
  8
SLD-0
100
AcDbLine
 10
2627.1632408958
 20
1035.2631595839
 30
0.0
 11
2620.6445687918
 21
1035.2631595839
 31
0.0
  0
LINE
  5
1B1
330
1A6
100
AcDbEntity
  8
SLD-0
100
AcDbLine
 10
2380.0250384307
 20
1171.0903865286
 30
0.0
 11
2380.0250384307
 21
1062.4570309768
 31
0.0
  0
LINE
  5
1B2
330
1A6
100
AcDbEntity
  8
SLD-0
100
AcDbLine
 10
2790.0250384307
 20
1171.0903865286
 30
0.0
 11
2790.0250384307
 21
1062.4570309768
 31
0.0
  0
LINE
  5
1B3
330
1A6
100
AcDbEntity
  8
SLD-0
100
AcDbLine
 10
2380.0250384307
 20
1069.3150309768
 30
0.0
 11
2524.1258039189
 21
1069.3150309768
 31
0.0
  0
LINE
  5
1B4
330
1A6
100
AcDbEntity
  8
SLD-0
100
AcDbLine
 10
2790.0250384307
 20
1069.3150309768
 30
0.0
 11
2645.9242729425
 21
1069.3150309768
 31
0.0
  0
MTEXT
  5
1B5
330
1A6
100
AcDbEntity
  8
SLD-0
100
AcDbMText
 10
2528.4703512212
 20
1101.0358873679
 30
0.0
 40
21.43125
 41
0.0
 71
     1
 72
     1
  1
 
  7
SLDTEXTSTYLE0
 73
     1
 44
1.0
  0
MTEXT
  5
1B6
330
1A6
100
AcDbEntity
  8
SLD-0
100
AcDbMText
 10
2549.4055059741
 20
1101.0358894633
 30
0.0
 40
21.43125
 41
0.0
 71
     1
 72
     1
  1
410.0
  7
SLDTEXTSTYLE0
 73
     1
 44
1.0
  0
MTEXT
  5
1B7
330
1A6
100
AcDbEntity
  8
SLD-0
100
AcDbMText
 10
2549.4055080695
 20
1062.6382338738
 30
0.0
 40
21.43125
 41
0.0
 71
     1
 72
     1
  1
16.14
  7
SLDTEXTSTYLE0
 73
     1
 44
1.0
  0
MTEXT
  5
1B8
330
1A6
100
AcDbEntity
  8
SLD-0
100
AcDbMText
 10
2633.6819109043
 20
1101.0358873679
 30
0.0
 40
21.43125
 41
0.0
 71
     1
 72
     1
  1
 
  7
SLDTEXTSTYLE0
 73
     1
 44
1.0
  0
ENDBLK
  5
1A8
330
1A6
100
AcDbEntity
  8
0
100
AcDbBlockEnd
  0
BLOCK
  5
1BB
330
1BA
100
AcDbEntity
  8
0
100
AcDbBlockBegin
  2
_D_6
 70
     0
 10
0.0
 20
0.0
 30
0.0
  3
_D_6
  1

  0
SOLID
  5
1BD
330
1BA
100
AcDbEntity
  8
SLD-0
100
AcDbTrace
 10
2980.0250384307
 20
1429.1483865286
 30
0.0
 11
2977.7750384307
 21
1411.1483865286
 31
0.0
 12
2982.2750384307
 22
1411.1483865286
 32
0.0
 13
2982.2750384307
 23
1411.1483865286
 33
0.0
  0
SOLID
  5
1BE
330
1BA
100
AcDbEntity
  8
SLD-0
100
AcDbTrace
 10
2980.0250384307
 20
1189.9483865286
 30
0.0
 11
2982.2750384307
 21
1207.9483865286
 31
0.0
 12
2977.7750384307
 22
1207.9483865286
 32
0.0
 13
2977.7750384307
 23
1207.9483865286
 33
0.0
  0
LINE
  5
1BF
330
1BA
100
AcDbEntity
  8
SLD-0
100
AcDbLine
 10
2952.3231627701
 20
1309.5483907196
 30
0.0
 11
2945.8044906661
 21
1309.5483907196
 31
0.0
  0
LINE
  5
1C0
330
1BA
100
AcDbEntity
  8
SLD-0
100
AcDbLine
 10
2945.8044906661
 20
1309.5483907196
 30
0.0
 11
2945.8044906661
 21
1275.4965151357
 31
0.0
  0
LINE
  5
1C1
330
1BA
100
AcDbEntity
  8
SLD-0
100
AcDbLine
 10
2945.8044906661
 20
1275.4965151357
 30
0.0
 11
2952.3231627701
 21
1275.4965151357
 31
0.0
  0
LINE
  5
1C2
330
1BA
100
AcDbEntity
  8
SLD-0
100
AcDbLine
 10
3007.7269140912
 20
1309.5483907196
 30
0.0
 11
3014.2455861952
 21
1309.5483907196
 31
0.0
  0
LINE
  5
1C3
330
1BA
100
AcDbEntity
  8
SLD-0
100
AcDbLine
 10
3014.2455861952
 20
1309.5483907196
 30
0.0
 11
3014.2455861952
 21
1275.4965151357
 31
0.0
  0
LINE
  5
1C4
330
1BA
100
AcDbEntity
  8
SLD-0
100
AcDbLine
 10
3014.2455861952
 20
1275.4965151357
 30
0.0
 11
3007.7269140912
 21
1275.4965151357
 31
0.0
  0
LINE
  5
1C5
330
1BA
100
AcDbEntity
  8
SLD-0
100
AcDbLine
 10
2808.8830384307
 20
1429.1483865286
 30
0.0
 11
2986.8830384307
 21
1429.1483865286
 31
0.0
  0
LINE
  5
1C6
330
1BA
100
AcDbEntity
  8
SLD-0
100
AcDbLine
 10
2808.8830384307
 20
1189.9483865286
 30
0.0
 11
2986.8830384307
 21
1189.9483865286
 31
0.0
  0
LINE
  5
1C7
330
1BA
100
AcDbEntity
  8
SLD-0
100
AcDbLine
 10
2980.0250384307
 20
1429.1483865286
 30
0.0
 11
2980.0250384307
 21
1347.9460442136
 31
0.0
  0
LINE
  5
1C8
330
1BA
100
AcDbEntity
  8
SLD-0
100
AcDbLine
 10
2980.0250384307
 20
1189.9483865286
 30
0.0
 11
2980.0250384307
 21
1271.1507288436
 31
0.0
  0
MTEXT
  5
1C9
330
1BA
100
AcDbEntity
  8
SLD-0
100
AcDbMText
 10
2931.3880059218
 20
1341.2692429197
 30
0.0
 40
21.43125
 41
0.0
 71
     1
 72
     1
  1
 
  7
SLDTEXTSTYLE0
 73
     1
 44
1.0
  0
MTEXT
  5
1CA
330
1BA
100
AcDbEntity
  8
SLD-0
100
AcDbMText
 10
2944.4055059741
 20
1341.2692450152
 30
0.0
 40
21.43125
 41
0.0
 71
     1
 72
     1
  1
239.2
  7
SLDTEXTSTYLE0
 73
     1
 44
1.0
  0
MTEXT
  5
1CB
330
1BA
100
AcDbEntity
  8
SLD-0
100
AcDbMText
 10
2952.3231627701
 20
1302.8715894257
 30
0.0
 40
21.43125
 41
0.0
 71
     1
 72
     1
  1
9.42
  7
SLDTEXTSTYLE0
 73
     1
 44
1.0
  0
MTEXT
  5
1CC
330
1BA
100
AcDbEntity
  8
SLD-0
100
AcDbMText
 10
3020.7642562038
 20
1341.2692429197
 30
0.0
 40
21.43125
 41
0.0
 71
     1
 72
     1
  1
 
  7
SLDTEXTSTYLE0
 73
     1
 44
1.0
  0
ENDBLK
  5
1BC
330
1BA
100
AcDbEntity
  8
0
100
AcDbBlockEnd
  0
BLOCK
  5
1D0
330
1CF
100
AcDbEntity
  8
0
100
AcDbBlockBegin
  2
_D_7
 70
     0
 10
0.0
 20
0.0
 30
0.0
  3
_D_7
  1

  0
SOLID
  5
1D2
330
1CF
100
AcDbEntity
  8
SLD-0
100
AcDbTrace
 10
2980.0250384307
 20
1189.9483865286
 30
0.0
 11
2982.2750384307
 21
1207.9483865286
 31
0.0
 12
2977.7750384307
 22
1207.9483865286
 32
0.0
 13
2977.7750384307
 23
1207.9483865286
 33
0.0
  0
SOLID
  5
1D3
330
1CF
100
AcDbEntity
  8
SLD-0
100
AcDbTrace
 10
2980.0250384307
 20
1149.5483865286
 30
0.0
 11
2977.7750384307
 21
1131.5483865286
 31
0.0
 12
2982.2750384307
 22
1131.5483865286
 32
0.0
 13
2982.2750384307
 23
1131.5483865286
 33
0.0
  0
LINE
  5
1D4
330
1CF
100
AcDbEntity
  8
SLD-0
100
AcDbLine
 10
3031.9938371861
 20
1087.616171491
 30
0.0
 11
3025.4751650821
 21
1087.616171491
 31
0.0
  0
LINE
  5
1D5
330
1CF
100
AcDbEntity
  8
SLD-0
100
AcDbLine
 10
3025.4751650821
 20
1087.616171491
 30
0.0
 11
3025.4751650821
 21
1053.5642959072
 31
0.0
  0
LINE
  5
1D6
330
1CF
100
AcDbEntity
  8
SLD-0
100
AcDbLine
 10
3025.4751650821
 20
1053.5642959072
 30
0.0
 11
3031.9938371861
 21
1053.5642959072
 31
0.0
  0
LINE
  5
1D7
330
1CF
100
AcDbEntity
  8
SLD-0
100
AcDbLine
 10
3087.3975885072
 20
1087.616171491
 30
0.0
 11
3093.9162606112
 21
1087.616171491
 31
0.0
  0
LINE
  5
1D8
330
1CF
100
AcDbEntity
  8
SLD-0
100
AcDbLine
 10
3093.9162606112
 20
1087.616171491
 30
0.0
 11
3093.9162606112
 21
1053.5642959072
 31
0.0
  0
LINE
  5
1D9
330
1CF
100
AcDbEntity
  8
SLD-0
100
AcDbLine
 10
3093.9162606112
 20
1053.5642959072
 30
0.0
 11
3087.3975885072
 21
1053.5642959072
 31
0.0
  0
LINE
  5
1DA
330
1CF
100
AcDbEntity
  8
SLD-0
100
AcDbLine
 10
2808.8830384307
 20
1189.9483865286
 30
0.0
 11
2986.8830384307
 21
1189.9483865286
 31
0.0
  0
LINE
  5
1DB
330
1CF
100
AcDbEntity
  8
SLD-0
100
AcDbLine
 10
2896.8830384307
 20
1149.5483865286
 30
0.0
 11
2986.8830384307
 21
1149.5483865286
 31
0.0
  0
LINE
  5
1DC
330
1CF
100
AcDbEntity
  8
SLD-0
100
AcDbLine
 10
2998.0250384307
 20
1087.6161673001
 30
0.0
 11
2980.0250384307
 21
1087.6161673001
 31
0.0
  0
LINE
  5
1DD
330
1CF
100
AcDbEntity
  8
SLD-0
100
AcDbLine
 10
2980.0250384307
 20
1087.6161673001
 30
0.0
 11
2980.0250384307
 21
1149.5483865286
 31
0.0
  0
LINE
  5
1DE
330
1CF
100
AcDbEntity
  8
SLD-0
100
AcDbLine
 10
2980.0250384307
 20
1189.9483865286
 30
0.0
 11
2980.0250384307
 21
1225.9483865286
 31
0.0
  0
MTEXT
  5
1DF
330
1CF
100
AcDbEntity
  8
SLD-0
100
AcDbMText
 10
3011.0586803378
 20
1119.3370236912
 30
0.0
 40
21.43125
 41
0.0
 71
     1
 72
     1
  1
 
  7
SLDTEXTSTYLE0
 73
     1
 44
1.0
  0
MTEXT
  5
1E0
330
1CF
100
AcDbEntity
  8
SLD-0
100
AcDbMText
 10
3031.9938350906
 20
1119.3370257866
 30
0.0
 40
21.43125
 41
0.0
 71
     1
 72
     1
  1
40.4
  7
SLDTEXTSTYLE0
 73
     1
 44
1.0
  0
MTEXT
  5
1E1
330
1CF
100
AcDbEntity
  8
SLD-0
100
AcDbMText
 10
3031.9938371861
 20
1080.9393701971
 30
0.0
 40
21.43125
 41
0.0
 71
     1
 72
     1
  1
1.59
  7
SLDTEXTSTYLE0
 73
     1
 44
1.0
  0
MTEXT
  5
1E2
330
1CF
100
AcDbEntity
  8
SLD-0
100
AcDbMText
 10
3100.4349306198
 20
1119.3370236912
 30
0.0
 40
21.43125
 41
0.0
 71
     1
 72
     1
  1
 
  7
SLDTEXTSTYLE0
 73
     1
 44
1.0
  0
ENDBLK
  5
1D1
330
1CF
100
AcDbEntity
  8
0
100
AcDbBlockEnd
  0
BLOCK
  5
1E4
330
1E3
100
AcDbEntity
  8
0
100
AcDbBlockBegin
  2
SW_NOTE_0_1
 70
     0
 10
0.0
 20
0.0
 30
0.0
  3
SW_NOTE_0_1
  1

  0
LINE
  5
1E6
330
1E3
100
AcDbEntity
  8
SLD-0
 62
     0
100
AcDbLine
 10
0.0
 20
-27.4428858218
 30
0.0
 11
0.0
 21
24.5019071518
 31
0.0
  0
LINE
  5
1E7
330
1E3
100
AcDbEntity
  8
SLD-0
 62
     0
100
AcDbLine
 10
0.0
 20
24.5019071518
 30
0.0
 11
51.9447929737
 21
24.5019071518
 31
0.0
  0
LINE
  5
1E8
330
1E3
100
AcDbEntity
  8
SLD-0
 62
     0
100
AcDbLine
 10
51.9447929737
 20
24.5019071518
 30
0.0
 11
51.9447929737
 21
-27.4428858218
 31
0.0
  0
LINE
  5
1E9
330
1E3
100
AcDbEntity
  8
SLD-0
 62
     0
100
AcDbLine
 10
51.9447929737
 20
-27.4428858218
 30
0.0
 11
0.0
 21
-27.4428858218
 31
0.0
  0
MTEXT
  5
1EA
330
1E3
100
AcDbEntity
  8
SLD-0
 62
     0
100
AcDbMText
 10
25.7565956834
 20
8.9631842085
 30
0.0
 40
21.43125
 41
0.0
 71
     2
 72
     1
  1
4
  7
SLDTEXTSTYLE0
 73
     1
 44
1.0
  0
ENDBLK
  5
1E5
330
1E3
100
AcDbEntity
  8
0
100
AcDbBlockEnd
  0
BLOCK
  5
1F0
330
1EF
100
AcDbEntity
  8
0
100
AcDbBlockBegin
  2
SW_CENTERMARKSYMBOL_0
 70
     0
 10
0.0
 20
0.0
 30
0.0
  3
SW_CENTERMARKSYMBOL_0
  1

  0
LINE
  5
1F2
330
1EF
100
AcDbEntity
  8
SLD-0
 62
     0
100
AcDbLine
 10
0.0
 20
0.0
 30
0.0
 11
0.0
 21
2.0
 31
0.0
  0
LINE
  5
1F3
330
1EF
100
AcDbEntity
  8
SLD-0
 62
     0
100
AcDbLine
 10
0.0
 20
0.0
 30
0.0
 11
-2.0
 21
0.0
 31
0.0
  0
LINE
  5
1F4
330
1EF
100
AcDbEntity
  8
SLD-0
 62
     0
100
AcDbLine
 10
0.0
 20
0.0
 30
0.0
 11
0.0
 21
-2.0
 31
0.0
  0
LINE
  5
1F5
330
1EF
100
AcDbEntity
  8
SLD-0
 62
     0
100
AcDbLine
 10
0.0
 20
0.0
 30
0.0
 11
2.0
 21
0.0
 31
0.0
  0
LINE
  5
1F6
330
1EF
100
AcDbEntity
  8
SLD-0
 62
     0
100
AcDbLine
 10
0.0
 20
4.0
 30
0.0
 11
0.0
 21
12.0
 31
0.0
  0
LINE
  5
1F7
330
1EF
100
AcDbEntity
  8
SLD-0
 62
     0
100
AcDbLine
 10
-4.0
 20
0.0
 30
0.0
 11
-12.0
 21
0.0
 31
0.0
  0
LINE
  5
1F8
330
1EF
100
AcDbEntity
  8
SLD-0
 62
     0
100
AcDbLine
 10
0.0
 20
-4.0
 30
0.0
 11
0.0
 21
-12.0
 31
0.0
  0
LINE
  5
1F9
330
1EF
100
AcDbEntity
  8
SLD-0
 62
     0
100
AcDbLine
 10
4.0
 20
0.0
 30
0.0
 11
12.0
 21
0.0
 31
0.0
  0
ENDBLK
  5
1F1
330
1EF
100
AcDbEntity
  8
0
100
AcDbBlockEnd
  0
BLOCK
  5
1FC
330
1FB
100
AcDbEntity
  8
0
100
AcDbBlockBegin
  2
SW_CENTERMARKSYMBOL_1
 70
     0
 10
0.0
 20
0.0
 30
0.0
  3
SW_CENTERMARKSYMBOL_1
  1

  0
LINE
  5
1FE
330
1FB
100
AcDbEntity
  8
SLD-0
 62
     0
100
AcDbLine
 10
0.0
 20
0.0
 30
0.0
 11
0.0
 21
2.0
 31
0.0
  0
LINE
  5
1FF
330
1FB
100
AcDbEntity
  8
SLD-0
 62
     0
100
AcDbLine
 10
0.0
 20
0.0
 30
0.0
 11
-2.0
 21
0.0
 31
0.0
  0
LINE
  5
200
330
1FB
100
AcDbEntity
  8
SLD-0
 62
     0
100
AcDbLine
 10
0.0
 20
0.0
 30
0.0
 11
0.0
 21
-2.0
 31
0.0
  0
LINE
  5
201
330
1FB
100
AcDbEntity
  8
SLD-0
 62
     0
100
AcDbLine
 10
0.0
 20
0.0
 30
0.0
 11
2.0
 21
0.0
 31
0.0
  0
LINE
  5
202
330
1FB
100
AcDbEntity
  8
SLD-0
 62
     0
100
AcDbLine
 10
0.0
 20
4.0
 30
0.0
 11
0.0
 21
12.0
 31
0.0
  0
LINE
  5
203
330
1FB
100
AcDbEntity
  8
SLD-0
 62
     0
100
AcDbLine
 10
-4.0
 20
0.0
 30
0.0
 11
-12.0
 21
0.0
 31
0.0
  0
LINE
  5
204
330
1FB
100
AcDbEntity
  8
SLD-0
 62
     0
100
AcDbLine
 10
0.0
 20
-4.0
 30
0.0
 11
0.0
 21
-12.0
 31
0.0
  0
LINE
  5
205
330
1FB
100
AcDbEntity
  8
SLD-0
 62
     0
100
AcDbLine
 10
4.0
 20
0.0
 30
0.0
 11
12.0
 21
0.0
 31
0.0
  0
ENDBLK
  5
1FD
330
1FB
100
AcDbEntity
  8
0
100
AcDbBlockEnd
  0
BLOCK
  5
208
330
207
100
AcDbEntity
  8
0
100
AcDbBlockBegin
  2
SW_CENTERMARKSYMBOL_2
 70
     0
 10
0.0
 20
0.0
 30
0.0
  3
SW_CENTERMARKSYMBOL_2
  1

  0
LINE
  5
20A
330
207
100
AcDbEntity
  8
SLD-0
 62
     0
100
AcDbLine
 10
0.0
 20
0.0
 30
0.0
 11
0.0
 21
2.0
 31
0.0
  0
LINE
  5
20B
330
207
100
AcDbEntity
  8
SLD-0
 62
     0
100
AcDbLine
 10
0.0
 20
0.0
 30
0.0
 11
-2.0
 21
0.0
 31
0.0
  0
LINE
  5
20C
330
207
100
AcDbEntity
  8
SLD-0
 62
     0
100
AcDbLine
 10
0.0
 20
0.0
 30
0.0
 11
0.0
 21
-2.0
 31
0.0
  0
LINE
  5
20D
330
207
100
AcDbEntity
  8
SLD-0
 62
     0
100
AcDbLine
 10
0.0
 20
0.0
 30
0.0
 11
2.0
 21
0.0
 31
0.0
  0
LINE
  5
20E
330
207
100
AcDbEntity
  8
SLD-0
 62
     0
100
AcDbLine
 10
0.0
 20
4.0
 30
0.0
 11
0.0
 21
12.0
 31
0.0
  0
LINE
  5
20F
330
207
100
AcDbEntity
  8
SLD-0
 62
     0
100
AcDbLine
 10
-4.0
 20
0.0
 30
0.0
 11
-12.0
 21
0.0
 31
0.0
  0
LINE
  5
210
330
207
100
AcDbEntity
  8
SLD-0
 62
     0
100
AcDbLine
 10
0.0
 20
-4.0
 30
0.0
 11
0.0
 21
-12.0
 31
0.0
  0
LINE
  5
211
330
207
100
AcDbEntity
  8
SLD-0
 62
     0
100
AcDbLine
 10
4.0
 20
0.0
 30
0.0
 11
12.0
 21
0.0
 31
0.0
  0
ENDBLK
  5
209
330
207
100
AcDbEntity
  8
0
100
AcDbBlockEnd
  0
BLOCK
  5
214
330
213
100
AcDbEntity
  8
0
100
AcDbBlockBegin
  2
SW_CENTERMARKSYMBOL_3
 70
     0
 10
0.0
 20
0.0
 30
0.0
  3
SW_CENTERMARKSYMBOL_3
  1

  0
LINE
  5
216
330
213
100
AcDbEntity
  8
SLD-0
 62
     0
100
AcDbLine
 10
0.0
 20
0.0
 30
0.0
 11
0.0
 21
2.0
 31
0.0
  0
LINE
  5
217
330
213
100
AcDbEntity
  8
SLD-0
 62
     0
100
AcDbLine
 10
0.0
 20
0.0
 30
0.0
 11
-2.0
 21
0.0
 31
0.0
  0
LINE
  5
218
330
213
100
AcDbEntity
  8
SLD-0
 62
     0
100
AcDbLine
 10
0.0
 20
0.0
 30
0.0
 11
0.0
 21
-2.0
 31
0.0
  0
LINE
  5
219
330
213
100
AcDbEntity
  8
SLD-0
 62
     0
100
AcDbLine
 10
0.0
 20
0.0
 30
0.0
 11
2.0
 21
0.0
 31
0.0
  0
LINE
  5
21A
330
213
100
AcDbEntity
  8
SLD-0
 62
     0
100
AcDbLine
 10
0.0
 20
4.0
 30
0.0
 11
0.0
 21
12.0
 31
0.0
  0
LINE
  5
21B
330
213
100
AcDbEntity
  8
SLD-0
 62
     0
100
AcDbLine
 10
-4.0
 20
0.0
 30
0.0
 11
-12.0
 21
0.0
 31
0.0
  0
LINE
  5
21C
330
213
100
AcDbEntity
  8
SLD-0
 62
     0
100
AcDbLine
 10
0.0
 20
-4.0
 30
0.0
 11
0.0
 21
-12.0
 31
0.0
  0
LINE
  5
21D
330
213
100
AcDbEntity
  8
SLD-0
 62
     0
100
AcDbLine
 10
4.0
 20
0.0
 30
0.0
 11
12.0
 21
0.0
 31
0.0
  0
ENDBLK
  5
215
330
213
100
AcDbEntity
  8
0
100
AcDbBlockEnd
  0
BLOCK
  5
23A
330
239
100
AcDbEntity
  8
0
100
AcDbBlockBegin
  2
_D_8
 70
     0
 10
0.0
 20
0.0
 30
0.0
  3
_D_8
  1

  0
SOLID
  5
23C
330
239
100
AcDbEntity
  8
SLD-0
100
AcDbTrace
 10
990.8865922544
 20
1559.5483865286
 30
0.0
 11
972.8865922544
 21
1561.7983865286
 31
0.0
 12
972.8865922544
 22
1557.2983865286
 32
0.0
 13
972.8865922544
 23
1557.2983865286
 33
0.0
  0
SOLID
  5
23D
330
239
100
AcDbEntity
  8
SLD-0
100
AcDbTrace
 10
723.3865922544
 20
1559.5483865286
 30
0.0
 11
741.3865922544
 21
1557.2983865286
 31
0.0
 12
741.3865922544
 22
1561.7983865286
 32
0.0
 13
741.3865922544
 23
1561.7983865286
 33
0.0
  0
LINE
  5
23E
330
239
100
AcDbEntity
  8
SLD-0
100
AcDbLine
 10
821.5170618932
 20
1559.5483907196
 30
0.0
 11
814.9983897892
 21
1559.5483907196
 31
0.0
  0
LINE
  5
23F
330
239
100
AcDbEntity
  8
SLD-0
100
AcDbLine
 10
814.9983897892
 20
1559.5483907196
 30
0.0
 11
814.9983897892
 21
1525.4965151357
 31
0.0
  0
LINE
  5
240
330
239
100
AcDbEntity
  8
SLD-0
100
AcDbLine
 10
814.9983897892
 20
1525.4965151357
 30
0.0
 11
821.5170618932
 21
1525.4965151357
 31
0.0
  0
LINE
  5
241
330
239
100
AcDbEntity
  8
SLD-0
100
AcDbLine
 10
892.7561226155
 20
1559.5483907196
 30
0.0
 11
899.2747947195
 21
1559.5483907196
 31
0.0
  0
LINE
  5
242
330
239
100
AcDbEntity
  8
SLD-0
100
AcDbLine
 10
899.2747947195
 20
1559.5483907196
 30
0.0
 11
899.2747947195
 21
1525.4965151357
 31
0.0
  0
LINE
  5
243
330
239
100
AcDbEntity
  8
SLD-0
100
AcDbLine
 10
899.2747947195
 20
1525.4965151357
 30
0.0
 11
892.7561226155
 21
1525.4965151357
 31
0.0
  0
LINE
  5
244
330
239
100
AcDbEntity
  8
SLD-0
100
AcDbLine
 10
990.8865922544
 20
1476.4063865286
 30
0.0
 11
990.8865922544
 21
1566.4063865286
 31
0.0
  0
LINE
  5
245
330
239
100
AcDbEntity
  8
SLD-0
100
AcDbLine
 10
723.3865922544
 20
1304.0868281377
 30
0.0
 11
723.3865922544
 21
1566.4063865286
 31
0.0
  0
LINE
  5
246
330
239
100
AcDbEntity
  8
SLD-0
100
AcDbLine
 10
990.8865922544
 20
1559.5483865286
 30
0.0
 11
918.0358267662
 21
1559.5483865286
 31
0.0
  0
LINE
  5
247
330
239
100
AcDbEntity
  8
SLD-0
100
AcDbLine
 10
723.3865922544
 20
1559.5483865286
 30
0.0
 11
796.2373577425
 21
1559.5483865286
 31
0.0
  0
MTEXT
  5
248
330
239
100
AcDbEntity
  8
SLD-0
100
AcDbMText
 10
800.5819050449
 20
1591.2692429197
 30
0.0
 40
21.43125
 41
0.0
 71
     1
 72
     1
  1
 
  7
SLDTEXTSTYLE0
 73
     1
 44
1.0
  0
MTEXT
  5
249
330
239
100
AcDbEntity
  8
SLD-0
100
AcDbMText
 10
821.5170597977
 20
1591.2692450152
 30
0.0
 40
21.43125
 41
0.0
 71
     1
 72
     1
  1
267.5
  7
SLDTEXTSTYLE0
 73
     1
 44
1.0
  0
MTEXT
  5
24A
330
239
100
AcDbEntity
  8
SLD-0
100
AcDbMText
 10
821.5170618932
 20
1552.8715894257
 30
0.0
 40
21.43125
 41
0.0
 71
     1
 72
     1
  1
10.53
  7
SLDTEXTSTYLE0
 73
     1
 44
1.0
  0
MTEXT
  5
24B
330
239
100
AcDbEntity
  8
SLD-0
100
AcDbMText
 10
905.793464728
 20
1591.2692429197
 30
0.0
 40
21.43125
 41
0.0
 71
     1
 72
     1
  1
 
  7
SLDTEXTSTYLE0
 73
     1
 44
1.0
  0
ENDBLK
  5
23B
330
239
100
AcDbEntity
  8
0
100
AcDbBlockEnd
  0
BLOCK
  5
24E
330
24D
100
AcDbEntity
  8
0
100
AcDbBlockBegin
  2
_D_9
 70
     0
 10
0.0
 20
0.0
 30
0.0
  3
_D_9
  1

  0
SOLID
  5
250
330
24D
100
AcDbEntity
  8
SLD-0
100
AcDbTrace
 10
305.5804884813
 20
1149.5483865286
 30
0.0
 11
307.8304884813
 21
1167.5483865286
 31
0.0
 12
303.3304884813
 22
1167.5483865286
 32
0.0
 13
303.3304884813
 23
1167.5483865286
 33
0.0
  0
SOLID
  5
251
330
24D
100
AcDbEntity
  8
SLD-0
100
AcDbTrace
 10
305.5804884813
 20
1292.2583865286
 30
0.0
 11
303.3304884813
 21
1274.2583865286
 31
0.0
 12
307.8304884813
 22
1274.2583865286
 32
0.0
 13
307.8304884813
 23
1274.2583865286
 33
0.0
  0
LINE
  5
252
330
24D
100
AcDbEntity
  8
SLD-0
100
AcDbLine
 10
198.2079384047
 20
1344.7107245087
 30
0.0
 11
191.6892663007
 21
1344.7107245087
 31
0.0
  0
LINE
  5
253
330
24D
100
AcDbEntity
  8
SLD-0
100
AcDbLine
 10
191.6892663007
 20
1344.7107245087
 30
0.0
 11
191.6892663007
 21
1310.6588489249
 31
0.0
  0
LINE
  5
254
330
24D
100
AcDbEntity
  8
SLD-0
100
AcDbLine
 10
191.6892663007
 20
1310.6588489249
 30
0.0
 11
198.2079384047
 21
1310.6588489249
 31
0.0
  0
LINE
  5
255
330
24D
100
AcDbEntity
  8
SLD-0
100
AcDbLine
 10
253.6116897258
 20
1344.7107245087
 30
0.0
 11
260.1303618298
 21
1344.7107245087
 31
0.0
  0
LINE
  5
256
330
24D
100
AcDbEntity
  8
SLD-0
100
AcDbLine
 10
260.1303618298
 20
1344.7107245087
 30
0.0
 11
260.1303618298
 21
1310.6588489249
 31
0.0
  0
LINE
  5
257
330
24D
100
AcDbEntity
  8
SLD-0
100
AcDbLine
 10
260.1303618298
 20
1310.6588489249
 30
0.0
 11
253.6116897258
 21
1310.6588489249
 31
0.0
  0
LINE
  5
258
330
24D
100
AcDbEntity
  8
SLD-0
100
AcDbLine
 10
374.0285922544
 20
1149.5483865286
 30
0.0
 11
298.7224884813
 21
1149.5483865286
 31
0.0
  0
LINE
  5
259
330
24D
100
AcDbEntity
  8
SLD-0
100
AcDbLine
 10
711.5581506453
 20
1292.2583865286
 30
0.0
 11
298.7224884813
 21
1292.2583865286
 31
0.0
  0
LINE
  5
25A
330
24D
100
AcDbEntity
  8
SLD-0
100
AcDbLine
 10
287.5804884813
 20
1344.7107203178
 30
0.0
 11
305.5804884813
 21
1344.7107203178
 31
0.0
  0
LINE
  5
25B
330
24D
100
AcDbEntity
  8
SLD-0
100
AcDbLine
 10
305.5804884813
 20
1344.7107203178
 30
0.0
 11
305.5804884813
 21
1292.2583865286
 31
0.0
  0
LINE
  5
25C
330
24D
100
AcDbEntity
  8
SLD-0
100
AcDbLine
 10
305.5804884813
 20
1149.5483865286
 30
0.0
 11
305.5804884813
 21
1292.2583865286
 31
0.0
  0
MTEXT
  5
25D
330
24D
100
AcDbEntity
  8
SLD-0
100
AcDbMText
 10
177.2727815564
 20
1376.4315767088
 30
0.0
 40
21.43125
 41
0.0
 71
     1
 72
     1
  1
 
  7
SLDTEXTSTYLE0
 73
     1
 44
1.0
  0
MTEXT
  5
25E
330
24D
100
AcDbEntity
  8
SLD-0
100
AcDbMText
 10
190.2902816086
 20
1376.4315788043
 30
0.0
 40
21.43125
 41
0.0
 71
     1
 72
     1
  1
142.7
  7
SLDTEXTSTYLE0
 73
     1
 44
1.0
  0
MTEXT
  5
25F
330
24D
100
AcDbEntity
  8
SLD-0
100
AcDbMText
 10
198.2079384047
 20
1338.0339232148
 30
0.0
 40
21.43125
 41
0.0
 71
     1
 72
     1
  1
5.62
  7
SLDTEXTSTYLE0
 73
     1
 44
1.0
  0
MTEXT
  5
260
330
24D
100
AcDbEntity
  8
SLD-0
100
AcDbMText
 10
266.6490318383
 20
1376.4315767088
 30
0.0
 40
21.43125
 41
0.0
 71
     1
 72
     1
  1
 
  7
SLDTEXTSTYLE0
 73
     1
 44
1.0
  0
ENDBLK
  5
24F
330
24D
100
AcDbEntity
  8
0
100
AcDbBlockEnd
  0
BLOCK
  5
263
330
262
100
AcDbEntity
  8
0
100
AcDbBlockBegin
  2
_D_10
 70
     0
 10
0.0
 20
0.0
 30
0.0
  3
_D_10
  1

  0
SOLID
  5
265
330
262
100
AcDbEntity
  8
SLD-0
100
AcDbTrace
 10
480.8865922544
 20
1049.5483865286
 30
0.0
 11
498.8865922544
 21
1047.2983865286
 31
0.0
 12
498.8865922544
 22
1051.7983865286
 32
0.0
 13
498.8865922544
 23
1051.7983865286
 33
0.0
  0
SOLID
  5
266
330
262
100
AcDbEntity
  8
SLD-0
100
AcDbTrace
 10
890.8865922544
 20
1049.5483865286
 30
0.0
 11
872.8865922544
 21
1051.7983865286
 31
0.0
 12
872.8865922544
 22
1047.2983865286
 32
0.0
 13
872.8865922544
 23
1047.2983865286
 33
0.0
  0
LINE
  5
267
330
262
100
AcDbEntity
  8
SLD-0
100
AcDbLine
 10
650.2670618932
 20
1049.5483907196
 30
0.0
 11
643.7483897892
 21
1049.5483907196
 31
0.0
  0
LINE
  5
268
330
262
100
AcDbEntity
  8
SLD-0
100
AcDbLine
 10
643.7483897892
 20
1049.5483907196
 30
0.0
 11
643.7483897892
 21
1015.4965151357
 31
0.0
  0
LINE
  5
269
330
262
100
AcDbEntity
  8
SLD-0
100
AcDbLine
 10
643.7483897892
 20
1015.4965151357
 30
0.0
 11
650.2670618932
 21
1015.4965151357
 31
0.0
  0
LINE
  5
26A
330
262
100
AcDbEntity
  8
SLD-0
100
AcDbLine
 10
721.5061226155
 20
1049.5483907196
 30
0.0
 11
728.0247947195
 21
1049.5483907196
 31
0.0
  0
LINE
  5
26B
330
262
100
AcDbEntity
  8
SLD-0
100
AcDbLine
 10
728.0247947195
 20
1049.5483907196
 30
0.0
 11
728.0247947195
 21
1015.4965151357
 31
0.0
  0
LINE
  5
26C
330
262
100
AcDbEntity
  8
SLD-0
100
AcDbLine
 10
728.0247947195
 20
1015.4965151357
 30
0.0
 11
721.5061226155
 21
1015.4965151357
 31
0.0
  0
LINE
  5
26D
330
262
100
AcDbEntity
  8
SLD-0
100
AcDbLine
 10
480.8865922544
 20
1171.0903865286
 30
0.0
 11
480.8865922544
 21
1042.6903865286
 31
0.0
  0
LINE
  5
26E
330
262
100
AcDbEntity
  8
SLD-0
100
AcDbLine
 10
890.8865922544
 20
1171.0903865286
 30
0.0
 11
890.8865922544
 21
1042.6903865286
 31
0.0
  0
LINE
  5
26F
330
262
100
AcDbEntity
  8
SLD-0
100
AcDbLine
 10
480.8865922544
 20
1049.5483865286
 30
0.0
 11
624.9873577425
 21
1049.5483865286
 31
0.0
  0
LINE
  5
270
330
262
100
AcDbEntity
  8
SLD-0
100
AcDbLine
 10
890.8865922544
 20
1049.5483865286
 30
0.0
 11
746.7858267662
 21
1049.5483865286
 31
0.0
  0
MTEXT
  5
271
330
262
100
AcDbEntity
  8
SLD-0
100
AcDbMText
 10
629.3319050449
 20
1081.2692429197
 30
0.0
 40
21.43125
 41
0.0
 71
     1
 72
     1
  1
 
  7
SLDTEXTSTYLE0
 73
     1
 44
1.0
  0
MTEXT
  5
272
330
262
100
AcDbEntity
  8
SLD-0
100
AcDbMText
 10
650.2670597977
 20
1081.2692450152
 30
0.0
 40
21.43125
 41
0.0
 71
     1
 72
     1
  1
410.0
  7
SLDTEXTSTYLE0
 73
     1
 44
1.0
  0
MTEXT
  5
273
330
262
100
AcDbEntity
  8
SLD-0
100
AcDbMText
 10
650.2670618932
 20
1042.8715894257
 30
0.0
 40
21.43125
 41
0.0
 71
     1
 72
     1
  1
16.14
  7
SLDTEXTSTYLE0
 73
     1
 44
1.0
  0
MTEXT
  5
274
330
262
100
AcDbEntity
  8
SLD-0
100
AcDbMText
 10
734.543464728
 20
1081.2692429197
 30
0.0
 40
21.43125
 41
0.0
 71
     1
 72
     1
  1
 
  7
SLDTEXTSTYLE0
 73
     1
 44
1.0
  0
ENDBLK
  5
264
330
262
100
AcDbEntity
  8
0
100
AcDbBlockEnd
  0
BLOCK
  5
277
330
276
100
AcDbEntity
  8
0
100
AcDbBlockBegin
  2
_D_11
 70
     0
 10
0.0
 20
0.0
 30
0.0
  3
_D_11
  1

  0
SOLID
  5
279
330
276
100
AcDbEntity
  8
SLD-0
100
AcDbTrace
 10
890.8865922544
 20
1049.5483865286
 30
0.0
 11
908.8865922544
 21
1047.2983865286
 31
0.0
 12
908.8865922544
 22
1051.7983865286
 32
0.0
 13
908.8865922544
 23
1051.7983865286
 33
0.0
  0
SOLID
  5
27A
330
276
100
AcDbEntity
  8
SLD-0
100
AcDbTrace
 10
990.8865922544
 20
1049.5483865286
 30
0.0
 11
972.8865922544
 21
1051.7983865286
 31
0.0
 12
972.8865922544
 22
1047.2983865286
 32
0.0
 13
972.8865922544
 23
1047.2983865286
 33
0.0
  0
LINE
  5
27B
330
276
100
AcDbEntity
  8
SLD-0
100
AcDbLine
 10
1053.1847165938
 20
1049.5483907196
 30
0.0
 11
1046.6660444898
 21
1049.5483907196
 31
0.0
  0
LINE
  5
27C
330
276
100
AcDbEntity
  8
SLD-0
100
AcDbLine
 10
1046.6660444898
 20
1049.5483907196
 30
0.0
 11
1046.6660444898
 21
1015.4965151357
 31
0.0
  0
LINE
  5
27D
330
276
100
AcDbEntity
  8
SLD-0
100
AcDbLine
 10
1046.6660444898
 20
1015.4965151357
 30
0.0
 11
1053.1847165938
 21
1015.4965151357
 31
0.0
  0
LINE
  5
27E
330
276
100
AcDbEntity
  8
SLD-0
100
AcDbLine
 10
1108.5884679149
 20
1049.5483907196
 30
0.0
 11
1115.1071400189
 21
1049.5483907196
 31
0.0
  0
LINE
  5
27F
330
276
100
AcDbEntity
  8
SLD-0
100
AcDbLine
 10
1115.1071400189
 20
1049.5483907196
 30
0.0
 11
1115.1071400189
 21
1015.4965151357
 31
0.0
  0
LINE
  5
280
330
276
100
AcDbEntity
  8
SLD-0
100
AcDbLine
 10
1115.1071400189
 20
1015.4965151357
 30
0.0
 11
1108.5884679149
 21
1015.4965151357
 31
0.0
  0
LINE
  5
281
330
276
100
AcDbEntity
  8
SLD-0
100
AcDbLine
 10
890.8865922544
 20
1171.0903865286
 30
0.0
 11
890.8865922544
 21
1042.6903865286
 31
0.0
  0
LINE
  5
282
330
276
100
AcDbEntity
  8
SLD-0
100
AcDbLine
 10
990.8865922544
 20
1142.6903865286
 30
0.0
 11
990.8865922544
 21
1042.6903865286
 31
0.0
  0
LINE
  5
283
330
276
100
AcDbEntity
  8
SLD-0
100
AcDbLine
 10
890.8865922544
 20
1049.5483865286
 30
0.0
 11
990.8865922544
 21
1049.5483865286
 31
0.0
  0
LINE
  5
284
330
276
100
AcDbEntity
  8
SLD-0
100
AcDbLine
 10
990.8865922544
 20
1049.5483865286
 30
0.0
 11
1027.9050124431
 21
1049.5483865286
 31
0.0
  0
MTEXT
  5
285
330
276
100
AcDbEntity
  8
SLD-0
100
AcDbMText
 10
1032.2495597455
 20
1081.2692429197
 30
0.0
 40
21.43125
 41
0.0
 71
     1
 72
     1
  1
 
  7
SLDTEXTSTYLE0
 73
     1
 44
1.0
  0
MTEXT
  5
286
330
276
100
AcDbEntity
  8
SLD-0
100
AcDbMText
 10
1045.2670597977
 20
1081.2692450152
 30
0.0
 40
21.43125
 41
0.0
 71
     1
 72
     1
  1
100.0
  7
SLDTEXTSTYLE0
 73
     1
 44
1.0
  0
MTEXT
  5
287
330
276
100
AcDbEntity
  8
SLD-0
100
AcDbMText
 10
1053.1847165938
 20
1042.8715894257
 30
0.0
 40
21.43125
 41
0.0
 71
     1
 72
     1
  1
3.94
  7
SLDTEXTSTYLE0
 73
     1
 44
1.0
  0
MTEXT
  5
288
330
276
100
AcDbEntity
  8
SLD-0
100
AcDbMText
 10
1121.6258100274
 20
1081.2692429197
 30
0.0
 40
21.43125
 41
0.0
 71
     1
 72
     1
  1
 
  7
SLDTEXTSTYLE0
 73
     1
 44
1.0
  0
ENDBLK
  5
278
330
276
100
AcDbEntity
  8
0
100
AcDbBlockEnd
  0
BLOCK
  5
28B
330
28A
100
AcDbEntity
  8
0
100
AcDbBlockBegin
  2
_D_12
 70
     0
 10
0.0
 20
0.0
 30
0.0
  3
_D_12
  1

  0
SOLID
  5
28D
330
28A
100
AcDbEntity
  8
SLD-0
100
AcDbTrace
 10
1053.7724009402
 20
1189.9483865286
 30
0.0
 11
1056.0224009402
 21
1207.9483865286
 31
0.0
 12
1051.5224009402
 22
1207.9483865286
 32
0.0
 13
1051.5224009402
 23
1207.9483865286
 33
0.0
  0
SOLID
  5
28E
330
28A
100
AcDbEntity
  8
SLD-0
100
AcDbTrace
 10
1053.7724009402
 20
1149.5483865286
 30
0.0
 11
1051.5224009402
 21
1131.5483865286
 31
0.0
 12
1056.0224009402
 22
1131.5483865286
 32
0.0
 13
1056.0224009402
 23
1131.5483865286
 33
0.0
  0
LINE
  5
28F
330
28A
100
AcDbEntity
  8
SLD-0
100
AcDbLine
 10
1105.7411996957
 20
1235.8909534643
 30
0.0
 11
1099.2225275917
 21
1235.8909534643
 31
0.0
  0
LINE
  5
290
330
28A
100
AcDbEntity
  8
SLD-0
100
AcDbLine
 10
1099.2225275917
 20
1235.8909534643
 30
0.0
 11
1099.2225275917
 21
1201.8390778804
 31
0.0
  0
LINE
  5
291
330
28A
100
AcDbEntity
  8
SLD-0
100
AcDbLine
 10
1099.2225275917
 20
1201.8390778804
 30
0.0
 11
1105.7411996957
 21
1201.8390778804
 31
0.0
  0
LINE
  5
292
330
28A
100
AcDbEntity
  8
SLD-0
100
AcDbLine
 10
1161.1449510168
 20
1235.8909534643
 30
0.0
 11
1167.6636231208
 21
1235.8909534643
 31
0.0
  0
LINE
  5
293
330
28A
100
AcDbEntity
  8
SLD-0
100
AcDbLine
 10
1167.6636231208
 20
1235.8909534643
 30
0.0
 11
1167.6636231208
 21
1201.8390778804
 31
0.0
  0
LINE
  5
294
330
28A
100
AcDbEntity
  8
SLD-0
100
AcDbLine
 10
1167.6636231208
 20
1201.8390778804
 30
0.0
 11
1161.1449510168
 21
1201.8390778804
 31
0.0
  0
LINE
  5
295
330
28A
100
AcDbEntity
  8
SLD-0
100
AcDbLine
 10
909.7445922544
 20
1189.9483865286
 30
0.0
 11
1060.6304009402
 21
1189.9483865286
 31
0.0
  0
LINE
  5
296
330
28A
100
AcDbEntity
  8
SLD-0
100
AcDbLine
 10
997.7445922544
 20
1149.5483865286
 30
0.0
 11
1060.6304009402
 21
1149.5483865286
 31
0.0
  0
LINE
  5
297
330
28A
100
AcDbEntity
  8
SLD-0
100
AcDbLine
 10
1071.7724009402
 20
1235.8909492733
 30
0.0
 11
1053.7724009402
 21
1235.8909492733
 31
0.0
  0
LINE
  5
298
330
28A
100
AcDbEntity
  8
SLD-0
100
AcDbLine
 10
1053.7724009402
 20
1235.8909492733
 30
0.0
 11
1053.7724009402
 21
1189.9483865286
 31
0.0
  0
LINE
  5
299
330
28A
100
AcDbEntity
  8
SLD-0
100
AcDbLine
 10
1053.7724009402
 20
1149.5483865286
 30
0.0
 11
1053.7724009402
 21
1113.5483865286
 31
0.0
  0
MTEXT
  5
29A
330
28A
100
AcDbEntity
  8
SLD-0
100
AcDbMText
 10
1084.8060428474
 20
1267.6118056644
 30
0.0
 40
21.43125
 41
0.0
 71
     1
 72
     1
  1
 
  7
SLDTEXTSTYLE0
 73
     1
 44
1.0
  0
MTEXT
  5
29B
330
28A
100
AcDbEntity
  8
SLD-0
100
AcDbMText
 10
1105.7411976002
 20
1267.6118077599
 30
0.0
 40
21.43125
 41
0.0
 71
     1
 72
     1
  1
40.4
  7
SLDTEXTSTYLE0
 73
     1
 44
1.0
  0
MTEXT
  5
29C
330
28A
100
AcDbEntity
  8
SLD-0
100
AcDbMText
 10
1105.7411996957
 20
1229.2141521704
 30
0.0
 40
21.43125
 41
0.0
 71
     1
 72
     1
  1
1.59
  7
SLDTEXTSTYLE0
 73
     1
 44
1.0
  0
MTEXT
  5
29D
330
28A
100
AcDbEntity
  8
SLD-0
100
AcDbMText
 10
1174.1822931293
 20
1267.6118056644
 30
0.0
 40
21.43125
 41
0.0
 71
     1
 72
     1
  1
 
  7
SLDTEXTSTYLE0
 73
     1
 44
1.0
  0
ENDBLK
  5
28C
330
28A
100
AcDbEntity
  8
0
100
AcDbBlockEnd
  0
BLOCK
  5
2A0
330
29F
100
AcDbEntity
  8
0
100
AcDbBlockBegin
  2
SW_NOTE_0_2
 70
     0
 10
0.0
 20
0.0
 30
0.0
  3
SW_NOTE_0_2
  1

  0
LINE
  5
2A2
330
29F
100
AcDbEntity
  8
SLD-0
 62
     0
100
AcDbLine
 10
-51.9447929737
 20
-26.313651192
 30
0.0
 11
-51.9447929737
 21
25.6311417817
 31
0.0
  0
LINE
  5
2A3
330
29F
100
AcDbEntity
  8
SLD-0
 62
     0
100
AcDbLine
 10
-51.9447929737
 20
25.6311417817
 30
0.0
 11
0.0
 21
25.6311417817
 31
0.0
  0
LINE
  5
2A4
330
29F
100
AcDbEntity
  8
SLD-0
 62
     0
100
AcDbLine
 10
0.0
 20
25.6311417817
 30
0.0
 11
0.0
 21
-26.313651192
 31
0.0
  0
LINE
  5
2A5
330
29F
100
AcDbEntity
  8
SLD-0
 62
     0
100
AcDbLine
 10
0.0
 20
-26.313651192
 30
0.0
 11
-51.9447929737
 21
-26.313651192
 31
0.0
  0
MTEXT
  5
2A6
330
29F
100
AcDbEntity
  8
SLD-0
 62
     0
100
AcDbMText
 10
-26.1881972903
 20
10.0924188384
 30
0.0
 40
21.43125
 41
0.0
 71
     2
 72
     1
  1
4
  7
SLDTEXTSTYLE0
 73
     1
 44
1.0
  0
ENDBLK
  5
2A1
330
29F
100
AcDbEntity
  8
0
100
AcDbBlockEnd
  0
BLOCK
  5
2AB
330
2AA
100
AcDbEntity
  8
0
100
AcDbBlockBegin
  2
SW_CENTERMARKSYMBOL_4
 70
     0
 10
0.0
 20
0.0
 30
0.0
  3
SW_CENTERMARKSYMBOL_4
  1

  0
LINE
  5
2AD
330
2AA
100
AcDbEntity
  8
SLD-0
 62
     0
100
AcDbLine
 10
0.0
 20
0.0
 30
0.0
 11
0.0
 21
2.0
 31
0.0
  0
LINE
  5
2AE
330
2AA
100
AcDbEntity
  8
SLD-0
 62
     0
100
AcDbLine
 10
0.0
 20
0.0
 30
0.0
 11
-2.0
 21
0.0
 31
0.0
  0
LINE
  5
2AF
330
2AA
100
AcDbEntity
  8
SLD-0
 62
     0
100
AcDbLine
 10
0.0
 20
0.0
 30
0.0
 11
0.0
 21
-2.0
 31
0.0
  0
LINE
  5
2B0
330
2AA
100
AcDbEntity
  8
SLD-0
 62
     0
100
AcDbLine
 10
0.0
 20
0.0
 30
0.0
 11
2.0
 21
0.0
 31
0.0
  0
LINE
  5
2B1
330
2AA
100
AcDbEntity
  8
SLD-0
 62
     0
100
AcDbLine
 10
0.0
 20
4.0
 30
0.0
 11
0.0
 21
12.0
 31
0.0
  0
LINE
  5
2B2
330
2AA
100
AcDbEntity
  8
SLD-0
 62
     0
100
AcDbLine
 10
-4.0
 20
0.0
 30
0.0
 11
-12.0
 21
0.0
 31
0.0
  0
LINE
  5
2B3
330
2AA
100
AcDbEntity
  8
SLD-0
 62
     0
100
AcDbLine
 10
0.0
 20
-4.0
 30
0.0
 11
0.0
 21
-12.0
 31
0.0
  0
LINE
  5
2B4
330
2AA
100
AcDbEntity
  8
SLD-0
 62
     0
100
AcDbLine
 10
4.0
 20
0.0
 30
0.0
 11
12.0
 21
0.0
 31
0.0
  0
ENDBLK
  5
2AC
330
2AA
100
AcDbEntity
  8
0
100
AcDbBlockEnd
  0
BLOCK
  5
2B7
330
2B6
100
AcDbEntity
  8
0
100
AcDbBlockBegin
  2
SW_CENTERMARKSYMBOL_5
 70
     0
 10
0.0
 20
0.0
 30
0.0
  3
SW_CENTERMARKSYMBOL_5
  1

  0
LINE
  5
2B9
330
2B6
100
AcDbEntity
  8
SLD-0
 62
     0
100
AcDbLine
 10
0.0
 20
0.0
 30
0.0
 11
0.0
 21
2.0
 31
0.0
  0
LINE
  5
2BA
330
2B6
100
AcDbEntity
  8
SLD-0
 62
     0
100
AcDbLine
 10
0.0
 20
0.0
 30
0.0
 11
-2.0
 21
0.0
 31
0.0
  0
LINE
  5
2BB
330
2B6
100
AcDbEntity
  8
SLD-0
 62
     0
100
AcDbLine
 10
0.0
 20
0.0
 30
0.0
 11
0.0
 21
-2.0
 31
0.0
  0
LINE
  5
2BC
330
2B6
100
AcDbEntity
  8
SLD-0
 62
     0
100
AcDbLine
 10
0.0
 20
0.0
 30
0.0
 11
2.0
 21
0.0
 31
0.0
  0
LINE
  5
2BD
330
2B6
100
AcDbEntity
  8
SLD-0
 62
     0
100
AcDbLine
 10
0.0
 20
4.0
 30
0.0
 11
0.0
 21
12.0
 31
0.0
  0
LINE
  5
2BE
330
2B6
100
AcDbEntity
  8
SLD-0
 62
     0
100
AcDbLine
 10
-4.0
 20
0.0
 30
0.0
 11
-12.0
 21
0.0
 31
0.0
  0
LINE
  5
2BF
330
2B6
100
AcDbEntity
  8
SLD-0
 62
     0
100
AcDbLine
 10
0.0
 20
-4.0
 30
0.0
 11
0.0
 21
-12.0
 31
0.0
  0
LINE
  5
2C0
330
2B6
100
AcDbEntity
  8
SLD-0
 62
     0
100
AcDbLine
 10
4.0
 20
0.0
 30
0.0
 11
12.0
 21
0.0
 31
0.0
  0
ENDBLK
  5
2B8
330
2B6
100
AcDbEntity
  8
0
100
AcDbBlockEnd
  0
BLOCK
  5
308
330
307
100
AcDbEntity
  8
0
100
AcDbBlockBegin
  2
_D_13
 70
     0
 10
0.0
 20
0.0
 30
0.0
  3
_D_13
  1

  0
SOLID
  5
30A
330
307
100
AcDbEntity
  8
SLD-0
100
AcDbTrace
 10
3368.399405644
 20
1071.7965491534
 30
0.0
 11
3386.399405644
 21
1069.5465491534
 31
0.0
 12
3386.399405644
 22
1074.0465491534
 32
0.0
 13
3386.399405644
 23
1074.0465491534
 33
0.0
  0
SOLID
  5
30B
330
307
100
AcDbEntity
  8
SLD-0
100
AcDbTrace
 10
3523.399405644
 20
1071.7965491534
 30
0.0
 11
3505.399405644
 21
1074.0465491534
 31
0.0
 12
3505.399405644
 22
1069.5465491534
 32
0.0
 13
3505.399405644
 23
1069.5465491534
 33
0.0
  0
LINE
  5
30C
330
307
100
AcDbEntity
  8
SLD-0
100
AcDbLine
 10
3418.1975299834
 20
1071.7965533443
 30
0.0
 11
3411.6788578794
 21
1071.7965533443
 31
0.0
  0
LINE
  5
30D
330
307
100
AcDbEntity
  8
SLD-0
100
AcDbLine
 10
3411.6788578794
 20
1071.7965533443
 30
0.0
 11
3411.6788578794
 21
1037.7446777605
 31
0.0
  0
LINE
  5
30E
330
307
100
AcDbEntity
  8
SLD-0
100
AcDbLine
 10
3411.6788578794
 20
1037.7446777605
 30
0.0
 11
3418.1975299834
 21
1037.7446777605
 31
0.0
  0
LINE
  5
30F
330
307
100
AcDbEntity
  8
SLD-0
100
AcDbLine
 10
3473.6012813046
 20
1071.7965533443
 30
0.0
 11
3480.1199534086
 21
1071.7965533443
 31
0.0
  0
LINE
  5
310
330
307
100
AcDbEntity
  8
SLD-0
100
AcDbLine
 10
3480.1199534086
 20
1071.7965533443
 30
0.0
 11
3480.1199534086
 21
1037.7446777605
 31
0.0
  0
LINE
  5
311
330
307
100
AcDbEntity
  8
SLD-0
100
AcDbLine
 10
3480.1199534086
 20
1037.7446777605
 30
0.0
 11
3473.6012813046
 21
1037.7446777605
 31
0.0
  0
LINE
  5
312
330
307
100
AcDbEntity
  8
SLD-0
100
AcDbLine
 10
3368.399405644
 20
1168.1903865286
 30
0.0
 11
3368.399405644
 21
1064.9385491534
 31
0.0
  0
LINE
  5
313
330
307
100
AcDbEntity
  8
SLD-0
100
AcDbLine
 10
3523.399405644
 20
1168.1903865286
 30
0.0
 11
3523.399405644
 21
1064.9385491534
 31
0.0
  0
LINE
  5
314
330
307
100
AcDbEntity
  8
SLD-0
100
AcDbLine
 10
3368.399405644
 20
1071.7965491534
 30
0.0
 11
3392.9178258328
 21
1071.7965491534
 31
0.0
  0
LINE
  5
315
330
307
100
AcDbEntity
  8
SLD-0
100
AcDbLine
 10
3523.399405644
 20
1071.7965491534
 30
0.0
 11
3498.8809854552
 21
1071.7965491534
 31
0.0
  0
MTEXT
  5
316
330
307
100
AcDbEntity
  8
SLD-0
100
AcDbMText
 10
3397.2623731352
 20
1103.5174055444
 30
0.0
 40
21.43125
 41
0.0
 71
     1
 72
     1
  1
 
  7
SLDTEXTSTYLE0
 73
     1
 44
1.0
  0
MTEXT
  5
317
330
307
100
AcDbEntity
  8
SLD-0
100
AcDbMText
 10
3410.2798731874
 20
1103.5174076399
 30
0.0
 40
21.43125
 41
0.0
 71
     1
 72
     1
  1
155.0
  7
SLDTEXTSTYLE0
 73
     1
 44
1.0
  0
MTEXT
  5
318
330
307
100
AcDbEntity
  8
SLD-0
100
AcDbMText
 10
3418.1975299834
 20
1065.1197520504
 30
0.0
 40
21.43125
 41
0.0
 71
     1
 72
     1
  1
6.10
  7
SLDTEXTSTYLE0
 73
     1
 44
1.0
  0
MTEXT
  5
319
330
307
100
AcDbEntity
  8
SLD-0
100
AcDbMText
 10
3486.6386234171
 20
1103.5174055444
 30
0.0
 40
21.43125
 41
0.0
 71
     1
 72
     1
  1
 
  7
SLDTEXTSTYLE0
 73
     1
 44
1.0
  0
ENDBLK
  5
309
330
307
100
AcDbEntity
  8
0
100
AcDbBlockEnd
  0
BLOCK
  5
31C
330
31B
100
AcDbEntity
  8
0
100
AcDbBlockBegin
  2
_D_14
 70
     0
 10
0.0
 20
0.0
 30
0.0
  3
_D_14
  1

  0
SOLID
  5
31E
330
31B
100
AcDbEntity
  8
SLD-0
100
AcDbTrace
 10
3788.399405644
 20
1285.0483865286
 30
0.0
 11
3786.149405644
 21
1267.0483865286
 31
0.0
 12
3790.649405644
 22
1267.0483865286
 32
0.0
 13
3790.649405644
 23
1267.0483865286
 33
0.0
  0
SOLID
  5
31F
330
31B
100
AcDbEntity
  8
SLD-0
100
AcDbTrace
 10
3788.399405644
 20
1164.0483865286
 30
0.0
 11
3790.649405644
 21
1182.0483865286
 31
0.0
 12
3786.149405644
 22
1182.0483865286
 32
0.0
 13
3786.149405644
 23
1182.0483865286
 33
0.0
  0
LINE
  5
320
330
31B
100
AcDbEntity
  8
SLD-0
100
AcDbLine
 10
3760.6975299834
 20
1224.5483907196
 30
0.0
 11
3754.1788578795
 21
1224.5483907196
 31
0.0
  0
LINE
  5
321
330
31B
100
AcDbEntity
  8
SLD-0
100
AcDbLine
 10
3754.1788578795
 20
1224.5483907196
 30
0.0
 11
3754.1788578795
 21
1190.4965151357
 31
0.0
  0
LINE
  5
322
330
31B
100
AcDbEntity
  8
SLD-0
100
AcDbLine
 10
3754.1788578795
 20
1190.4965151357
 30
0.0
 11
3760.6975299834
 21
1190.4965151357
 31
0.0
  0
LINE
  5
323
330
31B
100
AcDbEntity
  8
SLD-0
100
AcDbLine
 10
3816.1012813046
 20
1224.5483907196
 30
0.0
 11
3822.6199534086
 21
1224.5483907196
 31
0.0
  0
LINE
  5
324
330
31B
100
AcDbEntity
  8
SLD-0
100
AcDbLine
 10
3822.6199534086
 20
1224.5483907196
 30
0.0
 11
3822.6199534086
 21
1190.4965151357
 31
0.0
  0
LINE
  5
325
330
31B
100
AcDbEntity
  8
SLD-0
100
AcDbLine
 10
3822.6199534086
 20
1190.4965151357
 30
0.0
 11
3816.1012813046
 21
1190.4965151357
 31
0.0
  0
LINE
  5
326
330
31B
100
AcDbEntity
  8
SLD-0
100
AcDbLine
 10
3519.257405644
 20
1285.0483865286
 30
0.0
 11
3795.257405644
 21
1285.0483865286
 31
0.0
  0
LINE
  5
327
330
31B
100
AcDbEntity
  8
SLD-0
100
AcDbLine
 10
3519.257405644
 20
1164.0483865286
 30
0.0
 11
3795.257405644
 21
1164.0483865286
 31
0.0
  0
LINE
  5
328
330
31B
100
AcDbEntity
  8
SLD-0
100
AcDbLine
 10
3788.399405644
 20
1285.0483865286
 30
0.0
 11
3788.399405644
 21
1262.9460442136
 31
0.0
  0
LINE
  5
329
330
31B
100
AcDbEntity
  8
SLD-0
100
AcDbLine
 10
3788.399405644
 20
1164.0483865286
 30
0.0
 11
3788.399405644
 21
1186.1507288436
 31
0.0
  0
MTEXT
  5
32A
330
31B
100
AcDbEntity
  8
SLD-0
100
AcDbMText
 10
3739.7623731352
 20
1256.2692429197
 30
0.0
 40
21.43125
 41
0.0
 71
     1
 72
     1
  1
 
  7
SLDTEXTSTYLE0
 73
     1
 44
1.0
  0
MTEXT
  5
32B
330
31B
100
AcDbEntity
  8
SLD-0
100
AcDbMText
 10
3752.7798731874
 20
1256.2692450152
 30
0.0
 40
21.43125
 41
0.0
 71
     1
 72
     1
  1
121.0
  7
SLDTEXTSTYLE0
 73
     1
 44
1.0
  0
MTEXT
  5
32C
330
31B
100
AcDbEntity
  8
SLD-0
100
AcDbMText
 10
3760.6975299834
 20
1217.8715894257
 30
0.0
 40
21.43125
 41
0.0
 71
     1
 72
     1
  1
4.76
  7
SLDTEXTSTYLE0
 73
     1
 44
1.0
  0
MTEXT
  5
32D
330
31B
100
AcDbEntity
  8
SLD-0
100
AcDbMText
 10
3829.1386234171
 20
1256.2692429197
 30
0.0
 40
21.43125
 41
0.0
 71
     1
 72
     1
  1
 
  7
SLDTEXTSTYLE0
 73
     1
 44
1.0
  0
ENDBLK
  5
31D
330
31B
100
AcDbEntity
  8
0
100
AcDbBlockEnd
  0
BLOCK
  5
330
330
32F
100
AcDbEntity
  8
0
100
AcDbBlockBegin
  2
_D_15
 70
     0
 10
0.0
 20
0.0
 30
0.0
  3
_D_15
  1

  0
SOLID
  5
332
330
32F
100
AcDbEntity
  8
SLD-0
100
AcDbTrace
 10
3788.399405644
 20
1164.0483865286
 30
0.0
 11
3790.649405644
 21
1182.0483865286
 31
0.0
 12
3786.149405644
 22
1182.0483865286
 32
0.0
 13
3786.149405644
 23
1182.0483865286
 33
0.0
  0
SOLID
  5
333
330
32F
100
AcDbEntity
  8
SLD-0
100
AcDbTrace
 10
3788.399405644
 20
1149.5483865286
 30
0.0
 11
3786.149405644
 21
1131.5483865286
 31
0.0
 12
3790.649405644
 22
1131.5483865286
 32
0.0
 13
3790.649405644
 23
1131.5483865286
 33
0.0
  0
LINE
  5
334
330
32F
100
AcDbEntity
  8
SLD-0
100
AcDbLine
 10
3696.8621649686
 20
1071.7965533443
 30
0.0
 11
3690.3434928646
 21
1071.7965533443
 31
0.0
  0
LINE
  5
335
330
32F
100
AcDbEntity
  8
SLD-0
100
AcDbLine
 10
3690.3434928646
 20
1071.7965533443
 30
0.0
 11
3690.3434928646
 21
1037.7446777605
 31
0.0
  0
LINE
  5
336
330
32F
100
AcDbEntity
  8
SLD-0
100
AcDbLine
 10
3690.3434928646
 20
1037.7446777605
 30
0.0
 11
3696.8621649686
 21
1037.7446777605
 31
0.0
  0
LINE
  5
337
330
32F
100
AcDbEntity
  8
SLD-0
100
AcDbLine
 10
3736.4306026976
 20
1071.7965533443
 30
0.0
 11
3742.9492748016
 21
1071.7965533443
 31
0.0
  0
LINE
  5
338
330
32F
100
AcDbEntity
  8
SLD-0
100
AcDbLine
 10
3742.9492748016
 20
1071.7965533443
 30
0.0
 11
3742.9492748016
 21
1037.7446777605
 31
0.0
  0
LINE
  5
339
330
32F
100
AcDbEntity
  8
SLD-0
100
AcDbLine
 10
3742.9492748016
 20
1037.7446777605
 30
0.0
 11
3736.4306026976
 21
1037.7446777605
 31
0.0
  0
LINE
  5
33A
330
32F
100
AcDbEntity
  8
SLD-0
100
AcDbLine
 10
3519.257405644
 20
1164.0483865286
 30
0.0
 11
3795.257405644
 21
1164.0483865286
 31
0.0
  0
LINE
  5
33B
330
32F
100
AcDbEntity
  8
SLD-0
100
AcDbLine
 10
3715.257405644
 20
1149.5483865286
 30
0.0
 11
3795.257405644
 21
1149.5483865286
 31
0.0
  0
LINE
  5
33C
330
32F
100
AcDbEntity
  8
SLD-0
100
AcDbLine
 10
3770.399405644
 20
1071.7965491534
 30
0.0
 11
3788.399405644
 21
1071.7965491534
 31
0.0
  0
LINE
  5
33D
330
32F
100
AcDbEntity
  8
SLD-0
100
AcDbLine
 10
3788.399405644
 20
1071.7965491534
 30
0.0
 11
3788.399405644
 21
1149.5483865286
 31
0.0
  0
LINE
  5
33E
330
32F
100
AcDbEntity
  8
SLD-0
100
AcDbLine
 10
3788.399405644
 20
1164.0483865286
 30
0.0
 11
3788.399405644
 21
1200.0483865286
 31
0.0
  0
MTEXT
  5
33F
330
32F
100
AcDbEntity
  8
SLD-0
100
AcDbMText
 10
3675.9270081203
 20
1103.5174055444
 30
0.0
 40
21.43125
 41
0.0
 71
     1
 72
     1
  1
 
  7
SLDTEXTSTYLE0
 73
     1
 44
1.0
  0
MTEXT
  5
340
330
32F
100
AcDbEntity
  8
SLD-0
100
AcDbMText
 10
3688.9445081725
 20
1103.5174076399
 30
0.0
 40
21.43125
 41
0.0
 71
     1
 72
     1
  1
14.5
  7
SLDTEXTSTYLE0
 73
     1
 44
1.0
  0
MTEXT
  5
341
330
32F
100
AcDbEntity
  8
SLD-0
100
AcDbMText
 10
3696.8621649686
 20
1065.1197520504
 30
0.0
 40
21.43125
 41
0.0
 71
     1
 72
     1
  1
.57
  7
SLDTEXTSTYLE0
 73
     1
 44
1.0
  0
MTEXT
  5
342
330
32F
100
AcDbEntity
  8
SLD-0
100
AcDbMText
 10
3749.4679490011
 20
1103.5174055444
 30
0.0
 40
21.43125
 41
0.0
 71
     1
 72
     1
  1
 
  7
SLDTEXTSTYLE0
 73
     1
 44
1.0
  0
ENDBLK
  5
331
330
32F
100
AcDbEntity
  8
0
100
AcDbBlockEnd
  0
BLOCK
  5
345
330
344
100
AcDbEntity
  8
0
100
AcDbBlockBegin
  2
_D_16
 70
     0
 10
0.0
 20
0.0
 30
0.0
  3
_D_16
  1

  0
SOLID
  5
347
330
344
100
AcDbEntity
  8
SLD-0
100
AcDbTrace
 10
3368.399405644
 20
1071.7965491534
 30
0.0
 11
3350.399405644
 21
1074.0465491534
 31
0.0
 12
3350.399405644
 22
1069.5465491534
 32
0.0
 13
3350.399405644
 23
1069.5465491534
 33
0.0
  0
SOLID
  5
348
330
344
100
AcDbEntity
  8
SLD-0
100
AcDbTrace
 10
3183.399405644
 20
1071.7965491534
 30
0.0
 11
3201.399405644
 21
1069.5465491534
 31
0.0
 12
3201.399405644
 22
1074.0465491534
 32
0.0
 13
3201.399405644
 23
1074.0465491534
 33
0.0
  0
LINE
  5
349
330
344
100
AcDbEntity
  8
SLD-0
100
AcDbLine
 10
3246.5898959977
 20
1071.7965533443
 30
0.0
 11
3240.0712238937
 21
1071.7965533443
 31
0.0
  0
LINE
  5
34A
330
344
100
AcDbEntity
  8
SLD-0
100
AcDbLine
 10
3240.0712238937
 20
1071.7965533443
 30
0.0
 11
3240.0712238937
 21
1037.7446777605
 31
0.0
  0
LINE
  5
34B
330
344
100
AcDbEntity
  8
SLD-0
100
AcDbLine
 10
3240.0712238937
 20
1037.7446777605
 30
0.0
 11
3246.5898959977
 21
1037.7446777605
 31
0.0
  0
LINE
  5
34C
330
344
100
AcDbEntity
  8
SLD-0
100
AcDbLine
 10
3301.9936473188
 20
1071.7965533443
 30
0.0
 11
3308.5123194228
 21
1071.7965533443
 31
0.0
  0
LINE
  5
34D
330
344
100
AcDbEntity
  8
SLD-0
100
AcDbLine
 10
3308.5123194228
 20
1071.7965533443
 30
0.0
 11
3308.5123194228
 21
1037.7446777605
 31
0.0
  0
LINE
  5
34E
330
344
100
AcDbEntity
  8
SLD-0
100
AcDbLine
 10
3308.5123194228
 20
1037.7446777605
 30
0.0
 11
3301.9936473188
 21
1037.7446777605
 31
0.0
  0
LINE
  5
34F
330
344
100
AcDbEntity
  8
SLD-0
100
AcDbLine
 10
3368.399405644
 20
1168.1903865286
 30
0.0
 11
3368.399405644
 21
1064.9385491534
 31
0.0
  0
LINE
  5
350
330
344
100
AcDbEntity
  8
SLD-0
100
AcDbLine
 10
3183.399405644
 20
1142.6903865286
 30
0.0
 11
3183.399405644
 21
1064.9385491534
 31
0.0
  0
LINE
  5
351
330
344
100
AcDbEntity
  8
SLD-0
100
AcDbLine
 10
3368.399405644
 20
1071.7965491534
 30
0.0
 11
3327.2733514695
 21
1071.7965491534
 31
0.0
  0
LINE
  5
352
330
344
100
AcDbEntity
  8
SLD-0
100
AcDbLine
 10
3183.399405644
 20
1071.7965491534
 30
0.0
 11
3221.310191847
 21
1071.7965491534
 31
0.0
  0
MTEXT
  5
353
330
344
100
AcDbEntity
  8
SLD-0
100
AcDbMText
 10
3225.6547391494
 20
1103.5174055444
 30
0.0
 40
21.43125
 41
0.0
 71
     1
 72
     1
  1
 
  7
SLDTEXTSTYLE0
 73
     1
 44
1.0
  0
MTEXT
  5
354
330
344
100
AcDbEntity
  8
SLD-0
100
AcDbMText
 10
3238.6722392017
 20
1103.5174076399
 30
0.0
 40
21.43125
 41
0.0
 71
     1
 72
     1
  1
185.0
  7
SLDTEXTSTYLE0
 73
     1
 44
1.0
  0
MTEXT
  5
355
330
344
100
AcDbEntity
  8
SLD-0
100
AcDbMText
 10
3246.5898959977
 20
1065.1197520504
 30
0.0
 40
21.43125
 41
0.0
 71
     1
 72
     1
  1
7.28
  7
SLDTEXTSTYLE0
 73
     1
 44
1.0
  0
MTEXT
  5
356
330
344
100
AcDbEntity
  8
SLD-0
100
AcDbMText
 10
3315.0309894314
 20
1103.5174055444
 30
0.0
 40
21.43125
 41
0.0
 71
     1
 72
     1
  1
 
  7
SLDTEXTSTYLE0
 73
     1
 44
1.0
  0
ENDBLK
  5
346
330
344
100
AcDbEntity
  8
0
100
AcDbBlockEnd
  0
BLOCK
  5
362
330
361
100
AcDbEntity
  8
0
100
AcDbBlockBegin
  2
_D_17
 70
     0
 10
0.0
 20
0.0
 30
0.0
  3
_D_17
  1

  0
SOLID
  5
364
330
361
100
AcDbEntity
  8
SLD-0
100
AcDbTrace
 10
1952.2169441553
 20
2310.8416878518
 30
0.0
 11
1949.9669441553
 21
2292.8416878518
 31
0.0
 12
1954.4669441553
 22
2292.8416878518
 32
0.0
 13
1954.4669441553
 23
2292.8416878518
 33
0.0
  0
SOLID
  5
365
330
361
100
AcDbEntity
  8
SLD-0
100
AcDbTrace
 10
1952.2169441553
 20
1900.8416878518
 30
0.0
 11
1954.4669441553
 21
1918.8416878518
 31
0.0
 12
1949.9669441553
 22
1918.8416878518
 32
0.0
 13
1949.9669441553
 23
1918.8416878518
 33
0.0
  0
LINE
  5
366
330
361
100
AcDbEntity
  8
SLD-0
100
AcDbLine
 10
1916.5974137942
 20
2105.8416920428
 30
0.0
 11
1910.0787416902
 21
2105.8416920428
 31
0.0
  0
LINE
  5
367
330
361
100
AcDbEntity
  8
SLD-0
100
AcDbLine
 10
1910.0787416902
 20
2105.8416920428
 30
0.0
 11
1910.0787416902
 21
2071.789816459
 31
0.0
  0
LINE
  5
368
330
361
100
AcDbEntity
  8
SLD-0
100
AcDbLine
 10
1910.0787416902
 20
2071.789816459
 30
0.0
 11
1916.5974137942
 21
2071.789816459
 31
0.0
  0
LINE
  5
369
330
361
100
AcDbEntity
  8
SLD-0
100
AcDbLine
 10
1987.8364745165
 20
2105.8416920428
 30
0.0
 11
1994.3551466205
 21
2105.8416920428
 31
0.0
  0
LINE
  5
36A
330
361
100
AcDbEntity
  8
SLD-0
100
AcDbLine
 10
1994.3551466205
 20
2105.8416920428
 30
0.0
 11
1994.3551466205
 21
2071.789816459
 31
0.0
  0
LINE
  5
36B
330
361
100
AcDbEntity
  8
SLD-0
100
AcDbLine
 10
1994.3551466205
 20
2071.789816459
 30
0.0
 11
1987.8364745165
 21
2071.789816459
 31
0.0
  0
LINE
  5
36C
330
361
100
AcDbEntity
  8
SLD-0
100
AcDbLine
 10
1840.6749441553
 20
2310.8416878518
 30
0.0
 11
1959.0749441553
 21
2310.8416878518
 31
0.0
  0
LINE
  5
36D
330
361
100
AcDbEntity
  8
SLD-0
100
AcDbLine
 10
1840.6749441553
 20
1900.8416878518
 30
0.0
 11
1959.0749441553
 21
1900.8416878518
 31
0.0
  0
LINE
  5
36E
330
361
100
AcDbEntity
  8
SLD-0
100
AcDbLine
 10
1952.2169441553
 20
2310.8416878518
 30
0.0
 11
1952.2169441553
 21
2144.2393455368
 31
0.0
  0
LINE
  5
36F
330
361
100
AcDbEntity
  8
SLD-0
100
AcDbLine
 10
1952.2169441553
 20
1900.8416878518
 30
0.0
 11
1952.2169441553
 21
2067.4440301669
 31
0.0
  0
MTEXT
  5
370
330
361
100
AcDbEntity
  8
SLD-0
100
AcDbMText
 10
1895.6622569459
 20
2137.5625442429
 30
0.0
 40
21.43125
 41
0.0
 71
     1
 72
     1
  1
 
  7
SLDTEXTSTYLE0
 73
     1
 44
1.0
  0
MTEXT
  5
371
330
361
100
AcDbEntity
  8
SLD-0
100
AcDbMText
 10
1916.5974116987
 20
2137.5625463384
 30
0.0
 40
21.43125
 41
0.0
 71
     1
 72
     1
  1
410.0
  7
SLDTEXTSTYLE0
 73
     1
 44
1.0
  0
MTEXT
  5
372
330
361
100
AcDbEntity
  8
SLD-0
100
AcDbMText
 10
1916.5974137942
 20
2099.1648907489
 30
0.0
 40
21.43125
 41
0.0
 71
     1
 72
     1
  1
16.14
  7
SLDTEXTSTYLE0
 73
     1
 44
1.0
  0
MTEXT
  5
373
330
361
100
AcDbEntity
  8
SLD-0
100
AcDbMText
 10
2000.873816629
 20
2137.5625442429
 30
0.0
 40
21.43125
 41
0.0
 71
     1
 72
     1
  1
 
  7
SLDTEXTSTYLE0
 73
     1
 44
1.0
  0
ENDBLK
  5
363
330
361
100
AcDbEntity
  8
0
100
AcDbBlockEnd
  0
BLOCK
  5
376
330
375
100
AcDbEntity
  8
0
100
AcDbBlockBegin
  2
_D_18
 70
     0
 10
0.0
 20
0.0
 30
0.0
  3
_D_18
  1

  0
SOLID
  5
378
330
375
100
AcDbEntity
  8
SLD-0
100
AcDbTrace
 10
1952.2169441553
 20
1900.8416878518
 30
0.0
 11
1949.9669441553
 21
1882.8416878518
 31
0.0
 12
1954.4669441553
 22
1882.8416878518
 32
0.0
 13
1954.4669441553
 23
1882.8416878518
 33
0.0
  0
SOLID
  5
379
330
375
100
AcDbEntity
  8
SLD-0
100
AcDbTrace
 10
1952.2169441553
 20
1800.8416878518
 30
0.0
 11
1954.4669441553
 21
1818.8416878518
 31
0.0
 12
1949.9669441553
 22
1818.8416878518
 32
0.0
 13
1949.9669441553
 23
1818.8416878518
 33
0.0
  0
LINE
  5
37A
330
375
100
AcDbEntity
  8
SLD-0
100
AcDbLine
 10
2004.1857429107
 20
1730.2058135576
 30
0.0
 11
1997.6670708068
 21
1730.2058135576
 31
0.0
  0
LINE
  5
37B
330
375
100
AcDbEntity
  8
SLD-0
100
AcDbLine
 10
1997.6670708068
 20
1730.2058135576
 30
0.0
 11
1997.6670708068
 21
1696.1539379737
 31
0.0
  0
LINE
  5
37C
330
375
100
AcDbEntity
  8
SLD-0
100
AcDbLine
 10
1997.6670708068
 20
1696.1539379737
 30
0.0
 11
2004.1857429107
 21
1696.1539379737
 31
0.0
  0
LINE
  5
37D
330
375
100
AcDbEntity
  8
SLD-0
100
AcDbLine
 10
2059.5894942319
 20
1730.2058135576
 30
0.0
 11
2066.1081663359
 21
1730.2058135576
 31
0.0
  0
LINE
  5
37E
330
375
100
AcDbEntity
  8
SLD-0
100
AcDbLine
 10
2066.1081663359
 20
1730.2058135576
 30
0.0
 11
2066.1081663359
 21
1696.1539379737
 31
0.0
  0
LINE
  5
37F
330
375
100
AcDbEntity
  8
SLD-0
100
AcDbLine
 10
2066.1081663359
 20
1696.1539379737
 30
0.0
 11
2059.5894942319
 21
1696.1539379737
 31
0.0
  0
LINE
  5
380
330
375
100
AcDbEntity
  8
SLD-0
100
AcDbLine
 10
1840.6749441553
 20
1900.8416878518
 30
0.0
 11
1959.0749441553
 21
1900.8416878518
 31
0.0
  0
LINE
  5
381
330
375
100
AcDbEntity
  8
SLD-0
100
AcDbLine
 10
1869.0749441553
 20
1800.8416878518
 30
0.0
 11
1959.0749441553
 21
1800.8416878518
 31
0.0
  0
LINE
  5
382
330
375
100
AcDbEntity
  8
SLD-0
100
AcDbLine
 10
1970.2169441553
 20
1730.2058093666
 30
0.0
 11
1952.2169441553
 21
1730.2058093666
 31
0.0
  0
LINE
  5
383
330
375
100
AcDbEntity
  8
SLD-0
100
AcDbLine
 10
1952.2169441553
 20
1730.2058093666
 30
0.0
 11
1952.2169441553
 21
1800.8416878518
 31
0.0
  0
LINE
  5
384
330
375
100
AcDbEntity
  8
SLD-0
100
AcDbLine
 10
1952.2169441553
 20
1900.8416878518
 30
0.0
 11
1952.2169441553
 21
1800.8416878518
 31
0.0
  0
MTEXT
  5
385
330
375
100
AcDbEntity
  8
SLD-0
100
AcDbMText
 10
1983.2505860625
 20
1761.9266657577
 30
0.0
 40
21.43125
 41
0.0
 71
     1
 72
     1
  1
 
  7
SLDTEXTSTYLE0
 73
     1
 44
1.0
  0
MTEXT
  5
386
330
375
100
AcDbEntity
  8
SLD-0
100
AcDbMText
 10
1996.2680861147
 20
1761.9266678532
 30
0.0
 40
21.43125
 41
0.0
 71
     1
 72
     1
  1
100.0
  7
SLDTEXTSTYLE0
 73
     1
 44
1.0
  0
MTEXT
  5
387
330
375
100
AcDbEntity
  8
SLD-0
100
AcDbMText
 10
2004.1857429107
 20
1723.5290122637
 30
0.0
 40
21.43125
 41
0.0
 71
     1
 72
     1
  1
3.94
  7
SLDTEXTSTYLE0
 73
     1
 44
1.0
  0
MTEXT
  5
388
330
375
100
AcDbEntity
  8
SLD-0
100
AcDbMText
 10
2072.6268363444
 20
1761.9266657577
 30
0.0
 40
21.43125
 41
0.0
 71
     1
 72
     1
  1
 
  7
SLDTEXTSTYLE0
 73
     1
 44
1.0
  0
ENDBLK
  5
377
330
375
100
AcDbEntity
  8
0
100
AcDbBlockEnd
  0
BLOCK
  5
38B
330
38A
100
AcDbEntity
  8
0
100
AcDbBlockBegin
  2
_D_19
 70
     0
 10
0.0
 20
0.0
 30
0.0
  3
_D_19
  1

  0
SOLID
  5
38D
330
38A
100
AcDbEntity
  8
SLD-0
100
AcDbTrace
 10
1821.8169441553
 20
1730.2058093666
 30
0.0
 11
1803.8169441553
 21
1732.4558093666
 31
0.0
 12
1803.8169441553
 22
1727.9558093666
 32
0.0
 13
1803.8169441553
 23
1727.9558093666
 33
0.0
  0
SOLID
  5
38E
330
38A
100
AcDbEntity
  8
SLD-0
100
AcDbTrace
 10
1862.2169441553
 20
1730.2058093666
 30
0.0
 11
1880.2169441553
 21
1727.9558093666
 31
0.0
 12
1880.2169441553
 22
1732.4558093666
 32
0.0
 13
1880.2169441553
 23
1732.4558093666
 33
0.0
  0
LINE
  5
38F
330
38A
100
AcDbEntity
  8
SLD-0
100
AcDbLine
 10
1680.9830526825
 20
1730.2058135576
 30
0.0
 11
1674.4643805785
 21
1730.2058135576
 31
0.0
  0
LINE
  5
390
330
38A
100
AcDbEntity
  8
SLD-0
100
AcDbLine
 10
1674.4643805785
 20
1730.2058135576
 30
0.0
 11
1674.4643805785
 21
1696.1539379737
 31
0.0
  0
LINE
  5
391
330
38A
100
AcDbEntity
  8
SLD-0
100
AcDbLine
 10
1674.4643805785
 20
1696.1539379737
 30
0.0
 11
1680.9830526825
 21
1696.1539379737
 31
0.0
  0
LINE
  5
392
330
38A
100
AcDbEntity
  8
SLD-0
100
AcDbLine
 10
1736.3868040036
 20
1730.2058135576
 30
0.0
 11
1742.9054761076
 21
1730.2058135576
 31
0.0
  0
LINE
  5
393
330
38A
100
AcDbEntity
  8
SLD-0
100
AcDbLine
 10
1742.9054761076
 20
1730.2058135576
 30
0.0
 11
1742.9054761076
 21
1696.1539379737
 31
0.0
  0
LINE
  5
394
330
38A
100
AcDbEntity
  8
SLD-0
100
AcDbLine
 10
1742.9054761076
 20
1696.1539379737
 30
0.0
 11
1736.3868040036
 21
1696.1539379737
 31
0.0
  0
LINE
  5
395
330
38A
100
AcDbEntity
  8
SLD-0
100
AcDbLine
 10
1821.8169441553
 20
1881.9836878518
 30
0.0
 11
1821.8169441553
 21
1723.3478093666
 31
0.0
  0
LINE
  5
396
330
38A
100
AcDbEntity
  8
SLD-0
100
AcDbLine
 10
1862.2169441553
 20
1793.9836878518
 30
0.0
 11
1862.2169441553
 21
1723.3478093666
 31
0.0
  0
LINE
  5
397
330
38A
100
AcDbEntity
  8
SLD-0
100
AcDbLine
 10
1821.8169441553
 20
1730.2058093666
 30
0.0
 11
1761.6665081543
 21
1730.2058093666
 31
0.0
  0
LINE
  5
398
330
38A
100
AcDbEntity
  8
SLD-0
100
AcDbLine
 10
1862.2169441553
 20
1730.2058093666
 30
0.0
 11
1898.2169441553
 21
1730.2058093666
 31
0.0
  0
MTEXT
  5
399
330
38A
100
AcDbEntity
  8
SLD-0
100
AcDbMText
 10
1660.0478958342
 20
1761.9266657577
 30
0.0
 40
21.43125
 41
0.0
 71
     1
 72
     1
  1
 
  7
SLDTEXTSTYLE0
 73
     1
 44
1.0
  0
MTEXT
  5
39A
330
38A
100
AcDbEntity
  8
SLD-0
100
AcDbMText
 10
1680.983050587
 20
1761.9266678532
 30
0.0
 40
21.43125
 41
0.0
 71
     1
 72
     1
  1
40.4
  7
SLDTEXTSTYLE0
 73
     1
 44
1.0
  0
MTEXT
  5
39B
330
38A
100
AcDbEntity
  8
SLD-0
100
AcDbMText
 10
1680.9830526825
 20
1723.5290122637
 30
0.0
 40
21.43125
 41
0.0
 71
     1
 72
     1
  1
1.59
  7
SLDTEXTSTYLE0
 73
     1
 44
1.0
  0
MTEXT
  5
39C
330
38A
100
AcDbEntity
  8
SLD-0
100
AcDbMText
 10
1749.4241461162
 20
1761.9266657577
 30
0.0
 40
21.43125
 41
0.0
 71
     1
 72
     1
  1
 
  7
SLDTEXTSTYLE0
 73
     1
 44
1.0
  0
ENDBLK
  5
38C
330
38A
100
AcDbEntity
  8
0
100
AcDbBlockEnd
  0
BLOCK
  5
39F
330
39E
100
AcDbEntity
  8
0
100
AcDbBlockBegin
  2
_D_20
 70
     0
 10
0.0
 20
0.0
 30
0.0
  3
_D_20
  1

  0
SOLID
  5
3A1
330
39E
100
AcDbEntity
  8
SLD-0
100
AcDbTrace
 10
1247.2169441553
 20
2410.8416878518
 30
0.0
 11
1244.9669441553
 21
2392.8416878518
 31
0.0
 12
1249.4669441553
 22
2392.8416878518
 32
0.0
 13
1249.4669441553
 23
2392.8416878518
 33
0.0
  0
SOLID
  5
3A2
330
39E
100
AcDbEntity
  8
SLD-0
100
AcDbTrace
 10
1247.2169441553
 20
1800.8416878518
 30
0.0
 11
1249.4669441553
 21
1818.8416878518
 31
0.0
 12
1244.9669441553
 22
1818.8416878518
 32
0.0
 13
1244.9669441553
 23
1818.8416878518
 33
0.0
  0
LINE
  5
3A3
330
39E
100
AcDbEntity
  8
SLD-0
100
AcDbLine
 10
1211.5974137942
 20
2105.8416920428
 30
0.0
 11
1205.0787416902
 21
2105.8416920428
 31
0.0
  0
LINE
  5
3A4
330
39E
100
AcDbEntity
  8
SLD-0
100
AcDbLine
 10
1205.0787416902
 20
2105.8416920428
 30
0.0
 11
1205.0787416902
 21
2071.789816459
 31
0.0
  0
LINE
  5
3A5
330
39E
100
AcDbEntity
  8
SLD-0
100
AcDbLine
 10
1205.0787416902
 20
2071.789816459
 30
0.0
 11
1211.5974137942
 21
2071.789816459
 31
0.0
  0
LINE
  5
3A6
330
39E
100
AcDbEntity
  8
SLD-0
100
AcDbLine
 10
1282.8364745165
 20
2105.8416920428
 30
0.0
 11
1289.3551466205
 21
2105.8416920428
 31
0.0
  0
LINE
  5
3A7
330
39E
100
AcDbEntity
  8
SLD-0
100
AcDbLine
 10
1289.3551466205
 20
2105.8416920428
 30
0.0
 11
1289.3551466205
 21
2071.789816459
 31
0.0
  0
LINE
  5
3A8
330
39E
100
AcDbEntity
  8
SLD-0
100
AcDbLine
 10
1289.3551466205
 20
2071.789816459
 30
0.0
 11
1282.8364745165
 21
2071.789816459
 31
0.0
  0
LINE
  5
3A9
330
39E
100
AcDbEntity
  8
SLD-0
100
AcDbLine
 10
1330.3589441553
 20
2410.8416878518
 30
0.0
 11
1240.3589441553
 21
2410.8416878518
 31
0.0
  0
LINE
  5
3AA
330
39E
100
AcDbEntity
  8
SLD-0
100
AcDbLine
 10
1330.3589441553
 20
1800.8416878518
 30
0.0
 11
1240.3589441553
 21
1800.8416878518
 31
0.0
  0
LINE
  5
3AB
330
39E
100
AcDbEntity
  8
SLD-0
100
AcDbLine
 10
1247.2169441553
 20
2410.8416878518
 30
0.0
 11
1247.2169441553
 21
2144.2393455368
 31
0.0
  0
LINE
  5
3AC
330
39E
100
AcDbEntity
  8
SLD-0
100
AcDbLine
 10
1247.2169441553
 20
1800.8416878518
 30
0.0
 11
1247.2169441553
 21
2067.4440301669
 31
0.0
  0
MTEXT
  5
3AD
330
39E
100
AcDbEntity
  8
SLD-0
100
AcDbMText
 10
1190.6622569459
 20
2137.5625442429
 30
0.0
 40
21.43125
 41
0.0
 71
     1
 72
     1
  1
 
  7
SLDTEXTSTYLE0
 73
     1
 44
1.0
  0
MTEXT
  5
3AE
330
39E
100
AcDbEntity
  8
SLD-0
100
AcDbMText
 10
1211.5974116987
 20
2137.5625463384
 30
0.0
 40
21.43125
 41
0.0
 71
     1
 72
     1
  1
610.0
  7
SLDTEXTSTYLE0
 73
     1
 44
1.0
  0
MTEXT
  5
3AF
330
39E
100
AcDbEntity
  8
SLD-0
100
AcDbMText
 10
1211.5974137942
 20
2099.1648907489
 30
0.0
 40
21.43125
 41
0.0
 71
     1
 72
     1
  1
24.02
  7
SLDTEXTSTYLE0
 73
     1
 44
1.0
  0
MTEXT
  5
3B0
330
39E
100
AcDbEntity
  8
SLD-0
100
AcDbMText
 10
1295.873816629
 20
2137.5625442429
 30
0.0
 40
21.43125
 41
0.0
 71
     1
 72
     1
  1
 
  7
SLDTEXTSTYLE0
 73
     1
 44
1.0
  0
ENDBLK
  5
3A0
330
39E
100
AcDbEntity
  8
0
100
AcDbBlockEnd
  0
BLOCK
  5
3B2
330
3B1
100
AcDbEntity
  8
0
100
AcDbBlockBegin
  2
SW_NOTE_0_3
 70
     0
 10
0.0
 20
0.0
 30
0.0
  3
SW_NOTE_0_3
  1

  0
LINE
  5
3B4
330
3B1
100
AcDbEntity
  8
SLD-0
 62
     0
100
AcDbLine
 10
0.0
 20
-27.4428858218
 30
0.0
 11
0.0
 21
24.5019071518
 31
0.0
  0
LINE
  5
3B5
330
3B1
100
AcDbEntity
  8
SLD-0
 62
     0
100
AcDbLine
 10
0.0
 20
24.5019071518
 30
0.0
 11
51.9447929737
 21
24.5019071518
 31
0.0
  0
LINE
  5
3B6
330
3B1
100
AcDbEntity
  8
SLD-0
 62
     0
100
AcDbLine
 10
51.9447929737
 20
24.5019071518
 30
0.0
 11
51.9447929737
 21
-27.4428858218
 31
0.0
  0
LINE
  5
3B7
330
3B1
100
AcDbEntity
  8
SLD-0
 62
     0
100
AcDbLine
 10
51.9447929737
 20
-27.4428858218
 30
0.0
 11
0.0
 21
-27.4428858218
 31
0.0
  0
MTEXT
  5
3B8
330
3B1
100
AcDbEntity
  8
SLD-0
 62
     0
100
AcDbMText
 10
25.7565956834
 20
8.9631842085
 30
0.0
 40
21.43125
 41
0.0
 71
     2
 72
     1
  1
4
  7
SLDTEXTSTYLE0
 73
     1
 44
1.0
  0
ENDBLK
  5
3B3
330
3B1
100
AcDbEntity
  8
0
100
AcDbBlockEnd
  0
BLOCK
  5
3BD
330
3BC
100
AcDbEntity
  8
0
100
AcDbBlockBegin
  2
SW_CENTERMARKSYMBOL_6
 70
     0
 10
0.0
 20
0.0
 30
0.0
  3
SW_CENTERMARKSYMBOL_6
  1

  0
LINE
  5
3BF
330
3BC
100
AcDbEntity
  8
SLD-0
 62
     0
100
AcDbLine
 10
0.0
 20
0.0
 30
0.0
 11
0.0
 21
2.0
 31
0.0
  0
LINE
  5
3C0
330
3BC
100
AcDbEntity
  8
SLD-0
 62
     0
100
AcDbLine
 10
0.0
 20
0.0
 30
0.0
 11
-2.0
 21
0.0
 31
0.0
  0
LINE
  5
3C1
330
3BC
100
AcDbEntity
  8
SLD-0
 62
     0
100
AcDbLine
 10
0.0
 20
0.0
 30
0.0
 11
0.0
 21
-2.0
 31
0.0
  0
LINE
  5
3C2
330
3BC
100
AcDbEntity
  8
SLD-0
 62
     0
100
AcDbLine
 10
0.0
 20
0.0
 30
0.0
 11
2.0
 21
0.0
 31
0.0
  0
LINE
  5
3C3
330
3BC
100
AcDbEntity
  8
SLD-0
 62
     0
100
AcDbLine
 10
0.0
 20
4.0
 30
0.0
 11
0.0
 21
12.0
 31
0.0
  0
LINE
  5
3C4
330
3BC
100
AcDbEntity
  8
SLD-0
 62
     0
100
AcDbLine
 10
-4.0
 20
0.0
 30
0.0
 11
-12.0
 21
0.0
 31
0.0
  0
LINE
  5
3C5
330
3BC
100
AcDbEntity
  8
SLD-0
 62
     0
100
AcDbLine
 10
0.0
 20
-4.0
 30
0.0
 11
0.0
 21
-12.0
 31
0.0
  0
LINE
  5
3C6
330
3BC
100
AcDbEntity
  8
SLD-0
 62
     0
100
AcDbLine
 10
4.0
 20
0.0
 30
0.0
 11
12.0
 21
0.0
 31
0.0
  0
ENDBLK
  5
3BE
330
3BC
100
AcDbEntity
  8
0
100
AcDbBlockEnd
  0
BLOCK
  5
3C9
330
3C8
100
AcDbEntity
  8
0
100
AcDbBlockBegin
  2
SW_CENTERMARKSYMBOL_7
 70
     0
 10
0.0
 20
0.0
 30
0.0
  3
SW_CENTERMARKSYMBOL_7
  1

  0
LINE
  5
3CB
330
3C8
100
AcDbEntity
  8
SLD-0
 62
     0
100
AcDbLine
 10
0.0
 20
0.0
 30
0.0
 11
0.0
 21
2.0
 31
0.0
  0
LINE
  5
3CC
330
3C8
100
AcDbEntity
  8
SLD-0
 62
     0
100
AcDbLine
 10
0.0
 20
0.0
 30
0.0
 11
-2.0
 21
0.0
 31
0.0
  0
LINE
  5
3CD
330
3C8
100
AcDbEntity
  8
SLD-0
 62
     0
100
AcDbLine
 10
0.0
 20
0.0
 30
0.0
 11
0.0
 21
-2.0
 31
0.0
  0
LINE
  5
3CE
330
3C8
100
AcDbEntity
  8
SLD-0
 62
     0
100
AcDbLine
 10
0.0
 20
0.0
 30
0.0
 11
2.0
 21
0.0
 31
0.0
  0
LINE
  5
3CF
330
3C8
100
AcDbEntity
  8
SLD-0
 62
     0
100
AcDbLine
 10
0.0
 20
4.0
 30
0.0
 11
0.0
 21
12.0
 31
0.0
  0
LINE
  5
3D0
330
3C8
100
AcDbEntity
  8
SLD-0
 62
     0
100
AcDbLine
 10
-4.0
 20
0.0
 30
0.0
 11
-12.0
 21
0.0
 31
0.0
  0
LINE
  5
3D1
330
3C8
100
AcDbEntity
  8
SLD-0
 62
     0
100
AcDbLine
 10
0.0
 20
-4.0
 30
0.0
 11
0.0
 21
-12.0
 31
0.0
  0
LINE
  5
3D2
330
3C8
100
AcDbEntity
  8
SLD-0
 62
     0
100
AcDbLine
 10
4.0
 20
0.0
 30
0.0
 11
12.0
 21
0.0
 31
0.0
  0
ENDBLK
  5
3CA
330
3C8
100
AcDbEntity
  8
0
100
AcDbBlockEnd
  0
BLOCK
  5
452
330
451
100
AcDbEntity
  8
0
100
AcDbBlockBegin
  2
_D_21
 70
     0
 10
0.0
 20
0.0
 30
0.0
  3
_D_21
  1

  0
SOLID
  5
454
330
451
100
AcDbEntity
  8
SLD-0
100
AcDbTrace
 10
1377.6169441553
 20
912.4043050362
 30
0.0
 11
1395.6169441553
 21
910.1543050362
 31
0.0
 12
1395.6169441553
 22
914.6543050362
 32
0.0
 13
1395.6169441553
 23
914.6543050362
 33
0.0
  0
SOLID
  5
455
330
451
100
AcDbEntity
  8
SLD-0
100
AcDbTrace
 10
1821.8169441553
 20
912.4043050362
 30
0.0
 11
1803.8169441553
 21
914.6543050362
 31
0.0
 12
1803.8169441553
 22
910.1543050362
 32
0.0
 13
1803.8169441553
 23
910.1543050362
 33
0.0
  0
LINE
  5
456
330
451
100
AcDbEntity
  8
SLD-0
100
AcDbLine
 10
1564.0974137942
 20
912.4043092272
 30
0.0
 11
1557.5787416902
 21
912.4043092272
 31
0.0
  0
LINE
  5
457
330
451
100
AcDbEntity
  8
SLD-0
100
AcDbLine
 10
1557.5787416902
 20
912.4043092272
 30
0.0
 11
1557.5787416902
 21
878.3524336433
 31
0.0
  0
LINE
  5
458
330
451
100
AcDbEntity
  8
SLD-0
100
AcDbLine
 10
1557.5787416902
 20
878.3524336433
 30
0.0
 11
1564.0974137942
 21
878.3524336433
 31
0.0
  0
LINE
  5
459
330
451
100
AcDbEntity
  8
SLD-0
100
AcDbLine
 10
1635.3364745165
 20
912.4043092272
 30
0.0
 11
1641.8551466205
 21
912.4043092272
 31
0.0
  0
LINE
  5
45A
330
451
100
AcDbEntity
  8
SLD-0
100
AcDbLine
 10
1641.8551466205
 20
912.4043092272
 30
0.0
 11
1641.8551466205
 21
878.3524336433
 31
0.0
  0
LINE
  5
45B
330
451
100
AcDbEntity
  8
SLD-0
100
AcDbLine
 10
1641.8551466205
 20
878.3524336433
 30
0.0
 11
1635.3364745165
 21
878.3524336433
 31
0.0
  0
LINE
  5
45C
330
451
100
AcDbEntity
  8
SLD-0
100
AcDbLine
 10
1377.6169441553
 20
741.2623050362
 30
0.0
 11
1377.6169441553
 21
919.2623050362
 31
0.0
  0
LINE
  5
45D
330
451
100
AcDbEntity
  8
SLD-0
100
AcDbLine
 10
1821.8169441553
 20
741.2623050362
 30
0.0
 11
1821.8169441553
 21
919.2623050362
 31
0.0
  0
LINE
  5
45E
330
451
100
AcDbEntity
  8
SLD-0
100
AcDbLine
 10
1377.6169441553
 20
912.4043050362
 30
0.0
 11
1538.8177096435
 21
912.4043050362
 31
0.0
  0
LINE
  5
45F
330
451
100
AcDbEntity
  8
SLD-0
100
AcDbLine
 10
1821.8169441553
 20
912.4043050362
 30
0.0
 11
1660.6161786671
 21
912.4043050362
 31
0.0
  0
MTEXT
  5
460
330
451
100
AcDbEntity
  8
SLD-0
100
AcDbMText
 10
1543.1622569459
 20
944.1251614273
 30
0.0
 40
21.43125
 41
0.0
 71
     1
 72
     1
  1
 
  7
SLDTEXTSTYLE0
 73
     1
 44
1.0
  0
MTEXT
  5
461
330
451
100
AcDbEntity
  8
SLD-0
100
AcDbMText
 10
1564.0974116987
 20
944.1251635228
 30
0.0
 40
21.43125
 41
0.0
 71
     1
 72
     1
  1
444.2
  7
SLDTEXTSTYLE0
 73
     1
 44
1.0
  0
MTEXT
  5
462
330
451
100
AcDbEntity
  8
SLD-0
100
AcDbMText
 10
1564.0974137942
 20
905.7275079333
 30
0.0
 40
21.43125
 41
0.0
 71
     1
 72
     1
  1
17.49
  7
SLDTEXTSTYLE0
 73
     1
 44
1.0
  0
MTEXT
  5
463
330
451
100
AcDbEntity
  8
SLD-0
100
AcDbMText
 10
1648.373816629
 20
944.1251614273
 30
0.0
 40
21.43125
 41
0.0
 71
     1
 72
     1
  1
 
  7
SLDTEXTSTYLE0
 73
     1
 44
1.0
  0
ENDBLK
  5
453
330
451
100
AcDbEntity
  8
0
100
AcDbBlockEnd
  0
BLOCK
  5
466
330
465
100
AcDbEntity
  8
0
100
AcDbBlockBegin
  2
_D_22
 70
     0
 10
0.0
 20
0.0
 30
0.0
  3
_D_22
  1

  0
SOLID
  5
468
330
465
100
AcDbEntity
  8
SLD-0
100
AcDbTrace
 10
1821.8169441553
 20
912.4043050362
 30
0.0
 11
1803.8169441553
 21
914.6543050362
 31
0.0
 12
1803.8169441553
 22
910.1543050362
 32
0.0
 13
1803.8169441553
 23
910.1543050362
 33
0.0
  0
SOLID
  5
469
330
465
100
AcDbEntity
  8
SLD-0
100
AcDbTrace
 10
1862.2169441553
 20
912.4043050362
 30
0.0
 11
1880.2169441553
 21
910.1543050362
 31
0.0
 12
1880.2169441553
 22
914.6543050362
 32
0.0
 13
1880.2169441553
 23
914.6543050362
 33
0.0
  0
LINE
  5
46A
330
465
100
AcDbEntity
  8
SLD-0
100
AcDbLine
 10
1924.2928462725
 20
912.4043092272
 30
0.0
 11
1917.7741741685
 21
912.4043092272
 31
0.0
  0
LINE
  5
46B
330
465
100
AcDbEntity
  8
SLD-0
100
AcDbLine
 10
1917.7741741685
 20
912.4043092272
 30
0.0
 11
1917.7741741685
 21
878.3524336433
 31
0.0
  0
LINE
  5
46C
330
465
100
AcDbEntity
  8
SLD-0
100
AcDbLine
 10
1917.7741741685
 20
878.3524336433
 30
0.0
 11
1924.2928462725
 21
878.3524336433
 31
0.0
  0
LINE
  5
46D
330
465
100
AcDbEntity
  8
SLD-0
100
AcDbLine
 10
1979.6965975937
 20
912.4043092272
 30
0.0
 11
1986.2152696977
 21
912.4043092272
 31
0.0
  0
LINE
  5
46E
330
465
100
AcDbEntity
  8
SLD-0
100
AcDbLine
 10
1986.2152696977
 20
912.4043092272
 30
0.0
 11
1986.2152696977
 21
878.3524336433
 31
0.0
  0
LINE
  5
46F
330
465
100
AcDbEntity
  8
SLD-0
100
AcDbLine
 10
1986.2152696977
 20
878.3524336433
 30
0.0
 11
1979.6965975937
 21
878.3524336433
 31
0.0
  0
LINE
  5
470
330
465
100
AcDbEntity
  8
SLD-0
100
AcDbLine
 10
1821.8169441553
 20
741.2623050362
 30
0.0
 11
1821.8169441553
 21
919.2623050362
 31
0.0
  0
LINE
  5
471
330
465
100
AcDbEntity
  8
SLD-0
100
AcDbLine
 10
1862.2169441553
 20
829.2623050362
 30
0.0
 11
1862.2169441553
 21
919.2623050362
 31
0.0
  0
LINE
  5
472
330
465
100
AcDbEntity
  8
SLD-0
100
AcDbLine
 10
1821.8169441553
 20
912.4043050362
 30
0.0
 11
1785.8169441553
 21
912.4043050362
 31
0.0
  0
LINE
  5
473
330
465
100
AcDbEntity
  8
SLD-0
100
AcDbLine
 10
1862.2169441553
 20
912.4043050362
 30
0.0
 11
1899.0131421219
 21
912.4043050362
 31
0.0
  0
MTEXT
  5
474
330
465
100
AcDbEntity
  8
SLD-0
100
AcDbMText
 10
1903.3576894242
 20
944.1251614273
 30
0.0
 40
21.43125
 41
0.0
 71
     1
 72
     1
  1
 
  7
SLDTEXTSTYLE0
 73
     1
 44
1.0
  0
MTEXT
  5
475
330
465
100
AcDbEntity
  8
SLD-0
100
AcDbMText
 10
1924.292844177
 20
944.1251635228
 30
0.0
 40
21.43125
 41
0.0
 71
     1
 72
     1
  1
40.4
  7
SLDTEXTSTYLE0
 73
     1
 44
1.0
  0
MTEXT
  5
476
330
465
100
AcDbEntity
  8
SLD-0
100
AcDbMText
 10
1924.2928462725
 20
905.7275079333
 30
0.0
 40
21.43125
 41
0.0
 71
     1
 72
     1
  1
1.59
  7
SLDTEXTSTYLE0
 73
     1
 44
1.0
  0
MTEXT
  5
477
330
465
100
AcDbEntity
  8
SLD-0
100
AcDbMText
 10
1992.7339397062
 20
944.1251614273
 30
0.0
 40
21.43125
 41
0.0
 71
     1
 72
     1
  1
 
  7
SLDTEXTSTYLE0
 73
     1
 44
1.0
  0
ENDBLK
  5
467
330
465
100
AcDbEntity
  8
0
100
AcDbBlockEnd
  0
BLOCK
  5
47A
330
479
100
AcDbEntity
  8
0
100
AcDbBlockBegin
  2
_D_23
 70
     0
 10
0.0
 20
0.0
 30
0.0
  3
_D_23
  1

  0
SOLID
  5
47C
330
479
100
AcDbEntity
  8
SLD-0
100
AcDbTrace
 10
2060.2169441553
 20
822.4043050362
 30
0.0
 11
2057.9669441553
 21
804.4043050362
 31
0.0
 12
2062.4669441553
 22
804.4043050362
 32
0.0
 13
2062.4669441553
 23
804.4043050362
 33
0.0
  0
SOLID
  5
47D
330
479
100
AcDbEntity
  8
SLD-0
100
AcDbTrace
 10
2060.2169441553
 20
722.4043050362
 30
0.0
 11
2062.4669441553
 21
740.4043050362
 31
0.0
 12
2057.9669441553
 22
740.4043050362
 32
0.0
 13
2057.9669441553
 23
740.4043050362
 33
0.0
  0
LINE
  5
47E
330
479
100
AcDbEntity
  8
SLD-0
100
AcDbLine
 10
2112.1857429108
 20
912.4043092272
 30
0.0
 11
2105.6670708068
 21
912.4043092272
 31
0.0
  0
LINE
  5
47F
330
479
100
AcDbEntity
  8
SLD-0
100
AcDbLine
 10
2105.6670708068
 20
912.4043092272
 30
0.0
 11
2105.6670708068
 21
878.3524336433
 31
0.0
  0
LINE
  5
480
330
479
100
AcDbEntity
  8
SLD-0
100
AcDbLine
 10
2105.6670708068
 20
878.3524336433
 30
0.0
 11
2112.1857429108
 21
878.3524336433
 31
0.0
  0
LINE
  5
481
330
479
100
AcDbEntity
  8
SLD-0
100
AcDbLine
 10
2167.5894942319
 20
912.4043092272
 30
0.0
 11
2174.1081663359
 21
912.4043092272
 31
0.0
  0
LINE
  5
482
330
479
100
AcDbEntity
  8
SLD-0
100
AcDbLine
 10
2174.1081663359
 20
912.4043092272
 30
0.0
 11
2174.1081663359
 21
878.3524336433
 31
0.0
  0
LINE
  5
483
330
479
100
AcDbEntity
  8
SLD-0
100
AcDbLine
 10
2174.1081663359
 20
878.3524336433
 30
0.0
 11
2167.5894942319
 21
878.3524336433
 31
0.0
  0
LINE
  5
484
330
479
100
AcDbEntity
  8
SLD-0
100
AcDbLine
 10
1869.0749441553
 20
822.4043050362
 30
0.0
 11
2067.0749441553
 21
822.4043050362
 31
0.0
  0
LINE
  5
485
330
479
100
AcDbEntity
  8
SLD-0
100
AcDbLine
 10
1840.6749441553
 20
722.4043050362
 30
0.0
 11
2067.0749441553
 21
722.4043050362
 31
0.0
  0
LINE
  5
486
330
479
100
AcDbEntity
  8
SLD-0
100
AcDbLine
 10
2078.2169441553
 20
912.4043050362
 30
0.0
 11
2060.2169441553
 21
912.4043050362
 31
0.0
  0
LINE
  5
487
330
479
100
AcDbEntity
  8
SLD-0
100
AcDbLine
 10
2060.2169441553
 20
912.4043050362
 30
0.0
 11
2060.2169441553
 21
822.4043050362
 31
0.0
  0
LINE
  5
488
330
479
100
AcDbEntity
  8
SLD-0
100
AcDbLine
 10
2060.2169441553
 20
822.4043050362
 30
0.0
 11
2060.2169441553
 21
722.4043050362
 31
0.0
  0
MTEXT
  5
489
330
479
100
AcDbEntity
  8
SLD-0
100
AcDbMText
 10
2091.2505860625
 20
944.1251614273
 30
0.0
 40
21.43125
 41
0.0
 71
     1
 72
     1
  1
 
  7
SLDTEXTSTYLE0
 73
     1
 44
1.0
  0
MTEXT
  5
48A
330
479
100
AcDbEntity
  8
SLD-0
100
AcDbMText
 10
2104.2680861147
 20
944.1251635228
 30
0.0
 40
21.43125
 41
0.0
 71
     1
 72
     1
  1
100.0
  7
SLDTEXTSTYLE0
 73
     1
 44
1.0
  0
MTEXT
  5
48B
330
479
100
AcDbEntity
  8
SLD-0
100
AcDbMText
 10
2112.1857429108
 20
905.7275079333
 30
0.0
 40
21.43125
 41
0.0
 71
     1
 72
     1
  1
3.94
  7
SLDTEXTSTYLE0
 73
     1
 44
1.0
  0
MTEXT
  5
48C
330
479
100
AcDbEntity
  8
SLD-0
100
AcDbMText
 10
2180.6268363444
 20
944.1251614273
 30
0.0
 40
21.43125
 41
0.0
 71
     1
 72
     1
  1
 
  7
SLDTEXTSTYLE0
 73
     1
 44
1.0
  0
ENDBLK
  5
47B
330
479
100
AcDbEntity
  8
0
100
AcDbBlockEnd
  0
BLOCK
  5
48F
330
48E
100
AcDbEntity
  8
0
100
AcDbBlockBegin
  2
_D_24
 70
     0
 10
0.0
 20
0.0
 30
0.0
  3
_D_24
  1

  0
SOLID
  5
491
330
48E
100
AcDbEntity
  8
SLD-0
100
AcDbTrace
 10
2060.2169441553
 20
722.4043050362
 30
0.0
 11
2057.9669441553
 21
704.4043050362
 31
0.0
 12
2062.4669441553
 22
704.4043050362
 32
0.0
 13
2062.4669441553
 23
704.4043050362
 33
0.0
  0
SOLID
  5
492
330
48E
100
AcDbEntity
  8
SLD-0
100
AcDbTrace
 10
2060.2169441553
 20
312.4043050362
 30
0.0
 11
2062.4669441553
 21
330.4043050362
 31
0.0
 12
2057.9669441553
 22
330.4043050362
 32
0.0
 13
2057.9669441553
 23
330.4043050362
 33
0.0
  0
LINE
  5
493
330
48E
100
AcDbEntity
  8
SLD-0
100
AcDbLine
 10
2024.5974137942
 20
517.4043092272
 30
0.0
 11
2018.0787416902
 21
517.4043092272
 31
0.0
  0
LINE
  5
494
330
48E
100
AcDbEntity
  8
SLD-0
100
AcDbLine
 10
2018.0787416902
 20
517.4043092272
 30
0.0
 11
2018.0787416902
 21
483.3524336433
 31
0.0
  0
LINE
  5
495
330
48E
100
AcDbEntity
  8
SLD-0
100
AcDbLine
 10
2018.0787416902
 20
483.3524336433
 30
0.0
 11
2024.5974137942
 21
483.3524336433
 31
0.0
  0
LINE
  5
496
330
48E
100
AcDbEntity
  8
SLD-0
100
AcDbLine
 10
2095.8364745165
 20
517.4043092272
 30
0.0
 11
2102.3551466205
 21
517.4043092272
 31
0.0
  0
LINE
  5
497
330
48E
100
AcDbEntity
  8
SLD-0
100
AcDbLine
 10
2102.3551466205
 20
517.4043092272
 30
0.0
 11
2102.3551466205
 21
483.3524336433
 31
0.0
  0
LINE
  5
498
330
48E
100
AcDbEntity
  8
SLD-0
100
AcDbLine
 10
2102.3551466205
 20
483.3524336433
 30
0.0
 11
2095.8364745165
 21
483.3524336433
 31
0.0
  0
LINE
  5
499
330
48E
100
AcDbEntity
  8
SLD-0
100
AcDbLine
 10
1840.6749441553
 20
722.4043050362
 30
0.0
 11
2067.0749441553
 21
722.4043050362
 31
0.0
  0
LINE
  5
49A
330
48E
100
AcDbEntity
  8
SLD-0
100
AcDbLine
 10
1840.6749441553
 20
312.4043050362
 30
0.0
 11
2067.0749441553
 21
312.4043050362
 31
0.0
  0
LINE
  5
49B
330
48E
100
AcDbEntity
  8
SLD-0
100
AcDbLine
 10
2060.2169441553
 20
722.4043050362
 30
0.0
 11
2060.2169441553
 21
555.8019627212
 31
0.0
  0
LINE
  5
49C
330
48E
100
AcDbEntity
  8
SLD-0
100
AcDbLine
 10
2060.2169441553
 20
312.4043050362
 30
0.0
 11
2060.2169441553
 21
479.0066473512
 31
0.0
  0
MTEXT
  5
49D
330
48E
100
AcDbEntity
  8
SLD-0
100
AcDbMText
 10
2003.6622569459
 20
549.1251614273
 30
0.0
 40
21.43125
 41
0.0
 71
     1
 72
     1
  1
 
  7
SLDTEXTSTYLE0
 73
     1
 44
1.0
  0
MTEXT
  5
49E
330
48E
100
AcDbEntity
  8
SLD-0
100
AcDbMText
 10
2024.5974116987
 20
549.1251635228
 30
0.0
 40
21.43125
 41
0.0
 71
     1
 72
     1
  1
410.0
  7
SLDTEXTSTYLE0
 73
     1
 44
1.0
  0
MTEXT
  5
49F
330
48E
100
AcDbEntity
  8
SLD-0
100
AcDbMText
 10
2024.5974137942
 20
510.7275079333
 30
0.0
 40
21.43125
 41
0.0
 71
     1
 72
     1
  1
16.14
  7
SLDTEXTSTYLE0
 73
     1
 44
1.0
  0
MTEXT
  5
4A0
330
48E
100
AcDbEntity
  8
SLD-0
100
AcDbMText
 10
2108.873816629
 20
549.1251614273
 30
0.0
 40
21.43125
 41
0.0
 71
     1
 72
     1
  1
 
  7
SLDTEXTSTYLE0
 73
     1
 44
1.0
  0
ENDBLK
  5
490
330
48E
100
AcDbEntity
  8
0
100
AcDbBlockEnd
  0
BLOCK
  5
4A2
330
4A1
100
AcDbEntity
  8
0
100
AcDbBlockBegin
  2
SW_NOTE_0_4
 70
     0
 10
0.0
 20
0.0
 30
0.0
  3
SW_NOTE_0_4
  1

  0
LINE
  5
4A4
330
4A1
100
AcDbEntity
  8
SLD-0
 62
     0
100
AcDbLine
 10
-51.9447929737
 20
-26.313651192
 30
0.0
 11
-51.9447929737
 21
25.6311417817
 31
0.0
  0
LINE
  5
4A5
330
4A1
100
AcDbEntity
  8
SLD-0
 62
     0
100
AcDbLine
 10
-51.9447929737
 20
25.6311417817
 30
0.0
 11
0.0
 21
25.6311417817
 31
0.0
  0
LINE
  5
4A6
330
4A1
100
AcDbEntity
  8
SLD-0
 62
     0
100
AcDbLine
 10
0.0
 20
25.6311417817
 30
0.0
 11
0.0
 21
-26.313651192
 31
0.0
  0
LINE
  5
4A7
330
4A1
100
AcDbEntity
  8
SLD-0
 62
     0
100
AcDbLine
 10
0.0
 20
-26.313651192
 30
0.0
 11
-51.9447929737
 21
-26.313651192
 31
0.0
  0
MTEXT
  5
4A8
330
4A1
100
AcDbEntity
  8
SLD-0
 62
     0
100
AcDbMText
 10
-26.1881972903
 20
10.0924188384
 30
0.0
 40
21.43125
 41
0.0
 71
     2
 72
     1
  1
4
  7
SLDTEXTSTYLE0
 73
     1
 44
1.0
  0
ENDBLK
  5
4A3
330
4A1
100
AcDbEntity
  8
0
100
AcDbBlockEnd
  0
BLOCK
  5
4AD
330
4AC
100
AcDbEntity
  8
0
100
AcDbBlockBegin
  2
SW_CENTERMARKSYMBOL_8
 70
     0
 10
0.0
 20
0.0
 30
0.0
  3
SW_CENTERMARKSYMBOL_8
  1

  0
LINE
  5
4AF
330
4AC
100
AcDbEntity
  8
SLD-0
 62
     0
100
AcDbLine
 10
0.0
 20
0.0
 30
0.0
 11
0.0
 21
2.0
 31
0.0
  0
LINE
  5
4B0
330
4AC
100
AcDbEntity
  8
SLD-0
 62
     0
100
AcDbLine
 10
0.0
 20
0.0
 30
0.0
 11
-2.0
 21
0.0
 31
0.0
  0
LINE
  5
4B1
330
4AC
100
AcDbEntity
  8
SLD-0
 62
     0
100
AcDbLine
 10
0.0
 20
0.0
 30
0.0
 11
0.0
 21
-2.0
 31
0.0
  0
LINE
  5
4B2
330
4AC
100
AcDbEntity
  8
SLD-0
 62
     0
100
AcDbLine
 10
0.0
 20
0.0
 30
0.0
 11
2.0
 21
0.0
 31
0.0
  0
LINE
  5
4B3
330
4AC
100
AcDbEntity
  8
SLD-0
 62
     0
100
AcDbLine
 10
0.0
 20
4.0
 30
0.0
 11
0.0
 21
6.2
 31
0.0
  0
LINE
  5
4B4
330
4AC
100
AcDbEntity
  8
SLD-0
 62
     0
100
AcDbLine
 10
-4.0
 20
0.0
 30
0.0
 11
-6.2
 21
0.0
 31
0.0
  0
LINE
  5
4B5
330
4AC
100
AcDbEntity
  8
SLD-0
 62
     0
100
AcDbLine
 10
0.0
 20
-4.0
 30
0.0
 11
0.0
 21
-6.2
 31
0.0
  0
LINE
  5
4B6
330
4AC
100
AcDbEntity
  8
SLD-0
 62
     0
100
AcDbLine
 10
4.0
 20
0.0
 30
0.0
 11
6.2
 21
0.0
 31
0.0
  0
ENDBLK
  5
4AE
330
4AC
100
AcDbEntity
  8
0
100
AcDbBlockEnd
  0
BLOCK
  5
4B9
330
4B8
100
AcDbEntity
  8
0
100
AcDbBlockBegin
  2
SW_CENTERMARKSYMBOL_9
 70
     0
 10
0.0
 20
0.0
 30
0.0
  3
SW_CENTERMARKSYMBOL_9
  1

  0
LINE
  5
4BB
330
4B8
100
AcDbEntity
  8
SLD-0
 62
     0
100
AcDbLine
 10
0.0
 20
0.0
 30
0.0
 11
0.0
 21
2.0
 31
0.0
  0
LINE
  5
4BC
330
4B8
100
AcDbEntity
  8
SLD-0
 62
     0
100
AcDbLine
 10
0.0
 20
0.0
 30
0.0
 11
-2.0
 21
0.0
 31
0.0
  0
LINE
  5
4BD
330
4B8
100
AcDbEntity
  8
SLD-0
 62
     0
100
AcDbLine
 10
0.0
 20
0.0
 30
0.0
 11
0.0
 21
-2.0
 31
0.0
  0
LINE
  5
4BE
330
4B8
100
AcDbEntity
  8
SLD-0
 62
     0
100
AcDbLine
 10
0.0
 20
0.0
 30
0.0
 11
2.0
 21
0.0
 31
0.0
  0
LINE
  5
4BF
330
4B8
100
AcDbEntity
  8
SLD-0
 62
     0
100
AcDbLine
 10
0.0
 20
4.0
 30
0.0
 11
0.0
 21
6.2
 31
0.0
  0
LINE
  5
4C0
330
4B8
100
AcDbEntity
  8
SLD-0
 62
     0
100
AcDbLine
 10
-4.0
 20
0.0
 30
0.0
 11
-6.2
 21
0.0
 31
0.0
  0
LINE
  5
4C1
330
4B8
100
AcDbEntity
  8
SLD-0
 62
     0
100
AcDbLine
 10
0.0
 20
-4.0
 30
0.0
 11
0.0
 21
-6.2
 31
0.0
  0
LINE
  5
4C2
330
4B8
100
AcDbEntity
  8
SLD-0
 62
     0
100
AcDbLine
 10
4.0
 20
0.0
 30
0.0
 11
6.2
 21
0.0
 31
0.0
  0
ENDBLK
  5
4BA
330
4B8
100
AcDbEntity
  8
0
100
AcDbBlockEnd
  0
BLOCK
  5
4C5
330
4C4
100
AcDbEntity
  8
0
100
AcDbBlockBegin
  2
SW_CENTERMARKSYMBOL_10
 70
     0
 10
0.0
 20
0.0
 30
0.0
  3
SW_CENTERMARKSYMBOL_10
  1

  0
LINE
  5
4C7
330
4C4
100
AcDbEntity
  8
SLD-0
 62
     0
100
AcDbLine
 10
0.0
 20
0.0
 30
0.0
 11
0.0
 21
2.0
 31
0.0
  0
LINE
  5
4C8
330
4C4
100
AcDbEntity
  8
SLD-0
 62
     0
100
AcDbLine
 10
0.0
 20
0.0
 30
0.0
 11
-2.0
 21
0.0
 31
0.0
  0
LINE
  5
4C9
330
4C4
100
AcDbEntity
  8
SLD-0
 62
     0
100
AcDbLine
 10
0.0
 20
0.0
 30
0.0
 11
0.0
 21
-2.0
 31
0.0
  0
LINE
  5
4CA
330
4C4
100
AcDbEntity
  8
SLD-0
 62
     0
100
AcDbLine
 10
0.0
 20
0.0
 30
0.0
 11
2.0
 21
0.0
 31
0.0
  0
LINE
  5
4CB
330
4C4
100
AcDbEntity
  8
SLD-0
 62
     0
100
AcDbLine
 10
0.0
 20
4.0
 30
0.0
 11
0.0
 21
7.2
 31
0.0
  0
LINE
  5
4CC
330
4C4
100
AcDbEntity
  8
SLD-0
 62
     0
100
AcDbLine
 10
-4.0
 20
0.0
 30
0.0
 11
-7.2
 21
0.0
 31
0.0
  0
LINE
  5
4CD
330
4C4
100
AcDbEntity
  8
SLD-0
 62
     0
100
AcDbLine
 10
0.0
 20
-4.0
 30
0.0
 11
0.0
 21
-7.2
 31
0.0
  0
LINE
  5
4CE
330
4C4
100
AcDbEntity
  8
SLD-0
 62
     0
100
AcDbLine
 10
4.0
 20
0.0
 30
0.0
 11
7.2
 21
0.0
 31
0.0
  0
ENDBLK
  5
4C6
330
4C4
100
AcDbEntity
  8
0
100
AcDbBlockEnd
  0
BLOCK
  5
4D1
330
4D0
100
AcDbEntity
  8
0
100
AcDbBlockBegin
  2
SW_CENTERMARKSYMBOL_11
 70
     0
 10
0.0
 20
0.0
 30
0.0
  3
SW_CENTERMARKSYMBOL_11
  1

  0
LINE
  5
4D3
330
4D0
100
AcDbEntity
  8
SLD-0
 62
     0
100
AcDbLine
 10
0.0
 20
0.0
 30
0.0
 11
0.0
 21
2.0
 31
0.0
  0
LINE
  5
4D4
330
4D0
100
AcDbEntity
  8
SLD-0
 62
     0
100
AcDbLine
 10
0.0
 20
0.0
 30
0.0
 11
-2.0
 21
0.0
 31
0.0
  0
LINE
  5
4D5
330
4D0
100
AcDbEntity
  8
SLD-0
 62
     0
100
AcDbLine
 10
0.0
 20
0.0
 30
0.0
 11
0.0
 21
-2.0
 31
0.0
  0
LINE
  5
4D6
330
4D0
100
AcDbEntity
  8
SLD-0
 62
     0
100
AcDbLine
 10
0.0
 20
0.0
 30
0.0
 11
2.0
 21
0.0
 31
0.0
  0
LINE
  5
4D7
330
4D0
100
AcDbEntity
  8
SLD-0
 62
     0
100
AcDbLine
 10
0.0
 20
4.0
 30
0.0
 11
0.0
 21
6.2
 31
0.0
  0
LINE
  5
4D8
330
4D0
100
AcDbEntity
  8
SLD-0
 62
     0
100
AcDbLine
 10
-4.0
 20
0.0
 30
0.0
 11
-6.2
 21
0.0
 31
0.0
  0
LINE
  5
4D9
330
4D0
100
AcDbEntity
  8
SLD-0
 62
     0
100
AcDbLine
 10
0.0
 20
-4.0
 30
0.0
 11
0.0
 21
-6.2
 31
0.0
  0
LINE
  5
4DA
330
4D0
100
AcDbEntity
  8
SLD-0
 62
     0
100
AcDbLine
 10
4.0
 20
0.0
 30
0.0
 11
6.2
 21
0.0
 31
0.0
  0
ENDBLK
  5
4D2
330
4D0
100
AcDbEntity
  8
0
100
AcDbBlockEnd
  0
BLOCK
  5
4DD
330
4DC
100
AcDbEntity
  8
0
100
AcDbBlockBegin
  2
SW_CENTERMARKSYMBOL_12
 70
     0
 10
0.0
 20
0.0
 30
0.0
  3
SW_CENTERMARKSYMBOL_12
  1

  0
LINE
  5
4DF
330
4DC
100
AcDbEntity
  8
SLD-0
 62
     0
100
AcDbLine
 10
0.0
 20
0.0
 30
0.0
 11
0.0
 21
2.0
 31
0.0
  0
LINE
  5
4E0
330
4DC
100
AcDbEntity
  8
SLD-0
 62
     0
100
AcDbLine
 10
0.0
 20
0.0
 30
0.0
 11
-2.0
 21
0.0
 31
0.0
  0
LINE
  5
4E1
330
4DC
100
AcDbEntity
  8
SLD-0
 62
     0
100
AcDbLine
 10
0.0
 20
0.0
 30
0.0
 11
0.0
 21
-2.0
 31
0.0
  0
LINE
  5
4E2
330
4DC
100
AcDbEntity
  8
SLD-0
 62
     0
100
AcDbLine
 10
0.0
 20
0.0
 30
0.0
 11
2.0
 21
0.0
 31
0.0
  0
LINE
  5
4E3
330
4DC
100
AcDbEntity
  8
SLD-0
 62
     0
100
AcDbLine
 10
0.0
 20
4.0
 30
0.0
 11
0.0
 21
6.2
 31
0.0
  0
LINE
  5
4E4
330
4DC
100
AcDbEntity
  8
SLD-0
 62
     0
100
AcDbLine
 10
-4.0
 20
0.0
 30
0.0
 11
-6.2
 21
0.0
 31
0.0
  0
LINE
  5
4E5
330
4DC
100
AcDbEntity
  8
SLD-0
 62
     0
100
AcDbLine
 10
0.0
 20
-4.0
 30
0.0
 11
0.0
 21
-6.2
 31
0.0
  0
LINE
  5
4E6
330
4DC
100
AcDbEntity
  8
SLD-0
 62
     0
100
AcDbLine
 10
4.0
 20
0.0
 30
0.0
 11
6.2
 21
0.0
 31
0.0
  0
ENDBLK
  5
4DE
330
4DC
100
AcDbEntity
  8
0
100
AcDbBlockEnd
  0
BLOCK
  5
4E9
330
4E8
100
AcDbEntity
  8
0
100
AcDbBlockBegin
  2
SW_CENTERMARKSYMBOL_13
 70
     0
 10
0.0
 20
0.0
 30
0.0
  3
SW_CENTERMARKSYMBOL_13
  1

  0
LINE
  5
4EB
330
4E8
100
AcDbEntity
  8
SLD-0
 62
     0
100
AcDbLine
 10
0.0
 20
0.0
 30
0.0
 11
0.0
 21
2.0
 31
0.0
  0
LINE
  5
4EC
330
4E8
100
AcDbEntity
  8
SLD-0
 62
     0
100
AcDbLine
 10
0.0
 20
0.0
 30
0.0
 11
-2.0
 21
0.0
 31
0.0
  0
LINE
  5
4ED
330
4E8
100
AcDbEntity
  8
SLD-0
 62
     0
100
AcDbLine
 10
0.0
 20
0.0
 30
0.0
 11
0.0
 21
-2.0
 31
0.0
  0
LINE
  5
4EE
330
4E8
100
AcDbEntity
  8
SLD-0
 62
     0
100
AcDbLine
 10
0.0
 20
0.0
 30
0.0
 11
2.0
 21
0.0
 31
0.0
  0
LINE
  5
4EF
330
4E8
100
AcDbEntity
  8
SLD-0
 62
     0
100
AcDbLine
 10
0.0
 20
4.0
 30
0.0
 11
0.0
 21
6.2
 31
0.0
  0
LINE
  5
4F0
330
4E8
100
AcDbEntity
  8
SLD-0
 62
     0
100
AcDbLine
 10
-4.0
 20
0.0
 30
0.0
 11
-6.2
 21
0.0
 31
0.0
  0
LINE
  5
4F1
330
4E8
100
AcDbEntity
  8
SLD-0
 62
     0
100
AcDbLine
 10
0.0
 20
-4.0
 30
0.0
 11
0.0
 21
-6.2
 31
0.0
  0
LINE
  5
4F2
330
4E8
100
AcDbEntity
  8
SLD-0
 62
     0
100
AcDbLine
 10
4.0
 20
0.0
 30
0.0
 11
6.2
 21
0.0
 31
0.0
  0
ENDBLK
  5
4EA
330
4E8
100
AcDbEntity
  8
0
100
AcDbBlockEnd
  0
BLOCK
  5
4F5
330
4F4
100
AcDbEntity
  8
0
100
AcDbBlockBegin
  2
SW_CENTERMARKSYMBOL_14
 70
     0
 10
0.0
 20
0.0
 30
0.0
  3
SW_CENTERMARKSYMBOL_14
  1

  0
LINE
  5
4F7
330
4F4
100
AcDbEntity
  8
SLD-0
 62
     0
100
AcDbLine
 10
0.0
 20
0.0
 30
0.0
 11
0.0
 21
2.0
 31
0.0
  0
LINE
  5
4F8
330
4F4
100
AcDbEntity
  8
SLD-0
 62
     0
100
AcDbLine
 10
0.0
 20
0.0
 30
0.0
 11
-2.0
 21
0.0
 31
0.0
  0
LINE
  5
4F9
330
4F4
100
AcDbEntity
  8
SLD-0
 62
     0
100
AcDbLine
 10
0.0
 20
0.0
 30
0.0
 11
0.0
 21
-2.0
 31
0.0
  0
LINE
  5
4FA
330
4F4
100
AcDbEntity
  8
SLD-0
 62
     0
100
AcDbLine
 10
0.0
 20
0.0
 30
0.0
 11
2.0
 21
0.0
 31
0.0
  0
LINE
  5
4FB
330
4F4
100
AcDbEntity
  8
SLD-0
 62
     0
100
AcDbLine
 10
0.0
 20
4.0
 30
0.0
 11
0.0
 21
6.2
 31
0.0
  0
LINE
  5
4FC
330
4F4
100
AcDbEntity
  8
SLD-0
 62
     0
100
AcDbLine
 10
-4.0
 20
0.0
 30
0.0
 11
-6.2
 21
0.0
 31
0.0
  0
LINE
  5
4FD
330
4F4
100
AcDbEntity
  8
SLD-0
 62
     0
100
AcDbLine
 10
0.0
 20
-4.0
 30
0.0
 11
0.0
 21
-6.2
 31
0.0
  0
LINE
  5
4FE
330
4F4
100
AcDbEntity
  8
SLD-0
 62
     0
100
AcDbLine
 10
4.0
 20
0.0
 30
0.0
 11
6.2
 21
0.0
 31
0.0
  0
ENDBLK
  5
4F6
330
4F4
100
AcDbEntity
  8
0
100
AcDbBlockEnd
  0
BLOCK
  5
501
330
500
100
AcDbEntity
  8
0
100
AcDbBlockBegin
  2
SW_CENTERMARKSYMBOL_15
 70
     0
 10
0.0
 20
0.0
 30
0.0
  3
SW_CENTERMARKSYMBOL_15
  1

  0
LINE
  5
503
330
500
100
AcDbEntity
  8
SLD-0
 62
     0
100
AcDbLine
 10
0.0
 20
0.0
 30
0.0
 11
0.0
 21
2.0
 31
0.0
  0
LINE
  5
504
330
500
100
AcDbEntity
  8
SLD-0
 62
     0
100
AcDbLine
 10
0.0
 20
0.0
 30
0.0
 11
-2.0
 21
0.0
 31
0.0
  0
LINE
  5
505
330
500
100
AcDbEntity
  8
SLD-0
 62
     0
100
AcDbLine
 10
0.0
 20
0.0
 30
0.0
 11
0.0
 21
-2.0
 31
0.0
  0
LINE
  5
506
330
500
100
AcDbEntity
  8
SLD-0
 62
     0
100
AcDbLine
 10
0.0
 20
0.0
 30
0.0
 11
2.0
 21
0.0
 31
0.0
  0
LINE
  5
507
330
500
100
AcDbEntity
  8
SLD-0
 62
     0
100
AcDbLine
 10
0.0
 20
4.0
 30
0.0
 11
0.0
 21
6.2
 31
0.0
  0
LINE
  5
508
330
500
100
AcDbEntity
  8
SLD-0
 62
     0
100
AcDbLine
 10
-4.0
 20
0.0
 30
0.0
 11
-6.2
 21
0.0
 31
0.0
  0
LINE
  5
509
330
500
100
AcDbEntity
  8
SLD-0
 62
     0
100
AcDbLine
 10
0.0
 20
-4.0
 30
0.0
 11
0.0
 21
-6.2
 31
0.0
  0
LINE
  5
50A
330
500
100
AcDbEntity
  8
SLD-0
 62
     0
100
AcDbLine
 10
4.0
 20
0.0
 30
0.0
 11
6.2
 21
0.0
 31
0.0
  0
ENDBLK
  5
502
330
500
100
AcDbEntity
  8
0
100
AcDbBlockEnd
  0
BLOCK
  5
50D
330
50C
100
AcDbEntity
  8
0
100
AcDbBlockBegin
  2
SW_CENTERMARKSYMBOL_16
 70
     0
 10
0.0
 20
0.0
 30
0.0
  3
SW_CENTERMARKSYMBOL_16
  1

  0
LINE
  5
50F
330
50C
100
AcDbEntity
  8
SLD-0
 62
     0
100
AcDbLine
 10
0.0
 20
0.0
 30
0.0
 11
0.0
 21
2.0
 31
0.0
  0
LINE
  5
510
330
50C
100
AcDbEntity
  8
SLD-0
 62
     0
100
AcDbLine
 10
0.0
 20
0.0
 30
0.0
 11
-2.0
 21
0.0
 31
0.0
  0
LINE
  5
511
330
50C
100
AcDbEntity
  8
SLD-0
 62
     0
100
AcDbLine
 10
0.0
 20
0.0
 30
0.0
 11
0.0
 21
-2.0
 31
0.0
  0
LINE
  5
512
330
50C
100
AcDbEntity
  8
SLD-0
 62
     0
100
AcDbLine
 10
0.0
 20
0.0
 30
0.0
 11
2.0
 21
0.0
 31
0.0
  0
LINE
  5
513
330
50C
100
AcDbEntity
  8
SLD-0
 62
     0
100
AcDbLine
 10
0.0
 20
4.0
 30
0.0
 11
0.0
 21
7.2
 31
0.0
  0
LINE
  5
514
330
50C
100
AcDbEntity
  8
SLD-0
 62
     0
100
AcDbLine
 10
-4.0
 20
0.0
 30
0.0
 11
-7.2
 21
0.0
 31
0.0
  0
LINE
  5
515
330
50C
100
AcDbEntity
  8
SLD-0
 62
     0
100
AcDbLine
 10
0.0
 20
-4.0
 30
0.0
 11
0.0
 21
-7.2
 31
0.0
  0
LINE
  5
516
330
50C
100
AcDbEntity
  8
SLD-0
 62
     0
100
AcDbLine
 10
4.0
 20
0.0
 30
0.0
 11
7.2
 21
0.0
 31
0.0
  0
ENDBLK
  5
50E
330
50C
100
AcDbEntity
  8
0
100
AcDbBlockEnd
  0
BLOCK
  5
519
330
518
100
AcDbEntity
  8
0
100
AcDbBlockBegin
  2
SW_CENTERMARKSYMBOL_17
 70
     0
 10
0.0
 20
0.0
 30
0.0
  3
SW_CENTERMARKSYMBOL_17
  1

  0
LINE
  5
51B
330
518
100
AcDbEntity
  8
SLD-0
 62
     0
100
AcDbLine
 10
0.0
 20
0.0
 30
0.0
 11
0.0
 21
2.0
 31
0.0
  0
LINE
  5
51C
330
518
100
AcDbEntity
  8
SLD-0
 62
     0
100
AcDbLine
 10
0.0
 20
0.0
 30
0.0
 11
-2.0
 21
0.0
 31
0.0
  0
LINE
  5
51D
330
518
100
AcDbEntity
  8
SLD-0
 62
     0
100
AcDbLine
 10
0.0
 20
0.0
 30
0.0
 11
0.0
 21
-2.0
 31
0.0
  0
LINE
  5
51E
330
518
100
AcDbEntity
  8
SLD-0
 62
     0
100
AcDbLine
 10
0.0
 20
0.0
 30
0.0
 11
2.0
 21
0.0
 31
0.0
  0
LINE
  5
51F
330
518
100
AcDbEntity
  8
SLD-0
 62
     0
100
AcDbLine
 10
0.0
 20
4.0
 30
0.0
 11
0.0
 21
6.2
 31
0.0
  0
LINE
  5
520
330
518
100
AcDbEntity
  8
SLD-0
 62
     0
100
AcDbLine
 10
-4.0
 20
0.0
 30
0.0
 11
-6.2
 21
0.0
 31
0.0
  0
LINE
  5
521
330
518
100
AcDbEntity
  8
SLD-0
 62
     0
100
AcDbLine
 10
0.0
 20
-4.0
 30
0.0
 11
0.0
 21
-6.2
 31
0.0
  0
LINE
  5
522
330
518
100
AcDbEntity
  8
SLD-0
 62
     0
100
AcDbLine
 10
4.0
 20
0.0
 30
0.0
 11
6.2
 21
0.0
 31
0.0
  0
ENDBLK
  5
51A
330
518
100
AcDbEntity
  8
0
100
AcDbBlockEnd
  0
BLOCK
  5
525
330
524
100
AcDbEntity
  8
0
100
AcDbBlockBegin
  2
SW_CENTERMARKSYMBOL_18
 70
     0
 10
0.0
 20
0.0
 30
0.0
  3
SW_CENTERMARKSYMBOL_18
  1

  0
LINE
  5
527
330
524
100
AcDbEntity
  8
SLD-0
 62
     0
100
AcDbLine
 10
0.0
 20
0.0
 30
0.0
 11
0.0
 21
2.0
 31
0.0
  0
LINE
  5
528
330
524
100
AcDbEntity
  8
SLD-0
 62
     0
100
AcDbLine
 10
0.0
 20
0.0
 30
0.0
 11
-2.0
 21
0.0
 31
0.0
  0
LINE
  5
529
330
524
100
AcDbEntity
  8
SLD-0
 62
     0
100
AcDbLine
 10
0.0
 20
0.0
 30
0.0
 11
0.0
 21
-2.0
 31
0.0
  0
LINE
  5
52A
330
524
100
AcDbEntity
  8
SLD-0
 62
     0
100
AcDbLine
 10
0.0
 20
0.0
 30
0.0
 11
2.0
 21
0.0
 31
0.0
  0
LINE
  5
52B
330
524
100
AcDbEntity
  8
SLD-0
 62
     0
100
AcDbLine
 10
0.0
 20
4.0
 30
0.0
 11
0.0
 21
6.2
 31
0.0
  0
LINE
  5
52C
330
524
100
AcDbEntity
  8
SLD-0
 62
     0
100
AcDbLine
 10
-4.0
 20
0.0
 30
0.0
 11
-6.2
 21
0.0
 31
0.0
  0
LINE
  5
52D
330
524
100
AcDbEntity
  8
SLD-0
 62
     0
100
AcDbLine
 10
0.0
 20
-4.0
 30
0.0
 11
0.0
 21
-6.2
 31
0.0
  0
LINE
  5
52E
330
524
100
AcDbEntity
  8
SLD-0
 62
     0
100
AcDbLine
 10
4.0
 20
0.0
 30
0.0
 11
6.2
 21
0.0
 31
0.0
  0
ENDBLK
  5
526
330
524
100
AcDbEntity
  8
0
100
AcDbBlockEnd
  0
BLOCK
  5
531
330
530
100
AcDbEntity
  8
0
100
AcDbBlockBegin
  2
SW_CENTERMARKSYMBOL_19
 70
     0
 10
0.0
 20
0.0
 30
0.0
  3
SW_CENTERMARKSYMBOL_19
  1

  0
LINE
  5
533
330
530
100
AcDbEntity
  8
SLD-0
 62
     0
100
AcDbLine
 10
0.0
 20
0.0
 30
0.0
 11
0.0
 21
2.0
 31
0.0
  0
LINE
  5
534
330
530
100
AcDbEntity
  8
SLD-0
 62
     0
100
AcDbLine
 10
0.0
 20
0.0
 30
0.0
 11
-2.0
 21
0.0
 31
0.0
  0
LINE
  5
535
330
530
100
AcDbEntity
  8
SLD-0
 62
     0
100
AcDbLine
 10
0.0
 20
0.0
 30
0.0
 11
0.0
 21
-2.0
 31
0.0
  0
LINE
  5
536
330
530
100
AcDbEntity
  8
SLD-0
 62
     0
100
AcDbLine
 10
0.0
 20
0.0
 30
0.0
 11
2.0
 21
0.0
 31
0.0
  0
LINE
  5
537
330
530
100
AcDbEntity
  8
SLD-0
 62
     0
100
AcDbLine
 10
0.0
 20
4.0
 30
0.0
 11
0.0
 21
6.2
 31
0.0
  0
LINE
  5
538
330
530
100
AcDbEntity
  8
SLD-0
 62
     0
100
AcDbLine
 10
-4.0
 20
0.0
 30
0.0
 11
-6.2
 21
0.0
 31
0.0
  0
LINE
  5
539
330
530
100
AcDbEntity
  8
SLD-0
 62
     0
100
AcDbLine
 10
0.0
 20
-4.0
 30
0.0
 11
0.0
 21
-6.2
 31
0.0
  0
LINE
  5
53A
330
530
100
AcDbEntity
  8
SLD-0
 62
     0
100
AcDbLine
 10
4.0
 20
0.0
 30
0.0
 11
6.2
 21
0.0
 31
0.0
  0
ENDBLK
  5
532
330
530
100
AcDbEntity
  8
0
100
AcDbBlockEnd
  0
BLOCK
  5
53D
330
53C
100
AcDbEntity
  8
0
100
AcDbBlockBegin
  2
SW_CENTERMARKSYMBOL_20
 70
     0
 10
0.0
 20
0.0
 30
0.0
  3
SW_CENTERMARKSYMBOL_20
  1

  0
LINE
  5
53F
330
53C
100
AcDbEntity
  8
SLD-0
 62
     0
100
AcDbLine
 10
0.0
 20
0.0
 30
0.0
 11
0.0
 21
2.0
 31
0.0
  0
LINE
  5
540
330
53C
100
AcDbEntity
  8
SLD-0
 62
     0
100
AcDbLine
 10
0.0
 20
0.0
 30
0.0
 11
-2.0
 21
0.0
 31
0.0
  0
LINE
  5
541
330
53C
100
AcDbEntity
  8
SLD-0
 62
     0
100
AcDbLine
 10
0.0
 20
0.0
 30
0.0
 11
0.0
 21
-2.0
 31
0.0
  0
LINE
  5
542
330
53C
100
AcDbEntity
  8
SLD-0
 62
     0
100
AcDbLine
 10
0.0
 20
0.0
 30
0.0
 11
2.0
 21
0.0
 31
0.0
  0
LINE
  5
543
330
53C
100
AcDbEntity
  8
SLD-0
 62
     0
100
AcDbLine
 10
0.0
 20
4.0
 30
0.0
 11
0.0
 21
6.2
 31
0.0
  0
LINE
  5
544
330
53C
100
AcDbEntity
  8
SLD-0
 62
     0
100
AcDbLine
 10
-4.0
 20
0.0
 30
0.0
 11
-6.2
 21
0.0
 31
0.0
  0
LINE
  5
545
330
53C
100
AcDbEntity
  8
SLD-0
 62
     0
100
AcDbLine
 10
0.0
 20
-4.0
 30
0.0
 11
0.0
 21
-6.2
 31
0.0
  0
LINE
  5
546
330
53C
100
AcDbEntity
  8
SLD-0
 62
     0
100
AcDbLine
 10
4.0
 20
0.0
 30
0.0
 11
6.2
 21
0.0
 31
0.0
  0
ENDBLK
  5
53E
330
53C
100
AcDbEntity
  8
0
100
AcDbBlockEnd
  0
BLOCK
  5
549
330
548
100
AcDbEntity
  8
0
100
AcDbBlockBegin
  2
SW_CENTERMARKSYMBOL_21
 70
     0
 10
0.0
 20
0.0
 30
0.0
  3
SW_CENTERMARKSYMBOL_21
  1

  0
LINE
  5
54B
330
548
100
AcDbEntity
  8
SLD-0
 62
     0
100
AcDbLine
 10
0.0
 20
0.0
 30
0.0
 11
0.0
 21
2.0
 31
0.0
  0
LINE
  5
54C
330
548
100
AcDbEntity
  8
SLD-0
 62
     0
100
AcDbLine
 10
0.0
 20
0.0
 30
0.0
 11
-2.0
 21
0.0
 31
0.0
  0
LINE
  5
54D
330
548
100
AcDbEntity
  8
SLD-0
 62
     0
100
AcDbLine
 10
0.0
 20
0.0
 30
0.0
 11
0.0
 21
-2.0
 31
0.0
  0
LINE
  5
54E
330
548
100
AcDbEntity
  8
SLD-0
 62
     0
100
AcDbLine
 10
0.0
 20
0.0
 30
0.0
 11
2.0
 21
0.0
 31
0.0
  0
LINE
  5
54F
330
548
100
AcDbEntity
  8
SLD-0
 62
     0
100
AcDbLine
 10
0.0
 20
4.0
 30
0.0
 11
0.0
 21
6.2
 31
0.0
  0
LINE
  5
550
330
548
100
AcDbEntity
  8
SLD-0
 62
     0
100
AcDbLine
 10
-4.0
 20
0.0
 30
0.0
 11
-6.2
 21
0.0
 31
0.0
  0
LINE
  5
551
330
548
100
AcDbEntity
  8
SLD-0
 62
     0
100
AcDbLine
 10
0.0
 20
-4.0
 30
0.0
 11
0.0
 21
-6.2
 31
0.0
  0
LINE
  5
552
330
548
100
AcDbEntity
  8
SLD-0
 62
     0
100
AcDbLine
 10
4.0
 20
0.0
 30
0.0
 11
6.2
 21
0.0
 31
0.0
  0
ENDBLK
  5
54A
330
548
100
AcDbEntity
  8
0
100
AcDbBlockEnd
  0
BLOCK
  5
555
330
554
100
AcDbEntity
  8
0
100
AcDbBlockBegin
  2
SW_CENTERMARKSYMBOL_22
 70
     0
 10
0.0
 20
0.0
 30
0.0
  3
SW_CENTERMARKSYMBOL_22
  1

  0
LINE
  5
557
330
554
100
AcDbEntity
  8
SLD-0
 62
     0
100
AcDbLine
 10
0.0
 20
0.0
 30
0.0
 11
0.0
 21
2.0
 31
0.0
  0
LINE
  5
558
330
554
100
AcDbEntity
  8
SLD-0
 62
     0
100
AcDbLine
 10
0.0
 20
0.0
 30
0.0
 11
-2.0
 21
0.0
 31
0.0
  0
LINE
  5
559
330
554
100
AcDbEntity
  8
SLD-0
 62
     0
100
AcDbLine
 10
0.0
 20
0.0
 30
0.0
 11
0.0
 21
-2.0
 31
0.0
  0
LINE
  5
55A
330
554
100
AcDbEntity
  8
SLD-0
 62
     0
100
AcDbLine
 10
0.0
 20
0.0
 30
0.0
 11
2.0
 21
0.0
 31
0.0
  0
LINE
  5
55B
330
554
100
AcDbEntity
  8
SLD-0
 62
     0
100
AcDbLine
 10
0.0
 20
4.0
 30
0.0
 11
0.0
 21
12.0
 31
0.0
  0
LINE
  5
55C
330
554
100
AcDbEntity
  8
SLD-0
 62
     0
100
AcDbLine
 10
-4.0
 20
0.0
 30
0.0
 11
-12.0
 21
0.0
 31
0.0
  0
LINE
  5
55D
330
554
100
AcDbEntity
  8
SLD-0
 62
     0
100
AcDbLine
 10
0.0
 20
-4.0
 30
0.0
 11
0.0
 21
-12.0
 31
0.0
  0
LINE
  5
55E
330
554
100
AcDbEntity
  8
SLD-0
 62
     0
100
AcDbLine
 10
4.0
 20
0.0
 30
0.0
 11
12.0
 21
0.0
 31
0.0
  0
ENDBLK
  5
556
330
554
100
AcDbEntity
  8
0
100
AcDbBlockEnd
  0
BLOCK
  5
561
330
560
100
AcDbEntity
  8
0
100
AcDbBlockBegin
  2
SW_CENTERMARKSYMBOL_23
 70
     0
 10
0.0
 20
0.0
 30
0.0
  3
SW_CENTERMARKSYMBOL_23
  1

  0
LINE
  5
563
330
560
100
AcDbEntity
  8
SLD-0
 62
     0
100
AcDbLine
 10
0.0
 20
0.0
 30
0.0
 11
0.0
 21
2.0
 31
0.0
  0
LINE
  5
564
330
560
100
AcDbEntity
  8
SLD-0
 62
     0
100
AcDbLine
 10
0.0
 20
0.0
 30
0.0
 11
-2.0
 21
0.0
 31
0.0
  0
LINE
  5
565
330
560
100
AcDbEntity
  8
SLD-0
 62
     0
100
AcDbLine
 10
0.0
 20
0.0
 30
0.0
 11
0.0
 21
-2.0
 31
0.0
  0
LINE
  5
566
330
560
100
AcDbEntity
  8
SLD-0
 62
     0
100
AcDbLine
 10
0.0
 20
0.0
 30
0.0
 11
2.0
 21
0.0
 31
0.0
  0
LINE
  5
567
330
560
100
AcDbEntity
  8
SLD-0
 62
     0
100
AcDbLine
 10
0.0
 20
4.0
 30
0.0
 11
0.0
 21
12.0
 31
0.0
  0
LINE
  5
568
330
560
100
AcDbEntity
  8
SLD-0
 62
     0
100
AcDbLine
 10
-4.0
 20
0.0
 30
0.0
 11
-12.0
 21
0.0
 31
0.0
  0
LINE
  5
569
330
560
100
AcDbEntity
  8
SLD-0
 62
     0
100
AcDbLine
 10
0.0
 20
-4.0
 30
0.0
 11
0.0
 21
-12.0
 31
0.0
  0
LINE
  5
56A
330
560
100
AcDbEntity
  8
SLD-0
 62
     0
100
AcDbLine
 10
4.0
 20
0.0
 30
0.0
 11
12.0
 21
0.0
 31
0.0
  0
ENDBLK
  5
562
330
560
100
AcDbEntity
  8
0
100
AcDbBlockEnd
  0
BLOCK
  5
56D
330
56C
100
AcDbEntity
  8
0
100
AcDbBlockBegin
  2
SW_CENTERMARKSYMBOL_24
 70
     0
 10
0.0
 20
0.0
 30
0.0
  3
SW_CENTERMARKSYMBOL_24
  1

  0
LINE
  5
56F
330
56C
100
AcDbEntity
  8
SLD-0
 62
     0
100
AcDbLine
 10
0.0
 20
0.0
 30
0.0
 11
0.0
 21
2.0
 31
0.0
  0
LINE
  5
570
330
56C
100
AcDbEntity
  8
SLD-0
 62
     0
100
AcDbLine
 10
0.0
 20
0.0
 30
0.0
 11
-2.0
 21
0.0
 31
0.0
  0
LINE
  5
571
330
56C
100
AcDbEntity
  8
SLD-0
 62
     0
100
AcDbLine
 10
0.0
 20
0.0
 30
0.0
 11
0.0
 21
-2.0
 31
0.0
  0
LINE
  5
572
330
56C
100
AcDbEntity
  8
SLD-0
 62
     0
100
AcDbLine
 10
0.0
 20
0.0
 30
0.0
 11
2.0
 21
0.0
 31
0.0
  0
LINE
  5
573
330
56C
100
AcDbEntity
  8
SLD-0
 62
     0
100
AcDbLine
 10
0.0
 20
4.0
 30
0.0
 11
0.0
 21
12.0
 31
0.0
  0
LINE
  5
574
330
56C
100
AcDbEntity
  8
SLD-0
 62
     0
100
AcDbLine
 10
-4.0
 20
0.0
 30
0.0
 11
-12.0
 21
0.0
 31
0.0
  0
LINE
  5
575
330
56C
100
AcDbEntity
  8
SLD-0
 62
     0
100
AcDbLine
 10
0.0
 20
-4.0
 30
0.0
 11
0.0
 21
-12.0
 31
0.0
  0
LINE
  5
576
330
56C
100
AcDbEntity
  8
SLD-0
 62
     0
100
AcDbLine
 10
4.0
 20
0.0
 30
0.0
 11
12.0
 21
0.0
 31
0.0
  0
ENDBLK
  5
56E
330
56C
100
AcDbEntity
  8
0
100
AcDbBlockEnd
  0
BLOCK
  5
579
330
578
100
AcDbEntity
  8
0
100
AcDbBlockBegin
  2
SW_CENTERMARKSYMBOL_25
 70
     0
 10
0.0
 20
0.0
 30
0.0
  3
SW_CENTERMARKSYMBOL_25
  1

  0
LINE
  5
57B
330
578
100
AcDbEntity
  8
SLD-0
 62
     0
100
AcDbLine
 10
0.0
 20
0.0
 30
0.0
 11
0.0
 21
2.0
 31
0.0
  0
LINE
  5
57C
330
578
100
AcDbEntity
  8
SLD-0
 62
     0
100
AcDbLine
 10
0.0
 20
0.0
 30
0.0
 11
-2.0
 21
0.0
 31
0.0
  0
LINE
  5
57D
330
578
100
AcDbEntity
  8
SLD-0
 62
     0
100
AcDbLine
 10
0.0
 20
0.0
 30
0.0
 11
0.0
 21
-2.0
 31
0.0
  0
LINE
  5
57E
330
578
100
AcDbEntity
  8
SLD-0
 62
     0
100
AcDbLine
 10
0.0
 20
0.0
 30
0.0
 11
2.0
 21
0.0
 31
0.0
  0
LINE
  5
57F
330
578
100
AcDbEntity
  8
SLD-0
 62
     0
100
AcDbLine
 10
0.0
 20
4.0
 30
0.0
 11
0.0
 21
12.0
 31
0.0
  0
LINE
  5
580
330
578
100
AcDbEntity
  8
SLD-0
 62
     0
100
AcDbLine
 10
-4.0
 20
0.0
 30
0.0
 11
-12.0
 21
0.0
 31
0.0
  0
LINE
  5
581
330
578
100
AcDbEntity
  8
SLD-0
 62
     0
100
AcDbLine
 10
0.0
 20
-4.0
 30
0.0
 11
0.0
 21
-12.0
 31
0.0
  0
LINE
  5
582
330
578
100
AcDbEntity
  8
SLD-0
 62
     0
100
AcDbLine
 10
4.0
 20
0.0
 30
0.0
 11
12.0
 21
0.0
 31
0.0
  0
ENDBLK
  5
57A
330
578
100
AcDbEntity
  8
0
100
AcDbBlockEnd
  0
ENDSEC
  0
SECTION
  2
ENTITIES
  0
LINE
  5
68
330
1F
100
AcDbEntity
  8
SLD-0
 62
     7
100
AcDbLine
 10
58.5
 20
2456.1
 30
0.0
 11
3827.7
 21
2456.1
 31
0.0
  0
LINE
  5
69
330
1F
100
AcDbEntity
  8
0
  6
Continuous
 62
     7
370
    18
100
AcDbLine
 10
58.5
 20
162.0
 30
0.0
 11
3827.7
 21
162.0
 31
0.0
  0
LINE
  5
6A
330
1F
100
AcDbEntity
  8
0
  6
CENTER
 62
     7
370
    18
100
AcDbLine
 10
1651.0961323174
 20
80.3409271012
 30
0.0
 11
1693.1397673119
 21
80.3409271012
 31
0.0
  0
LINE
  5
6B
330
1F
100
AcDbEntity
  8
0
  6
Continuous
 62
     7
370
    18
100
AcDbLine
 10
1655.3521107442
 20
74.6259271012
 30
0.0
 11
1689.6421107442
 21
68.9109271012
 31
0.0
  0
LINE
  5
6C
330
1F
100
AcDbEntity
  8
0
  6
Continuous
 62
     7
370
    18
100
AcDbLine
 10
1655.3521107442
 20
86.0559271012
 30
0.0
 11
1689.6421107442
 21
91.7709271012
 31
0.0
  0
LINE
  5
6D
330
1F
100
AcDbEntity
  8
0
  6
CENTER
 62
     7
370
    18
100
AcDbLine
 10
1617.6788307442
 20
80.3409271012
 30
0.0
 11
1647.0399556705
 21
80.3409271012
 31
0.0
  0
LINE
  5
6E
330
1F
100
AcDbEntity
  8
0
  6
CENTER
 62
     7
370
    18
100
AcDbLine
 10
1632.3593932074
 20
65.5100794809
 30
0.0
 11
1632.3593932074
 21
95.1717747215
 31
0.0
  0
LINE
  5
6F
330
1F
100
AcDbEntity
  8
0
  6
Continuous
 62
     7
370
    18
100
AcDbLine
 10
1655.3521107442
 20
86.0559271012
 30
0.0
 11
1655.3521107442
 21
74.6259271012
 31
0.0
  0
LINE
  5
70
330
1F
100
AcDbEntity
  8
0
  6
Continuous
 62
     7
370
    18
100
AcDbLine
 10
1689.6421107442
 20
91.7709271012
 30
0.0
 11
1689.6421107442
 21
68.9109271012
 31
0.0
  0
CIRCLE
  5
71
330
1F
100
AcDbEntity
  8
0
  6
Continuous
 62
     7
370
    18
100
AcDbCircle
 10
1632.3593932074
 20
80.3409271012
 30
0.0
 40
11.42999999999887
  0
CIRCLE
  5
72
330
1F
100
AcDbEntity
  8
0
  6
Continuous
 62
     7
370
    18
100
AcDbCircle
 10
1632.3593932074
 20
80.3409271012
 30
0.0
 40
5.714999999999452
  0
INSERT
  5
9C
330
1F
100
AcDbEntity
  8
0
  6
Continuous
 62
     7
370
     0
100
AcDbBlockReference
  2
SW_NOTE_0
 10
82.7770812378
 20
2392.1061428291
 30
0.0
  0
MTEXT
  5
9D
330
1F
100
AcDbEntity
  8
0
  6
Continuous
 62
     7
370
     0
100
AcDbMText
 10
1329.769358556
 20
130.4188054905
 30
0.0
 40
16.66875
 41
0.0
 71
     2
 72
     1
  1
00PW4
  7
SLDTEXTSTYLE0
 73
     1
 44
1.0
  0
MTEXT
  5
9E
330
1F
100
AcDbEntity
  8
0
  6
Continuous
 62
     7
370
     0
100
AcDbMText
 10
2040.3052676444
 20
80.0479183393
 30
0.0
 40
16.66875
 41
0.0
 71
     1
 72
     1
  1
B.HAWKINS
  7
SLDTEXTSTYLE0
 73
     1
 44
1.0
  0
MTEXT
  5
9F
330
1F
100
AcDbEntity
  8
0
  6
Continuous
 62
     7
370
     0
100
AcDbMText
 10
1454.0798401257
 20
148.8498498697
 30
0.0
 40
14.2875
 41
0.0
 71
     1
 72
     1
  1
UNLESS  OTHERWISE  SPECIFIED
  7
SLDTEXTSTYLE0
 73
     1
 44
1.0
  0
MTEXT
  5
A0
330
1F
100
AcDbEntity
  8
0
  6
Continuous
 62
     7
370
     0
100
AcDbMText
 10
1454.0798401257
 20
129.7998500999
 30
0.0
 40
14.2875
 41
0.0
 71
     1
 72
     1
  1
DIMENSIONS  ARE  IN  MM [IN]
  7
SLDTEXTSTYLE0
 73
     1
 44
1.0
  0
MTEXT
  5
A1
330
1F
100
AcDbEntity
  8
0
  6
Continuous
 62
     7
370
     0
100
AcDbMText
 10
3536.4578802673
 20
80.9321604094
 30
0.0
 40
16.66875
 41
0.0
 71
     2
 72
     1
  1
1:9
  7
SLDTEXTSTYLE0
 73
     1
 44
1.0
  0
MTEXT
  5
A2
330
1F
100
AcDbEntity
  8
0
  6
Continuous
 62
     7
370
     0
100
AcDbMText
 10
1475.8223786466
 20
88.6134237134
 30
0.0
 40
14.2875
 41
0.0
 71
     1
 72
     1
  1
PROJECTION
  7
SLDTEXTSTYLE0
 73
     1
 44
1.0
  0
MTEXT
  5
A3
330
1F
100
AcDbEntity
  8
0
  6
Continuous
 62
     7
370
     0
100
AcDbMText
 10
1914.8182947618
 20
98.1394775801
 30
0.0
 40
14.2875
 41
0.0
 71
     1
 72
     1
  1
%%p
  7
SLDTEXTSTYLE0
 73
     1
 44
1.0
  0
MTEXT
  5
A4
330
1F
100
AcDbEntity
  8
0
  6
Continuous
 62
     7
370
     0
100
AcDbMText
 10
1928.4390445762
 20
98.1394775801
 30
0.0
 40
14.2875
 41
0.0
 71
     1
 72
     1
  1
1
  7
SLDTEXTSTYLE0
 73
     1
 44
1.0
  0
MTEXT
  5
A5
330
1F
100
AcDbEntity
  8
0
  6
Continuous
 62
     7
370
     0
100
AcDbMText
 10
1938.9959196058
 20
98.1394775801
 30
0.0
 40
14.2875
 41
0.0
 71
     1
 72
     1
  1
%%d
  7
SLDTEXTSTYLE0
 73
     1
 44
1.0
  0
MTEXT
  5
A6
330
1F
100
AcDbEntity
  8
0
  6
Continuous
 62
     7
370
     0
100
AcDbMText
 10
1773.3318977123
 20
98.1394775801
 30
0.0
 40
14.2875
 41
0.0
 71
     1
 72
     1
  1
.X 
  7
SLDTEXTSTYLE0
 73
     1
 44
1.0
  0
MTEXT
  5
A7
330
1F
100
AcDbEntity
  8
0
  6
Continuous
 62
     7
370
     0
100
AcDbMText
 10
1795.4510654387
 20
98.1394775801
 30
0.0
 40
14.2875
 41
0.0
 71
     1
 72
     1
  1
%%p
  7
SLDTEXTSTYLE0
 73
     1
 44
1.0
  0
MTEXT
  5
A8
330
1F
100
AcDbEntity
  8
0
  6
Continuous
 62
     7
370
     0
100
AcDbMText
 10
1809.0718131577
 20
98.1394775801
 30
0.0
 40
14.2875
 41
0.0
 71
     1
 72
     1
  1
 3
  7
SLDTEXTSTYLE0
 73
     1
 44
1.0
  0
MTEXT
  5
A9
330
1F
100
AcDbEntity
  8
0
  6
Continuous
 62
     7
370
     0
100
AcDbMText
 10
1773.3318977123
 20
79.0894778104
 30
0.0
 40
14.2875
 41
0.0
 71
     1
 72
     1
  1
.XX 
  7
SLDTEXTSTYLE0
 73
     1
 44
1.0
  0
MTEXT
  5
AA
330
1F
100
AcDbEntity
  8
0
  6
Continuous
 62
     7
370
     0
100
AcDbMText
 10
1807.0398135175
 20
79.0894778104
 30
0.0
 40
14.2875
 41
0.0
 71
     1
 72
     1
  1
%%p
  7
SLDTEXTSTYLE0
 73
     1
 44
1.0
  0
MTEXT
  5
AB
330
1F
100
AcDbEntity
  8
0
  6
Continuous
 62
     7
370
     0
100
AcDbMText
 10
3078.3480096133
 20
140.9030358096
 30
0.0
 40
28.575
 41
0.0
 71
     2
 72
     1
  1
LOUDSPEAKER, PL-SUB12, BK, 12" 
  7
SLDTEXTSTYLE0
 73
     1
 44
1.0
  0
MTEXT
  5
AC
330
1F
100
AcDbEntity
  8
0
  6
Continuous
 62
     7
370
     0
100
AcDbMText
 10
3071.647435108
 20
102.8030362701
 30
0.0
 40
28.575
 41
0.0
 71
     2
 72
     1
  1
SUBWOOFER
  7
SLDTEXTSTYLE0
 73
     1
 44
1.0
  0
MTEXT
  5
AD
330
1F
100
AcDbEntity
  8
0
  6
Continuous
 62
     7
370
     0
100
AcDbMText
 10
1773.5813378293
 20
148.8498498697
 30
0.0
 40
14.2875
 41
0.0
 71
     1
 72
     1
  1
TOLERANCES  ARE:
  7
SLDTEXTSTYLE0
 73
     1
 44
1.0
  0
MTEXT
  5
AE
330
1F
100
AcDbEntity
  8
0
  6
Continuous
 62
     7
370
     0
100
AcDbMText
 10
1773.5813378293
 20
129.7998500999
 30
0.0
 40
14.2875
 41
0.0
 71
     1
 72
     1
  1
DECIMALS          ANGLES
  7
SLDTEXTSTYLE0
 73
     1
 44
1.0
  0
MTEXT
  5
AF
330
1F
100
AcDbEntity
  8
0
  6
Continuous
 62
     7
370
     0
100
AcDbMText
 10
2282.56599264
 20
98.1280814603
 30
0.0
 40
11.90625
 41
0.0
 71
     1
 72
     1
  1
MFG ENGINEER
  7
SLDTEXTSTYLE0
 73
     1
 44
1.0
  0
MTEXT
  5
B0
330
1F
100
AcDbEntity
  8
0
  6
Continuous
 62
     7
370
     0
100
AcDbMText
 10
2040.3052676444
 20
98.1280814603
 30
0.0
 40
11.90625
 41
0.0
 71
     1
 72
     1
  1
MECH ENGINEER
  7
SLDTEXTSTYLE0
 73
     1
 44
1.0
  0
MTEXT
  5
B2
330
1F
100
AcDbEntity
  8
0
  6
Continuous
 62
     7
370
     0
100
AcDbMText
 10
3469.4144771884
 20
79.0188856273
 30
0.0
 40
11.90625
 41
0.0
 71
     1
 72
     1
  1
SCALE:  
  7
SLDTEXTSTYLE1
 73
     1
 44
1.0
  0
MTEXT
  5
B3
330
1F
100
AcDbEntity
  8
SLD-0
 62
     7
100
AcDbMText
 10
3468.7216538936
 20
124.9891180954
 30
0.0
 40
28.575
 41
0.0
 71
     1
 72
     1
  1
FG-901573-2D
  7
SLDTEXTSTYLE0
 73
     1
 44
1.0
  0
MTEXT
  5
B4
330
1F
100
AcDbEntity
  8
0
  6
Continuous
 62
     7
370
     0
100
AcDbMText
 10
3796.9615108062
 20
125.3355297428
 30
0.0
 40
28.575
 41
0.0
 71
     2
 72
     1
  1
A
  7
SLDTEXTSTYLE0
 73
     1
 44
1.0
  0
MTEXT
  5
B5
330
1F
100
AcDbEntity
  8
0
  6
Continuous
 62
     7
370
     0
100
AcDbMText
 10
3787.1868540085
 20
80.9321604094
 30
0.0
 40
16.66875
 41
0.0
 71
     2
 72
     1
  1
1  OF  1
  7
SLDTEXTSTYLE0
 73
     1
 44
1.0
  0
MTEXT
  5
B6
330
1F
100
AcDbEntity
  8
0
  6
Continuous
 62
     7
370
     0
100
AcDbMText
 10
3469.4144771884
 20
147.8333739534
 30
0.0
 40
11.90625
 41
0.0
 71
     1
 72
     1
  1
DRAWING NUMBER
  7
SLDTEXTSTYLE0
 73
     1
 44
1.0
  0
MTEXT
  5
B7
330
1F
100
AcDbEntity
  8
SLD-0
 62
     7
100
AcDbMText
 10
2282.56599264
 20
147.6828507649
 30
0.0
 40
11.90625
 41
0.0
 71
     1
 72
     1
  1
TECH DIRECTOR
  7
SLDTEXTSTYLE0
 73
     1
 44
1.0
  0
MTEXT
  5
B8
330
1F
100
AcDbEntity
  8
SLD-0
 62
     7
100
AcDbMText
 10
2040.3052676444
 20
147.6828507649
 30
0.0
 40
11.90625
 41
0.0
 71
     1
 72
     1
  1
DRAWN BY
  7
SLDTEXTSTYLE0
 73
     1
 44
1.0
  0
MTEXT
  5
B9
330
1F
100
AcDbEntity
  8
SLD-0
 62
     7
100
AcDbMText
 10
2040.3052676444
 20
130.6590421794
 30
0.0
 40
16.66875
 41
0.0
 71
     1
 72
     1
  1
K.CASTRO
  7
SLDTEXTSTYLE0
 73
     1
 44
1.0
  0
MTEXT
  5
BA
330
1F
100
AcDbEntity
  8
SLD-0
 62
     7
100
AcDbMText
 10
2282.56599264
 20
80.0479183393
 30
0.0
 40
16.66875
 41
0.0
 71
     1
 72
     1
  1
A.TRAN
  7
SLDTEXTSTYLE0
 73
     1
 44
1.0
  0
MTEXT
  5
BB
330
1F
100
AcDbEntity
  8
SLD-0
 62
     7
100
AcDbMText
 10
2282.56599264
 20
130.6590421794
 30
0.0
 40
16.66875
 41
0.0
 71
     1
 72
     1
  1
R.VAUCHER
  7
SLDTEXTSTYLE0
 73
     1
 44
1.0
  0
MTEXT
  5
BD
330
1F
100
AcDbEntity
  8
0
  6
Continuous
 62
     7
370
     0
100
AcDbMText
 10
986.6429422656
 20
134.8360786332
 30
0.0
 40
9.525
 41
0.0
 71
     2
 72
     1
  1
THIS DOCUMENT CONTAINS CONFIDENTIAL OR PROPRIETARY INFORMATION WHICH 
  7
SLDTEXTSTYLE2
 73
     1
 44
1.0
  0
MTEXT
  5
BE
330
1F
100
AcDbEntity
  8
0
  6
Continuous
 62
     7
370
     0
100
AcDbMText
 10
987.4658908563
 20
122.1360787867
 30
0.0
 40
9.525
 41
0.0
 71
     2
 72
     1
  1
IS THE PROPERTY OF QSC, LLC THAT MAY NOT BE DISCLOSED, REPRODUCED OR 
  7
SLDTEXTSTYLE2
 73
     1
 44
1.0
  0
MTEXT
  5
BF
330
1F
100
AcDbEntity
  8
0
  6
Continuous
 62
     7
370
     0
100
AcDbMText
 10
987.281011369
 20
109.4360789402
 30
0.0
 40
9.525
 41
0.0
 71
     2
 72
     1
  1
USED WITHOUT EXPRESS WRITTEN CONSENT FROM QSC, LLC. NO PORTION OF THIS 
  7
SLDTEXTSTYLE2
 73
     1
 44
1.0
  0
MTEXT
  5
C0
330
1F
100
AcDbEntity
  8
0
  6
Continuous
 62
     7
370
     0
100
AcDbMText
 10
986.9635048769
 20
96.7360790937
 30
0.0
 40
9.525
 41
0.0
 71
     2
 72
     1
  1
DOCUMENT MAY BE REPRODUCED, REDISTRIBUTED, OR OTHERWISE DISCLOSED TO 
  7
SLDTEXTSTYLE2
 73
     1
 44
1.0
  0
MTEXT
  5
C2
330
1F
100
AcDbEntity
  8
0
  6
Continuous
 62
     7
370
     0
100
AcDbMText
 10
985.3939956602
 20
84.0360792472
 30
0.0
 40
9.525
 41
0.0
 71
     2
 72
     1
  1
ANY THIRD PARTY WITHOUT QSC\U+2019S WRITTEN PERMISSION.
  7
SLDTEXTSTYLE3
 73
     1
 44
1.0
  0
MTEXT
  5
C3
330
1F
100
AcDbEntity
  8
0
  6
Continuous
 62
     7
370
     0
100
AcDbMText
 10
3691.2998199415
 20
78.7249567
 30
0.0
 40
11.90625
 41
0.0
 71
     1
 72
     1
  1
SHEET:
  7
SLDTEXTSTYLE0
 73
     1
 44
1.0
  0
MTEXT
  5
C4
330
1F
100
AcDbEntity
  8
SLD-0
100
AcDbMText
 10
440.2382417275
 20
137.6691674957
 30
0.0
 40
19.05
 41
0.0
 71
     1
 72
     1
  1
QSC, LLC
  7
SLDTEXTSTYLE0
 73
     1
 44
1.0
  0
MTEXT
  5
C5
330
1F
100
AcDbEntity
  8
0
  6
Continuous
 62
     7
370
     0
100
AcDbMText
 10
3798.0082676355
 20
148.072910867
 30
0.0
 40
11.90625
 41
0.0
 71
     2
 72
     1
  1
REV
  7
SLDTEXTSTYLE0
 73
     1
 44
1.0
  0
MTEXT
  5
C6
330
1F
100
AcDbEntity
  8
SLD-0
 62
     7
100
AcDbMText
 10
2522.4576909613
 20
147.6828507649
 30
0.0
 40
11.90625
 41
0.0
 71
     1
 72
     1
  1
REV BY
  7
SLDTEXTSTYLE0
 73
     1
 44
1.0
  0
MTEXT
  5
C7
330
1F
100
AcDbEntity
  8
SLD-0
 62
     7
100
AcDbMText
 10
2522.4576909613
 20
130.6590421794
 30
0.0
 40
16.66875
 41
0.0
 71
     1
 72
     1
  1
KC
  7
SLDTEXTSTYLE0
 73
     1
 44
1.0
  0
MTEXT
  5
C8
330
1F
100
AcDbEntity
  8
SLD-0
 62
     7
100
AcDbMText
 10
2522.4576909613
 20
80.0479183393
 30
0.0
 40
16.66875
 41
0.0
 71
     1
 72
     1
  1
05-FEB-2024
  7
SLDTEXTSTYLE0
 73
     1
 44
1.0
  0
MTEXT
  5
C9
330
1F
100
AcDbEntity
  8
0
  6
Continuous
 62
     7
370
     0
100
AcDbMText
 10
2522.4576909613
 20
98.1280814603
 30
0.0
 40
11.90625
 41
0.0
 71
     1
 72
     1
  1
REV DATE
  7
SLDTEXTSTYLE0
 73
     1
 44
1.0
  0
MTEXT
  5
CA
330
1F
100
AcDbEntity
  8
SLD-0
100
AcDbMText
 10
1329.9622548448
 20
100.1830821096
 30
0.0
 40
11.90625
 41
0.0
 71
     2
 72
     1
  1
FORM
  7
SLDTEXTSTYLE0
 73
     1
 44
1.0
  0
MTEXT
  5
CB
330
1F
100
AcDbEntity
  8
0
  6
Continuous
 62
     7
370
     0
100
AcDbMText
 10
1331.8261472265
 20
82.263900596
 30
0.0
 40
16.66875
 41
0.0
 71
     2
 72
     1
  1
QOS40169 B
  7
SLDTEXTSTYLE0
 73
     1
 44
1.0
  0
MTEXT
  5
CC
330
1F
100
AcDbEntity
  8
SLD-0
100
AcDbMText
 10
442.9922613187
 20
83.0704323189
 30
0.0
 40
14.2875
 41
0.0
 71
     1
 72
     1
  1
COSTA MESA, CA 92626 USA
  7
SLDTEXTSTYLE0
 73
     1
 44
1.0
  0
MTEXT
  5
CD
330
1F
100
AcDbEntity
  8
SLD-0
100
AcDbMText
 10
442.3441558458
 20
107.4478351775
 30
0.0
 40
14.2875
 41
0.0
 71
     1
 72
     1
  1
1675 MACARTHUR BLVD
  7
SLDTEXTSTYLE0
 73
     1
 44
1.0
  0
MTEXT
  5
CE
330
1F
100
AcDbEntity
  8
SLD-0
 62
     7
100
AcDbMText
 10
1330.5706195443
 20
149.1478875481
 30
0.0
 40
11.90625
 41
0.0
 71
     2
 72
     1
  1
CAGE CODE
  7
SLDTEXTSTYLE0
 73
     1
 44
1.0
  0
LINE
  5
CF
330
1F
100
AcDbEntity
  8
0
  6
Continuous
 62
     7
370
    25
100
AcDbLine
 10
3147.4062430028
 20
1951.8664841615
 30
0.0
 11
3578.7413795266
 21
2200.8709582675
 31
0.0
  0
LINE
  5
D0
330
1F
100
AcDbEntity
  8
0
  6
Continuous
 62
     7
370
    25
100
AcDbLine
 10
3147.4062430028
 20
1951.8664841615
 30
0.0
 11
2776.1751828799
 21
2166.173613515
 31
0.0
  0
LINE
  5
D1
330
1F
100
AcDbEntity
  8
0
  6
Continuous
 62
     7
370
    25
100
AcDbLine
 10
2776.1751828799
 20
2166.173613515
 30
0.0
 11
3207.5103194037
 21
2415.1780876209
 31
0.0
  0
LINE
  5
D2
330
1F
100
AcDbEntity
  8
0
  6
Continuous
 62
     7
370
    25
100
AcDbLine
 10
3578.7413795266
 20
2200.8709582675
 30
0.0
 11
3207.5103194037
 21
2415.1780876209
 31
0.0
  0
LWPOLYLINE
  5
D3
330
1F
100
AcDbEntity
  8
0
  6
Continuous
 62
     7
370
    25
100
AcDbPolyline
 90
       34
 70
   128
 43
0.0
 10
3182.4787393496
 20
2005.0962930524
 10
3183.9447311391
 20
2004.3975295878
 10
3185.6133049799
 20
2003.8715568368
 10
3187.424154266
 20
2003.5373848252
 10
3189.3118301861
 20
2003.4070914001
 10
3191.2081072141
 20
2003.4853857053
 10
3193.0444489575
 20
2003.7694379806
 10
3194.7544852412
 20
2004.2489818369
 10
3196.2764108985
 20
2004.9066853095
 10
3197.5552195708
 20
2005.7187772814
 10
3198.5446917806
 20
2006.6559066329
 10
3199.2090654244
 20
2007.6842030676
 10
3199.5243283076
 20
2008.766501273
 10
3199.4790860082
 20
2009.8636841721
 10
3199.0749737009
 20
2010.9360967163
 10
3198.3265970572
 20
2011.9449791221
 10
3197.261004359
 20
2012.8538677507
 10
3195.9167089027
 20
2013.629912999
 10
3194.3422970287
 20
2014.2450665698
 10
3192.5946720842
 20
2014.6770952102
 10
3190.7369977881
 20
2014.9103842796
 10
3188.8364153295
 20
2014.9365021031
 10
3186.9616167105
 20
2014.7545047145
 10
3185.1803620378
 20
2014.3709699737
 10
3183.5570304964
 20
2013.7997598255
 10
3182.1502935177
 20
2013.0615192929
 10
3181.0109942413
 20
2012.1829303123
 10
3180.1803099115
 20
2011.1957473785
 10
3179.6882636243
 20
2010.1356498548
 10
3179.5526392146
 20
2009.0409524278
 10
3179.7783385018
 20
2007.9512203147
 10
3180.3572041257
 20
2006.9058392734
 10
3181.2683143744
 20
2005.9425920984
 10
3182.4787393496
 20
2005.0962930524
  0
LWPOLYLINE
  5
D4
330
1F
100
AcDbEntity
  8
0
  6
Continuous
 62
     7
370
    25
100
AcDbPolyline
 90
       34
 70
   128
 43
0.0
 10
3472.3925196361
 20
2172.459955976
 10
3473.8585114256
 20
2171.7611925114
 10
3475.5270852664
 20
2171.2352197605
 10
3477.3379345525
 20
2170.9010477489
 10
3479.2256104725
 20
2170.7707543237
 10
3481.1218875005
 20
2170.8490486289
 10
3482.958229244
 20
2171.1331009043
 10
3484.6682655277
 20
2171.6126447605
 10
3486.190191185
 20
2172.2703482332
 10
3487.4689998572
 20
2173.0824402051
 10
3488.4584720671
 20
2174.0195695566
 10
3489.1228457109
 20
2175.0478659912
 10
3489.4381085941
 20
2176.1301641966
 10
3489.3928662947
 20
2177.2273470958
 10
3488.9887539874
 20
2178.29975964
 10
3488.2403773437
 20
2179.3086420458
 10
3487.1747846455
 20
2180.2175306744
 10
3485.8304891892
 20
2180.9935759227
 10
3484.2560773152
 20
2181.6087294935
 10
3482.5084523707
 20
2182.0407581339
 10
3480.6507780746
 20
2182.2740472032
 10
3478.750195616
 20
2182.3001650267
 10
3476.875396997
 20
2182.1181676382
 10
3475.0941423243
 20
2181.7346328974
 10
3473.4708107829
 20
2181.1634227492
 10
3472.0640738042
 20
2180.4251822166
 10
3470.9247745278
 20
2179.5465932359
 10
3470.094090198
 20
2178.5594103021
 10
3469.6020439108
 20
2177.4993127784
 10
3469.4664195011
 20
2176.4046153514
 10
3469.6921187883
 20
2175.3148832384
 10
3470.2709844122
 20
2174.2695021971
 10
3471.1820946609
 20
2173.3062550221
 10
3472.3925196361
 20
2172.459955976
  0
LINE
  5
D5
330
1F
100
AcDbEntity
  8
0
  6
Continuous
 62
     7
370
    25
100
AcDbLine
 10
3147.4062430028
 20
1690.5734243581
 30
0.0
 11
3147.4062430028
 21
1951.8664841615
 31
0.0
  0
LINE
  5
D6
330
1F
100
AcDbEntity
  8
0
  6
Continuous
 62
     7
370
    25
100
AcDbLine
 10
2776.1751828799
 20
1904.8805537116
 30
0.0
 11
3147.4062430028
 21
1690.5734243581
 31
0.0
  0
LINE
  5
D7
330
1F
100
AcDbEntity
  8
0
  6
Continuous
 62
     7
370
    25
100
AcDbLine
 10
2776.1751828799
 20
2166.173613515
 30
0.0
 11
2776.1751828799
 21
1904.8805537116
 31
0.0
  0
LINE
  5
D8
330
1F
100
AcDbEntity
  8
0
  6
Continuous
 62
     7
370
    25
100
AcDbLine
 10
2786.7817845977
 20
1911.0056050512
 30
0.0
 11
3136.799641285
 21
1708.944597375
 31
0.0
  0
LINE
  5
D9
330
1F
100
AcDbEntity
  8
0
  6
Continuous
 62
     7
370
    25
100
AcDbLine
 10
3136.799641285
 20
1708.944597375
 30
0.0
 11
3136.799641285
 21
1945.7414328219
 31
0.0
  0
LINE
  5
DA
330
1F
100
AcDbEntity
  8
0
  6
Continuous
 62
     7
370
    25
100
AcDbLine
 10
3136.799641285
 20
1945.7414328219
 30
0.0
 11
2786.7817845977
 21
2147.802440498
 31
0.0
  0
LINE
  5
DB
330
1F
100
AcDbEntity
  8
0
  6
Continuous
 62
     7
370
    25
100
AcDbLine
 10
2786.7817845977
 20
2147.802440498
 30
0.0
 11
2786.7817845977
 21
1911.0056050512
 31
0.0
  0
LINE
  5
DC
330
1F
100
AcDbEntity
  8
0
  6
Continuous
 62
     7
370
    25
100
AcDbLine
 10
3147.4062430028
 20
1690.5734243581
 30
0.0
 11
3578.7413795266
 21
1939.577898464
 31
0.0
  0
LINE
  5
DD
330
1F
100
AcDbEntity
  8
0
  6
Continuous
 62
     7
370
    25
100
AcDbLine
 10
3578.7413795266
 20
1939.577898464
 30
0.0
 11
3578.7413795266
 21
2200.8709582675
 31
0.0
  0
LWPOLYLINE
  5
DE
330
1F
100
AcDbEntity
  8
0
  6
Continuous
 62
     7
370
    25
100
AcDbPolyline
 90
       34
 70
   128
 43
0.0
 10
3218.1169211215
 20
1967.8640490713
 10
3216.7787127391
 20
1966.9439582539
 10
3215.4888706944
 20
1965.7620027917
 10
3214.2940132394
 20
1964.3609016347
 10
3213.2373256357
 20
1962.7912942293
 10
3212.3569993266
 20
1961.1099102765
 10
3211.6848515985
 20
1959.3775193734
 10
3211.2451756215
 20
1957.6567346409
 10
3211.053862431
 20
1956.0097497225
 10
3211.1178265843
 20
1954.4960909446
 10
3211.4347562501
 20
1953.170465879
 10
3211.9931967645
 20
1952.0807860696
 10
3212.7729646324
 20
1951.2664353838
 10
3213.7458770114
 20
1950.7568465771
 10
3214.8767703131
 20
1950.5704375168
 10
3216.1247711072
 20
1950.7139455119
 10
3217.4447733933
 20
1951.1821838097
 10
3218.7890688496
 20
1951.958229058
 10
3220.1090711357
 20
1953.0140329596
 10
3221.3570719298
 20
1954.3114360107
 10
3222.4879652315
 20
1955.8035466846
 10
3223.4608776105
 20
1957.4364362139
 10
3224.2406454784
 20
1959.1510877165
 10
3224.7990859929
 20
1960.8855292198
 10
3225.1160156586
 20
1962.5770734887
 10
3225.1799798119
 20
1964.164583706
 10
3224.9886666214
 20
1965.5906831163
 10
3224.5489906444
 20
1966.8038287712
 10
3223.8768429163
 20
1967.760174426
 10
3222.9965166072
 20
1968.425155257
 10
3221.9398290035
 20
1968.7747371242
 10
3220.7449715485
 20
1968.7962852283
 10
3219.4551295038
 20
1968.4890207646
 10
3218.1169211215
 20
1967.8640490713
  0
LWPOLYLINE
  5
DF
330
1F
100
AcDbEntity
  8
0
  6
Continuous
 62
     7
370
    25
100
AcDbPolyline
 90
       34
 70
   128
 43
0.0
 10
3508.0307014079
 20
1939.9111497919
 10
3506.6924930256
 20
1938.9910589745
 10
3505.4026509808
 20
1937.8091035123
 10
3504.2077935258
 20
1936.4080023553
 10
3503.1511059222
 20
1934.8383949498
 10
3502.2707796131
 20
1933.1570109971
 10
3501.5986318849
 20
1931.424620094
 10
3501.158955908
 20
1929.7038353615
 10
3500.9676427175
 20
1928.0568504431
 10
3501.0316068708
 20
1926.5431916652
 10
3501.3485365365
 20
1925.2175665996
 10
3501.906977051
 20
1924.1278867902
 10
3502.6867449189
 20
1923.3135361043
 10
3503.6596572979
 20
1922.8039472977
 10
3504.7905505996
 20
1922.6175382373
 10
3506.0385513937
 20
1922.7610462325
 10
3507.3585536798
 20
1923.2292845302
 10
3508.7028491361
 20
1924.0053297786
 10
3510.0228514222
 20
1925.0611336802
 10
3511.2708522163
 20
1926.3585367312
 10
3512.401745518
 20
1927.8506474051
 10
3513.374657897
 20
1929.4835369344
 10
3514.1544257649
 20
1931.1981884371
 10
3514.7128662793
 20
1932.9326299404
 10
3515.0297959451
 20
1934.6241742092
 10
3515.0937600984
 20
1936.2116844266
 10
3514.9024469079
 20
1937.6377838369
 10
3514.4627709309
 20
1938.8509294918
 10
3513.7906232028
 20
1939.8072751466
 10
3512.9102968937
 20
1940.4722559776
 10
3511.85360929
 20
1940.8218378448
 10
3510.658751835
 20
1940.8433859489
 10
3509.3689097903
 20
1940.5361214852
 10
3508.0307014079
 20
1939.9111497919
  0
LWPOLYLINE
  5
E0
330
1F
100
AcDbEntity
  8
0
  6
Continuous
 62
     7
370
    25
100
AcDbPolyline
 90
       34
 70
   128
 43
0.0
 10
3218.1169211215
 20
1772.5474868683
 10
3216.7787127391
 20
1771.6273960508
 10
3215.4888706944
 20
1770.4454405886
 10
3214.2940132394
 20
1769.0443394316
 10
3213.2373256357
 20
1767.4747320262
 10
3212.3569993266
 20
1765.7933480735
 10
3211.6848515985
 20
1764.0609571704
 10
3211.2451756215
 20
1762.3401724378
 10
3211.053862431
 20
1760.6931875195
 10
3211.1178265843
 20
1759.1795287415
 10
3211.4347562501
 20
1757.8539036759
 10
3211.9931967645
 20
1756.7642238665
 10
3212.7729646324
 20
1755.9498731807
 10
3213.7458770114
 20
1755.440284374
 10
3214.8767703131
 20
1755.2538753137
 10
3216.1247711072
 20
1755.3973833088
 10
3217.4447733933
 20
1755.8656216066
 10
3218.7890688496
 20
1756.6416668549
 10
3220.1090711357
 20
1757.6974707565
 10
3221.3570719298
 20
1758.9948738076
 10
3222.4879652315
 20
1760.4869844815
 10
3223.4608776105
 20
1762.1198740108
 10
3224.2406454784
 20
1763.8345255135
 10
3224.7990859929
 20
1765.5689670167
 10
3225.1160156586
 20
1767.2605112856
 10
3225.1799798119
 20
1768.8480215029
 10
3224.9886666214
 20
1770.2741209132
 10
3224.5489906444
 20
1771.4872665682
 10
3223.8768429163
 20
1772.443612223
 10
3222.9965166072
 20
1773.1085930539
 10
3221.9398290035
 20
1773.4581749212
 10
3220.7449715485
 20
1773.4797230253
 10
3219.4551295038
 20
1773.1724585615
 10
3218.1169211215
 20
1772.5474868683
  0
LWPOLYLINE
  5
E1
330
1F
100
AcDbEntity
  8
0
  6
Continuous
 62
     7
370
    25
100
AcDbPolyline
 90
       34
 70
   128
 43
0.0
 10
3508.0307014079
 20
2135.227711995
 10
3506.6924930256
 20
2134.3076211776
 10
3505.4026509808
 20
2133.1256657154
 10
3504.2077935258
 20
2131.7245645584
 10
3503.1511059222
 20
2130.1549571529
 10
3502.2707796131
 20
2128.4735732002
 10
3501.5986318849
 20
2126.7411822971
 10
3501.158955908
 20
2125.0203975645
 10
3500.9676427175
 20
2123.3734126462
 10
3501.0316068708
 20
2121.8597538682
 10
3501.3485365365
 20
2120.5341288027
 10
3501.906977051
 20
2119.4444489932
 10
3502.6867449189
 20
2118.6300983074
 10
3503.6596572979
 20
2118.1205095007
 10
3504.7905505996
 20
2117.9341004404
 10
3506.0385513937
 20
2118.0776084356
 10
3507.3585536798
 20
2118.5458467333
 10
3508.7028491361
 20
2119.3218919816
 10
3510.0228514222
 20
2120.3776958833
 10
3511.2708522163
 20
2121.6750989343
 10
3512.401745518
 20
2123.1672096082
 10
3513.374657897
 20
2124.8000991375
 10
3514.1544257649
 20
2126.5147506402
 10
3514.7128662793
 20
2128.2491921434
 10
3515.0297959451
 20
2129.9407364123
 10
3515.0937600984
 20
2131.5282466296
 10
3514.9024469079
 20
2132.95434604
 10
3514.4627709309
 20
2134.1674916949
 10
3513.7906232028
 20
2135.1238373497
 10
3512.9102968937
 20
2135.7888181806
 10
3511.85360929
 20
2136.1384000479
 10
3510.658751835
 20
2136.159948152
 10
3509.3689097903
 20
2135.8526836882
 10
3508.0307014079
 20
2135.227711995
  0
LINE
  5
E2
330
1F
100
AcDbEntity
  8
0
  6
Continuous
 62
     7
370
    25
100
AcDbLine
 10
2866.6848508717
 20
1887.7379738642
 30
0.0
 11
3136.799641285
 21
1731.8040245061
 31
0.0
  0
LINE
  5
E3
330
1F
100
AcDbEntity
  8
0
  6
Continuous
 62
     7
370
    25
100
AcDbLine
 10
2866.6848508717
 20
1887.7379738642
 30
0.0
 11
2866.6848508717
 21
2101.6753821801
 31
0.0
  0
LINE
  5
E4
330
1F
100
AcDbEntity
  8
0
  6
Continuous
 62
     7
370
    25
100
AcDbLine
 10
2877.2914525895
 20
2095.5523213414
 30
0.0
 11
2877.2914525895
 21
1975.5171063924
 31
0.0
  0
LINE
  5
E5
330
1F
100
AcDbEntity
  8
0
  6
Continuous
 62
     7
370
    25
100
AcDbLine
 10
2877.2914525895
 20
1975.5171063924
 30
0.0
 11
3136.799641285
 21
1825.7062178729
 31
0.0
  0
LINE
  5
E6
330
1F
100
AcDbEntity
  8
0
  6
Continuous
 62
     7
370
    25
100
AcDbLine
 10
2887.8980543073
 20
1981.6401672311
 30
0.0
 11
3136.799641285
 21
1837.9523395503
 31
0.0
  0
LINE
  5
E7
330
1F
100
AcDbEntity
  8
0
  6
Continuous
 62
     7
370
    25
100
AcDbLine
 10
2950.6973346189
 20
2053.176007651
 30
0.0
 11
2887.8980543073
 21
1981.6401672311
 31
0.0
  0
LWPOLYLINE
  5
E8
330
1F
100
AcDbEntity
  8
0
  6
Continuous
 62
     7
370
    25
100
AcDbPolyline
 90
       17
 70
   128
 43
0.0
 10
3039.7202205418
 20
1951.2918012631
 10
3044.7884223771
 20
1948.5582833328
 10
3050.0678857953
 20
1946.0869063616
 10
3055.5452744135
 20
1943.8839132623
 10
3061.2067518728
 20
1941.9548689868
 10
3067.0380167896
 20
1940.3046464681
 10
3073.0243388828
 20
1938.9374143117
 10
3079.1505961832
 20
1937.8566262647
 10
3085.4013132332
 20
1937.0650124914
 10
3091.760700179
 20
1936.5645726769
 10
3098.2126926573
 20
1936.3565709756
 10
3104.740992375
 20
1936.4415328179
 10
3111.3291082807
 20
1936.8192435828
 10
3117.9603982216
 20
1937.4887491401
 10
3124.618110984
 20
1938.4483582607
 10
3131.2854286075
 20
1939.6956468887
 10
3136.799641285
 20
1940.9435041706
  0
ARC
  5
E9
330
1F
100
AcDbEntity
  8
0
  6
Continuous
 62
     7
370
    25
100
AcDbCircle
 10
3081.7091352595
 20
2026.2873992472
 30
0.0
 40
85.95003592882574
100
AcDbArc
 50
179.4184003789
 51
240.7561873825
  0
LWPOLYLINE
  5
EA
330
1F
100
AcDbEntity
  8
0
  6
Continuous
 62
     7
370
    25
100
AcDbPolyline
 90
       17
 70
   128
 43
0.0
 10
3211.2873746562
 20
1957.8718912201
 10
3211.5668922098
 20
1957.3457390185
 10
3212.1849406061
 20
1956.7724194973
 10
3212.9903969578
 20
1956.5237000756
 10
3213.9283707457
 20
1956.616530571
 10
3214.9349406061
 20
1957.0445847387
 10
3215.9415104665
 20
1957.7786913945
 10
3216.8794842544
 20
1958.7688223831
 10
3217.6849406061
 20
1959.9475019137
 10
3218.3029890024
 20
1961.2344049243
 10
3218.6915104665
 20
1962.5418311014
 10
3218.8240279026
 20
1963.7806815116
 10
3218.6915104665
 20
1964.8665305468
 10
3218.3029890024
 20
1965.7253793897
 10
3217.6849406061
 20
1966.2986989109
 10
3216.8794842544
 20
1966.5474183326
 10
3216.2835188504
 20
1966.5264045408
  0
LWPOLYLINE
  5
EB
330
1F
100
AcDbEntity
  8
0
  6
Continuous
 62
     7
370
    25
100
AcDbPolyline
 90
       17
 70
   128
 43
0.0
 10
3194.5473284
 20
2004.1780494806
 10
3194.8623992061
 20
2004.6821281588
 10
3195.0498071615
 20
2005.503899958
 10
3194.8623992061
 20
2006.3256717572
 10
3194.3129468823
 20
2007.0914411662
 10
3193.438894458
 20
2007.7490222655
 10
3192.2998071615
 20
2008.2536019898
 10
3190.9733119096
 20
2008.5707940647
 10
3189.5498071615
 20
2008.6789823745
 10
3188.1263024135
 20
2008.5707940647
 10
3186.7998071615
 20
2008.2536019898
 10
3185.660719865
 20
2007.7490222655
 10
3184.7866674407
 20
2007.0914411662
 10
3184.2372151169
 20
2006.3256717572
 10
3184.0498071615
 20
2005.503899958
 10
3184.2372151169
 20
2004.6821281588
 10
3184.552285923
 20
2004.1780494806
  0
LINE
  5
EC
330
1F
100
AcDbEntity
  8
0
  6
Continuous
 62
     7
370
    25
100
AcDbLine
 10
2887.8980543073
 20
1981.6401672311
 30
0.0
 11
2877.2914525895
 21
1975.5171063924
 31
0.0
  0
ARC
  5
ED
330
1F
100
AcDbEntity
  8
0
  6
Continuous
 62
     7
370
    25
100
AcDbCircle
 10
3089.1263008972
 20
2018.5021090528
 30
0.0
 40
88.75668581725576
100
AcDbArc
 50
176.197631727
 51
205.4414265452
  0
ARC
  5
EE
330
1F
100
AcDbEntity
  8
0
  6
Continuous
 62
     7
370
    25
100
AcDbCircle
 10
3090.3745816133
 20
2020.1576728383
 30
0.0
 40
78.05785027407863
100
AcDbArc
 50
181.8929155589
 51
240.8129035299
  0
LWPOLYLINE
  5
EF
330
1F
100
AcDbEntity
  8
0
  6
Continuous
 62
     7
370
    25
100
AcDbPolyline
 90
       16
 70
   128
 43
0.0
 10
3136.799641285
 20
1941.6938736912
 10
3133.8838283042
 20
1941.0925970124
 10
3127.5091481493
 20
1939.9873861819
 10
3121.1499413551
 20
1939.1720686073
 10
3114.8239321712
 20
1938.648916725
 10
3108.54875232
 20
1938.4193886529
 10
3102.3418918532
 20
1938.4841241271
 10
3096.2206504042
 20
1938.8429427181
 10
3090.2020889707
 20
1939.4948443341
 10
3084.3029823629
 20
1940.4380120086
 10
3078.5397724491
 20
1941.6698169639
 10
3072.9285223289
 20
1943.1868259387
 10
3067.4848715628
 20
1944.984810757
 10
3062.2239925818
 20
1947.0587601125
 10
3057.1605483993
 20
1949.4028935365
 10
3052.3086517423
 20
1952.0106775086
  0
ARC
  5
F0
330
1F
100
AcDbEntity
  8
0
  6
Continuous
 62
     7
370
    25
100
AcDbCircle
 10
3099.5215647029
 20
2018.7228552728
 30
0.0
 40
66.17013149244875
100
AcDbArc
 50
192.3432401124
 51
240.8403466983
  0
LWPOLYLINE
  5
F1
330
1F
100
AcDbEntity
  8
0
  6
Continuous
 62
     7
370
    25
100
AcDbPolyline
 90
       13
 70
   128
 43
0.0
 10
3128.7351589467
 20
1950.3969593802
 10
3125.1799913702
 20
1949.9847334564
 10
3119.3763172976
 20
1949.542245707
 10
3113.6263096736
 20
1949.3916290618
 10
3107.9487238279
 20
1949.5333748011
 10
3102.3620788655
 20
1949.9670205798
 10
3096.884597261
 20
1950.6911519354
 10
3091.5341454209
 20
1951.7034069021
 10
3086.328175407
 20
1953.0004837144
 10
3081.2836680115
 20
1954.5781515774
 10
3076.4170773688
 20
1956.4312644665
 10
3071.7442772863
 20
1958.5537779126
 10
3067.2805094664
 20
1960.9387687181
  0
LINE
  5
F2
330
1F
100
AcDbEntity
  8
0
  6
Continuous
 62
     7
370
    25
100
AcDbLine
 10
2866.6848508717
 20
1957.1326633692
 30
0.0
 11
2786.7817845977
 21
1911.0056050512
 31
0.0
  0
LWPOLYLINE
  5
F3
330
1F
100
AcDbEntity
  8
0
  6
Continuous
 62
     7
370
    25
100
AcDbPolyline
 90
       17
 70
   128
 43
0.0
 10
3211.2873746563
 20
1762.5553290168
 10
3211.5668922098
 20
1762.0291768154
 10
3212.1849406061
 20
1761.4558572942
 10
3212.9903969578
 20
1761.2071378725
 10
3213.9283707457
 20
1761.2999683679
 10
3214.9349406061
 20
1761.7280225356
 10
3215.9415104665
 20
1762.4621291915
 10
3216.8794842544
 20
1763.45226018
 10
3217.6849406061
 20
1764.6309397106
 10
3218.3029890024
 20
1765.9178427212
 10
3218.6915104665
 20
1767.2252688983
 10
3218.8240279026
 20
1768.4641193085
 10
3218.6915104665
 20
1769.5499683437
 10
3218.3029890024
 20
1770.4088171866
 10
3217.6849406061
 20
1770.9821367078
 10
3216.8794842544
 20
1771.2308561295
 10
3216.2835188506
 20
1771.2098423378
  0
LWPOLYLINE
  5
F4
330
1F
100
AcDbEntity
  8
0
  6
Continuous
 62
     7
370
    25
100
AcDbPolyline
 90
       17
 70
   128
 43
0.0
 10
3501.2011549426
 20
2125.235554144
 10
3501.4806724963
 20
2124.7094019421
 10
3502.0987208926
 20
2124.1360824209
 10
3502.9041772443
 20
2123.8873629992
 10
3503.8421510322
 20
2123.9801934947
 10
3504.8487208926
 20
2124.4082476624
 10
3505.855290753
 20
2125.1423543182
 10
3506.7932645409
 20
2126.1324853067
 10
3507.5987208926
 20
2127.3111648374
 10
3508.2167692889
 20
2128.598067848
 10
3508.605290753
 20
2129.905494025
 10
3508.7378081891
 20
2131.1443444353
 10
3508.605290753
 20
2132.2301934705
 10
3508.2167692889
 20
2133.0890423133
 10
3507.5987208926
 20
2133.6623618346
 10
3506.7932645409
 20
2133.9110812563
 10
3506.1972991364
 20
2133.8900674644
  0
LWPOLYLINE
  5
F5
330
1F
100
AcDbEntity
  8
0
  6
Continuous
 62
     7
370
    25
100
AcDbPolyline
 90
       17
 70
   128
 43
0.0
 10
3484.4611086883
 20
2171.5417124064
 10
3484.7761794926
 20
2172.0457910825
 10
3484.963587448
 20
2172.8675628817
 10
3484.7761794926
 20
2173.6893346808
 10
3484.2267271688
 20
2174.4551040899
 10
3483.3526747445
 20
2175.1126851892
 10
3482.213587448
 20
2175.6172649134
 10
3480.8870921961
 20
2175.9344569883
 10
3479.463587448
 20
2176.0426452981
 10
3478.0400826999
 20
2175.9344569883
 10
3476.713587448
 20
2175.6172649134
 10
3475.5745001515
 20
2175.1126851892
 10
3474.7004477272
 20
2174.4551040899
 10
3474.1509954034
 20
2173.6893346808
 10
3473.963587448
 20
2172.8675628817
 10
3474.1509954034
 20
2172.0457910825
 10
3474.4660662079
 20
2171.5417124063
  0
LWPOLYLINE
  5
F6
330
1F
100
AcDbEntity
  8
0
  6
Continuous
 62
     7
370
    25
100
AcDbPolyline
 90
       17
 70
   128
 43
0.0
 10
3501.2011549417
 20
1929.9189919431
 10
3501.4806724963
 20
1929.3928397391
 10
3502.0987208926
 20
1928.8195202178
 10
3502.9041772443
 20
1928.5708007962
 10
3503.8421510322
 20
1928.6636312916
 10
3504.8487208926
 20
1929.0916854593
 10
3505.855290753
 20
1929.8257921151
 10
3506.7932645409
 20
1930.8159231037
 10
3507.5987208926
 20
1931.9946026343
 10
3508.2167692889
 20
1933.2815056449
 10
3508.605290753
 20
1934.588931822
 10
3508.7378081891
 20
1935.8277822322
 10
3508.605290753
 20
1936.9136312674
 10
3508.2167692889
 20
1937.7724801103
 10
3507.5987208926
 20
1938.3457996315
 10
3506.7932645409
 20
1938.5945190532
 10
3506.1972991346
 20
1938.5735052611
  0
LINE
  5
F7
330
1F
100
AcDbEntity
  8
0
  6
Continuous
 62
     7
370
    25
100
AcDbLine
 10
1862.2169441553
 20
1149.5483865286
 30
0.0
 11
1862.2169441553
 21
1469.5483865286
 31
0.0
  0
LINE
  5
F8
330
1F
100
AcDbEntity
  8
0
  6
Continuous
 62
     7
370
    25
100
AcDbLine
 10
1337.2169441553
 20
1149.5483865286
 30
0.0
 11
1862.2169441553
 21
1149.5483865286
 31
0.0
  0
LINE
  5
F9
330
1F
100
AcDbEntity
  8
0
  6
Continuous
 62
     7
370
    25
100
AcDbLine
 10
1337.2169441553
 20
1469.5483865286
 30
0.0
 11
1337.2169441553
 21
1149.5483865286
 31
0.0
  0
LINE
  5
FA
330
1F
100
AcDbEntity
  8
0
  6
Continuous
 62
     7
370
    25
100
AcDbLine
 10
1862.2169441553
 20
1469.5483865286
 30
0.0
 11
1337.2169441553
 21
1469.5483865286
 31
0.0
  0
LINE
  5
FB
330
1F
100
AcDbEntity
  8
0
  6
Continuous
 62
     7
370
    25
100
AcDbLine
 10
1352.2169441553
 20
1164.5483865286
 30
0.0
 11
1847.2169441553
 21
1164.5483865286
 31
0.0
  0
LINE
  5
FC
330
1F
100
AcDbEntity
  8
0
  6
Continuous
 62
     7
370
    25
100
AcDbLine
 10
1847.2169441553
 20
1164.5483865286
 30
0.0
 11
1847.2169441553
 21
1454.5483865286
 31
0.0
  0
LINE
  5
FD
330
1F
100
AcDbEntity
  8
0
  6
Continuous
 62
     7
370
    25
100
AcDbLine
 10
1847.2169441553
 20
1454.5483865286
 30
0.0
 11
1352.2169441553
 21
1454.5483865286
 31
0.0
  0
LINE
  5
FE
330
1F
100
AcDbEntity
  8
0
  6
Continuous
 62
     7
370
    25
100
AcDbLine
 10
1352.2169441553
 20
1454.5483865286
 30
0.0
 11
1352.2169441553
 21
1164.5483865286
 31
0.0
  0
LINE
  5
FF
330
1F
100
AcDbEntity
  8
0
  6
Continuous
 62
     7
370
    25
100
AcDbLine
 10
1452.2169441553
 20
1454.5483865286
 30
0.0
 11
1452.2169441553
 21
1279.5483865286
 31
0.0
  0
LINE
  5
100
330
1F
100
AcDbEntity
  8
0
  6
Continuous
 62
     7
370
    25
100
AcDbLine
 10
1452.2169441553
 20
1279.5483865286
 30
0.0
 11
1847.2169441553
 21
1279.5483865286
 31
0.0
  0
LINE
  5
101
330
1F
100
AcDbEntity
  8
0
  6
Continuous
 62
     7
370
    25
100
AcDbLine
 10
1437.2169441553
 20
1164.5483865286
 30
0.0
 11
1437.2169441553
 21
1454.5483865286
 31
0.0
  0
LINE
  5
102
330
1F
100
AcDbEntity
  8
0
  6
Continuous
 62
     7
370
    25
100
AcDbLine
 10
1391.4669441553
 20
1139.5483865286
 30
0.0
 11
1391.4669441553
 21
1149.5483865286
 31
0.0
  0
LINE
  5
103
330
1F
100
AcDbEntity
  8
0
  6
Continuous
 62
     7
370
    25
100
AcDbLine
 10
1391.4669441553
 20
1139.5483865286
 30
0.0
 11
1383.6369441553
 21
1139.5483865286
 31
0.0
  0
LINE
  5
104
330
1F
100
AcDbEntity
  8
0
  6
Continuous
 62
     7
370
    25
100
AcDbLine
 10
1815.7969441553
 20
1139.5483865286
 30
0.0
 11
1807.9669441553
 21
1139.5483865286
 31
0.0
  0
LINE
  5
105
330
1F
100
AcDbEntity
  8
0
  6
Continuous
 62
     7
370
    25
100
AcDbLine
 10
1807.9669441553
 20
1139.5483865286
 30
0.0
 11
1807.9669441553
 21
1149.5483865286
 31
0.0
  0
LINE
  5
106
330
1F
100
AcDbEntity
  8
0
  6
Continuous
 62
     7
370
    25
100
AcDbLine
 10
1360.7969441553
 20
1139.5483865286
 30
0.0
 11
1352.9669441553
 21
1139.5483865286
 31
0.0
  0
LINE
  5
107
330
1F
100
AcDbEntity
  8
0
  6
Continuous
 62
     7
370
    25
100
AcDbLine
 10
1352.9669441553
 20
1139.5483865286
 30
0.0
 11
1352.9669441553
 21
1149.5483865286
 31
0.0
  0
LINE
  5
108
330
1F
100
AcDbEntity
  8
0
  6
Continuous
 62
     7
370
    25
100
AcDbLine
 10
1846.4669441553
 20
1139.5483865286
 30
0.0
 11
1846.4669441553
 21
1149.5483865286
 31
0.0
  0
LINE
  5
109
330
1F
100
AcDbEntity
  8
0
  6
Continuous
 62
     7
370
    25
100
AcDbLine
 10
1846.4669441553
 20
1139.5483865286
 30
0.0
 11
1838.6369441553
 21
1139.5483865286
 31
0.0
  0
LINE
  5
10A
330
1F
100
AcDbEntity
  8
0
  6
Continuous
 62
     7
370
    25
100
AcDbLine
 10
1838.6369441553
 20
1139.5483865286
 30
0.0
 11
1815.7969441553
 21
1139.5483865286
 31
0.0
  0
LINE
  5
10B
330
1F
100
AcDbEntity
  8
0
  6
Continuous
 62
     7
370
    25
100
AcDbLine
 10
1383.6369441553
 20
1139.5483865286
 30
0.0
 11
1360.7969441553
 21
1139.5483865286
 31
0.0
  0
LWPOLYLINE
  5
10C
330
1F
100
AcDbEntity
  8
0
  6
Continuous
 62
     7
370
    25
100
AcDbPolyline
 90
      126
 70
   128
 43
0.0
 10
1619.7169441553
 20
1302.5171365286
 10
1626.7260265414
 20
1302.5942216458
 10
1633.7174033771
 20
1302.8252822735
 10
1640.6734138377
 20
1303.2097347326
 10
1647.5764864371
 20
1303.7466078628
 10
1654.4091834148
 20
1304.434545476
 10
1661.1542447853
 20
1305.271809782
 10
1667.7946319382
 20
1306.2562857787
 10
1674.3135706791
 20
1307.3854865941
 10
1680.6945936031
 20
1308.656559769
 10
1686.9215816925
 20
1310.0662944622
 10
1692.9788050349
 20
1311.6111295616
 10
1698.8509625585
 20
1313.2871626796
 10
1704.5232206837
 20
1315.0901600111
 10
1709.9812507943
 20
1317.0155670284
 10
1715.2112654324
 20
1319.0585199863
 10
1720.2000531272
 20
1321.2138582082
 10
1724.935011768
 20
1323.4761371228
 10
1729.4041804384
 20
1325.8396420172
 10
1733.5962696304
 20
1328.2984024729
 10
1737.5006897628
 20
1330.8462074476
 10
1741.1075779317
 20
1333.4766209647
 10
1744.4078228244
 20
1336.1829983716
 10
1747.3930877359
 20
1338.958503124
 10
1750.055831628
 20
1341.7961240559
 10
1752.3893281785
 20
1344.6886930907
 10
1754.3876827726
 20
1347.6289033479
 10
1756.0458473931
 20
1350.6093276012
 10
1757.3596333723
 20
1353.6224370403
 10
1758.3257219729
 20
1356.6606202893
 10
1758.9416727711
 20
1359.7162026336
 10
1759.2059298217
 20
1362.781465407
 10
1759.1178255887
 20
1365.8486654897
 10
1758.6775826308
 20
1368.9100548681
 10
1757.88631304
 20
1371.957900207
 10
1756.746015632
 20
1374.9845023844
 10
1755.2595708969
 20
1377.9822159407
 10
1753.4307337232
 20
1380.9434683912
 10
1751.2641239124
 20
1383.8607793553
 10
1748.7652145087
 20
1386.7267794522
 10
1745.9403179743
 20
1389.5342289169
 10
1742.796570243
 20
1392.2760358886
 10
1739.3419126943
 20
1394.9452743247
 10
1735.5850720931
 20
1397.5352014974
 10
1731.5355385448
 20
1400.0392750258
 10
1727.2035415225
 20
1402.451169403
 10
1722.6000240268
 20
1404.7647919743
 10
1717.7366149423
 20
1406.9742983283
 10
1712.6255996624
 20
1409.0741070603
 10
1707.2798890554
 20
1411.0589138711
 10
1701.7129868501
 20
1412.9237049666
 10
1695.9389555247
 20
1414.6637697224
 10
1689.9723807835
 20
1416.2747125842
 10
1683.828334712
 20
1417.7524641703
 10
1677.5223377039
 20
1419.093291552
 10
1671.0703192548
 20
1420.293807683
 10
1664.4885777234
 20
1421.3509799553
 10
1657.79373916
 20
1422.2621378601
 10
1651.0027153078
 20
1423.0249797334
 10
1644.1326608824
 20
1423.6375785704
 10
1637.2009302375
 20
1424.0983868932
 10
1630.2250335265
 20
1424.4062406601
 10
1623.2225924697
 20
1424.5603622058
 10
1616.211295841
 20
1424.5603622058
 10
1609.2088547842
 20
1424.4062406601
 10
1602.2329580731
 20
1424.0983868932
 10
1595.3012274283
 20
1423.6375785704
 10
1588.4311730029
 20
1423.0249797334
 10
1581.6401491506
 20
1422.2621378601
 10
1574.9453105872
 20
1421.3509799553
 10
1568.3635690558
 20
1420.293807683
 10
1561.9115506068
 20
1419.093291552
 10
1555.6055535986
 20
1417.7524641703
 10
1549.4615075271
 20
1416.2747125842
 10
1543.4949327859
 20
1414.6637697224
 10
1537.7209014605
 20
1412.9237049666
 10
1532.1539992553
 20
1411.0589138711
 10
1526.8082886482
 20
1409.0741070603
 10
1521.6972733684
 20
1406.9742983283
 10
1516.8338642838
 20
1404.7647919743
 10
1512.2303467881
 20
1402.451169403
 10
1507.8983497658
 20
1400.0392750258
 10
1503.8488162175
 20
1397.5352014974
 10
1500.0919756163
 20
1394.9452743247
 10
1496.6373180676
 20
1392.2760358886
 10
1493.4935703363
 20
1389.5342289169
 10
1490.6686738019
 20
1386.7267794522
 10
1488.1697643983
 20
1383.8607793553
 10
1486.0031545874
 20
1380.9434683912
 10
1484.1743174137
 20
1377.9822159407
 10
1482.6878726787
 20
1374.9845023844
 10
1481.5475752706
 20
1371.957900207
 10
1480.7563056798
 20
1368.9100548681
 10
1480.316062722
 20
1365.8486654897
 10
1480.2279584889
 20
1362.781465407
 10
1480.4922155396
 20
1359.7162026336
 10
1481.1081663378
 20
1356.6606202893
 10
1482.0742549383
 20
1353.6224370403
 10
1483.3880409176
 20
1350.6093276012
 10
1485.0462055381
 20
1347.6289033479
 10
1487.0445601321
 20
1344.6886930907
 10
1489.3780566826
 20
1341.7961240559
 10
1492.0408005747
 20
1338.958503124
 10
1495.0260654862
 20
1336.1829983716
 10
1498.3263103789
 20
1333.4766209647
 10
1501.9331985478
 20
1330.8462074476
 10
1505.8376186803
 20
1328.2984024729
 10
1510.0297078723
 20
1325.8396420172
 10
1514.4988765426
 20
1323.4761371228
 10
1519.2338351835
 20
1321.2138582082
 10
1524.2226228783
 20
1319.0585199863
 10
1529.4526375164
 20
1317.0155670284
 10
1534.9106676269
 20
1315.0901600111
 10
1540.5829257521
 20
1313.2871626796
 10
1546.4550832757
 20
1311.6111295616
 10
1552.5123066181
 20
1310.0662944622
 10
1558.7392947075
 20
1308.656559769
 10
1565.1203176315
 20
1307.3854865941
 10
1571.6392563725
 20
1306.2562857787
 10
1578.2796435253
 20
1305.271809782
 10
1585.0247048958
 20
1304.434545476
 10
1591.8574018736
 20
1303.7466078628
 10
1598.760474473
 20
1303.2097347326
 10
1605.7164849336
 20
1302.8252822735
 10
1612.7078617692
 20
1302.5942216458
 10
1619.7169441553
 20
1302.5171365286
  0
LWPOLYLINE
  5
10D
330
1F
100
AcDbEntity
  8
0
  6
Continuous
 62
     7
370
    25
100
AcDbPolyline
 90
       60
 70
   128
 43
0.0
 10
1758.3626164606
 20
1356.804248449
 10
1757.88631304
 20
1358.4696240476
 10
1756.746015632
 20
1361.4962262251
 10
1755.2595708969
 20
1364.4939397814
 10
1753.4307337232
 20
1367.4551922319
 10
1751.2641239124
 20
1370.372503196
 10
1748.7652145087
 20
1373.2385032929
 10
1745.9403179743
 20
1376.0459527576
 10
1742.796570243
 20
1378.7877597293
 10
1739.3419126943
 20
1381.4569981654
 10
1735.5850720931
 20
1384.0469253381
 10
1731.5355385448
 20
1386.5509988665
 10
1727.2035415225
 20
1388.9628932436
 10
1722.6000240268
 20
1391.2765158149
 10
1717.7366149423
 20
1393.486022169
 10
1712.6255996624
 20
1395.585830901
 10
1707.2798890554
 20
1397.5706377118
 10
1701.7129868501
 20
1399.4354288072
 10
1695.9389555247
 20
1401.1754935631
 10
1689.9723807835
 20
1402.7864364248
 10
1683.828334712
 20
1404.264188011
 10
1677.5223377039
 20
1405.6050153927
 10
1671.0703192548
 20
1406.8055315237
 10
1664.4885777234
 20
1407.862703796
 10
1657.79373916
 20
1408.7738617008
 10
1651.0027153078
 20
1409.5367035741
 10
1644.1326608824
 20
1410.149302411
 10
1637.2009302375
 20
1410.6101107339
 10
1630.2250335265
 20
1410.9179645008
 10
1623.2225924697
 20
1411.0720860465
 10
1616.211295841
 20
1411.0720860465
 10
1609.2088547842
 20
1410.9179645008
 10
1602.2329580731
 20
1410.6101107339
 10
1595.3012274283
 20
1410.149302411
 10
1588.4311730029
 20
1409.5367035741
 10
1581.6401491506
 20
1408.7738617008
 10
1574.9453105872
 20
1407.862703796
 10
1568.3635690558
 20
1406.8055315237
 10
1561.9115506068
 20
1405.6050153927
 10
1555.6055535986
 20
1404.264188011
 10
1549.4615075271
 20
1402.7864364248
 10
1543.4949327859
 20
1401.1754935631
 10
1537.7209014605
 20
1399.4354288072
 10
1532.1539992553
 20
1397.5706377118
 10
1526.8082886482
 20
1395.585830901
 10
1521.6972733684
 20
1393.486022169
 10
1516.8338642838
 20
1391.2765158149
 10
1512.2303467881
 20
1388.9628932436
 10
1507.8983497658
 20
1386.5509988665
 10
1503.8488162175
 20
1384.0469253381
 10
1500.0919756163
 20
1381.4569981654
 10
1496.6373180676
 20
1378.7877597293
 10
1493.4935703363
 20
1376.0459527576
 10
1490.6686738019
 20
1373.2385032929
 10
1488.1697643983
 20
1370.372503196
 10
1486.0031545874
 20
1367.4551922319
 10
1484.1743174137
 20
1364.4939397814
 10
1482.6878726787
 20
1361.4962262251
 10
1481.5475752706
 20
1358.4696240476
 10
1481.07127185
 20
1356.804248449
  0
LWPOLYLINE
  5
10E
330
1F
100
AcDbEntity
  8
0
  6
Continuous
 62
     7
370
    25
100
AcDbPolyline
 90
       74
 70
   128
 43
0.0
 10
1498.7283405304
 20
1333.1680898034
 10
1498.5250808309
 20
1333.4493221611
 10
1496.6902237292
 20
1336.2706956962
 10
1495.198264163
 20
1339.1305028033
 10
1494.0533604913
 20
1342.0207726869
 10
1493.2587037658
 20
1344.9334496466
 10
1492.8165088375
 20
1347.8604155292
 10
1492.7280081829
 20
1350.7935123559
 10
1492.9934484692
 20
1353.7245650597
 10
1493.6120898667
 20
1356.645404271
 10
1494.5822081109
 20
1359.5478890871
 10
1495.9010993082
 20
1362.4239297622
 10
1497.5650874724
 20
1365.2655102552
 10
1499.5695347699
 20
1368.0647105714
 10
1501.9088544466
 20
1370.8137288377
 10
1504.576526399
 20
1373.5049030469
 10
1507.565115347
 20
1376.130732414
 10
1510.8662915571
 20
1378.6838982815
 10
1514.470854059
 20
1381.1572845183
 10
1518.3687562907
 20
1383.5439973531
 10
1522.5491340995
 20
1385.8373845894
 10
1527.0003360226
 20
1388.0310541455
 10
1531.7099557619
 20
1390.118891871
 10
1536.6648667626
 20
1392.0950785876
 10
1541.8512587989
 20
1393.9541063085
 10
1547.2546764661
 20
1395.6907935901
 10
1552.8600594699
 20
1397.3002999733
 10
1558.6517846026
 20
1398.7781394752
 10
1564.6137092874
 20
1400.1201930921
 10
1570.7292165709
 20
1401.3227202799
 10
1576.9812614375
 20
1402.3823693795
 10
1583.3524183168
 20
1403.2961869589
 10
1589.8249296518
 20
1404.0616260445
 10
1596.3807553926
 20
1404.6765532205
 10
1603.001623277
 20
1405.1392545744
 10
1609.6690797587
 20
1405.4484404745
 10
1616.3645414405
 20
1405.6032491644
 10
1623.0693468701
 20
1405.6032491644
 10
1629.764808552
 20
1405.4484404745
 10
1636.4322650336
 20
1405.1392545744
 10
1643.053132918
 20
1404.6765532205
 10
1649.6089586588
 20
1404.0616260445
 10
1656.0814699938
 20
1403.2961869589
 10
1662.4526268731
 20
1402.3823693795
 10
1668.7046717397
 20
1401.3227202799
 10
1674.8201790232
 20
1400.1201930921
 10
1680.7821037081
 20
1398.7781394752
 10
1686.5738288407
 20
1397.3002999733
 10
1692.1792118446
 20
1395.6907935901
 10
1697.5826295117
 20
1393.9541063085
 10
1702.769021548
 20
1392.0950785876
 10
1707.7239325487
 20
1390.118891871
 10
1712.433552288
 20
1388.0310541455
 10
1716.8847542111
 20
1385.8373845894
 10
1721.0651320199
 20
1383.5439973531
 10
1724.9630342516
 20
1381.1572845183
 10
1728.5675967536
 20
1378.6838982815
 10
1731.8687729636
 20
1376.130732414
 10
1734.8573619116
 20
1373.5049030469
 10
1737.525033864
 20
1370.8137288377
 10
1739.8643535408
 20
1368.0647105714
 10
1741.8688008383
 20
1365.2655102552
 10
1743.5327890024
 20
1362.4239297622
 10
1744.8516801997
 20
1359.5478890871
 10
1745.8217984439
 20
1356.645404271
 10
1746.4404398414
 20
1353.7245650597
 10
1746.7058801277
 20
1350.7935123559
 10
1746.6173794731
 20
1347.8604155292
 10
1746.1751845448
 20
1344.9334496466
 10
1745.3805278193
 20
1342.0207726869
 10
1744.2356241476
 20
1339.1305028033
 10
1742.7436645814
 20
1336.2706956962
 10
1740.9088074797
 20
1333.4493221611
 10
1740.7055477802
 20
1333.1680898034
  0
LWPOLYLINE
  5
10F
330
1F
100
AcDbEntity
  8
0
  6
Continuous
 62
     7
370
    25
100
AcDbPolyline
 90
       75
 70
   128
 43
0.0
 10
1526.9938034874
 20
1317.9503298416
 10
1524.3682009606
 20
1320.0017860278
 10
1521.6515459924
 20
1322.4191473647
 10
1519.2547599698
 20
1324.9004183747
 10
1517.1856607107
 20
1327.4375056675
 10
1515.4509971869
 20
1330.0221337918
 10
1514.0564275102
 20
1332.6458722277
 10
1513.006500477
 20
1335.3001628859
 10
1512.3046407311
 20
1337.9763480219
 10
1511.953137593
 20
1340.6656984761
 10
1511.953137593
 20
1343.3594421462
 10
1512.3046407311
 20
1346.0487926004
 10
1513.006500477
 20
1348.7249777365
 10
1514.0564275102
 20
1351.3792683946
 10
1515.4509971869
 20
1354.0030068306
 10
1517.1856607107
 20
1356.5876349548
 10
1519.2547599698
 20
1359.1247222476
 10
1521.6515459924
 20
1361.6059932577
 10
1524.3682009606
 20
1364.0233545946
 10
1527.3958637107
 20
1366.3689213281
 10
1530.7246586361
 20
1368.6350427072
 10
1534.3437278996
 20
1370.8143271148
 10
1538.2412668495
 20
1372.8996661783
 10
1542.4045625239
 20
1374.884257955
 10
1546.8200351176
 20
1376.7616291191
 10
1551.4732822768
 20
1378.525656076
 10
1556.3491260764
 20
1380.1705849364
 10
1561.4316625275
 20
1381.6910502844
 10
1566.7043134525
 20
1383.082092678
 10
1572.1498805601
 20
1384.339174826
 10
1577.7506015421
 20
1385.4581963878
 10
1583.488208011
 20
1386.4355073476
 10
1589.343985087
 20
1387.2679199201
 10
1595.2988324424
 20
1387.9527189487
 10
1601.3333266028
 20
1388.4876707612
 10
1607.4277843026
 20
1388.871030456
 10
1613.5623266875
 20
1389.1015475934
 10
1619.7169441553
 20
1389.1784702744
 10
1625.8715616231
 20
1389.1015475934
 10
1632.006104008
 20
1388.871030456
 10
1638.1005617078
 20
1388.4876707612
 10
1644.1350558683
 20
1387.9527189487
 10
1650.0899032236
 20
1387.2679199201
 10
1655.9456802996
 20
1386.4355073476
 10
1661.6832867685
 20
1385.4581963878
 10
1667.2840077506
 20
1384.339174826
 10
1672.7295748581
 20
1383.082092678
 10
1678.0022257832
 20
1381.6910502844
 10
1683.0847622342
 20
1380.1705849364
 10
1687.9606060339
 20
1378.525656076
 10
1692.613853193
 20
1376.7616291191
 10
1697.0293257867
 20
1374.884257955
 10
1701.1926214611
 20
1372.8996661783
 10
1705.090160411
 20
1370.8143271148
 10
1708.7092296745
 20
1368.6350427072
 10
1712.0380245999
 20
1366.3689213281
 10
1715.06568735
 20
1364.0233545946
 10
1717.7823423183
 20
1361.6059932577
 10
1720.1791283408
 20
1359.1247222476
 10
1722.2482275999
 20
1356.5876349548
 10
1723.9828911237
 20
1354.0030068306
 10
1725.3774608004
 20
1351.3792683946
 10
1726.4273878336
 20
1348.7249777365
 10
1727.1292475796
 20
1346.0487926004
 10
1727.4807507176
 20
1343.3594421462
 10
1727.4807507176
 20
1340.6656984761
 10
1727.1292475796
 20
1337.9763480219
 10
1726.4273878336
 20
1335.3001628859
 10
1725.3774608004
 20
1332.6458722277
 10
1723.9828911237
 20
1330.0221337918
 10
1722.2482275999
 20
1327.4375056675
 10
1720.1791283408
 20
1324.9004183747
 10
1717.7823423183
 20
1322.4191473647
 10
1715.06568735
 20
1320.0017860278
 10
1712.4400848232
 20
1317.9503298416
  0
LWPOLYLINE
  5
110
330
1F
100
AcDbEntity
  8
0
  6
Continuous
 62
     7
370
    25
100
AcDbPolyline
 90
       42
 70
   128
 43
0.0
 10
1677.9325765806
 20
1308.0855499803
 10
1677.8378185916
 20
1309.2778505784
 10
1677.4007218128
 20
1311.2438652803
 10
1676.6167080079
 20
1313.189149197
 10
1675.490492328
 20
1315.1020031623
 10
1674.0288479669
 20
1316.9709230472
 10
1672.2405654257
 20
1318.7846689477
 10
1670.136399646
 20
1320.5323327826
 10
1667.7290053285
 20
1322.2034038958
 10
1665.0328608257
 20
1323.7878322691
 10
1662.064181068
 20
1325.2760889639
 10
1658.8408200447
 20
1326.6592234291
 10
1655.3821634283
 20
1327.9289173315
 10
1651.7090119867
 20
1329.0775345825
 10
1647.8434564849
 20
1330.0981672627
 10
1643.8087448284
 20
1330.9846771673
 10
1639.6291422479
 20
1331.7317327212
 10
1635.3297853651
 20
1332.3348410445
 10
1630.9365310182
 20
1332.7903749727
 10
1626.4758007558
 20
1333.0955948713
 10
1621.9744219345
 20
1333.2486651118
 10
1617.4594663762
 20
1333.2486651118
 10
1612.9580875549
 20
1333.0955948713
 10
1608.4973572924
 20
1332.7903749727
 10
1604.1041029455
 20
1332.3348410445
 10
1599.8047460628
 20
1331.7317327212
 10
1595.6251434823
 20
1330.9846771673
 10
1591.5904318258
 20
1330.0981672627
 10
1587.7248763239
 20
1329.0775345825
 10
1584.0517248823
 20
1327.9289173315
 10
1580.593068266
 20
1326.6592234291
 10
1577.3697072427
 20
1325.2760889639
 10
1574.401027485
 20
1323.7878322691
 10
1571.7048829822
 20
1322.2034038958
 10
1569.2974886646
 20
1320.5323327826
 10
1567.1933228849
 20
1318.7846689477
 10
1565.4050403437
 20
1316.9709230472
 10
1563.9433959826
 20
1315.1020031623
 10
1562.8171803028
 20
1313.189149197
 10
1562.0331664978
 20
1311.2438652803
 10
1561.596069719
 20
1309.2778505784
 10
1561.5013117301
 20
1308.0855499803
  0
LWPOLYLINE
  5
111
330
1F
100
AcDbEntity
  8
0
  6
Continuous
 62
     7
370
    25
100
AcDbPolyline
 90
       20
 70
   128
 43
0.0
 10
1619.7169441553
 20
1327.0468450701
 10
1623.6610737471
 20
1326.9693502295
 10
1627.5734475265
 20
1326.7374896506
 10
1631.4225653602
 20
1326.3531301385
 10
1635.1774364149
 20
1325.8193663299
 10
1638.8078286765
 20
1325.1404957772
 10
1642.2845123612
 20
1324.3219843469
 10
1645.5794952562
 20
1323.3704222118
 10
1648.6662480967
 20
1322.2934707907
 10
1651.5199181637
 20
1321.0998010631
 10
1654.1175293839
 20
1319.7990237559
 10
1656.4381673191
 20
1318.4016119631
 10
1658.463147557
 20
1316.9188168227
 10
1660.1761661476
 20
1315.3625769294
 10
1661.5634308723
 20
1313.7454222118
 10
1662.6137722913
 20
1312.0803730488
 10
1663.3187336731
 20
1310.3808354371
 10
1663.6726390831
 20
1308.6604930544
 10
1663.6726390831
 20
1306.9331970859
 10
1663.4269764085
 20
1305.5904791551
  0
LWPOLYLINE
  5
112
330
1F
100
AcDbEntity
  8
0
  6
Continuous
 62
     7
370
    25
100
AcDbPolyline
 90
       20
 70
   128
 43
0.0
 10
1576.0069119022
 20
1305.5904791551
 10
1575.7612492275
 20
1306.9331970859
 10
1575.7612492275
 20
1308.6604930544
 10
1576.1151546375
 20
1310.3808354371
 10
1576.8201160193
 20
1312.0803730488
 10
1577.8704574383
 20
1313.7454222118
 10
1579.2577221631
 20
1315.3625769294
 10
1580.9707407536
 20
1316.9188168227
 10
1582.9957209916
 20
1318.4016119631
 10
1585.3163589267
 20
1319.7990237559
 10
1587.9139701469
 20
1321.0998010631
 10
1590.767640214
 20
1322.2934707907
 10
1593.8543930544
 20
1323.3704222118
 10
1597.1493759495
 20
1324.3219843469
 10
1600.6260596341
 20
1325.1404957772
 10
1604.2564518957
 20
1325.8193663299
 10
1608.0113229504
 20
1326.3531301385
 10
1611.8604407842
 20
1326.7374896506
 10
1615.7728145636
 20
1326.9693502295
 10
1619.7169441553
 20
1327.0468450701
  0
LINE
  5
113
330
1F
100
AcDbEntity
  8
0
  6
Continuous
 62
     7
370
    25
100
AcDbLine
 10
1383.6369441553
 20
1139.5483865286
 30
0.0
 11
1383.6369441553
 21
1149.5483865286
 31
0.0
  0
LINE
  5
114
330
1F
100
AcDbEntity
  8
0
  6
Continuous
 62
     7
370
    25
100
AcDbLine
 10
1815.7969441553
 20
1139.5483865286
 30
0.0
 11
1815.7969441553
 21
1149.5483865286
 31
0.0
  0
LINE
  5
115
330
1F
100
AcDbEntity
  8
0
  6
Continuous
 62
     7
370
    25
100
AcDbLine
 10
1360.7969441553
 20
1139.5483865286
 30
0.0
 11
1360.7969441553
 21
1149.5483865286
 31
0.0
  0
LINE
  5
116
330
1F
100
AcDbEntity
  8
0
  6
Continuous
 62
     7
370
    25
100
AcDbLine
 10
1838.6369441553
 20
1139.5483865286
 30
0.0
 11
1838.6369441553
 21
1149.5483865286
 31
0.0
  0
LINE
  5
117
330
1F
100
AcDbEntity
  8
SLD-0
100
AcDbLine
 10
1624.0869441553
 20
1286.6605351858
 30
0.0
 11
1624.0869441553
 21
1297.8562378714
 31
0.0
  0
LINE
  5
118
330
1F
100
AcDbEntity
  8
SLD-0
100
AcDbLine
 10
1618.4890928125
 20
1292.2583865286
 30
0.0
 11
1629.6847954981
 21
1292.2583865286
 31
0.0
  0
DIMENSION
  5
119
330
1F
100
AcDbEntity
  8
SLD-0
100
AcDbDimension
  2
_D
 10
1624.0869441553
 20
1061.1080719029
 30
0.0
 11
1480.6519441553
 21
1061.1080719029
 31
0.0
 70
   160
  1
<>
 71
     2
 42
-1.0
  3
SLDDIMSTYLE0
100
AcDbAlignedDimension
 13
1337.2169441553
 23
1149.5483865286
 33
0.0
 14
1624.0869441553
 24
1286.6605351858
 34
0.0
100
AcDbRotatedDimension
  0
DIMENSION
  5
12E
330
1F
100
AcDbEntity
  8
SLD-0
100
AcDbDimension
  2
_D_1
 10
1862.2169441553
 20
1595.5517635665
 30
0.0
 11
1599.7169441553
 21
1595.5517635665
 31
0.0
 70
   160
  1
<>
 71
     2
 42
-1.0
  3
SLDDIMSTYLE1
100
AcDbAlignedDimension
 13
1337.2169441553
 23
1469.5483865286
 33
0.0
 14
1862.2169441553
 24
1469.5483865286
 34
0.0
100
AcDbRotatedDimension
  0
INSERT
  5
148
330
1F
100
AcDbEntity
  8
SLD-0
100
AcDbBlockReference
  2
SW_SYMBOL_MOD_CL
 10
1582.5410630065
 20
1502.7324648586
 30
0.0
 41
0.0030416748
 42
0.0030416748
 43
0.0030416748
  0
INSERT
  5
149
330
1F
100
AcDbEntity
  8
SLD-0
100
AcDbBlockReference
  2
SW_SYMBOL_MOD_COM
 10
1607.1039447455
 20
1278.2824623799
 30
0.0
 41
0.0030416748
 42
0.0030416748
 43
0.0030416748
  0
LINE
  5
14A
330
1F
100
AcDbEntity
  8
SLD-0
  6
CENTERX2
370
    18
100
AcDbLine
 10
1599.7169441553
 20
1131.5483865286
 30
0.0
 11
1599.7169441553
 21
1487.5483865286
 31
0.0
  0
LINE
  5
14B
330
1F
100
AcDbEntity
  8
0
  6
Continuous
 62
     7
370
    25
100
AcDbLine
 10
2280.0250384307
 20
1149.5483865286
 30
0.0
 11
2890.0250384307
 21
1149.5483865286
 31
0.0
  0
LINE
  5
14C
330
1F
100
AcDbEntity
  8
0
  6
Continuous
 62
     7
370
    25
100
AcDbLine
 10
2280.0250384307
 20
1149.5483865286
 30
0.0
 11
2280.0250384307
 21
1469.5483865286
 31
0.0
  0
LINE
  5
14D
330
1F
100
AcDbEntity
  8
0
  6
Continuous
 62
     7
370
    25
100
AcDbLine
 10
2280.0250384307
 20
1469.5483865286
 30
0.0
 11
2890.0250384307
 21
1469.5483865286
 31
0.0
  0
LINE
  5
14E
330
1F
100
AcDbEntity
  8
0
  6
Continuous
 62
     7
370
    25
100
AcDbLine
 10
2890.0250384307
 20
1149.5483865286
 30
0.0
 11
2890.0250384307
 21
1469.5483865286
 31
0.0
  0
CIRCLE
  5
14F
330
1F
100
AcDbEntity
  8
0
  6
Continuous
 62
     7
370
    25
100
AcDbCircle
 10
2380.0250384307
 20
1429.1483865286
 30
0.0
 40
10.0
  0
CIRCLE
  5
150
330
1F
100
AcDbEntity
  8
0
  6
Continuous
 62
     7
370
    25
100
AcDbCircle
 10
2790.0250384307
 20
1189.9483865286
 30
0.0
 40
10.0
  0
CIRCLE
  5
151
330
1F
100
AcDbEntity
  8
0
  6
Continuous
 62
     7
370
    25
100
AcDbCircle
 10
2380.0250384307
 20
1189.9483865286
 30
0.0
 40
10.0
  0
CIRCLE
  5
152
330
1F
100
AcDbEntity
  8
0
  6
Continuous
 62
     7
370
    25
100
AcDbCircle
 10
2790.0250384307
 20
1429.1483865286
 30
0.0
 40
10.0
  0
CIRCLE
  5
153
330
1F
100
AcDbEntity
  8
0
  6
Continuous
 62
     7
370
    25
100
AcDbCircle
 10
2790.0250384307
 20
1429.1483865286
 30
0.0
 40
5.5
  0
CIRCLE
  5
154
330
1F
100
AcDbEntity
  8
0
  6
Continuous
 62
     7
370
    25
100
AcDbCircle
 10
2790.0250384307
 20
1189.9483865286
 30
0.0
 40
5.5
  0
CIRCLE
  5
155
330
1F
100
AcDbEntity
  8
0
  6
Continuous
 62
     7
370
    25
100
AcDbCircle
 10
2380.0250384307
 20
1429.1483865286
 30
0.0
 40
5.5
  0
CIRCLE
  5
156
330
1F
100
AcDbEntity
  8
0
  6
Continuous
 62
     7
370
    25
100
AcDbCircle
 10
2380.0250384307
 20
1189.9483865286
 30
0.0
 40
5.5
  0
LINE
  5
157
330
1F
100
AcDbEntity
  8
0
  6
Continuous
 62
     7
370
    25
100
AcDbLine
 10
2859.2750384307
 20
1139.5483865286
 30
0.0
 11
2859.2750384307
 21
1149.5483865286
 31
0.0
  0
LINE
  5
158
330
1F
100
AcDbEntity
  8
0
  6
Continuous
 62
     7
370
    25
100
AcDbLine
 10
2859.2750384307
 20
1139.5483865286
 30
0.0
 11
2851.4450384307
 21
1139.5483865286
 31
0.0
  0
LINE
  5
159
330
1F
100
AcDbEntity
  8
0
  6
Continuous
 62
     7
370
    25
100
AcDbLine
 10
2851.4450384307
 20
1139.5483865286
 30
0.0
 11
2828.6050384307
 21
1139.5483865286
 31
0.0
  0
LINE
  5
15A
330
1F
100
AcDbEntity
  8
0
  6
Continuous
 62
     7
370
    25
100
AcDbLine
 10
2820.7750384307
 20
1139.5483865286
 30
0.0
 11
2820.7750384307
 21
1149.5483865286
 31
0.0
  0
LINE
  5
15B
330
1F
100
AcDbEntity
  8
0
  6
Continuous
 62
     7
370
    25
100
AcDbLine
 10
2828.6050384307
 20
1139.5483865286
 30
0.0
 11
2820.7750384307
 21
1139.5483865286
 31
0.0
  0
LINE
  5
15C
330
1F
100
AcDbEntity
  8
0
  6
Continuous
 62
     7
370
    25
100
AcDbLine
 10
2354.2750384307
 20
1139.5483865286
 30
0.0
 11
2354.2750384307
 21
1149.5483865286
 31
0.0
  0
LINE
  5
15D
330
1F
100
AcDbEntity
  8
0
  6
Continuous
 62
     7
370
    25
100
AcDbLine
 10
2354.2750384307
 20
1139.5483865286
 30
0.0
 11
2346.4450384307
 21
1139.5483865286
 31
0.0
  0
LINE
  5
15E
330
1F
100
AcDbEntity
  8
0
  6
Continuous
 62
     7
370
    25
100
AcDbLine
 10
2346.4450384307
 20
1139.5483865286
 30
0.0
 11
2323.6050384307
 21
1139.5483865286
 31
0.0
  0
LINE
  5
15F
330
1F
100
AcDbEntity
  8
0
  6
Continuous
 62
     7
370
    25
100
AcDbLine
 10
2315.7750384307
 20
1139.5483865286
 30
0.0
 11
2315.7750384307
 21
1149.5483865286
 31
0.0
  0
LINE
  5
160
330
1F
100
AcDbEntity
  8
0
  6
Continuous
 62
     7
370
    25
100
AcDbLine
 10
2323.6050384307
 20
1139.5483865286
 30
0.0
 11
2315.7750384307
 21
1139.5483865286
 31
0.0
  0
LINE
  5
161
330
1F
100
AcDbEntity
  8
0
  6
Continuous
 62
     7
370
    25
100
AcDbLine
 10
2851.4450384307
 20
1139.5483865286
 30
0.0
 11
2851.4450384307
 21
1149.5483865286
 31
0.0
  0
LINE
  5
162
330
1F
100
AcDbEntity
  8
0
  6
Continuous
 62
     7
370
    25
100
AcDbLine
 10
2828.6050384307
 20
1139.5483865286
 30
0.0
 11
2828.6050384307
 21
1149.5483865286
 31
0.0
  0
LINE
  5
163
330
1F
100
AcDbEntity
  8
0
  6
Continuous
 62
     7
370
    25
100
AcDbLine
 10
2346.4450384307
 20
1139.5483865286
 30
0.0
 11
2346.4450384307
 21
1149.5483865286
 31
0.0
  0
LINE
  5
164
330
1F
100
AcDbEntity
  8
0
  6
Continuous
 62
     7
370
    25
100
AcDbLine
 10
2323.6050384307
 20
1139.5483865286
 30
0.0
 11
2323.6050384307
 21
1149.5483865286
 31
0.0
  0
LINE
  5
165
330
1F
100
AcDbEntity
  8
SLD-0
100
AcDbLine
 10
2380.0250384307
 20
1429.1483865286
 30
0.0
 11
2790.0250384307
 21
1429.1483865286
 31
0.0
  0
LINE
  5
166
330
1F
100
AcDbEntity
  8
SLD-0
100
AcDbLine
 10
2790.0250384307
 20
1429.1483865286
 30
0.0
 11
2790.0250384307
 21
1189.9483865286
 31
0.0
  0
LINE
  5
167
330
1F
100
AcDbEntity
  8
SLD-0
100
AcDbLine
 10
2790.0250384307
 20
1189.9483865286
 30
0.0
 11
2380.0250384307
 21
1189.9483865286
 31
0.0
  0
LINE
  5
168
330
1F
100
AcDbEntity
  8
SLD-0
100
AcDbLine
 10
2380.0250384307
 20
1189.9483865286
 30
0.0
 11
2380.0250384307
 21
1429.1483865286
 31
0.0
  0
DIMENSION
  5
169
330
1F
100
AcDbEntity
  8
SLD-0
100
AcDbDimension
  2
_D_2
 10
2190.0250384307
 20
1149.5483865286
 30
0.0
 11
2190.0250384307
 21
1309.5483865286
 31
0.0
 70
   160
  1
<>
 71
     2
 42
-1.0
  3
SLDDIMSTYLE1
100
AcDbAlignedDimension
 13
2280.0250384307
 23
1469.5483865286
 33
0.0
 14
2280.0250384307
 24
1149.5483865286
 34
0.0
 50
90.0
100
AcDbRotatedDimension
  0
DIMENSION
  5
17D
330
1F
100
AcDbEntity
  8
SLD-0
100
AcDbDimension
  2
_D_3
 10
2056.9871883776
 20
1139.5483865286
 30
0.0
 11
2056.9871883776
 21
1304.5483865286
 31
0.0
 70
   160
  1
<>
 71
     2
 42
-1.0
  3
SLDDIMSTYLE1
100
AcDbAlignedDimension
 13
2280.0250384307
 23
1469.5483865286
 33
0.0
 14
2315.7750384307
 24
1139.5483865286
 34
0.0
 50
90.0
100
AcDbRotatedDimension
  0
DIMENSION
  5
191
330
1F
100
AcDbEntity
  8
SLD-0
100
AcDbDimension
  2
_D_4
 10
2380.0250384307
 20
1069.3150309768
 30
0.0
 11
2190.0250384307
 21
1069.3150309768
 31
0.0
 70
   160
  1
<>
 71
     2
 42
-1.0
  3
SLDDIMSTYLE1
100
AcDbAlignedDimension
 13
2280.0250384307
 23
1149.5483865286
 33
0.0
 14
2380.0250384307
 24
1177.9483865286
 34
0.0
100
AcDbRotatedDimension
  0
DIMENSION
  5
1A5
330
1F
100
AcDbEntity
  8
SLD-0
100
AcDbDimension
  2
_D_5
 10
2790.0250384307
 20
1069.3150309768
 30
0.0
 11
2585.0250384307
 21
1069.3150309768
 31
0.0
 70
   160
  1
<>
 71
     2
 42
-1.0
  3
SLDDIMSTYLE1
100
AcDbAlignedDimension
 13
2380.0250384307
 23
1177.9483865286
 33
0.0
 14
2790.0250384307
 24
1177.9483865286
 34
0.0
100
AcDbRotatedDimension
  0
DIMENSION
  5
1B9
330
1F
100
AcDbEntity
  8
SLD-0
100
AcDbDimension
  2
_D_6
 10
2980.0250384307
 20
1189.9483865286
 30
0.0
 11
2980.0250384307
 21
1309.5483865286
 31
0.0
 70
   160
  1
<>
 71
     2
 42
-1.0
  3
SLDDIMSTYLE0
100
AcDbAlignedDimension
 13
2802.0250384307
 23
1429.1483865286
 33
0.0
 14
2802.0250384307
 24
1189.9483865286
 34
0.0
 50
90.0
100
AcDbRotatedDimension
  0
DIMENSION
  5
1CD
330
1F
100
AcDbEntity
  8
SLD-0
100
AcDbDimension
  2
_D_7
 10
2980.0250384307
 20
1149.5483865286
 30
0.0
 11
2980.0250384307
 21
1087.6161673001
 31
0.0
 70
   160
  1
<>
 71
     2
 42
-1.0
  3
SLDDIMSTYLE2
100
AcDbAlignedDimension
 13
2802.0250384307
 23
1189.9483865286
 33
0.0
 14
2890.0250384307
 24
1149.5483865286
 34
0.0
 50
90.0
100
AcDbRotatedDimension
  0
INSERT
  5
1EB
102
{ACAD_REACTORS
330
1ED
102
}
330
1F
100
AcDbEntity
  8
SLD-0
100
AcDbBlockReference
  2
SW_NOTE_0_1
 10
2506.9008782936
 20
1566.2484316186
 30
0.0
  0
LEADER
  5
1ED
330
1F
100
AcDbEntity
  8
SLD-0
100
AcDbLeader
  3
SLDDIMSTYLE3
 73
     2
 76
     3
 10
2388.2449319916
 20
1434.8434150489
 30
0.0
 10
2488.9008782936
 20
1566.2484316186
 30
0.0
 10
2506.9008782936
 20
1566.2484316186
 30
0.0
340
1EB
  0
MTEXT
  5
1EE
330
1F
100
AcDbEntity
  8
SLD-0
100
AcDbMText
 10
2573.1267633762
 20
1576.0907743396
 30
0.0
 40
21.43125
 41
0.0
 71
     1
 72
     1
  1
4X
  7
SLDTEXTSTYLE0
 73
     1
 44
1.0
  0
INSERT
  5
1FA
330
1F
100
AcDbEntity
  8
SLD-0
100
AcDbBlockReference
  2
SW_CENTERMARKSYMBOL_0
 10
2380.0250384307
 20
1429.1483865286
 30
0.0
  0
INSERT
  5
206
330
1F
100
AcDbEntity
  8
SLD-0
100
AcDbBlockReference
  2
SW_CENTERMARKSYMBOL_1
 10
2790.0250384307
 20
1429.1483865286
 30
0.0
  0
INSERT
  5
212
330
1F
100
AcDbEntity
  8
SLD-0
100
AcDbBlockReference
  2
SW_CENTERMARKSYMBOL_2
 10
2380.0250384307
 20
1189.9483865286
 30
0.0
  0
INSERT
  5
21E
330
1F
100
AcDbEntity
  8
SLD-0
100
AcDbBlockReference
  2
SW_CENTERMARKSYMBOL_3
 10
2790.0250384307
 20
1189.9483865286
 30
0.0
  0
LINE
  5
21F
330
1F
100
AcDbEntity
  8
0
  6
Continuous
 62
     7
370
    25
100
AcDbLine
 10
990.8865922544
 20
1469.5483865286
 30
0.0
 11
380.8865922544
 21
1469.5483865286
 31
0.0
  0
LINE
  5
220
330
1F
100
AcDbEntity
  8
0
  6
Continuous
 62
     7
370
    25
100
AcDbLine
 10
990.8865922544
 20
1469.5483865286
 30
0.0
 11
990.8865922544
 21
1149.5483865286
 31
0.0
  0
LINE
  5
221
330
1F
100
AcDbEntity
  8
0
  6
Continuous
 62
     7
370
    25
100
AcDbLine
 10
990.8865922544
 20
1149.5483865286
 30
0.0
 11
380.8865922544
 21
1149.5483865286
 31
0.0
  0
CIRCLE
  5
222
330
1F
100
AcDbEntity
  8
0
  6
Continuous
 62
     7
370
    25
100
AcDbCircle
 10
890.8865922544
 20
1189.9483865286
 30
0.0
 40
10.00000000000011
  0
CIRCLE
  5
223
330
1F
100
AcDbEntity
  8
0
  6
Continuous
 62
     7
370
    25
100
AcDbCircle
 10
480.8865922544
 20
1189.9483865286
 30
0.0
 40
9.999999999999943
  0
LINE
  5
224
330
1F
100
AcDbEntity
  8
0
  6
Continuous
 62
     7
370
    25
100
AcDbLine
 10
380.8865922544
 20
1469.5483865286
 30
0.0
 11
380.8865922544
 21
1149.5483865286
 31
0.0
  0
CIRCLE
  5
225
330
1F
100
AcDbEntity
  8
0
  6
Continuous
 62
     7
370
    25
100
AcDbCircle
 10
480.8865922544
 20
1189.9483865286
 30
0.0
 40
5.499999999999943
  0
CIRCLE
  5
226
330
1F
100
AcDbEntity
  8
0
  6
Continuous
 62
     7
370
    25
100
AcDbCircle
 10
890.8865922544
 20
1189.9483865286
 30
0.0
 40
5.499999999999886
  0
LINE
  5
227
330
1F
100
AcDbEntity
  8
0
  6
Continuous
 62
     7
370
    25
100
AcDbLine
 10
916.6365922544
 20
1139.5483865286
 30
0.0
 11
916.6365922544
 21
1149.5483865286
 31
0.0
  0
LINE
  5
228
330
1F
100
AcDbEntity
  8
0
  6
Continuous
 62
     7
370
    25
100
AcDbLine
 10
924.4665922544
 20
1139.5483865286
 30
0.0
 11
916.6365922544
 21
1139.5483865286
 31
0.0
  0
LINE
  5
229
330
1F
100
AcDbEntity
  8
0
  6
Continuous
 62
     7
370
    25
100
AcDbLine
 10
947.3065922544
 20
1139.5483865286
 30
0.0
 11
924.4665922544
 21
1139.5483865286
 31
0.0
  0
LINE
  5
22A
330
1F
100
AcDbEntity
  8
0
  6
Continuous
 62
     7
370
    25
100
AcDbLine
 10
955.1365922544
 20
1139.5483865286
 30
0.0
 11
955.1365922544
 21
1149.5483865286
 31
0.0
  0
LINE
  5
22B
330
1F
100
AcDbEntity
  8
0
  6
Continuous
 62
     7
370
    25
100
AcDbLine
 10
955.1365922544
 20
1139.5483865286
 30
0.0
 11
947.3065922544
 21
1139.5483865286
 31
0.0
  0
LINE
  5
22C
330
1F
100
AcDbEntity
  8
0
  6
Continuous
 62
     7
370
    25
100
AcDbLine
 10
442.3065922544
 20
1139.5483865286
 30
0.0
 11
419.4665922544
 21
1139.5483865286
 31
0.0
  0
LINE
  5
22D
330
1F
100
AcDbEntity
  8
0
  6
Continuous
 62
     7
370
    25
100
AcDbLine
 10
411.6365922544
 20
1139.5483865286
 30
0.0
 11
411.6365922544
 21
1149.5483865286
 31
0.0
  0
LINE
  5
22E
330
1F
100
AcDbEntity
  8
0
  6
Continuous
 62
     7
370
    25
100
AcDbLine
 10
419.4665922544
 20
1139.5483865286
 30
0.0
 11
411.6365922544
 21
1139.5483865286
 31
0.0
  0
LINE
  5
22F
330
1F
100
AcDbEntity
  8
0
  6
Continuous
 62
     7
370
    25
100
AcDbLine
 10
450.1365922544
 20
1139.5483865286
 30
0.0
 11
450.1365922544
 21
1149.5483865286
 31
0.0
  0
LINE
  5
230
330
1F
100
AcDbEntity
  8
0
  6
Continuous
 62
     7
370
    25
100
AcDbLine
 10
450.1365922544
 20
1139.5483865286
 30
0.0
 11
442.3065922544
 21
1139.5483865286
 31
0.0
  0
LINE
  5
231
330
1F
100
AcDbEntity
  8
0
  6
Continuous
 62
     7
370
    25
100
AcDbLine
 10
924.4665922544
 20
1139.5483865286
 30
0.0
 11
924.4665922544
 21
1149.5483865286
 31
0.0
  0
LINE
  5
232
330
1F
100
AcDbEntity
  8
0
  6
Continuous
 62
     7
370
    25
100
AcDbLine
 10
947.3065922544
 20
1139.5483865286
 30
0.0
 11
947.3065922544
 21
1149.5483865286
 31
0.0
  0
LINE
  5
233
330
1F
100
AcDbEntity
  8
0
  6
Continuous
 62
     7
370
    25
100
AcDbLine
 10
442.3065922544
 20
1139.5483865286
 30
0.0
 11
442.3065922544
 21
1149.5483865286
 31
0.0
  0
LINE
  5
234
330
1F
100
AcDbEntity
  8
0
  6
Continuous
 62
     7
370
    25
100
AcDbLine
 10
419.4665922544
 20
1139.5483865286
 30
0.0
 11
419.4665922544
 21
1149.5483865286
 31
0.0
  0
LINE
  5
235
330
1F
100
AcDbEntity
  8
SLD-0
100
AcDbLine
 10
480.8865922544
 20
1189.9483865286
 30
0.0
 11
890.8865922544
 21
1189.9483865286
 31
0.0
  0
LINE
  5
236
330
1F
100
AcDbEntity
  8
SLD-0
100
AcDbLine
 10
723.3865922544
 20
1287.2879449196
 30
0.0
 11
723.3865922544
 21
1297.2288281377
 31
0.0
  0
LINE
  5
237
330
1F
100
AcDbEntity
  8
SLD-0
100
AcDbLine
 10
718.4161506453
 20
1292.2583865286
 30
0.0
 11
728.3570338634
 21
1292.2583865286
 31
0.0
  0
DIMENSION
  5
238
330
1F
100
AcDbEntity
  8
SLD-0
100
AcDbDimension
  2
_D_8
 10
723.3865922544
 20
1559.5483865286
 30
0.0
 11
857.1365922544
 21
1559.5483865286
 31
0.0
 70
   160
  1
<>
 71
     2
 42
-1.0
  3
SLDDIMSTYLE0
100
AcDbAlignedDimension
 13
990.8865922544
 23
1469.5483865286
 33
0.0
 14
723.3865922544
 24
1297.2288281377
 34
0.0
100
AcDbRotatedDimension
  0
DIMENSION
  5
24C
330
1F
100
AcDbEntity
  8
SLD-0
100
AcDbDimension
  2
_D_9
 10
305.5804884813
 20
1292.2583865286
 30
0.0
 11
305.5804884813
 21
1344.7107203178
 31
0.0
 70
   160
  1
<>
 71
     2
 42
-1.0
  3
SLDDIMSTYLE0
100
AcDbAlignedDimension
 13
380.8865922544
 23
1149.5483865286
 33
0.0
 14
718.4161506453
 24
1292.2583865286
 34
0.0
 50
90.0
100
AcDbRotatedDimension
  0
DIMENSION
  5
261
330
1F
100
AcDbEntity
  8
SLD-0
100
AcDbDimension
  2
_D_10
 10
890.8865922544
 20
1049.5483865286
 30
0.0
 11
685.8865922544
 21
1049.5483865286
 31
0.0
 70
   160
  1
<>
 71
     2
 42
-1.0
  3
SLDDIMSTYLE1
100
AcDbAlignedDimension
 13
480.8865922544
 23
1177.9483865286
 33
0.0
 14
890.8865922544
 24
1177.9483865286
 34
0.0
100
AcDbRotatedDimension
  0
DIMENSION
  5
275
330
1F
100
AcDbEntity
  8
SLD-0
100
AcDbDimension
  2
_D_11
 10
990.8865922544
 20
1049.5483865286
 30
0.0
 11
1080.8865922544
 21
1049.5483865286
 31
0.0
 70
   160
  1
<>
 71
     2
 42
-1.0
  3
SLDDIMSTYLE1
100
AcDbAlignedDimension
 13
890.8865922544
 23
1177.9483865286
 33
0.0
 14
990.8865922544
 24
1149.5483865286
 34
0.0
100
AcDbRotatedDimension
  0
DIMENSION
  5
289
330
1F
100
AcDbEntity
  8
SLD-0
100
AcDbDimension
  2
_D_12
 10
1053.7724009402
 20
1149.5483865286
 30
0.0
 11
1053.7724009402
 21
1235.8909492733
 31
0.0
 70
   160
  1
<>
 71
     2
 42
-1.0
  3
SLDDIMSTYLE2
100
AcDbAlignedDimension
 13
902.8865922544
 23
1189.9483865286
 33
0.0
 14
990.8865922544
 24
1149.5483865286
 34
0.0
 50
90.0
100
AcDbRotatedDimension
  0
INSERT
  5
29E
330
1F
100
AcDbEntity
  8
SLD-0
100
AcDbBlockReference
  2
SW_SYMBOL_MOD_COM
 10
706.3583212511
 20
1278.1751033358
 30
0.0
 41
0.0030416748
 42
0.0030416748
 43
0.0030416748
  0
INSERT
  5
2A7
102
{ACAD_REACTORS
330
2A8
102
}
330
1F
100
AcDbEntity
  8
SLD-0
100
AcDbBlockReference
  2
SW_NOTE_0_2
 10
345.5457967378
 20
1050.1882057716
 30
0.0
  0
LEADER
  5
2A8
330
1F
100
AcDbEntity
  8
SLD-0
100
AcDbLeader
  3
SLDDIMSTYLE3
 73
     2
 76
     3
 10
473.5546016469
 20
1183.1482458145
 30
0.0
 10
363.5457967378
 20
1050.1882057716
 30
0.0
 10
345.5457967378
 20
1050.1882057716
 30
0.0
340
2A7
  0
MTEXT
  5
2A9
330
1F
100
AcDbEntity
  8
SLD-0
100
AcDbMText
 10
245.7129308443
 20
1061.396167981
 30
0.0
 40
21.43125
 41
0.0
 71
     1
 72
     1
  1
2X
  7
SLDTEXTSTYLE0
 73
     1
 44
1.0
  0
INSERT
  5
2B5
330
1F
100
AcDbEntity
  8
SLD-0
100
AcDbBlockReference
  2
SW_CENTERMARKSYMBOL_4
 10
480.8865922544
 20
1189.9483865286
 30
0.0
  0
INSERT
  5
2C1
330
1F
100
AcDbEntity
  8
SLD-0
100
AcDbBlockReference
  2
SW_CENTERMARKSYMBOL_5
 10
890.8865922544
 20
1189.9483865286
 30
0.0
  0
LINE
  5
2C2
330
1F
100
AcDbEntity
  8
0
  6
Continuous
 62
     7
370
    25
100
AcDbLine
 10
3708.399405644
 20
1149.5483865286
 30
0.0
 11
3183.399405644
 21
1149.5483865286
 31
0.0
  0
LINE
  5
2C3
330
1F
100
AcDbEntity
  8
0
  6
Continuous
 62
     7
370
    25
100
AcDbLine
 10
3183.399405644
 20
1149.5483865286
 30
0.0
 11
3183.399405644
 21
1469.5483865286
 31
0.0
  0
LINE
  5
2C4
330
1F
100
AcDbEntity
  8
0
  6
Continuous
 62
     7
370
    25
100
AcDbLine
 10
3183.399405644
 20
1469.5483865286
 30
0.0
 11
3708.399405644
 21
1469.5483865286
 31
0.0
  0
LINE
  5
2C5
330
1F
100
AcDbEntity
  8
0
  6
Continuous
 62
     7
370
    25
100
AcDbLine
 10
3708.399405644
 20
1469.5483865286
 30
0.0
 11
3708.399405644
 21
1149.5483865286
 31
0.0
  0
ARC
  5
2C6
330
1F
100
AcDbEntity
  8
0
  6
Continuous
 62
     7
370
    25
100
AcDbCircle
 10
3379.399405644
 20
1175.0483865286
 30
0.0
 40
11.0
100
AcDbArc
 50
180.0
 51
270.0
  0
LINE
  5
2C7
330
1F
100
AcDbEntity
  8
0
  6
Continuous
 62
     7
370
    25
100
AcDbLine
 10
3379.399405644
 20
1164.0483865286
 30
0.0
 11
3512.399405644
 21
1164.0483865286
 31
0.0
  0
ARC
  5
2C8
330
1F
100
AcDbEntity
  8
0
  6
Continuous
 62
     7
370
    25
100
AcDbCircle
 10
3512.399405644
 20
1175.0483865286
 30
0.0
 40
11.00000000000045
100
AcDbArc
 50
270.0
 51
0.0
  0
LINE
  5
2C9
330
1F
100
AcDbEntity
  8
0
  6
Continuous
 62
     7
370
    25
100
AcDbLine
 10
3523.399405644
 20
1175.0483865286
 30
0.0
 11
3523.399405644
 21
1274.0483865286
 31
0.0
  0
ARC
  5
2CA
330
1F
100
AcDbEntity
  8
0
  6
Continuous
 62
     7
370
    25
100
AcDbCircle
 10
3512.399405644
 20
1274.0483865286
 30
0.0
 40
11.00000000000045
100
AcDbArc
 50
0.0
 51
90.0
  0
LINE
  5
2CB
330
1F
100
AcDbEntity
  8
0
  6
Continuous
 62
     7
370
    25
100
AcDbLine
 10
3512.399405644
 20
1285.0483865286
 30
0.0
 11
3379.399405644
 21
1285.0483865286
 31
0.0
  0
ARC
  5
2CC
330
1F
100
AcDbEntity
  8
0
  6
Continuous
 62
     7
370
    25
100
AcDbCircle
 10
3379.399405644
 20
1274.0483865286
 30
0.0
 40
11.0
100
AcDbArc
 50
90.0
 51
180.0
  0
LINE
  5
2CD
330
1F
100
AcDbEntity
  8
0
  6
Continuous
 62
     7
370
    25
100
AcDbLine
 10
3368.399405644
 20
1274.0483865286
 30
0.0
 11
3368.399405644
 21
1175.0483865286
 31
0.0
  0
ARC
  5
2CE
330
1F
100
AcDbEntity
  8
0
  6
Continuous
 62
     7
370
    25
100
AcDbCircle
 10
3445.899405644
 20
1258.7983865286
 30
0.0
 40
5.000000000000292
100
AcDbArc
 50
174.586687726
 51
5.413312274
  0
ARC
  5
2CF
330
1F
100
AcDbEntity
  8
0
  6
Continuous
 62
     7
370
    25
100
AcDbCircle
 10
3439.3039526649
 20
1259.4233865286
 30
0.0
 40
1.625000000000227
100
AcDbArc
 50
354.586687726
 51
90.0
  0
LINE
  5
2D0
330
1F
100
AcDbEntity
  8
0
  6
Continuous
 62
     7
370
    25
100
AcDbLine
 10
3439.3039526649
 20
1261.0483865286
 30
0.0
 11
3389.5539526649
 21
1261.0483865286
 31
0.0
  0
ARC
  5
2D1
330
1F
100
AcDbEntity
  8
0
  6
Continuous
 62
     7
370
    25
100
AcDbCircle
 10
3389.5539526649
 20
1259.4233865286
 30
0.0
 40
1.625000000000227
100
AcDbArc
 50
90.0
 51
184.4464035239
  0
ARC
  5
2D2
330
1F
100
AcDbEntity
  8
0
  6
Continuous
 62
     7
370
    25
100
AcDbCircle
 10
3382.9488919874
 20
1258.9097733986
 30
0.0
 40
5.000000000000166
100
AcDbArc
 50
266.3263474424
 51
4.4464035239
  0
ARC
  5
2D3
330
1F
100
AcDbEntity
  8
0
  6
Continuous
 62
     7
370
    25
100
AcDbCircle
 10
3382.524405644
 20
1252.2983865286
 30
0.0
 40
1.625
100
AcDbArc
 50
86.3263474424
 51
180.0
  0
LINE
  5
2D4
330
1F
100
AcDbEntity
  8
0
  6
Continuous
 62
     7
370
    25
100
AcDbLine
 10
3380.899405644
 20
1252.2983865286
 30
0.0
 11
3380.899405644
 21
1196.7983865286
 31
0.0
  0
ARC
  5
2D5
330
1F
100
AcDbEntity
  8
0
  6
Continuous
 62
     7
370
    25
100
AcDbCircle
 10
3382.524405644
 20
1196.7983865286
 30
0.0
 40
1.625000000000038
100
AcDbArc
 50
180.0
 51
273.6736525576
  0
ARC
  5
2D6
330
1F
100
AcDbEntity
  8
0
  6
Continuous
 62
     7
370
    25
100
AcDbCircle
 10
3382.9488919874
 20
1190.1869996587
 30
0.0
 40
4.99999999999994
100
AcDbArc
 50
355.5535964761
 51
93.6736525576
  0
ARC
  5
2D7
330
1F
100
AcDbEntity
  8
0
  6
Continuous
 62
     7
370
    25
100
AcDbCircle
 10
3389.5539526649
 20
1189.6733865286
 30
0.0
 40
1.625
100
AcDbArc
 50
175.5535964761
 51
270.0
  0
LINE
  5
2D8
330
1F
100
AcDbEntity
  8
0
  6
Continuous
 62
     7
370
    25
100
AcDbLine
 10
3389.5539526649
 20
1188.0483865286
 30
0.0
 11
3439.3039526649
 21
1188.0483865286
 31
0.0
  0
ARC
  5
2D9
330
1F
100
AcDbEntity
  8
0
  6
Continuous
 62
     7
370
    25
100
AcDbCircle
 10
3439.3039526649
 20
1189.6733865286
 30
0.0
 40
1.625
100
AcDbArc
 50
270.0
 51
5.413312274
  0
ARC
  5
2DA
330
1F
100
AcDbEntity
  8
0
  6
Continuous
 62
     7
370
    25
100
AcDbCircle
 10
3445.899405644
 20
1190.2983865286
 30
0.0
 40
5.000000000000314
100
AcDbArc
 50
354.586687726
 51
185.413312274
  0
ARC
  5
2DB
330
1F
100
AcDbEntity
  8
0
  6
Continuous
 62
     7
370
    25
100
AcDbCircle
 10
3452.4948586231
 20
1189.6733865286
 30
0.0
 40
1.625
100
AcDbArc
 50
174.586687726
 51
270.0
  0
LINE
  5
2DC
330
1F
100
AcDbEntity
  8
0
  6
Continuous
 62
     7
370
    25
100
AcDbLine
 10
3452.4948586231
 20
1188.0483865286
 30
0.0
 11
3502.2448586231
 21
1188.0483865286
 31
0.0
  0
ARC
  5
2DD
330
1F
100
AcDbEntity
  8
0
  6
Continuous
 62
     7
370
    25
100
AcDbCircle
 10
3502.2448586231
 20
1189.6733865286
 30
0.0
 40
1.625
100
AcDbArc
 50
270.0
 51
4.4464035239
  0
ARC
  5
2DE
330
1F
100
AcDbEntity
  8
0
  6
Continuous
 62
     7
370
    25
100
AcDbCircle
 10
3508.8499193006
 20
1190.1869996587
 30
0.0
 40
4.99999999999994
100
AcDbArc
 50
86.3263474424
 51
184.4464035239
  0
ARC
  5
2DF
330
1F
100
AcDbEntity
  8
0
  6
Continuous
 62
     7
370
    25
100
AcDbCircle
 10
3509.274405644
 20
1196.7983865286
 30
0.0
 40
1.625000000000455
100
AcDbArc
 50
266.3263474424
 51
0.0
  0
LINE
  5
2E0
330
1F
100
AcDbEntity
  8
0
  6
Continuous
 62
     7
370
    25
100
AcDbLine
 10
3510.899405644
 20
1196.7983865286
 30
0.0
 11
3510.899405644
 21
1252.2983865286
 31
0.0
  0
ARC
  5
2E1
330
1F
100
AcDbEntity
  8
0
  6
Continuous
 62
     7
370
    25
100
AcDbCircle
 10
3509.274405644
 20
1252.2983865286
 30
0.0
 40
1.625000000000455
100
AcDbArc
 50
0.0
 51
93.6736525576
  0
ARC
  5
2E2
330
1F
100
AcDbEntity
  8
0
  6
Continuous
 62
     7
370
    25
100
AcDbCircle
 10
3508.8499193006
 20
1258.9097733986
 30
0.0
 40
5.000000000000166
100
AcDbArc
 50
175.5535964761
 51
273.6736525576
  0
ARC
  5
2E3
330
1F
100
AcDbEntity
  8
0
  6
Continuous
 62
     7
370
    25
100
AcDbCircle
 10
3502.2448586231
 20
1259.4233865286
 30
0.0
 40
1.625000000000227
100
AcDbArc
 50
355.5535964761
 51
90.0
  0
LINE
  5
2E4
330
1F
100
AcDbEntity
  8
0
  6
Continuous
 62
     7
370
    25
100
AcDbLine
 10
3502.2448586231
 20
1261.0483865286
 30
0.0
 11
3452.4948586231
 21
1261.0483865286
 31
0.0
  0
ARC
  5
2E5
330
1F
100
AcDbEntity
  8
0
  6
Continuous
 62
     7
370
    25
100
AcDbCircle
 10
3452.4948586231
 20
1259.4233865286
 30
0.0
 40
1.625000000000227
100
AcDbArc
 50
90.0
 51
185.413312274
  0
LINE
  5
2E6
330
1F
100
AcDbEntity
  8
0
  6
Continuous
 62
     7
370
    25
100
AcDbLine
 10
3512.399405644
 20
1283.9483865286
 30
0.0
 11
3379.399405644
 21
1283.9483865286
 31
0.0
  0
ARC
  5
2E7
330
1F
100
AcDbEntity
  8
0
  6
Continuous
 62
     7
370
    25
100
AcDbCircle
 10
3512.399405644
 20
1274.0483865286
 30
0.0
 40
9.900000000000091
100
AcDbArc
 50
0.0
 51
90.0
  0
ARC
  5
2E8
330
1F
100
AcDbEntity
  8
0
  6
Continuous
 62
     7
370
    25
100
AcDbCircle
 10
3512.399405644
 20
1175.0483865286
 30
0.0
 40
9.900000000000091
100
AcDbArc
 50
270.0
 51
0.0
  0
LINE
  5
2E9
330
1F
100
AcDbEntity
  8
0
  6
Continuous
 62
     7
370
    25
100
AcDbLine
 10
3379.399405644
 20
1165.1483865286
 30
0.0
 11
3512.399405644
 21
1165.1483865286
 31
0.0
  0
ARC
  5
2EA
330
1F
100
AcDbEntity
  8
0
  6
Continuous
 62
     7
370
    25
100
AcDbCircle
 10
3379.399405644
 20
1175.0483865286
 30
0.0
 40
9.900000000000091
100
AcDbArc
 50
180.0
 51
270.0
  0
LINE
  5
2EB
330
1F
100
AcDbEntity
  8
0
  6
Continuous
 62
     7
370
    25
100
AcDbLine
 10
3369.499405644
 20
1274.0483865286
 30
0.0
 11
3369.499405644
 21
1175.0483865286
 31
0.0
  0
ARC
  5
2EC
330
1F
100
AcDbEntity
  8
0
  6
Continuous
 62
     7
370
    25
100
AcDbCircle
 10
3379.399405644
 20
1274.0483865286
 30
0.0
 40
9.899999999999864
100
AcDbArc
 50
90.0
 51
180.0
  0
LINE
  5
2ED
330
1F
100
AcDbEntity
  8
0
  6
Continuous
 62
     7
370
    25
100
AcDbLine
 10
3522.299405644
 20
1175.0483865286
 30
0.0
 11
3522.299405644
 21
1274.0483865286
 31
0.0
  0
LINE
  5
2EE
330
1F
100
AcDbEntity
  8
0
  6
Continuous
 62
     7
370
    25
100
AcDbLine
 10
3684.819405644
 20
1139.5483865286
 30
0.0
 11
3661.979405644
 21
1139.5483865286
 31
0.0
  0
LINE
  5
2EF
330
1F
100
AcDbEntity
  8
0
  6
Continuous
 62
     7
370
    25
100
AcDbLine
 10
3692.649405644
 20
1139.5483865286
 30
0.0
 11
3692.649405644
 21
1149.5483865286
 31
0.0
  0
LINE
  5
2F0
330
1F
100
AcDbEntity
  8
0
  6
Continuous
 62
     7
370
    25
100
AcDbLine
 10
3692.649405644
 20
1139.5483865286
 30
0.0
 11
3684.819405644
 21
1139.5483865286
 31
0.0
  0
LINE
  5
2F1
330
1F
100
AcDbEntity
  8
0
  6
Continuous
 62
     7
370
    25
100
AcDbLine
 10
3654.149405644
 20
1139.5483865286
 30
0.0
 11
3654.149405644
 21
1149.5483865286
 31
0.0
  0
LINE
  5
2F2
330
1F
100
AcDbEntity
  8
0
  6
Continuous
 62
     7
370
    25
100
AcDbLine
 10
3661.979405644
 20
1139.5483865286
 30
0.0
 11
3654.149405644
 21
1139.5483865286
 31
0.0
  0
LINE
  5
2F3
330
1F
100
AcDbEntity
  8
0
  6
Continuous
 62
     7
370
    25
100
AcDbLine
 10
3237.649405644
 20
1139.5483865286
 30
0.0
 11
3237.649405644
 21
1149.5483865286
 31
0.0
  0
LINE
  5
2F4
330
1F
100
AcDbEntity
  8
0
  6
Continuous
 62
     7
370
    25
100
AcDbLine
 10
3237.649405644
 20
1139.5483865286
 30
0.0
 11
3229.819405644
 21
1139.5483865286
 31
0.0
  0
LINE
  5
2F5
330
1F
100
AcDbEntity
  8
0
  6
Continuous
 62
     7
370
    25
100
AcDbLine
 10
3229.819405644
 20
1139.5483865286
 30
0.0
 11
3206.979405644
 21
1139.5483865286
 31
0.0
  0
LINE
  5
2F6
330
1F
100
AcDbEntity
  8
0
  6
Continuous
 62
     7
370
    25
100
AcDbLine
 10
3199.149405644
 20
1139.5483865286
 30
0.0
 11
3199.149405644
 21
1149.5483865286
 31
0.0
  0
LINE
  5
2F7
330
1F
100
AcDbEntity
  8
0
  6
Continuous
 62
     7
370
    25
100
AcDbLine
 10
3206.979405644
 20
1139.5483865286
 30
0.0
 11
3199.149405644
 21
1139.5483865286
 31
0.0
  0
LINE
  5
2F8
330
1F
100
AcDbEntity
  8
0
  6
Continuous
 62
     7
370
    25
100
AcDbLine
 10
3397.999405644
 20
1247.8383865286
 30
0.0
 11
3385.249405644
 21
1247.8383865286
 31
0.0
  0
LINE
  5
2F9
330
1F
100
AcDbEntity
  8
0
  6
Continuous
 62
     7
370
    25
100
AcDbLine
 10
3397.999405644
 20
1201.2583865286
 30
0.0
 11
3397.999405644
 21
1247.8383865286
 31
0.0
  0
LINE
  5
2FA
330
1F
100
AcDbEntity
  8
0
  6
Continuous
 62
     7
370
    25
100
AcDbLine
 10
3385.249405644
 20
1201.2583865286
 30
0.0
 11
3397.999405644
 21
1201.2583865286
 31
0.0
  0
LINE
  5
2FB
330
1F
100
AcDbEntity
  8
0
  6
Continuous
 62
     7
370
    25
100
AcDbLine
 10
3385.249405644
 20
1247.8383865286
 30
0.0
 11
3385.249405644
 21
1201.2583865286
 31
0.0
  0
CIRCLE
  5
2FC
330
1F
100
AcDbEntity
  8
0
  6
Continuous
 62
     7
370
    25
100
AcDbCircle
 10
3467.899405644
 20
1222.5483865286
 30
0.0
 40
8.929999999999382
  0
CIRCLE
  5
2FD
330
1F
100
AcDbEntity
  8
0
  6
Continuous
 62
     7
370
    25
100
AcDbCircle
 10
3427.899405644
 20
1222.5483865286
 30
0.0
 40
8.930000000000291
  0
CIRCLE
  5
2FE
330
1F
100
AcDbEntity
  8
0
  6
Continuous
 62
     7
370
    25
100
AcDbCircle
 10
3467.899405644
 20
1222.5483865286
 30
0.0
 40
3.489999999999782
  0
CIRCLE
  5
2FF
330
1F
100
AcDbEntity
  8
0
  6
Continuous
 62
     7
370
    25
100
AcDbCircle
 10
3467.899405644
 20
1222.5483865286
 30
0.0
 40
6.124999999999545
  0
CIRCLE
  5
300
330
1F
100
AcDbEntity
  8
0
  6
Continuous
 62
     7
370
    25
100
AcDbCircle
 10
3427.899405644
 20
1222.5483865286
 30
0.0
 40
6.125000000000455
  0
CIRCLE
  5
301
330
1F
100
AcDbEntity
  8
0
  6
Continuous
 62
     7
370
    25
100
AcDbCircle
 10
3427.899405644
 20
1222.5483865286
 30
0.0
 40
3.490000000000236
  0
LINE
  5
302
330
1F
100
AcDbEntity
  8
0
  6
Continuous
 62
     7
370
    25
100
AcDbLine
 10
3684.819405644
 20
1139.5483865286
 30
0.0
 11
3684.819405644
 21
1149.5483865286
 31
0.0
  0
LINE
  5
303
330
1F
100
AcDbEntity
  8
0
  6
Continuous
 62
     7
370
    25
100
AcDbLine
 10
3661.979405644
 20
1139.5483865286
 30
0.0
 11
3661.979405644
 21
1149.5483865286
 31
0.0
  0
LINE
  5
304
330
1F
100
AcDbEntity
  8
0
  6
Continuous
 62
     7
370
    25
100
AcDbLine
 10
3229.819405644
 20
1139.5483865286
 30
0.0
 11
3229.819405644
 21
1149.5483865286
 31
0.0
  0
LINE
  5
305
330
1F
100
AcDbEntity
  8
0
  6
Continuous
 62
     7
370
    25
100
AcDbLine
 10
3206.979405644
 20
1139.5483865286
 30
0.0
 11
3206.979405644
 21
1149.5483865286
 31
0.0
  0
DIMENSION
  5
306
330
1F
100
AcDbEntity
  8
SLD-0
100
AcDbDimension
  2
_D_13
 10
3523.399405644
 20
1071.7965491534
 30
0.0
 11
3445.899405644
 21
1071.7965491534
 31
0.0
 70
   160
  1
<>
 71
     2
 42
-1.0
  3
SLDDIMSTYLE1
100
AcDbAlignedDimension
 13
3368.399405644
 23
1175.0483865286
 33
0.0
 14
3523.399405644
 24
1175.0483865286
 34
0.0
100
AcDbRotatedDimension
  0
DIMENSION
  5
31A
330
1F
100
AcDbEntity
  8
SLD-0
100
AcDbDimension
  2
_D_14
 10
3788.399405644
 20
1164.0483865286
 30
0.0
 11
3788.399405644
 21
1224.5483865286
 31
0.0
 70
   160
  1
<>
 71
     2
 42
-1.0
  3
SLDDIMSTYLE1
100
AcDbAlignedDimension
 13
3512.399405644
 23
1285.0483865286
 33
0.0
 14
3512.399405644
 24
1164.0483865286
 34
0.0
 50
90.0
100
AcDbRotatedDimension
  0
DIMENSION
  5
32E
330
1F
100
AcDbEntity
  8
SLD-0
100
AcDbDimension
  2
_D_15
 10
3788.399405644
 20
1149.5483865286
 30
0.0
 11
3788.399405644
 21
1071.7965491534
 31
0.0
 70
   160
  1
<>
 71
     2
 42
-1.0
  3
SLDDIMSTYLE2
100
AcDbAlignedDimension
 13
3512.399405644
 23
1164.0483865286
 33
0.0
 14
3708.399405644
 24
1149.5483865286
 34
0.0
 50
90.0
100
AcDbRotatedDimension
  0
DIMENSION
  5
343
330
1F
100
AcDbEntity
  8
SLD-0
100
AcDbDimension
  2
_D_16
 10
3183.399405644
 20
1071.7965491534
 30
0.0
 11
3274.2917716583
 21
1071.7965491534
 31
0.0
 70
   160
  1
<>
 71
     2
 42
-1.0
  3
SLDDIMSTYLE1
100
AcDbAlignedDimension
 13
3368.399405644
 23
1175.0483865286
 33
0.0
 14
3183.399405644
 24
1149.5483865286
 34
0.0
100
AcDbRotatedDimension
  0
LINE
  5
357
330
1F
100
AcDbEntity
  8
0
  6
Continuous
 62
     7
370
    25
100
AcDbLine
 10
1862.2169441553
 20
1800.8416878518
 30
0.0
 11
1862.2169441553
 21
2410.8416878518
 31
0.0
  0
LINE
  5
358
330
1F
100
AcDbEntity
  8
0
  6
Continuous
 62
     7
370
    25
100
AcDbLine
 10
1862.2169441553
 20
1800.8416878518
 30
0.0
 11
1337.2169441553
 21
1800.8416878518
 31
0.0
  0
CIRCLE
  5
359
330
1F
100
AcDbEntity
  8
0
  6
Continuous
 62
     7
370
    25
100
AcDbCircle
 10
1821.8169441553
 20
1900.8416878518
 30
0.0
 40
10.00000000000023
  0
CIRCLE
  5
35A
330
1F
100
AcDbEntity
  8
0
  6
Continuous
 62
     7
370
    25
100
AcDbCircle
 10
1821.8169441553
 20
2310.8416878518
 30
0.0
 40
10.0
  0
LINE
  5
35B
330
1F
100
AcDbEntity
  8
0
  6
Continuous
 62
     7
370
    25
100
AcDbLine
 10
1337.2169441553
 20
1800.8416878518
 30
0.0
 11
1337.2169441553
 21
2410.8416878518
 31
0.0
  0
LINE
  5
35C
330
1F
100
AcDbEntity
  8
0
  6
Continuous
 62
     7
370
    25
100
AcDbLine
 10
1862.2169441553
 20
2410.8416878518
 30
0.0
 11
1337.2169441553
 21
2410.8416878518
 31
0.0
  0
CIRCLE
  5
35D
330
1F
100
AcDbEntity
  8
0
  6
Continuous
 62
     7
370
    25
100
AcDbCircle
 10
1821.8169441553
 20
2310.8416878518
 30
0.0
 40
5.5
  0
CIRCLE
  5
35E
330
1F
100
AcDbEntity
  8
0
  6
Continuous
 62
     7
370
    25
100
AcDbCircle
 10
1821.8169441553
 20
1900.8416878518
 30
0.0
 40
5.499999999999773
  0
LINE
  5
35F
330
1F
100
AcDbEntity
  8
SLD-0
100
AcDbLine
 10
1821.8169441553
 20
2310.8416878518
 30
0.0
 11
1821.8169441553
 21
1900.8416878518
 31
0.0
  0
DIMENSION
  5
360
330
1F
100
AcDbEntity
  8
SLD-0
100
AcDbDimension
  2
_D_17
 10
1952.2169441553
 20
1900.8416878518
 30
0.0
 11
1952.2169441553
 21
2105.8416878518
 31
0.0
 70
   160
  1
<>
 71
     2
 42
-1.0
  3
SLDDIMSTYLE1
100
AcDbAlignedDimension
 13
1833.8169441553
 23
2310.8416878518
 33
0.0
 14
1833.8169441553
 24
1900.8416878518
 34
0.0
 50
90.0
100
AcDbRotatedDimension
  0
DIMENSION
  5
374
330
1F
100
AcDbEntity
  8
SLD-0
100
AcDbDimension
  2
_D_18
 10
1952.2169441553
 20
1800.8416878518
 30
0.0
 11
1952.2169441553
 21
1730.2058093666
 31
0.0
 70
   160
  1
<>
 71
     2
 42
-1.0
  3
SLDDIMSTYLE1
100
AcDbAlignedDimension
 13
1833.8169441553
 23
1900.8416878518
 33
0.0
 14
1862.2169441553
 24
1800.8416878518
 34
0.0
 50
90.0
100
AcDbRotatedDimension
  0
DIMENSION
  5
389
330
1F
100
AcDbEntity
  8
SLD-0
100
AcDbDimension
  2
_D_19
 10
1862.2169441553
 20
1730.2058093666
 30
0.0
 11
1708.6849283431
 21
1730.2058093666
 31
0.0
 70
   160
  1
<>
 71
     2
 42
-1.0
  3
SLDDIMSTYLE2
100
AcDbAlignedDimension
 13
1821.8169441553
 23
1888.8416878518
 33
0.0
 14
1862.2169441553
 24
1800.8416878518
 34
0.0
100
AcDbRotatedDimension
  0
DIMENSION
  5
39D
330
1F
100
AcDbEntity
  8
SLD-0
100
AcDbDimension
  2
_D_20
 10
1247.2169441553
 20
1800.8416878518
 30
0.0
 11
1247.2169441553
 21
2105.8416878518
 31
0.0
 70
   160
  1
<>
 71
     2
 42
-1.0
  3
SLDDIMSTYLE1
100
AcDbAlignedDimension
 13
1337.2169441553
 23
2410.8416878518
 33
0.0
 14
1337.2169441553
 24
1800.8416878518
 34
0.0
 50
90.0
100
AcDbRotatedDimension
  0
INSERT
  5
3B9
102
{ACAD_REACTORS
330
3BA
102
}
330
1F
100
AcDbEntity
  8
SLD-0
100
AcDbBlockReference
  2
SW_NOTE_0_3
 10
1924.2158092848
 20
2389.460476788
 30
0.0
  0
LEADER
  5
3BA
330
1F
100
AcDbEntity
  8
SLD-0
100
AcDbLeader
  3
SLDDIMSTYLE3
 73
     2
 76
     3
 10
1829.8945864303
 20
2316.7367447028
 30
0.0
 10
1906.2158092848
 20
2389.460476788
 30
0.0
 10
1924.2158092848
 20
2389.460476788
 30
0.0
340
3B9
  0
MTEXT
  5
3BB
330
1F
100
AcDbEntity
  8
SLD-0
100
AcDbMText
 10
1990.2743446173
 20
2399.4259326124
 30
0.0
 40
21.43125
 41
0.0
 71
     1
 72
     1
  1
2X
  7
SLDTEXTSTYLE0
 73
     1
 44
1.0
  0
INSERT
  5
3C7
330
1F
100
AcDbEntity
  8
SLD-0
100
AcDbBlockReference
  2
SW_CENTERMARKSYMBOL_6
 10
1821.8169441553
 20
1900.8416878518
 30
0.0
  0
INSERT
  5
3D3
330
1F
100
AcDbEntity
  8
SLD-0
100
AcDbBlockReference
  2
SW_CENTERMARKSYMBOL_7
 10
1821.8169441553
 20
2310.8416878518
 30
0.0
  0
LINE
  5
3D4
330
1F
100
AcDbEntity
  8
0
  6
Continuous
 62
     7
370
    25
100
AcDbLine
 10
1815.7969441553
 20
243.1543050362
 30
0.0
 11
1838.6369441553
 21
243.1543050362
 31
0.0
  0
ARC
  5
3D5
330
1F
100
AcDbEntity
  8
0
  6
Continuous
 62
     7
370
    25
100
AcDbCircle
 10
1815.7969441553
 20
250.9843050362
 30
0.0
 40
7.829999999999984
100
AcDbArc
 50
180.0
 51
270.0
  0
LINE
  5
3D6
330
1F
100
AcDbEntity
  8
0
  6
Continuous
 62
     7
370
    25
100
AcDbLine
 10
1807.9669441553
 20
273.8243050362
 30
0.0
 11
1807.9669441553
 21
250.9843050362
 31
0.0
  0
ARC
  5
3D7
330
1F
100
AcDbEntity
  8
0
  6
Continuous
 62
     7
370
    25
100
AcDbCircle
 10
1815.7969441553
 20
273.8243050362
 30
0.0
 40
7.830000000000098
100
AcDbArc
 50
90.0
 51
180.0
  0
LINE
  5
3D8
330
1F
100
AcDbEntity
  8
0
  6
Continuous
 62
     7
370
    25
100
AcDbLine
 10
1838.6369441553
 20
281.6543050362
 30
0.0
 11
1815.7969441553
 21
281.6543050362
 31
0.0
  0
ARC
  5
3D9
330
1F
100
AcDbEntity
  8
0
  6
Continuous
 62
     7
370
    25
100
AcDbCircle
 10
1838.6369441553
 20
273.8243050362
 30
0.0
 40
7.830000000000155
100
AcDbArc
 50
0.0
 51
90.0
  0
LINE
  5
3DA
330
1F
100
AcDbEntity
  8
0
  6
Continuous
 62
     7
370
    25
100
AcDbLine
 10
1846.4669441553
 20
250.9843050362
 30
0.0
 11
1846.4669441553
 21
273.8243050362
 31
0.0
  0
ARC
  5
3DB
330
1F
100
AcDbEntity
  8
0
  6
Continuous
 62
     7
370
    25
100
AcDbCircle
 10
1838.6369441553
 20
250.9843050362
 30
0.0
 40
7.830000000000155
100
AcDbArc
 50
270.0
 51
0.0
  0
ARC
  5
3DC
330
1F
100
AcDbEntity
  8
0
  6
Continuous
 62
     7
370
    25
100
AcDbCircle
 10
1360.7969441553
 20
273.8243050362
 30
0.0
 40
7.830000000000155
100
AcDbArc
 50
90.0
 51
180.0
  0
LINE
  5
3DD
330
1F
100
AcDbEntity
  8
0
  6
Continuous
 62
     7
370
    25
100
AcDbLine
 10
1383.6369441553
 20
281.6543050362
 30
0.0
 11
1360.7969441553
 21
281.6543050362
 31
0.0
  0
ARC
  5
3DE
330
1F
100
AcDbEntity
  8
0
  6
Continuous
 62
     7
370
    25
100
AcDbCircle
 10
1383.6369441553
 20
273.8243050362
 30
0.0
 40
7.830000000000155
100
AcDbArc
 50
0.0
 51
90.0
  0
ARC
  5
3DF
330
1F
100
AcDbEntity
  8
0
  6
Continuous
 62
     7
370
    25
100
AcDbCircle
 10
1383.6369441553
 20
250.9843050362
 30
0.0
 40
7.830000000000155
100
AcDbArc
 50
270.0
 51
0.0
  0
LINE
  5
3E0
330
1F
100
AcDbEntity
  8
0
  6
Continuous
 62
     7
370
    25
100
AcDbLine
 10
1360.7969441553
 20
243.1543050362
 30
0.0
 11
1383.6369441553
 21
243.1543050362
 31
0.0
  0
ARC
  5
3E1
330
1F
100
AcDbEntity
  8
0
  6
Continuous
 62
     7
370
    25
100
AcDbCircle
 10
1360.7969441553
 20
250.9843050362
 30
0.0
 40
7.829999999999984
100
AcDbArc
 50
180.0
 51
270.0
  0
LINE
  5
3E2
330
1F
100
AcDbEntity
  8
0
  6
Continuous
 62
     7
370
    25
100
AcDbLine
 10
1352.9669441553
 20
273.8243050362
 30
0.0
 11
1352.9669441553
 21
250.9843050362
 31
0.0
  0
LINE
  5
3E3
330
1F
100
AcDbEntity
  8
0
  6
Continuous
 62
     7
370
    25
100
AcDbLine
 10
1391.4669441553
 20
250.9843050362
 30
0.0
 11
1391.4669441553
 21
273.8243050362
 31
0.0
  0
LINE
  5
3E4
330
1F
100
AcDbEntity
  8
0
  6
Continuous
 62
     7
370
    25
100
AcDbLine
 10
1391.4669441553
 20
755.9843050362
 30
0.0
 11
1391.4669441553
 21
778.8243050362
 31
0.0
  0
ARC
  5
3E5
330
1F
100
AcDbEntity
  8
0
  6
Continuous
 62
     7
370
    25
100
AcDbCircle
 10
1383.6369441553
 20
755.9843050362
 30
0.0
 40
7.830000000000155
100
AcDbArc
 50
270.0
 51
0.0
  0
LINE
  5
3E6
330
1F
100
AcDbEntity
  8
0
  6
Continuous
 62
     7
370
    25
100
AcDbLine
 10
1360.7969441553
 20
748.1543050362
 30
0.0
 11
1383.6369441553
 21
748.1543050362
 31
0.0
  0
ARC
  5
3E7
330
1F
100
AcDbEntity
  8
0
  6
Continuous
 62
     7
370
    25
100
AcDbCircle
 10
1360.7969441553
 20
755.9843050362
 30
0.0
 40
7.830000000000155
100
AcDbArc
 50
180.0
 51
270.0
  0
LINE
  5
3E8
330
1F
100
AcDbEntity
  8
0
  6
Continuous
 62
     7
370
    25
100
AcDbLine
 10
1352.9669441553
 20
778.8243050362
 30
0.0
 11
1352.9669441553
 21
755.9843050362
 31
0.0
  0
ARC
  5
3E9
330
1F
100
AcDbEntity
  8
0
  6
Continuous
 62
     7
370
    25
100
AcDbCircle
 10
1360.7969441553
 20
778.8243050362
 30
0.0
 40
7.830000000000155
100
AcDbArc
 50
90.0
 51
180.0
  0
LINE
  5
3EA
330
1F
100
AcDbEntity
  8
0
  6
Continuous
 62
     7
370
    25
100
AcDbLine
 10
1383.6369441553
 20
786.6543050362
 30
0.0
 11
1360.7969441553
 21
786.6543050362
 31
0.0
  0
ARC
  5
3EB
330
1F
100
AcDbEntity
  8
0
  6
Continuous
 62
     7
370
    25
100
AcDbCircle
 10
1383.6369441553
 20
778.8243050362
 30
0.0
 40
7.830000000000155
100
AcDbArc
 50
0.0
 51
90.0
  0
LINE
  5
3EC
330
1F
100
AcDbEntity
  8
0
  6
Continuous
 62
     7
370
    25
100
AcDbLine
 10
1846.4669441553
 20
755.9843050362
 30
0.0
 11
1846.4669441553
 21
778.8243050362
 31
0.0
  0
ARC
  5
3ED
330
1F
100
AcDbEntity
  8
0
  6
Continuous
 62
     7
370
    25
100
AcDbCircle
 10
1838.6369441553
 20
755.9843050362
 30
0.0
 40
7.830000000000155
100
AcDbArc
 50
270.0
 51
0.0
  0
LINE
  5
3EE
330
1F
100
AcDbEntity
  8
0
  6
Continuous
 62
     7
370
    25
100
AcDbLine
 10
1807.9669441553
 20
778.8243050362
 30
0.0
 11
1807.9669441553
 21
755.9843050362
 31
0.0
  0
ARC
  5
3EF
330
1F
100
AcDbEntity
  8
0
  6
Continuous
 62
     7
370
    25
100
AcDbCircle
 10
1815.7969441553
 20
778.8243050362
 30
0.0
 40
7.830000000000155
100
AcDbArc
 50
90.0
 51
180.0
  0
LINE
  5
3F0
330
1F
100
AcDbEntity
  8
0
  6
Continuous
 62
     7
370
    25
100
AcDbLine
 10
1838.6369441553
 20
786.6543050362
 30
0.0
 11
1815.7969441553
 21
786.6543050362
 31
0.0
  0
ARC
  5
3F1
330
1F
100
AcDbEntity
  8
0
  6
Continuous
 62
     7
370
    25
100
AcDbCircle
 10
1838.6369441553
 20
778.8243050362
 30
0.0
 40
7.830000000000155
100
AcDbArc
 50
0.0
 51
90.0
  0
ARC
  5
3F2
330
1F
100
AcDbEntity
  8
0
  6
Continuous
 62
     7
370
    25
100
AcDbCircle
 10
1815.7969441553
 20
755.9843050362
 30
0.0
 40
7.830000000000041
100
AcDbArc
 50
180.0
 51
270.0
  0
LINE
  5
3F3
330
1F
100
AcDbEntity
  8
0
  6
Continuous
 62
     7
370
    25
100
AcDbLine
 10
1815.7969441553
 20
748.1543050362
 30
0.0
 11
1838.6369441553
 21
748.1543050362
 31
0.0
  0
LINE
  5
3F4
330
1F
100
AcDbEntity
  8
0
  6
Continuous
 62
     7
370
    25
100
AcDbLine
 10
1337.2169441553
 20
822.4043050362
 30
0.0
 11
1337.2169441553
 21
212.4043050362
 31
0.0
  0
LINE
  5
3F5
330
1F
100
AcDbEntity
  8
0
  6
Continuous
 62
     7
370
    25
100
AcDbLine
 10
1337.2169441553
 20
822.4043050362
 30
0.0
 11
1862.2169441553
 21
822.4043050362
 31
0.0
  0
LINE
  5
3F6
330
1F
100
AcDbEntity
  8
0
  6
Continuous
 62
     7
370
    25
100
AcDbLine
 10
1862.2169441553
 20
822.4043050362
 30
0.0
 11
1862.2169441553
 21
212.4043050362
 31
0.0
  0
ARC
  5
3F7
330
1F
100
AcDbEntity
  8
0
  6
Continuous
 62
     7
370
    25
100
AcDbCircle
 10
1811.2169441553
 20
783.4043050362
 30
0.0
 40
5.0
100
AcDbArc
 50
90.0
 51
180.0
  0
LINE
  5
3F8
330
1F
100
AcDbEntity
  8
0
  6
Continuous
 62
     7
370
    25
100
AcDbLine
 10
1806.2169441553
 20
783.4043050362
 30
0.0
 11
1806.2169441553
 21
751.4043050362
 31
0.0
  0
ARC
  5
3F9
330
1F
100
AcDbEntity
  8
0
  6
Continuous
 62
     7
370
    25
100
AcDbCircle
 10
1811.2169441553
 20
751.4043050362
 30
0.0
 40
5.0
100
AcDbArc
 50
180.0
 51
270.0
  0
LINE
  5
3FA
330
1F
100
AcDbEntity
  8
0
  6
Continuous
 62
     7
370
    25
100
AcDbLine
 10
1811.2169441553
 20
746.4043050362
 30
0.0
 11
1843.2169441553
 21
746.4043050362
 31
0.0
  0
ARC
  5
3FB
330
1F
100
AcDbEntity
  8
0
  6
Continuous
 62
     7
370
    25
100
AcDbCircle
 10
1843.2169441553
 20
751.4043050362
 30
0.0
 40
5.000000000000227
100
AcDbArc
 50
270.0
 51
0.0
  0
LINE
  5
3FC
330
1F
100
AcDbEntity
  8
0
  6
Continuous
 62
     7
370
    25
100
AcDbLine
 10
1848.2169441553
 20
751.4043050362
 30
0.0
 11
1848.2169441553
 21
783.4043050362
 31
0.0
  0
ARC
  5
3FD
330
1F
100
AcDbEntity
  8
0
  6
Continuous
 62
     7
370
    25
100
AcDbCircle
 10
1843.2169441553
 20
783.4043050362
 30
0.0
 40
5.000000000000227
100
AcDbArc
 50
0.0
 51
90.0
  0
LINE
  5
3FE
330
1F
100
AcDbEntity
  8
0
  6
Continuous
 62
     7
370
    25
100
AcDbLine
 10
1843.2169441553
 20
788.4043050362
 30
0.0
 11
1811.2169441553
 21
788.4043050362
 31
0.0
  0
ARC
  5
3FF
330
1F
100
AcDbEntity
  8
0
  6
Continuous
 62
     7
370
    25
100
AcDbCircle
 10
1356.2169441553
 20
278.4043050362
 30
0.0
 40
5.0
100
AcDbArc
 50
90.0
 51
180.0
  0
LINE
  5
400
330
1F
100
AcDbEntity
  8
0
  6
Continuous
 62
     7
370
    25
100
AcDbLine
 10
1351.2169441553
 20
278.4043050362
 30
0.0
 11
1351.2169441553
 21
246.4043050362
 31
0.0
  0
ARC
  5
401
330
1F
100
AcDbEntity
  8
0
  6
Continuous
 62
     7
370
    25
100
AcDbCircle
 10
1356.2169441553
 20
246.4043050362
 30
0.0
 40
5.0
100
AcDbArc
 50
180.0
 51
270.0
  0
LINE
  5
402
330
1F
100
AcDbEntity
  8
0
  6
Continuous
 62
     7
370
    25
100
AcDbLine
 10
1356.2169441553
 20
241.4043050362
 30
0.0
 11
1388.2169441553
 21
241.4043050362
 31
0.0
  0
ARC
  5
403
330
1F
100
AcDbEntity
  8
0
  6
Continuous
 62
     7
370
    25
100
AcDbCircle
 10
1388.2169441553
 20
246.4043050362
 30
0.0
 40
5.0
100
AcDbArc
 50
270.0
 51
0.0
  0
LINE
  5
404
330
1F
100
AcDbEntity
  8
0
  6
Continuous
 62
     7
370
    25
100
AcDbLine
 10
1393.2169441553
 20
246.4043050362
 30
0.0
 11
1393.2169441553
 21
278.4043050362
 31
0.0
  0
ARC
  5
405
330
1F
100
AcDbEntity
  8
0
  6
Continuous
 62
     7
370
    25
100
AcDbCircle
 10
1388.2169441553
 20
278.4043050362
 30
0.0
 40
5.0
100
AcDbArc
 50
0.0
 51
90.0
  0
LINE
  5
406
330
1F
100
AcDbEntity
  8
0
  6
Continuous
 62
     7
370
    25
100
AcDbLine
 10
1388.2169441553
 20
283.4043050362
 30
0.0
 11
1356.2169441553
 21
283.4043050362
 31
0.0
  0
ARC
  5
407
330
1F
100
AcDbEntity
  8
0
  6
Continuous
 62
     7
370
    25
100
AcDbCircle
 10
1811.2169441553
 20
278.4043050362
 30
0.0
 40
5.0
100
AcDbArc
 50
90.0
 51
180.0
  0
LINE
  5
408
330
1F
100
AcDbEntity
  8
0
  6
Continuous
 62
     7
370
    25
100
AcDbLine
 10
1806.2169441553
 20
278.4043050362
 30
0.0
 11
1806.2169441553
 21
246.4043050362
 31
0.0
  0
ARC
  5
409
330
1F
100
AcDbEntity
  8
0
  6
Continuous
 62
     7
370
    25
100
AcDbCircle
 10
1811.2169441553
 20
246.4043050362
 30
0.0
 40
5.0
100
AcDbArc
 50
180.0
 51
270.0
  0
LINE
  5
40A
330
1F
100
AcDbEntity
  8
0
  6
Continuous
 62
     7
370
    25
100
AcDbLine
 10
1811.2169441553
 20
241.4043050362
 30
0.0
 11
1843.2169441553
 21
241.4043050362
 31
0.0
  0
ARC
  5
40B
330
1F
100
AcDbEntity
  8
0
  6
Continuous
 62
     7
370
    25
100
AcDbCircle
 10
1843.2169441553
 20
246.4043050362
 30
0.0
 40
5.000000000000227
100
AcDbArc
 50
270.0
 51
0.0
  0
LINE
  5
40C
330
1F
100
AcDbEntity
  8
0
  6
Continuous
 62
     7
370
    25
100
AcDbLine
 10
1848.2169441553
 20
246.4043050362
 30
0.0
 11
1848.2169441553
 21
278.4043050362
 31
0.0
  0
ARC
  5
40D
330
1F
100
AcDbEntity
  8
0
  6
Continuous
 62
     7
370
    25
100
AcDbCircle
 10
1843.2169441553
 20
278.4043050362
 30
0.0
 40
5.000000000000227
100
AcDbArc
 50
0.0
 51
90.0
  0
LINE
  5
40E
330
1F
100
AcDbEntity
  8
0
  6
Continuous
 62
     7
370
    25
100
AcDbLine
 10
1843.2169441553
 20
283.4043050362
 30
0.0
 11
1811.2169441553
 21
283.4043050362
 31
0.0
  0
ARC
  5
40F
330
1F
100
AcDbEntity
  8
0
  6
Continuous
 62
     7
370
    25
100
AcDbCircle
 10
1356.2169441553
 20
783.4043050362
 30
0.0
 40
5.000000000000227
100
AcDbArc
 50
90.0
 51
180.0
  0
LINE
  5
410
330
1F
100
AcDbEntity
  8
0
  6
Continuous
 62
     7
370
    25
100
AcDbLine
 10
1351.2169441553
 20
783.4043050362
 30
0.0
 11
1351.2169441553
 21
751.4043050362
 31
0.0
  0
ARC
  5
411
330
1F
100
AcDbEntity
  8
0
  6
Continuous
 62
     7
370
    25
100
AcDbCircle
 10
1356.2169441553
 20
751.4043050362
 30
0.0
 40
5.000000000000227
100
AcDbArc
 50
180.0
 51
270.0
  0
LINE
  5
412
330
1F
100
AcDbEntity
  8
0
  6
Continuous
 62
     7
370
    25
100
AcDbLine
 10
1356.2169441553
 20
746.4043050362
 30
0.0
 11
1388.2169441553
 21
746.4043050362
 31
0.0
  0
ARC
  5
413
330
1F
100
AcDbEntity
  8
0
  6
Continuous
 62
     7
370
    25
100
AcDbCircle
 10
1388.2169441553
 20
751.4043050362
 30
0.0
 40
5.0
100
AcDbArc
 50
270.0
 51
0.0
  0
LINE
  5
414
330
1F
100
AcDbEntity
  8
0
  6
Continuous
 62
     7
370
    25
100
AcDbLine
 10
1393.2169441553
 20
751.4043050362
 30
0.0
 11
1393.2169441553
 21
783.4043050362
 31
0.0
  0
ARC
  5
415
330
1F
100
AcDbEntity
  8
0
  6
Continuous
 62
     7
370
    25
100
AcDbCircle
 10
1388.2169441553
 20
783.4043050362
 30
0.0
 40
5.0
100
AcDbArc
 50
0.0
 51
90.0
  0
LINE
  5
416
330
1F
100
AcDbEntity
  8
0
  6
Continuous
 62
     7
370
    25
100
AcDbLine
 10
1388.2169441553
 20
788.4043050362
 30
0.0
 11
1356.2169441553
 21
788.4043050362
 31
0.0
  0
ARC
  5
417
330
1F
100
AcDbEntity
  8
0
  6
Continuous
 62
     7
370
    25
100
AcDbCircle
 10
1484.7169441553
 20
687.4043050362
 30
0.0
 40
30.0
100
AcDbArc
 50
90.0
 51
180.0
  0
LINE
  5
418
330
1F
100
AcDbEntity
  8
0
  6
Continuous
 62
     7
370
    25
100
AcDbLine
 10
1454.7169441553
 20
687.4043050362
 30
0.0
 11
1454.7169441553
 21
321.4043050362
 31
0.0
  0
ARC
  5
419
330
1F
100
AcDbEntity
  8
0
  6
Continuous
 62
     7
370
    25
100
AcDbCircle
 10
1484.7169441553
 20
321.4043050362
 30
0.0
 40
30.0
100
AcDbArc
 50
180.0
 51
270.0
  0
LINE
  5
41A
330
1F
100
AcDbEntity
  8
0
  6
Continuous
 62
     7
370
    25
100
AcDbLine
 10
1484.7169441553
 20
291.4043050362
 30
0.0
 11
1764.7169441553
 21
291.4043050362
 31
0.0
  0
ARC
  5
41B
330
1F
100
AcDbEntity
  8
0
  6
Continuous
 62
     7
370
    25
100
AcDbCircle
 10
1764.7169441553
 20
321.4043050362
 30
0.0
 40
30.0
100
AcDbArc
 50
270.0
 51
0.0
  0
LINE
  5
41C
330
1F
100
AcDbEntity
  8
0
  6
Continuous
 62
     7
370
    25
100
AcDbLine
 10
1794.7169441553
 20
321.4043050362
 30
0.0
 11
1794.7169441553
 21
687.4043050362
 31
0.0
  0
ARC
  5
41D
330
1F
100
AcDbEntity
  8
0
  6
Continuous
 62
     7
370
    25
100
AcDbCircle
 10
1764.7169441553
 20
687.4043050362
 30
0.0
 40
30.0
100
AcDbArc
 50
0.0
 51
90.0
  0
LINE
  5
41E
330
1F
100
AcDbEntity
  8
0
  6
Continuous
 62
     7
370
    25
100
AcDbLine
 10
1764.7169441553
 20
717.4043050362
 30
0.0
 11
1484.7169441553
 21
717.4043050362
 31
0.0
  0
CIRCLE
  5
41F
330
1F
100
AcDbEntity
  8
0
  6
Continuous
 62
     7
370
    25
100
AcDbCircle
 10
1377.6169441553
 20
722.4043050362
 30
0.0
 40
10.0
  0
CIRCLE
  5
420
330
1F
100
AcDbEntity
  8
0
  6
Continuous
 62
     7
370
    25
100
AcDbCircle
 10
1821.8169441553
 20
312.4043050362
 30
0.0
 40
10.0
  0
CIRCLE
  5
421
330
1F
100
AcDbEntity
  8
0
  6
Continuous
 62
     7
370
    25
100
AcDbCircle
 10
1377.6169441553
 20
312.4043050362
 30
0.0
 40
10.0
  0
CIRCLE
  5
422
330
1F
100
AcDbEntity
  8
0
  6
Continuous
 62
     7
370
    25
100
AcDbCircle
 10
1821.8169441553
 20
722.4043050362
 30
0.0
 40
10.0
  0
LINE
  5
423
330
1F
100
AcDbEntity
  8
0
  6
Continuous
 62
     7
370
    25
100
AcDbLine
 10
1337.2169441553
 20
212.4043050362
 30
0.0
 11
1862.2169441553
 21
212.4043050362
 31
0.0
  0
CIRCLE
  5
424
330
1F
100
AcDbEntity
  8
0
  6
Continuous
 62
     7
370
    25
100
AcDbCircle
 10
1377.6169441553
 20
312.4043050362
 30
0.0
 40
5.499999999999943
  0
CIRCLE
  5
425
330
1F
100
AcDbEntity
  8
0
  6
Continuous
 62
     7
370
    25
100
AcDbCircle
 10
1821.8169441553
 20
312.4043050362
 30
0.0
 40
5.499999999999943
  0
CIRCLE
  5
426
330
1F
100
AcDbEntity
  8
0
  6
Continuous
 62
     7
370
    25
100
AcDbCircle
 10
1821.8169441553
 20
722.4043050362
 30
0.0
 40
5.499999999999886
  0
CIRCLE
  5
427
330
1F
100
AcDbEntity
  8
0
  6
Continuous
 62
     7
370
    25
100
AcDbCircle
 10
1377.6169441553
 20
722.4043050362
 30
0.0
 40
5.499999999999886
  0
LINE
  5
428
330
1F
100
AcDbEntity
  8
0
  6
Continuous
 62
     7
370
    25
100
AcDbLine
 10
1764.7169441553
 20
715.4043050362
 30
0.0
 11
1484.7169441553
 21
715.4043050362
 31
0.0
  0
ARC
  5
429
330
1F
100
AcDbEntity
  8
0
  6
Continuous
 62
     7
370
    25
100
AcDbCircle
 10
1764.7169441553
 20
687.4043050362
 30
0.0
 40
28.0
100
AcDbArc
 50
0.0
 51
90.0
  0
LINE
  5
42A
330
1F
100
AcDbEntity
  8
0
  6
Continuous
 62
     7
370
    25
100
AcDbLine
 10
1792.7169441553
 20
321.4043050362
 30
0.0
 11
1792.7169441553
 21
687.4043050362
 31
0.0
  0
ARC
  5
42B
330
1F
100
AcDbEntity
  8
0
  6
Continuous
 62
     7
370
    25
100
AcDbCircle
 10
1764.7169441553
 20
321.4043050362
 30
0.0
 40
28.00000000000006
100
AcDbArc
 50
270.0
 51
0.0
  0
LINE
  5
42C
330
1F
100
AcDbEntity
  8
0
  6
Continuous
 62
     7
370
    25
100
AcDbLine
 10
1484.7169441553
 20
293.4043050362
 30
0.0
 11
1764.7169441553
 21
293.4043050362
 31
0.0
  0
ARC
  5
42D
330
1F
100
AcDbEntity
  8
0
  6
Continuous
 62
     7
370
    25
100
AcDbCircle
 10
1484.7169441553
 20
321.4043050362
 30
0.0
 40
28.00000000000023
100
AcDbArc
 50
180.0
 51
270.0
  0
LINE
  5
42E
330
1F
100
AcDbEntity
  8
0
  6
Continuous
 62
     7
370
    25
100
AcDbLine
 10
1456.7169441553
 20
687.4043050362
 30
0.0
 11
1456.7169441553
 21
321.4043050362
 31
0.0
  0
ARC
  5
42F
330
1F
100
AcDbEntity
  8
0
  6
Continuous
 62
     7
370
    25
100
AcDbCircle
 10
1484.7169441553
 20
687.4043050362
 30
0.0
 40
28.00000000000023
100
AcDbArc
 50
90.0
 51
180.0
  0
CIRCLE
  5
430
330
1F
100
AcDbEntity
  8
0
  6
Continuous
 62
     7
370
    25
100
AcDbCircle
 10
1514.7169441553
 20
707.4043050362
 30
0.0
 40
5.200000000000045
  0
CIRCLE
  5
431
330
1F
100
AcDbEntity
  8
0
  6
Continuous
 62
     7
370
    25
100
AcDbCircle
 10
1464.7169441553
 20
452.4043050362
 30
0.0
 40
5.200000000000045
  0
CIRCLE
  5
432
330
1F
100
AcDbEntity
  8
0
  6
Continuous
 62
     7
370
    25
100
AcDbCircle
 10
1464.7169441553
 20
348.4043050362
 30
0.0
 40
5.200000000000102
  0
CIRCLE
  5
433
330
1F
100
AcDbEntity
  8
0
  6
Continuous
 62
     7
370
    25
100
AcDbCircle
 10
1514.7169441553
 20
301.4043050362
 30
0.0
 40
5.199999999999932
  0
CIRCLE
  5
434
330
1F
100
AcDbEntity
  8
0
  6
Continuous
 62
     7
370
    25
100
AcDbCircle
 10
1624.7169441553
 20
301.4043050362
 30
0.0
 40
5.199999999999932
  0
CIRCLE
  5
435
330
1F
100
AcDbEntity
  8
0
  6
Continuous
 62
     7
370
    25
100
AcDbCircle
 10
1784.7169441553
 20
348.4043050362
 30
0.0
 40
5.199999999999989
  0
CIRCLE
  5
436
330
1F
100
AcDbEntity
  8
0
  6
Continuous
 62
     7
370
    25
100
AcDbCircle
 10
1464.7169441553
 20
660.4043050362
 30
0.0
 40
5.199999999999932
  0
CIRCLE
  5
437
330
1F
100
AcDbEntity
  8
0
  6
Continuous
 62
     7
370
    25
100
AcDbCircle
 10
1464.7169441553
 20
556.4043050362
 30
0.0
 40
5.199999999999932
  0
CIRCLE
  5
438
330
1F
100
AcDbEntity
  8
0
  6
Continuous
 62
     7
370
    25
100
AcDbCircle
 10
1784.7169441553
 20
556.4043050362
 30
0.0
 40
5.200000000000045
  0
CIRCLE
  5
439
330
1F
100
AcDbEntity
  8
0
  6
Continuous
 62
     7
370
    25
100
AcDbCircle
 10
1784.7169441553
 20
660.4043050362
 30
0.0
 40
5.200000000000159
  0
CIRCLE
  5
43A
330
1F
100
AcDbEntity
  8
0
  6
Continuous
 62
     7
370
    25
100
AcDbCircle
 10
1624.7169441553
 20
707.4043050362
 30
0.0
 40
5.200000000000045
  0
CIRCLE
  5
43B
330
1F
100
AcDbEntity
  8
0
  6
Continuous
 62
     7
370
    25
100
AcDbCircle
 10
1734.7169441553
 20
707.4043050362
 30
0.0
 40
5.200000000000045
  0
CIRCLE
  5
43C
330
1F
100
AcDbEntity
  8
0
  6
Continuous
 62
     7
370
    25
100
AcDbCircle
 10
1784.7169441553
 20
452.4043050362
 30
0.0
 40
5.199999999999989
  0
CIRCLE
  5
43D
330
1F
100
AcDbEntity
  8
0
  6
Continuous
 62
     7
370
    25
100
AcDbCircle
 10
1734.7169441553
 20
301.4043050362
 30
0.0
 40
5.199999999999932
  0
CIRCLE
  5
43E
330
1F
100
AcDbEntity
  8
0
  6
Continuous
 62
     7
370
    25
100
AcDbCircle
 10
1624.7169441553
 20
301.4043050362
 30
0.0
 40
4.199999999999875
  0
CIRCLE
  5
43F
330
1F
100
AcDbEntity
  8
0
  6
Continuous
 62
     7
370
    25
100
AcDbCircle
 10
1734.7169441553
 20
301.4043050362
 30
0.0
 40
4.199999999999875
  0
CIRCLE
  5
440
330
1F
100
AcDbEntity
  8
0
  6
Continuous
 62
     7
370
    25
100
AcDbCircle
 10
1514.7169441553
 20
301.4043050362
 30
0.0
 40
4.199999999999875
  0
CIRCLE
  5
441
330
1F
100
AcDbEntity
  8
0
  6
Continuous
 62
     7
370
    25
100
AcDbCircle
 10
1784.7169441553
 20
348.4043050362
 30
0.0
 40
4.199999999999989
  0
CIRCLE
  5
442
330
1F
100
AcDbEntity
  8
0
  6
Continuous
 62
     7
370
    25
100
AcDbCircle
 10
1464.7169441553
 20
348.4043050362
 30
0.0
 40
4.200000000000045
  0
CIRCLE
  5
443
330
1F
100
AcDbEntity
  8
0
  6
Continuous
 62
     7
370
    25
100
AcDbCircle
 10
1784.7169441553
 20
452.4043050362
 30
0.0
 40
4.199999999999989
  0
CIRCLE
  5
444
330
1F
100
AcDbEntity
  8
0
  6
Continuous
 62
     7
370
    25
100
AcDbCircle
 10
1464.7169441553
 20
452.4043050362
 30
0.0
 40
4.199999999999989
  0
CIRCLE
  5
445
330
1F
100
AcDbEntity
  8
0
  6
Continuous
 62
     7
370
    25
100
AcDbCircle
 10
1784.7169441553
 20
556.4043050362
 30
0.0
 40
4.199999999999932
  0
CIRCLE
  5
446
330
1F
100
AcDbEntity
  8
0
  6
Continuous
 62
     7
370
    25
100
AcDbCircle
 10
1464.7169441553
 20
556.4043050362
 30
0.0
 40
4.199999999999932
  0
CIRCLE
  5
447
330
1F
100
AcDbEntity
  8
0
  6
Continuous
 62
     7
370
    25
100
AcDbCircle
 10
1464.7169441553
 20
660.4043050362
 30
0.0
 40
4.199999999999818
  0
CIRCLE
  5
448
330
1F
100
AcDbEntity
  8
0
  6
Continuous
 62
     7
370
    25
100
AcDbCircle
 10
1784.7169441553
 20
660.4043050362
 30
0.0
 40
4.200000000000045
  0
CIRCLE
  5
449
330
1F
100
AcDbEntity
  8
0
  6
Continuous
 62
     7
370
    25
100
AcDbCircle
 10
1734.7169441553
 20
707.4043050362
 30
0.0
 40
4.200000000000045
  0
CIRCLE
  5
44A
330
1F
100
AcDbEntity
  8
0
  6
Continuous
 62
     7
370
    25
100
AcDbCircle
 10
1514.7169441553
 20
707.4043050362
 30
0.0
 40
4.200000000000045
  0
CIRCLE
  5
44B
330
1F
100
AcDbEntity
  8
0
  6
Continuous
 62
     7
370
    25
100
AcDbCircle
 10
1624.7169441553
 20
707.4043050362
 30
0.0
 40
4.200000000000159
  0
LINE
  5
44C
330
1F
100
AcDbEntity
  8
SLD-0
100
AcDbLine
 10
1377.6169441553
 20
722.4043050362
 30
0.0
 11
1821.8169441553
 21
722.4043050362
 31
0.0
  0
LINE
  5
44D
330
1F
100
AcDbEntity
  8
SLD-0
100
AcDbLine
 10
1821.8169441553
 20
722.4043050362
 30
0.0
 11
1821.8169441553
 21
312.4043050362
 31
0.0
  0
LINE
  5
44E
330
1F
100
AcDbEntity
  8
SLD-0
100
AcDbLine
 10
1821.8169441553
 20
312.4043050362
 30
0.0
 11
1377.6169441553
 21
312.4043050362
 31
0.0
  0
LINE
  5
44F
330
1F
100
AcDbEntity
  8
SLD-0
100
AcDbLine
 10
1377.6169441553
 20
312.4043050362
 30
0.0
 11
1377.6169441553
 21
722.4043050362
 31
0.0
  0
DIMENSION
  5
450
330
1F
100
AcDbEntity
  8
SLD-0
100
AcDbDimension
  2
_D_21
 10
1821.8169441553
 20
912.4043050362
 30
0.0
 11
1599.7169441553
 21
912.4043050362
 31
0.0
 70
   160
  1
<>
 71
     2
 42
-1.0
  3
SLDDIMSTYLE0
100
AcDbAlignedDimension
 13
1377.6169441553
 23
734.4043050362
 33
0.0
 14
1821.8169441553
 24
734.4043050362
 34
0.0
100
AcDbRotatedDimension
  0
DIMENSION
  5
464
330
1F
100
AcDbEntity
  8
SLD-0
100
AcDbDimension
  2
_D_22
 10
1862.2169441553
 20
912.4043050362
 30
0.0
 11
1951.9947219331
 21
912.4043050362
 31
0.0
 70
   160
  1
<>
 71
     2
 42
-1.0
  3
SLDDIMSTYLE2
100
AcDbAlignedDimension
 13
1821.8169441553
 23
734.4043050362
 33
0.0
 14
1862.2169441553
 24
822.4043050362
 34
0.0
100
AcDbRotatedDimension
  0
DIMENSION
  5
478
330
1F
100
AcDbEntity
  8
SLD-0
100
AcDbDimension
  2
_D_23
 10
2060.2169441553
 20
722.4043050362
 30
0.0
 11
2060.2169441553
 21
912.4043050362
 31
0.0
 70
   160
  1
<>
 71
     2
 42
-1.0
  3
SLDDIMSTYLE1
100
AcDbAlignedDimension
 13
1862.2169441553
 23
822.4043050362
 33
0.0
 14
1833.8169441553
 24
722.4043050362
 34
0.0
 50
90.0
100
AcDbRotatedDimension
  0
DIMENSION
  5
48D
330
1F
100
AcDbEntity
  8
SLD-0
100
AcDbDimension
  2
_D_24
 10
2060.2169441553
 20
312.4043050362
 30
0.0
 11
2060.2169441553
 21
517.4043050362
 31
0.0
 70
   160
  1
<>
 71
     2
 42
-1.0
  3
SLDDIMSTYLE1
100
AcDbAlignedDimension
 13
1833.8169441553
 23
722.4043050362
 33
0.0
 14
1833.8169441553
 24
312.4043050362
 34
0.0
 50
90.0
100
AcDbRotatedDimension
  0
INSERT
  5
4A9
102
{ACAD_REACTORS
330
4AA
102
}
330
1F
100
AcDbEntity
  8
SLD-0
100
AcDbBlockReference
  2
SW_NOTE_0_4
 10
1247.8042659975
 20
405.3952321205
 30
0.0
  0
LEADER
  5
4AA
330
1F
100
AcDbEntity
  8
SLD-0
100
AcDbLeader
  3
SLDDIMSTYLE3
 73
     2
 76
     3
 10
1370.4492988905
 20
319.3774579355
 30
0.0
 10
1265.8042659975
 20
405.3952321205
 30
0.0
 10
1247.8042659975
 20
405.3952321205
 30
0.0
340
4A9
  0
MTEXT
  5
4AB
330
1F
100
AcDbEntity
  8
SLD-0
100
AcDbMText
 10
1150.7741111919
 20
415.0291112158
 30
0.0
 40
21.43125
 41
0.0
 71
     1
 72
     1
  1
4X
  7
SLDTEXTSTYLE0
 73
     1
 44
1.0
  0
INSERT
  5
4B7
330
1F
100
AcDbEntity
  8
SLD-0
100
AcDbBlockReference
  2
SW_CENTERMARKSYMBOL_8
 10
1734.7169441553
 20
707.4043050362
 30
0.0
  0
INSERT
  5
4C3
330
1F
100
AcDbEntity
  8
SLD-0
100
AcDbBlockReference
  2
SW_CENTERMARKSYMBOL_9
 10
1784.7169441553
 20
660.4043050362
 30
0.0
  0
INSERT
  5
4CF
330
1F
100
AcDbEntity
  8
SLD-0
100
AcDbBlockReference
  2
SW_CENTERMARKSYMBOL_10
 10
1624.7169441553
 20
707.4043050362
 30
0.0
  0
INSERT
  5
4DB
330
1F
100
AcDbEntity
  8
SLD-0
100
AcDbBlockReference
  2
SW_CENTERMARKSYMBOL_11
 10
1514.7169441553
 20
707.4043050362
 30
0.0
  0
INSERT
  5
4E7
330
1F
100
AcDbEntity
  8
SLD-0
100
AcDbBlockReference
  2
SW_CENTERMARKSYMBOL_12
 10
1464.7169441553
 20
660.4043050362
 30
0.0
  0
INSERT
  5
4F3
330
1F
100
AcDbEntity
  8
SLD-0
100
AcDbBlockReference
  2
SW_CENTERMARKSYMBOL_13
 10
1464.7169441553
 20
556.4043050362
 30
0.0
  0
INSERT
  5
4FF
330
1F
100
AcDbEntity
  8
SLD-0
100
AcDbBlockReference
  2
SW_CENTERMARKSYMBOL_14
 10
1464.7169441553
 20
452.4043050362
 30
0.0
  0
INSERT
  5
50B
330
1F
100
AcDbEntity
  8
SLD-0
100
AcDbBlockReference
  2
SW_CENTERMARKSYMBOL_15
 10
1464.7169441553
 20
348.4043050362
 30
0.0
  0
INSERT
  5
517
330
1F
100
AcDbEntity
  8
SLD-0
100
AcDbBlockReference
  2
SW_CENTERMARKSYMBOL_16
 10
1514.7169441553
 20
301.4043050362
 30
0.0
  0
INSERT
  5
523
330
1F
100
AcDbEntity
  8
SLD-0
100
AcDbBlockReference
  2
SW_CENTERMARKSYMBOL_17
 10
1624.7169441553
 20
301.4043050362
 30
0.0
  0
INSERT
  5
52F
330
1F
100
AcDbEntity
  8
SLD-0
100
AcDbBlockReference
  2
SW_CENTERMARKSYMBOL_18
 10
1734.7169441553
 20
301.4043050362
 30
0.0
  0
INSERT
  5
53B
330
1F
100
AcDbEntity
  8
SLD-0
100
AcDbBlockReference
  2
SW_CENTERMARKSYMBOL_19
 10
1784.7169441553
 20
556.4043050362
 30
0.0
  0
INSERT
  5
547
330
1F
100
AcDbEntity
  8
SLD-0
100
AcDbBlockReference
  2
SW_CENTERMARKSYMBOL_20
 10
1784.7169441553
 20
452.4043050362
 30
0.0
  0
INSERT
  5
553
330
1F
100
AcDbEntity
  8
SLD-0
100
AcDbBlockReference
  2
SW_CENTERMARKSYMBOL_21
 10
1784.7169441553
 20
348.4043050362
 30
0.0
  0
INSERT
  5
55F
330
1F
100
AcDbEntity
  8
SLD-0
100
AcDbBlockReference
  2
SW_CENTERMARKSYMBOL_22
 10
1377.6169441553
 20
722.4043050362
 30
0.0
  0
INSERT
  5
56B
330
1F
100
AcDbEntity
  8
SLD-0
100
AcDbBlockReference
  2
SW_CENTERMARKSYMBOL_23
 10
1821.8169441553
 20
722.4043050362
 30
0.0
  0
INSERT
  5
577
330
1F
100
AcDbEntity
  8
SLD-0
100
AcDbBlockReference
  2
SW_CENTERMARKSYMBOL_24
 10
1377.6169441553
 20
312.4043050362
 30
0.0
  0
INSERT
  5
583
330
1F
100
AcDbEntity
  8
SLD-0
100
AcDbBlockReference
  2
SW_CENTERMARKSYMBOL_25
 10
1821.8169441553
 20
312.4043050362
 30
0.0
  0
OLE2FRAME
  5
584
330
1F
100
AcDbEntity
  8
0
100
AcDbOle2Frame
 70
     2
  3
Picture (Enhanced Metafile)
 10
60.3213102777
 20
140.101362827
 30
0.0
 11
395.2330250904
 21
69.0268510018
 31
0.0
 71
     3
 72
     0
 73
     1
 90
     5248
310
80553854F7B120294E40DC5E415D3E83614000000000000000008E658478BAB3
310
7840DC5E415D3E83614000000000000000008E658478BAB3784020A543EDB741
310
514000000000000000003854F7B120294E4020A543EDB7415140000000000000
310
0000000000000100000000010000010000000100000000000100000000140000
310
D0CF11E0A1B11AE1000000000000000000000000000000003E000300FEFF0900
310
0600000000000000000000000100000001000000000000000010000002000000
310
01000000FEFFFFFF0000000000000000FFFFFFFFFFFFFFFFFFFFFFFFFFFFFFFF
310
FFFFFFFFFFFFFFFFFFFFFFFFFFFFFFFFFFFFFFFFFFFFFFFFFFFFFFFFFFFFFFFF
310
FFFFFFFFFFFFFFFFFFFFFFFFFFFFFFFFFFFFFFFFFFFFFFFFFFFFFFFFFFFFFFFF
310
FFFFFFFFFFFFFFFFFFFFFFFFFFFFFFFFFFFFFFFFFFFFFFFFFFFFFFFFFFFFFFFF
310
FFFFFFFFFFFFFFFFFFFFFFFFFFFFFFFFFFFFFFFFFFFFFFFFFFFFFFFFFFFFFFFF
310
FFFFFFFFFFFFFFFFFFFFFFFFFFFFFFFFFFFFFFFFFFFFFFFFFFFFFFFFFFFFFFFF
310
FFFFFFFFFFFFFFFFFFFFFFFFFFFFFFFFFFFFFFFFFFFFFFFFFFFFFFFFFFFFFFFF
310
FFFFFFFFFFFFFFFFFFFFFFFFFFFFFFFFFFFFFFFFFFFFFFFFFFFFFFFFFFFFFFFF
310
FFFFFFFFFFFFFFFFFFFFFFFFFFFFFFFFFFFFFFFFFFFFFFFFFFFFFFFFFFFFFFFF
310
FFFFFFFFFFFFFFFFFFFFFFFFFFFFFFFFFFFFFFFFFFFFFFFFFFFFFFFFFFFFFFFF
310
FFFFFFFFFFFFFFFFFFFFFFFFFFFFFFFFFFFFFFFFFFFFFFFFFFFFFFFFFFFFFFFF
310
FFFFFFFFFFFFFFFFFFFFFFFFFFFFFFFFFFFFFFFFFFFFFFFFFFFFFFFFFFFFFFFF
310
FFFFFFFFFFFFFFFFFFFFFFFFFFFFFFFFFFFFFFFFFFFFFFFFFFFFFFFFFFFFFFFF
310
FFFFFFFFFFFFFFFFFFFFFFFFFFFFFFFFFFFFFFFFFFFFFFFFFFFFFFFFFFFFFFFF
310
FDFFFFFFFEFFFFFFFEFFFFFF0400000005000000060000000700000008000000
310
FEFFFFFFFFFFFFFFFFFFFFFFFFFFFFFFFFFFFFFFFFFFFFFFFFFFFFFFFFFFFFFF
310
FFFFFFFFFFFFFFFFFFFFFFFFFFFFFFFFFFFFFFFFFFFFFFFFFFFFFFFFFFFFFFFF
310
FFFFFFFFFFFFFFFFFFFFFFFFFFFFFFFFFFFFFFFFFFFFFFFFFFFFFFFFFFFFFFFF
310
FFFFFFFFFFFFFFFFFFFFFFFFFFFFFFFFFFFFFFFFFFFFFFFFFFFFFFFFFFFFFFFF
310
FFFFFFFFFFFFFFFFFFFFFFFFFFFFFFFFFFFFFFFFFFFFFFFFFFFFFFFFFFFFFFFF
310
FFFFFFFFFFFFFFFFFFFFFFFFFFFFFFFFFFFFFFFFFFFFFFFFFFFFFFFFFFFFFFFF
310
FFFFFFFFFFFFFFFFFFFFFFFFFFFFFFFFFFFFFFFFFFFFFFFFFFFFFFFFFFFFFFFF
310
FFFFFFFFFFFFFFFFFFFFFFFFFFFFFFFFFFFFFFFFFFFFFFFFFFFFFFFFFFFFFFFF
310
FFFFFFFFFFFFFFFFFFFFFFFFFFFFFFFFFFFFFFFFFFFFFFFFFFFFFFFFFFFFFFFF
310
FFFFFFFFFFFFFFFFFFFFFFFFFFFFFFFFFFFFFFFFFFFFFFFFFFFFFFFFFFFFFFFF
310
FFFFFFFFFFFFFFFFFFFFFFFFFFFFFFFFFFFFFFFFFFFFFFFFFFFFFFFFFFFFFFFF
310
FFFFFFFFFFFFFFFFFFFFFFFFFFFFFFFFFFFFFFFFFFFFFFFFFFFFFFFFFFFFFFFF
310
FFFFFFFFFFFFFFFFFFFFFFFFFFFFFFFFFFFFFFFFFFFFFFFFFFFFFFFFFFFFFFFF
310
FFFFFFFFFFFFFFFFFFFFFFFFFFFFFFFFFFFFFFFFFFFFFFFFFFFFFFFFFFFFFFFF
310
FFFFFFFFFFFFFFFFFFFFFFFFFFFFFFFFFFFFFFFFFFFFFFFFFFFFFFFFFFFFFFFF
310
52006F006F007400200045006E00740072007900000000000000000000000000
310
0000000000000000000000000000000000000000000000000000000000000000
310
16000500FFFFFFFFFFFFFFFF020000001903000000000000C000000000000046
310
00000000000000000000000060633919BFB2DA0103000000000C000000000000
310
01004F006C006500000000000000000000000000000000000000000000000000
310
0000000000000000000000000000000000000000000000000000000000000000
310
0A000200FFFFFFFFFFFFFFFFFFFFFFFF00000000000000000000000000000000
310
0000000000000000000000000000000000000000000000001400000000000000
310
010043006F006D0070004F0062006A0000000000000000000000000000000000
310
0000000000000000000000000000000000000000000000000000000000000000
310
120002010100000003000000FFFFFFFF00000000000000000000000000000000
310
0000000000000000000000000000000000000000010000005800000000000000
310
43004F004E00540045004E005400530000000000000000000000000000000000
310
0000000000000000000000000000000000000000000000000000000000000000
310
12000200FFFFFFFFFFFFFFFFFFFFFFFF00000000000000000000000000000000
310
000000000000000000000000000000000000000003000000040B000000000000
310
FEFFFFFF02000000FEFFFFFF0400000005000000060000000700000008000000
310
090000000A0000000B0000000C0000000D0000000E0000000F00000010000000
310
1100000012000000130000001400000015000000160000001700000018000000
310
190000001A0000001B0000001C0000001D0000001E0000001F00000020000000
310
2100000022000000230000002400000025000000260000002700000028000000
310
290000002A0000002B0000002C0000002D0000002E0000002F000000FEFFFFFF
310
FFFFFFFFFFFFFFFFFFFFFFFFFFFFFFFFFFFFFFFFFFFFFFFFFFFFFFFFFFFFFFFF
310
FFFFFFFFFFFFFFFFFFFFFFFFFFFFFFFFFFFFFFFFFFFFFFFFFFFFFFFFFFFFFFFF
310
FFFFFFFFFFFFFFFFFFFFFFFFFFFFFFFFFFFFFFFFFFFFFFFFFFFFFFFFFFFFFFFF
310
FFFFFFFFFFFFFFFFFFFFFFFFFFFFFFFFFFFFFFFFFFFFFFFFFFFFFFFFFFFFFFFF
310
FFFFFFFFFFFFFFFFFFFFFFFFFFFFFFFFFFFFFFFFFFFFFFFFFFFFFFFFFFFFFFFF
310
FFFFFFFFFFFFFFFFFFFFFFFFFFFFFFFFFFFFFFFFFFFFFFFFFFFFFFFFFFFFFFFF
310
FFFFFFFFFFFFFFFFFFFFFFFFFFFFFFFFFFFFFFFFFFFFFFFFFFFFFFFFFFFFFFFF
310
FFFFFFFFFFFFFFFFFFFFFFFFFFFFFFFFFFFFFFFFFFFFFFFFFFFFFFFFFFFFFFFF
310
FFFFFFFFFFFFFFFFFFFFFFFFFFFFFFFFFFFFFFFFFFFFFFFFFFFFFFFFFFFFFFFF
310
FFFFFFFFFFFFFFFFFFFFFFFFFFFFFFFFFFFFFFFFFFFFFFFFFFFFFFFFFFFFFFFF
310
0100000200000000000000000000000000000000000000000000000000000000
310
0000000000000000000000000000000000000000000000000000000000000000
310
0100FEFF030A0000FFFFFFFF1903000000000000C0000000000000461C000000
310
506963747572652028456E68616E636564204D65746166696C652900FFFFFFFF
310
0E00000000000000F439B2710000000000000000000000000000000000000000
310
0000000000000000000000000000000000000000000000000000000000000000
310
74000000010000006C000000FD0A000094000000870B0000B200000062570100
310
111200003B680100BB15000020454D46000001008C0A00003800000003000000
310
0D0000005800000000000000000400000003000040010000F000000041006400
310
6F00620065002000530079007300740000000000000000000100000074000000
310
FD0A000094000000870B0000B200000062570100111200003B680100BB150000
310
20454D46000001008C0A000038000000030000000D0000005800000000000000
310
000400000003000040010000F0000000410064006F0062006500200053007900
310
7300740065006D0073000000110000000C00000008000000120000000C000000
310
010000000A0000001000000000000000000000000C0000001000000000000000
310
000000000900000010000000D7040000110100000B000000100000009D010000
310
5B000000130000000C0000000200000027000000180000000100000000000000
310
0000000000000000250000000C000000010000005F0000003400000002000000
310
2C000000000000002C0000000000000005000000000000000000000000000000
310
0000000000000000250000000C000000020000003B000000080000001B000000
310
100000003D210000F20100005800000048010000FC0A000093000000190B0000
310
B30000004B0000004921F9014921F9014921F9014921DA014921DA014921DA01
310
4921D5014621D0014221CD012821BE012821BE012821BE012321BB011D21BB01
310
1821BE01FE20CD01FE20CD01FE20CD01FA20D001F720D501F720DA01F720F801
310
F720F801F720F801F720FE01FA200302FE200602182115021821150218211502
310
1D21170223211702282115024321050243210502432105023721FE013721FE01
310
3721FE013521FD013521FD013521FD0122210902222109022221090221210902
310
1F2109021E2109020621FA010621FA010621FA010521FA010421F9010421F701
310
0421DB010421DB010421DB010421DA010521D9010621D8011E21CA011E21CA01
310
1E21CA011F21CA012121CA012221CA013A21D8013A21D8013A21D8013B21D901
310
3C21DA013C21DB013C21F2013C21F2013C21F2013D000000080000003C000000
310
080000003E000000180000009F8601009F8601006179FEFF6179FEFF13000000
310
0C000000020000003B000000080000001B000000100000002F210000E4010000
310
58000000C4000000050B00009D000000100B0000A90000002A0000002F21EF01
310
2F21EF012F21EF012F21F1012E21F2012C21F3012321F9012321F9012321F901
310
2221FA012121FA012021FA011F21FA011E21FA011D21F9011421F4011421F401
310
1421F4011221F3011121F1011121EF011121E4011121E4011121E4011121E201
310
1221E0011321DF011D21DA011D21DA011D21DA011E21D9011F21D9012021D901
310
2121D9012221D9012321DA012C21DF012C21DF012C21DF012E21E0012F21E201
310
2F21E4013D000000080000003C000000080000003E000000180000009F860100
310
9F8601006179FEFF6179FEFF130000000C000000020000005B00000038000000
310
3D0B0000A3000000430B0000A6000000010000000500000005000000B821F001
310
C821F001C821EB01B821EB01B821F001130000000C000000020000003B000000
310
080000001B0000001000000004220000E70100005800000084010000450B0000
310
9B000000590B0000AA0000005A0000000122E601FD21E501F621E501E421E501
310
E421E501E421E501D921E501D921E301D921E001D921DD01DA21DB01DC21DA01
310
DE21DA01E221D901E921D901EF21D901EF21D901EF21D9010022D9010022DB01
310
0022E0010022E1010022E1010022E1010722E1010722E1010722E1010722DF01
310
0722DF010722DF010722DB010622D8010322D6010022D401FB21D401F321D401
310
E521D401E521D401E521D401D921D401D121D601D121DF01D121E501D321E801
310
D721E901DB21EB01E221EB01EC21EB01F821EB01F821EB01F821EB010022EB01
310
0122ED010122F1010122F5010022F701F621F701E221F701E221F701E221F701
310
DA21F701D921F501D921F201D921EF01D921EF01D921EF01D121EF01D121EF01
310
D121EF01D121F201D121F201D121F201D121FC01DB21FD01E421FD01F521FD01
310
F521FD01F521FD01F921FD01FE21FD010222FB010622FA010922F6010922F201
310
0922EF010922EF010922EF010922EC010722E9010422E7013C00000008000000
310
3E000000180000009F8601009F8601006179FEFF6179FEFF130000000C000000
310
020000005B0000004C000000590B00009B0000006F0B0000AA00000001000000
310
0A0000000A0000002C22E6011722D4010C22D4012822EC012822FC013022FC01
310
3022EC014C22D4014122D4012C22E601130000000C000000020000003B000000
310
080000001B0000001000000082220000E701000058000000780100006F0B0000
310
9B000000830B0000AA000000570000007F22E6017B22E5017422E5016122E501
310
6122E5016122E5015722E5015722E3015722E0015722DB015822D9016622D901
310
6D22D9016D22D9016D22D9017E22D9017E22DB017E22E0017E22E1017E22E101
310
7E22E1018522E1018522E1018522E1018522DF018522DF018522DF018522DB01
310
8422D8018122D6017E22D4017922D4017122D4016322D4016322D4016322D401
310
5722D4014F22D6014F22DF014F22E5015122E8015522E9015922EB015F22EB01
310
6A22EB017622EB017622EB017622EB017E22EB017F22ED017F22F1017F22F501
310
7D22F7017422F7016022F7016022F7016022F7015822F7015722F5015722F201
310
5722EF015722EF015722EF014F22EF014F22EF014F22EF014F22F2014F22F201
310
4F22F2014F22FC015822FD016122FD017322FD017322FD017322FD017722FD01
310
7C22FD018022FB018422FA018622F6018622F2018622EF018622EF018622EF01
310
8622EC018522E9018222E7013C000000080000003E000000180000009F860100
310
9F8601006179FEFF6179FEFF130000000C000000020000005B00000038000000
310
300B0000A6000000340B0000AC00000001000000050000000500000093210202
310
9A2102029A21F3019321F30193210202130000000C000000020000003B000000
310
080000001B000000100000009B210000D40100005800000018010000240B0000
310
9B0000003A0B0000AA0000003F0000008021D4018021D4018021D4017421D401
310
6F21D8016F21E3016F21EE016F21EE016F21EE016F21F8017421FD018021FD01
310
8F21FD018F21FD018F21FD018F21F7018F21F7018F21F7018121F7018121F701
310
8121F7017921F7017621F5017621F0017621E1017621E1017621E1017621DC01
310
7921D9018121D9019A21D9019A21D9019A21D901A121D901A421DC01A421E101
310
A421F001A421F001A421F001A421F401A321F6019E21F7019E21F7019E21F701
310
9E21F7019E21FD019E21FD019E21FD019F21FD019F21FD019F21FD01A421FC01
310
A721FB01A921F801AB21F601AC21F201AC21EE01AC21E301AC21E301AC21E301
310
AC21D801A721D4019B21D4013C000000080000003E000000180000009F860100
310
9F8601006179FEFF6179FEFF130000000C000000020000005B0000006C000000
310
840B00009B000000870B00009F0000000100000012000000120000009222D401
310
9122D8019022D4018E22D4018E22DA018F22DA018F22D6018F22D5019022D601
310
9122DA019122DA019222D6019322D5019322D6019322DA019422DA019422D401
310
9222D401130000000C000000020000005B00000048000000830B00009B000000
310
850B00009F0000000100000009000000090000008A22D5018B22D5018B22DA01
310
8C22DA018C22D5018E22D5018E22D4018A22D4018A22D501280000000C000000
310
01000000280000000C000000020000000E000000140000000000000010000000
310
1400000000000000000000000000000000000000000000000000000000000000
310
0000000000000000000000000000000000000000000000000000000000000000
  1
OLE
  0
ENDSEC
  0
SECTION
  2
OBJECTS
  0
DICTIONARY
  5
C
330
0
100
AcDbDictionary
281
     1
  3
ACAD_GROUP
350
D
  3
ACAD_LAYOUT
350
1A
  3
ACAD_MLINESTYLE
350
17
  3
ACAD_PLOTSETTINGS
350
19
  3
ACAD_PLOTSTYLENAME
350
E
  3
ACAD_SCALELIST
350
47
  3
DWGPROPS
350
585
  0
DICTIONARY
  5
D
102
{ACAD_REACTORS
330
C
102
}
330
C
100
AcDbDictionary
281
     1
  0
DICTIONARY
  5
1A
102
{ACAD_REACTORS
330
C
102
}
330
C
100
AcDbDictionary
281
     1
  3
Layout1
350
1E
  3
Layout2
350
26
  3
Model
350
22
  0
DICTIONARY
  5
17
102
{ACAD_REACTORS
330
C
102
}
330
C
100
AcDbDictionary
281
     1
  3
Standard
350
18
  0
DICTIONARY
  5
19
102
{ACAD_REACTORS
330
C
102
}
330
C
100
AcDbDictionary
281
     1
  0
ACDBDICTIONARYWDFLT
  5
E
102
{ACAD_REACTORS
330
C
102
}
330
C
100
AcDbDictionary
281
     1
  3
Normal
350
F
100
AcDbDictionaryWithDefault
340
F
  0
DICTIONARY
  5
47
102
{ACAD_REACTORS
330
C
102
}
330
C
100
AcDbDictionary
281
     1
  3
A0
350
48
  3
A1
350
49
  3
A2
350
4A
  3
A3
350
4B
  3
A4
350
4C
  3
A5
350
4D
  3
A6
350
4E
  3
A7
350
4F
  3
A8
350
50
  3
A9
350
51
  3
B0
350
52
  3
B1
350
53
  3
B2
350
54
  3
B3
350
55
  3
B4
350
56
  3
B5
350
57
  3
B6
350
58
  0
XRECORD
  5
585
102
{ACAD_REACTORS
330
C
102
}
330
C
100
AcDbXrecord
280
     1
  1
DWGPROPS COOKIE
  2

  3

  4

  6

  7

  8
Kevin.Castro
  9

300
=
301
=
302
=
303
=
304
=
305
=
306
=
307
=
308
=
309
=
 40
0.0
 41
2460461.769431181
 42
2460461.769435811
  1

 90
        0
  0
LAYOUT
  5
1E
102
{ACAD_REACTORS
330
1A
102
}
330
1A
100
AcDbPlotSettings
  1

  2
none_device
  4

  6

 40
0.0
 41
0.0
 42
0.0
 43
0.0
 44
0.0
 45
0.0
 46
0.0
 47
0.0
 48
0.0
 49
0.0
140
0.0
141
0.0
142
1.0
143
1.0
 70
   688
 72
     1
 73
     0
 74
     5
  7

 75
    16
147
1.0
148
0.0
149
0.0
100
AcDbLayout
  1
Layout1
 70
     1
 71
     1
 10
0.0
 20
0.0
 11
420.0
 21
297.0
 12
0.0
 22
0.0
 32
0.0
 14
1.0000000000E+20
 24
1.0000000000E+20
 34
1.0000000000E+20
 15
-1.0000000000E+20
 25
-1.0000000000E+20
 35
-1.0000000000E+20
146
0.0
 13
0.0
 23
0.0
 33
0.0
 16
1.0
 26
0.0
 36
0.0
 17
0.0
 27
1.0
 37
0.0
 76
     0
330
1B
  0
LAYOUT
  5
26
102
{ACAD_REACTORS
330
1A
102
}
330
1A
100
AcDbPlotSettings
  1

  2
none_device
  4

  6

 40
0.0
 41
0.0
 42
0.0
 43
0.0
 44
0.0
 45
0.0
 46
0.0
 47
0.0
 48
0.0
 49
0.0
140
0.0
141
0.0
142
1.0
143
1.0
 70
   688
 72
     1
 73
     0
 74
     5
  7

 75
    16
147
1.0
148
0.0
149
0.0
100
AcDbLayout
  1
Layout2
 70
     1
 71
     2
 10
0.0
 20
0.0
 11
0.0
 21
0.0
 12
0.0
 22
0.0
 32
0.0
 14
0.0
 24
0.0
 34
0.0
 15
0.0
 25
0.0
 35
0.0
146
0.0
 13
0.0
 23
0.0
 33
0.0
 16
1.0
 26
0.0
 36
0.0
 17
0.0
 27
1.0
 37
0.0
 76
     0
330
23
  0
LAYOUT
  5
22
102
{ACAD_REACTORS
330
1A
102
}
330
1A
100
AcDbPlotSettings
  1

  2
none_device
  4
Letter_(8.50_x_11.00_Inches)
  6

 40
6.35
 41
6.35
 42
6.35000508
 43
6.35000508
 44
215.9
 45
279.4
 46
0.0
 47
0.0
 48
0.0
 49
0.0
140
0.0
141
0.0
142
1.0
143
1.0
 70
  1712
 72
     1
 73
     0
 74
     0
  7

 75
     0
147
1.0
148
0.0
149
0.0
100
AcDbLayout
  1
Model
 70
     1
 71
     0
 10
0.0
 20
0.0
 11
3886.2
 21
2514.6
 12
0.0
 22
0.0
 32
0.0
 14
0.0
 24
0.0
 34
0.0
 15
3886.2
 25
2514.6
 35
0.0
146
0.0
 13
0.0
 23
0.0
 33
0.0
 16
1.0
 26
0.0
 36
0.0
 17
0.0
 27
1.0
 37
0.0
 76
     0
330
1F
331
29
  0
MLINESTYLE
  5
18
102
{ACAD_REACTORS
330
17
102
}
330
17
100
AcDbMlineStyle
  2
Standard
 70
     0
  3

 62
   256
 51
90.0
 52
90.0
 71
     2
 49
0.5
 62
   256
  6
BYLAYER
 49
-0.5
 62
   256
  6
BYLAYER
  0
ACDBPLACEHOLDER
  5
F
102
{ACAD_REACTORS
330
E
102
}
330
E
  0
SCALE
  5
48
102
{ACAD_REACTORS
330
47
102
}
330
47
100
AcDbScale
 70
     0
300
1:1
140
1.0
141
1.0
290
     1
  0
SCALE
  5
49
102
{ACAD_REACTORS
330
47
102
}
330
47
100
AcDbScale
 70
     0
300
1:2
140
1.0
141
2.0
290
     0
  0
SCALE
  5
4A
102
{ACAD_REACTORS
330
47
102
}
330
47
100
AcDbScale
 70
     0
300
1:4
140
1.0
141
4.0
290
     0
  0
SCALE
  5
4B
102
{ACAD_REACTORS
330
47
102
}
330
47
100
AcDbScale
 70
     0
300
1:5
140
1.0
141
5.0
290
     0
  0
SCALE
  5
4C
102
{ACAD_REACTORS
330
47
102
}
330
47
100
AcDbScale
 70
     0
300
1:8
140
1.0
141
8.0
290
     0
  0
SCALE
  5
4D
102
{ACAD_REACTORS
330
47
102
}
330
47
100
AcDbScale
 70
     0
300
1:10
140
1.0
141
10.0
290
     0
  0
SCALE
  5
4E
102
{ACAD_REACTORS
330
47
102
}
330
47
100
AcDbScale
 70
     0
300
1:16
140
1.0
141
16.0
290
     0
  0
SCALE
  5
4F
102
{ACAD_REACTORS
330
47
102
}
330
47
100
AcDbScale
 70
     0
300
1:20
140
1.0
141
20.0
290
     0
  0
SCALE
  5
50
102
{ACAD_REACTORS
330
47
102
}
330
47
100
AcDbScale
 70
     0
300
1:30
140
1.0
141
30.0
290
     0
  0
SCALE
  5
51
102
{ACAD_REACTORS
330
47
102
}
330
47
100
AcDbScale
 70
     0
300
1:40
140
1.0
141
40.0
290
     0
  0
SCALE
  5
52
102
{ACAD_REACTORS
330
47
102
}
330
47
100
AcDbScale
 70
     0
300
1:50
140
1.0
141
50.0
290
     0
  0
SCALE
  5
53
102
{ACAD_REACTORS
330
47
102
}
330
47
100
AcDbScale
 70
     0
300
1:100
140
1.0
141
100.0
290
     0
  0
SCALE
  5
54
102
{ACAD_REACTORS
330
47
102
}
330
47
100
AcDbScale
 70
     0
300
2:1
140
2.0
141
1.0
290
     0
  0
SCALE
  5
55
102
{ACAD_REACTORS
330
47
102
}
330
47
100
AcDbScale
 70
     0
300
4:1
140
4.0
141
1.0
290
     0
  0
SCALE
  5
56
102
{ACAD_REACTORS
330
47
102
}
330
47
100
AcDbScale
 70
     0
300
8:1
140
8.0
141
1.0
290
     0
  0
SCALE
  5
57
102
{ACAD_REACTORS
330
47
102
}
330
47
100
AcDbScale
 70
     0
300
10:1
140
10.0
141
1.0
290
     0
  0
SCALE
  5
58
102
{ACAD_REACTORS
330
47
102
}
330
47
100
AcDbScale
 70
     0
300
100:1
140
100.0
141
1.0
290
     0
  0
ENDSEC
  0
EOF
