999
DXF file: D:\Agile attachment\ECO-113244\FG-901582-2D-A.dxf
999
Pro/ENGINEER 2022014 by Parametric Technology Corporation
  0
SECTION
  2
HEADER
  9
$ACADVER
  1
AC1015
  9
$DWGCODEPAGE
  3
ANSI_1252
  9
$EXTMAX
 10
1727.2
 20
1117.6
 30
0.0
  9
$EXTMIN
 10
0.0
 20
0.0
 30
0.0
  9
$LIMMIN
 10
0.0
 20
0.0
  9
$LIMMAX
 10
1727.2
 20
1117.6
  9
$VIEWCTR
 10
863.6
 20
558.8
  9
$VIEWSIZE
 40
1117.6
  9
$CLAYER
  8
0
  9
$LTSCALE
 40
94.996
  9
$CELTYPE
  6
BYLAYER
  9
$DIMSCALE
 40
1.0
  9
$DIMASZ
 40
8.0
  9
$DIMEXO
 40
1.5875
  9
$DIMDLI
 40
65.6336
  9
$DIMEXE
 40
3.175
  9
$DIMCEN
 40
15.5448
  9
$DIMLFAC
 40
1.0
  9
$DIMBLK
  1
_FILLED
  9
$DIMALT
 70
1
  9
$DIMALTD
 70
1
  9
$DIMALTTD
 70
2
  9
$DIMALTF
 40
0.0393700787
  9
$DIMTXT
 40
9.144
  9
$DIMTOL
 70
1
  9
$DIMLIM
 70
0
  9
$DIMTFAC
 40
1.0
  9
$DIMTP
 40
0.02
  9
$DIMTM
 40
0.02
  9
$DIMGAP
 40
0.625
  9
$DIMDSEP
 70
46
  9
$AUNITS
 70
0
  9
$PDMODE
 70
3
  9
$PDSIZE
 40
7.9375
  9
$HANDSEED
  5
4A3
  9
$TILEMODE
 70
1
  9
$MEASUREMENT
 70
1
  9
$INSUNITS
 70
4
  0
ENDSEC
  0
SECTION
  2
CLASSES
  0
CLASS
  1
ACDBDICTIONARYWDFLT
  2
AcDbDictionaryWithDefault
  3
AutoCAD 2000
 90
0
280
0
281
0
  0
CLASS
  1
ACDBPLACEHOLDER
  2
AcDbPlaceHolder
  3
AutoCAD 2000
 90
0
280
0
281
0
  0
CLASS
  1
LAYOUT
  2
AcDbLayout
  3
AutoCAD 2000
 90
0
280
0
281
0
  0
ENDSEC
  0
SECTION
  2
TABLES
  0
TABLE
  2
VPORT
  5
8
100
AcDbSymbolTable
 70
2
  0
VPORT
  5
1F4
100
AcDbSymbolTableRecord
100
AcDbViewportTableRecord
  2
*ACTIVE
 70
0
 10
0.0
 20
0.0
 11
1.0
 21
1.0
 12
863.6
 22
558.8
 13
0.0
 23
0.0
 14
1.0
 24
1.0
 15
0.0
 25
0.0
 16
0.0
 26
0.0
 36
1.0
 17
0.0
 27
0.0
 37
0.0
 40
1117.6
 41
1.5454545455
 42
50.0
 43
0.0
 44
0.0
 50
0.0
 51
0.0
 71
0
 72
100
 73
1
 74
1
 75
0
 76
0
 77
0
 78
0
  0
ENDTAB
  0
TABLE
  2
LTYPE
  5
5
100
AcDbSymbolTable
 70
6
  0
LTYPE
  5
14
100
AcDbSymbolTableRecord
100
AcDbLinetypeTableRecord
  2
BYBLOCK
 70
0
  3

 72
65
 73
0
 40
0.0
  0
LTYPE
  5
15
100
AcDbSymbolTableRecord
100
AcDbLinetypeTableRecord
  2
BYLAYER
 70
0
  3

 72
65
 73
0
 40
0.0
  0
LTYPE
  5
16
100
AcDbSymbolTableRecord
100
AcDbLinetypeTableRecord
  2
CONTINUOUS
 70
64
  3
Solid line
 72
65
 73
0
 40
0.0
  0
LTYPE
  5
1F5
100
AcDbSymbolTableRecord
100
AcDbLinetypeTableRecord
  2
CENTER
 70
64
  3
____ _ ____ _ ____ _ ____ _ ____ _ ____ _ ____
 72
65
 73
4
 40
0.6
 49
0.375
 74
0
 49
-0.075
 74
0
 49
0.075
 74
0
 49
-0.075
 74
0
  0
LTYPE
  5
1F6
100
AcDbSymbolTableRecord
100
AcDbLinetypeTableRecord
  2
HIDDEN
 70
64
  3
- - - - - - - - - - - - - - - - - - - -
 72
65
 73
2
 40
0.2
 49
0.1
 74
0
 49
-0.1
 74
0
  0
LTYPE
  5
1F7
100
AcDbSymbolTableRecord
100
AcDbLinetypeTableRecord
  2
PHANTOM
 70
64
  3
_____ _ _ _____ _ _ _____ _ _ _____
 72
65
 73
6
 40
0.8
 49
0.45
 74
0
 49
-0.05
 74
0
 49
0.1
 74
0
 49
-0.05
 74
0
 49
0.1
 74
0
 49
-0.05
 74
0
  0
LTYPE
  5
1F8
100
AcDbSymbolTableRecord
100
AcDbLinetypeTableRecord
  2
DOT
 70
64
  3
. . . . . . . . . . . . . . . . . . . .
 72
65
 73
2
 40
0.2
 49
0.1
 74
0
 49
-0.1
 74
0
  0
LTYPE
  5
1F9
100
AcDbSymbolTableRecord
100
AcDbLinetypeTableRecord
  2
DASHED
 70
64
  3
- - - - - - - - - - - - - - - - - - - -
 72
65
 73
2
 40
0.2
 49
0.1
 74
0
 49
-0.1
 74
0
  0
ENDTAB
  0
TABLE
  2
LAYER
  5
2
100
AcDbSymbolTable
 70
36
  0
LAYER
  5
10
100
AcDbSymbolTableRecord
100
AcDbLayerTableRecord
  2
0
 70
0
 62
7
  6
CONTINUOUS
370
-3
390
F
  0
LAYER
  5
1FA
100
AcDbSymbolTableRecord
100
AcDbLayerTableRecord
  2
DEFAULT_1
 70
0
 62
7
  6
CENTER
370
-3
390
F
  0
LAYER
  5
1FB
100
AcDbSymbolTableRecord
100
AcDbLayerTableRecord
  2
DEFAULT_2
 70
0
 62
8
  6
HIDDEN
370
-3
390
F
  0
LAYER
  5
1FC
100
AcDbSymbolTableRecord
100
AcDbLayerTableRecord
  2
DEFAULT_3
 70
0
 62
7
  6
PHANTOM
370
-3
390
F
  0
LAYER
  5
1FD
100
AcDbSymbolTableRecord
100
AcDbLayerTableRecord
  2
1_ALL_PLANES
 70
0
 62
7
  6
CONTINUOUS
370
-3
390
F
  0
LAYER
  5
1FE
100
AcDbSymbolTableRecord
100
AcDbLayerTableRecord
  2
1_DEF_PLANES
 70
0
 62
7
  6
CONTINUOUS
370
-3
390
F
  0
LAYER
  5
1FF
100
AcDbSymbolTableRecord
100
AcDbLayerTableRecord
  2
2_ALL_CSYS
 70
0
 62
7
  6
CONTINUOUS
370
-3
390
F
  0
LAYER
  5
200
100
AcDbSymbolTableRecord
100
AcDbLayerTableRecord
  2
2_DEF_CSYS
 70
0
 62
7
  6
CONTINUOUS
370
-3
390
F
  0
LAYER
  5
201
100
AcDbSymbolTableRecord
100
AcDbLayerTableRecord
  2
3_ALL_AXES
 70
0
 62
7
  6
CONTINUOUS
370
-3
390
F
  0
LAYER
  5
202
100
AcDbSymbolTableRecord
100
AcDbLayerTableRecord
  2
3_AXES_OTHER
 70
0
 62
7
  6
CONTINUOUS
370
-3
390
F
  0
LAYER
  5
203
100
AcDbSymbolTableRecord
100
AcDbLayerTableRecord
  2
3_HOLES
 70
0
 62
7
  6
CONTINUOUS
370
-3
390
F
  0
LAYER
  5
204
100
AcDbSymbolTableRecord
100
AcDbLayerTableRecord
  2
4_ALL_POINTS
 70
0
 62
7
  6
CONTINUOUS
370
-3
390
F
  0
LAYER
  5
205
100
AcDbSymbolTableRecord
100
AcDbLayerTableRecord
  2
5_ALL_CURVES
 70
0
 62
7
  6
CONTINUOUS
370
-3
390
F
  0
LAYER
  5
206
100
AcDbSymbolTableRecord
100
AcDbLayerTableRecord
  2
6_ALL_SURFS
 70
0
 62
7
  6
CONTINUOUS
370
-3
390
F
  0
LAYER
  5
207
100
AcDbSymbolTableRecord
100
AcDbLayerTableRecord
  2
6_COPYGEOM
 70
0
 62
7
  6
CONTINUOUS
370
-3
390
F
  0
LAYER
  5
208
100
AcDbSymbolTableRecord
100
AcDbLayerTableRecord
  2
7_ALL_ROUNDS
 70
0
 62
7
  6
CONTINUOUS
370
-3
390
F
  0
LAYER
  5
209
100
AcDbSymbolTableRecord
100
AcDbLayerTableRecord
  2
7_MERGES
 70
0
 62
7
  6
CONTINUOUS
370
-3
390
F
  0
LAYER
  5
20A
100
AcDbSymbolTableRecord
100
AcDbLayerTableRecord
  2
8_GDT
 70
0
 62
7
  6
CONTINUOUS
370
-3
390
F
  0
LAYER
  5
20B
100
AcDbSymbolTableRecord
100
AcDbLayerTableRecord
  2
8_SET_DATUMS
 70
0
 62
7
  6
CONTINUOUS
370
-3
390
F
  0
LAYER
  5
20C
100
AcDbSymbolTableRecord
100
AcDbLayerTableRecord
  2
9_COSMETICS
 70
0
 62
7
  6
CONTINUOUS
370
-3
390
F
  0
LAYER
  5
20D
100
AcDbSymbolTableRecord
100
AcDbLayerTableRecord
  2
9_THREADS
 70
0
 62
7
  6
CONTINUOUS
370
-3
390
F
  0
ENDTAB
  0
TABLE
  2
STYLE
  5
3
100
AcDbSymbolTable
 70
1
  0
STYLE
  5
11
100
AcDbSymbolTableRecord
100
AcDbTextStyleTableRecord
  2
STANDARD
 70
0
 40
0.0
 41
1.0
 50
0.0
 71
0
 42
0.2
  3
gothic.ttf
  4

1001
ACAD
1000
Century Gothic
1071
34
  0
STYLE
  5
20E
100
AcDbSymbolTableRecord
100
AcDbTextStyleTableRecord
  2
TEXTSTYLE_1
 70
0
 40
0.0
 41
0.8
 50
0.0
 71
0
 42
0.2
  3
gdt
  4

  0
STYLE
  5
20F
100
AcDbSymbolTableRecord
100
AcDbTextStyleTableRecord
  2
TEXTSTYLE_2
 70
0
 40
0.0
 41
1.0
 50
0.0
 71
0
 42
0.2
  3
gothic.ttf
  4

1001
ACAD
1000
Century Gothic
1071
34
  0
STYLE
  5
210
100
AcDbSymbolTableRecord
100
AcDbTextStyleTableRecord
  2
TEXTSTYLE_3
 70
0
 40
0.0
 41
1.0
 50
0.0
 71
0
 42
0.2
  3
ar_wgl_b.ttf
  4

1001
ACAD
1000
Arial WGL
1071
33554466
  0
STYLE
  5
211
100
AcDbSymbolTableRecord
100
AcDbTextStyleTableRecord
  2
TEXTSTYLE_4
 70
0
 40
0.0
 41
1.0
 50
0.0
 71
0
 42
0.2
  3
gdt
  4

  0
ENDTAB
  0
TABLE
  2
VIEW
  5
6
100
AcDbSymbolTable
 70
0
  0
ENDTAB
  0
TABLE
  2
UCS
  5
7
100
AcDbSymbolTable
 70
0
  0
ENDTAB
  0
TABLE
  2
APPID
  5
9
100
AcDbSymbolTable
 70
1
  0
APPID
  5
212
100
AcDbSymbolTableRecord
100
AcDbRegAppTableRecord
  2
ACAD
 70
0
  0
ENDTAB
  0
TABLE
  2
BLOCK_RECORD
  5
1
100
AcDbSymbolTable
 70
0
  0
BLOCK_RECORD
  5
213
100
AcDbSymbolTableRecord
100
AcDbBlockTableRecord
  2
*Model_Space
  0
BLOCK_RECORD
  5
214
100
AcDbSymbolTableRecord
100
AcDbBlockTableRecord
  2
*Paper_Space
  0
BLOCK_RECORD
  5
215
100
AcDbSymbolTableRecord
100
AcDbBlockTableRecord
  2
_FILLED
  0
BLOCK_RECORD
  5
216
100
AcDbSymbolTableRecord
100
AcDbBlockTableRecord
  2
*D0
  0
BLOCK_RECORD
  5
217
100
AcDbSymbolTableRecord
100
AcDbBlockTableRecord
  2
*D1
  0
BLOCK_RECORD
  5
218
100
AcDbSymbolTableRecord
100
AcDbBlockTableRecord
  2
*D2
  0
BLOCK_RECORD
  5
219
100
AcDbSymbolTableRecord
100
AcDbBlockTableRecord
  2
*D3
  0
BLOCK_RECORD
  5
21A
100
AcDbSymbolTableRecord
100
AcDbBlockTableRecord
  2
*D4
  0
BLOCK_RECORD
  5
21B
100
AcDbSymbolTableRecord
100
AcDbBlockTableRecord
  2
*D5
  0
BLOCK_RECORD
  5
21C
100
AcDbSymbolTableRecord
100
AcDbBlockTableRecord
  2
*D6
  0
BLOCK_RECORD
  5
21D
100
AcDbSymbolTableRecord
100
AcDbBlockTableRecord
  2
*D7
  0
BLOCK_RECORD
  5
21E
100
AcDbSymbolTableRecord
100
AcDbBlockTableRecord
  2
*D8
  0
BLOCK_RECORD
  5
21F
100
AcDbSymbolTableRecord
100
AcDbBlockTableRecord
  2
*D9
  0
BLOCK_RECORD
  5
220
100
AcDbSymbolTableRecord
100
AcDbBlockTableRecord
  2
*D10
  0
BLOCK_RECORD
  5
221
100
AcDbSymbolTableRecord
100
AcDbBlockTableRecord
  2
*D11
  0
BLOCK_RECORD
  5
222
100
AcDbSymbolTableRecord
100
AcDbBlockTableRecord
  2
*D12
  0
BLOCK_RECORD
  5
223
100
AcDbSymbolTableRecord
100
AcDbBlockTableRecord
  2
*D13
  0
BLOCK_RECORD
  5
224
100
AcDbSymbolTableRecord
100
AcDbBlockTableRecord
  2
*D14
  0
BLOCK_RECORD
  5
225
100
AcDbSymbolTableRecord
100
AcDbBlockTableRecord
  2
CG_3D_BL2
  0
BLOCK_RECORD
  5
226
100
AcDbSymbolTableRecord
100
AcDbBlockTableRecord
  2
CG_3D_BL1
  0
BLOCK_RECORD
  5
227
100
AcDbSymbolTableRecord
100
AcDbBlockTableRecord
  2
CG_3D_BL0
  0
ENDTAB
  0
TABLE
  2
DIMSTYLE
  5
A
100
AcDbSymbolTable
 70
1
100
AcDbDimStyleTable
 71
0
  0
DIMSTYLE
105
228
100
AcDbSymbolTableRecord
100
AcDbDimStyleTableRecord
  2
STANDARD
 70
0
  3

  4

 40
1.0
 41
8.0
 42
1.5875
 43
0.38
 44
3.175
 45
0.0
 46
0.0
 47
0.02
 48
0.02
140
9.144
141
0.09
142
0.0
143
0.0393700787
144
1.0
145
0.0
146
1.0
147
0.625
 71
1
 72
0
 73
1
 74
1
 75
0
 76
0
 77
0
 78
4
 79
1
170
1
171
1
172
0
173
0
174
0
175
0
176
0
177
0
178
0
270
2
179
2
271
2
272
2
273
2
274
2
275
0
280
0
281
0
282
0
283
1
284
4
285
0
286
0
287
3
288
0
340
11
278
46
341
215
342
215
343
215
344
215
  0
DIMSTYLE
105
229
100
AcDbSymbolTableRecord
100
AcDbDimStyleTableRecord
  2
DIMSTYLE_1
 70
0
  3

  4

 40
1.0
 41
8.0
 42
1.5875
 43
0.38
 44
3.175
 45
0.0
 46
0.0
 47
0.02
 48
0.02
140
9.144
141
0.09
142
0.0
143
0.0393700787
144
1.0
145
0.0
146
1.0
147
1.143
 71
0
 72
0
 73
1
 74
1
 75
0
 76
0
 77
0
 78
4
 79
1
170
1
171
2
172
0
173
0
174
0
175
0
176
0
177
0
178
0
270
2
179
2
271
1
272
1
273
2
274
2
275
0
280
0
281
0
282
0
283
1
284
4
285
0
286
0
287
3
288
0
340
11
278
46
341
215
342
215
343
215
344
215
  0
DIMSTYLE
105
22A
100
AcDbSymbolTableRecord
100
AcDbDimStyleTableRecord
  2
DIMSTYLE_2
 70
0
  3
<>
  4

 40
1.0
 41
8.0
 42
1.5875
 43
0.38
 44
3.175
 45
0.0
 46
0.0
 47
0.02
 48
0.02
140
9.144
141
0.09
142
0.0
143
0.0393700787
144
1.0
145
0.0
146
1.0
147
0.625
 71
0
 72
0
 73
1
 74
1
 75
0
 76
0
 77
0
 78
4
 79
1
170
1
171
2
172
0
173
0
174
0
175
0
176
0
177
0
178
0
270
2
179
2
271
1
272
1
273
2
274
2
275
0
280
0
281
0
282
0
283
1
284
4
285
0
286
0
287
3
288
1
340
11
278
46
289
1
341
215
342
215
343
215
344
215
  0
ENDTAB
  0
ENDSEC
  0
SECTION
  2
BLOCKS
  0
BLOCK
  5
20
100
AcDbEntity
  8
0
100
AcDbBlockBegin
  2
*Model_Space
 70
0
 10
0.0
 20
0.0
 30
0.0
  3
*Model_Space
  1

  0
ENDBLK
  5
21
100
AcDbEntity
  8
0
100
AcDbBlockEnd
  0
BLOCK
  5
1C
100
AcDbEntity
  8
0
100
AcDbBlockBegin
  2
*Paper_Space
 70
0
 10
0.0
 20
0.0
 30
0.0
  3
*Paper_Space
  1

  0
ENDBLK
  5
1D
100
AcDbEntity
  8
0
100
AcDbBlockEnd
  0
BLOCK
  5
22B
100
AcDbEntity
  8
0
100
AcDbBlockBegin
 62
2
  6
CONTINUOUS
  2
CG_3D_BL2
 70
64
 10
568.6997585695
 20
751.9574950744
  3
CG_3D_BL2
  1

  0
ARC
  5
22C
100
AcDbEntity
  8
0
100
AcDbCircle
 62
7
  6
CONTINUOUS
 10
568.6997585695
 20
751.9574950744
 40
8.0
100
AcDbArc
 50
90.0
 51
180.0
  0
ARC
  5
22D
100
AcDbEntity
  8
0
100
AcDbCircle
 62
7
  6
CONTINUOUS
 10
568.6997585695
 20
751.9574950744
 40
8.0
100
AcDbArc
 50
180.0
 51
270.0
  0
ARC
  5
22E
100
AcDbEntity
  8
0
100
AcDbCircle
 62
7
  6
CONTINUOUS
 10
568.6997585695
 20
751.9574950744
 40
8.0
100
AcDbArc
 50
270.0
 51
360.0
  0
ARC
  5
22F
100
AcDbEntity
  8
0
100
AcDbCircle
 62
7
  6
CONTINUOUS
 10
568.6997585695
 20
751.9574950744
 40
8.0
100
AcDbArc
 50
0.0
 51
90.0
  0
LINE
  5
230
100
AcDbEntity
  8
0
100
AcDbLine
 62
7
  6
CONTINUOUS
 10
568.6997585695
 20
751.9574950744
 11
576.6997585695
 21
751.9574950744
  0
LINE
  5
231
100
AcDbEntity
  8
0
100
AcDbLine
 62
7
  6
CONTINUOUS
 10
568.6997585695
 20
751.9574950744
 11
568.6997585695
 21
743.9574950744
  0
LINE
  5
232
100
AcDbEntity
  8
0
100
AcDbLine
 62
7
  6
CONTINUOUS
 10
560.6997585695
 20
751.9574950744
 11
568.6997585695
 21
751.9574950744
  0
LINE
  5
233
100
AcDbEntity
  8
0
100
AcDbLine
 62
7
  6
CONTINUOUS
 10
568.6997585695
 20
759.9574950744
 11
568.6997585695
 21
751.9574950744
  0
LINE
  5
234
100
AcDbEntity
  8
0
100
AcDbLine
 62
2
  6
CONTINUOUS
 10
568.6997585695
 20
751.9047697995
 11
568.7524838444
 21
751.9574950744
  0
LWPOLYLINE
  5
235
100
AcDbEntity
  8
0
100
AcDbPolyline
 62
7
  6
CONTINUOUS
 90
8
 70
0
 10
568.6997585695
 20
751.9574950744
 10
568.6997585695
 20
743.9574950744
 10
571.1718945245
 20
744.3490429441
 10
573.4020405878
 20
745.4853591194
 10
575.1718945245
 20
747.2552130561
 10
576.3082106998
 20
749.4853591194
 10
576.6997585695
 20
751.9574950744
 10
568.6997585695
 20
751.9574950744
  0
HATCH
  5
236
100
AcDbEntity
  8
0
100
AcDbHatch
 62
7
  6
CONTINUOUS
 10
0.0
 20
0.0
 30
0.0
210
0.0
220
0.0
230
1.0
  2
SOLID
 70
1
 71
1
 91
1
 92
1
 93
7
 72
1
 10
568.6997585695
 20
751.9574950744
 11
568.6997585695
 21
743.9574950744
 72
1
 10
568.6997585695
 20
743.9574950744
 11
571.1718945245
 21
744.3490429441
 72
1
 10
571.1718945245
 20
744.3490429441
 11
573.4020405878
 21
745.4853591194
 72
1
 10
573.4020405878
 20
745.4853591194
 11
575.1718945245
 21
747.2552130561
 72
1
 10
575.1718945245
 20
747.2552130561
 11
576.3082106998
 21
749.4853591194
 72
1
 10
576.3082106998
 20
749.4853591194
 11
576.6997585695
 21
751.9574950744
 72
1
 10
576.6997585695
 20
751.9574950744
 11
568.6997585695
 21
751.9574950744
 97
1
330
235
 75
0
 76
1
 98
1
 10
0.0
 20
0.0
  0
LWPOLYLINE
  5
237
100
AcDbEntity
  8
0
100
AcDbPolyline
 62
7
  6
CONTINUOUS
 90
8
 70
0
 10
568.6997585695
 20
751.9574950744
 10
560.6997585695
 20
751.9574950744
 10
561.0913064391
 20
754.4296310294
 10
562.2276226145
 20
756.6597770928
 10
563.9974765511
 20
758.4296310294
 10
566.2276226145
 20
759.5659472048
 10
568.6997585695
 20
759.9574950744
 10
568.6997585695
 20
751.9574950744
  0
HATCH
  5
238
100
AcDbEntity
  8
0
100
AcDbHatch
 62
7
  6
CONTINUOUS
 10
0.0
 20
0.0
 30
0.0
210
0.0
220
0.0
230
1.0
  2
SOLID
 70
1
 71
1
 91
1
 92
1
 93
7
 72
1
 10
568.6997585695
 20
751.9574950744
 11
560.6997585695
 21
751.9574950744
 72
1
 10
560.6997585695
 20
751.9574950744
 11
561.0913064391
 21
754.4296310294
 72
1
 10
561.0913064391
 20
754.4296310294
 11
562.2276226145
 21
756.6597770928
 72
1
 10
562.2276226145
 20
756.6597770928
 11
563.9974765511
 21
758.4296310294
 72
1
 10
563.9974765511
 20
758.4296310294
 11
566.2276226145
 21
759.5659472048
 72
1
 10
566.2276226145
 20
759.5659472048
 11
568.6997585695
 21
759.9574950744
 72
1
 10
568.6997585695
 20
759.9574950744
 11
568.6997585695
 21
751.9574950744
 97
1
330
237
 75
0
 76
1
 98
1
 10
0.0
 20
0.0
  0
ENDBLK
  5
239
100
AcDbEntity
  8
0
  6
BYBLOCK
 62
0
100
AcDbBlockEnd
  0
BLOCK
  5
23A
100
AcDbEntity
  8
0
100
AcDbBlockBegin
 62
2
  6
CONTINUOUS
  2
CG_3D_BL1
 70
64
 10
568.6473290808
 20
497.796521742
  3
CG_3D_BL1
  1

  0
ARC
  5
23B
100
AcDbEntity
  8
0
100
AcDbCircle
 62
7
  6
CONTINUOUS
 10
568.6473290808
 20
497.796521742
 40
8.0
100
AcDbArc
 50
90.0
 51
180.0
  0
ARC
  5
23C
100
AcDbEntity
  8
0
100
AcDbCircle
 62
7
  6
CONTINUOUS
 10
568.6473290808
 20
497.796521742
 40
8.0
100
AcDbArc
 50
180.0
 51
270.0
  0
ARC
  5
23D
100
AcDbEntity
  8
0
100
AcDbCircle
 62
7
  6
CONTINUOUS
 10
568.6473290808
 20
497.796521742
 40
8.0
100
AcDbArc
 50
270.0
 51
360.0
  0
ARC
  5
23E
100
AcDbEntity
  8
0
100
AcDbCircle
 62
7
  6
CONTINUOUS
 10
568.6473290808
 20
497.796521742
 40
8.0
100
AcDbArc
 50
0.0
 51
90.0
  0
LINE
  5
23F
100
AcDbEntity
  8
0
100
AcDbLine
 62
7
  6
CONTINUOUS
 10
568.6473290808
 20
497.796521742
 11
576.6473290808
 21
497.796521742
  0
LINE
  5
240
100
AcDbEntity
  8
0
100
AcDbLine
 62
7
  6
CONTINUOUS
 10
568.6473290808
 20
497.796521742
 11
568.6473290808
 21
489.796521742
  0
LINE
  5
241
100
AcDbEntity
  8
0
100
AcDbLine
 62
7
  6
CONTINUOUS
 10
560.6473290808
 20
497.796521742
 11
568.6473290808
 21
497.796521742
  0
LINE
  5
242
100
AcDbEntity
  8
0
100
AcDbLine
 62
7
  6
CONTINUOUS
 10
568.6473290808
 20
505.796521742
 11
568.6473290808
 21
497.796521742
  0
LINE
  5
243
100
AcDbEntity
  8
0
100
AcDbLine
 62
2
  6
CONTINUOUS
 10
568.6473290808
 20
497.7437964671
 11
568.7000543557
 21
497.796521742
  0
LWPOLYLINE
  5
244
100
AcDbEntity
  8
0
100
AcDbPolyline
 62
7
  6
CONTINUOUS
 90
8
 70
0
 10
568.6473290808
 20
497.796521742
 10
568.6473290808
 20
489.796521742
 10
571.1194650358
 20
490.1880696116
 10
573.3496110991
 20
491.324385787
 10
575.1194650358
 20
493.0942397237
 10
576.2557812111
 20
495.324385787
 10
576.6473290808
 20
497.796521742
 10
568.6473290808
 20
497.796521742
  0
HATCH
  5
245
100
AcDbEntity
  8
0
100
AcDbHatch
 62
7
  6
CONTINUOUS
 10
0.0
 20
0.0
 30
0.0
210
0.0
220
0.0
230
1.0
  2
SOLID
 70
1
 71
1
 91
1
 92
1
 93
7
 72
1
 10
568.6473290808
 20
497.796521742
 11
568.6473290808
 21
489.796521742
 72
1
 10
568.6473290808
 20
489.796521742
 11
571.1194650358
 21
490.1880696116
 72
1
 10
571.1194650358
 20
490.1880696116
 11
573.3496110991
 21
491.324385787
 72
1
 10
573.3496110991
 20
491.324385787
 11
575.1194650358
 21
493.0942397237
 72
1
 10
575.1194650358
 20
493.0942397237
 11
576.2557812111
 21
495.324385787
 72
1
 10
576.2557812111
 20
495.324385787
 11
576.6473290808
 21
497.796521742
 72
1
 10
576.6473290808
 20
497.796521742
 11
568.6473290808
 21
497.796521742
 97
1
330
244
 75
0
 76
1
 98
1
 10
0.0
 20
0.0
  0
LWPOLYLINE
  5
246
100
AcDbEntity
  8
0
100
AcDbPolyline
 62
7
  6
CONTINUOUS
 90
8
 70
0
 10
568.6473290808
 20
497.796521742
 10
560.6473290808
 20
497.796521742
 10
561.0388769504
 20
500.268657697
 10
562.1751931258
 20
502.4988037603
 10
563.9450470624
 20
504.268657697
 10
566.1751931258
 20
505.4049738724
 10
568.6473290808
 20
505.796521742
 10
568.6473290808
 20
497.796521742
  0
HATCH
  5
247
100
AcDbEntity
  8
0
100
AcDbHatch
 62
7
  6
CONTINUOUS
 10
0.0
 20
0.0
 30
0.0
210
0.0
220
0.0
230
1.0
  2
SOLID
 70
1
 71
1
 91
1
 92
1
 93
7
 72
1
 10
568.6473290808
 20
497.796521742
 11
560.6473290808
 21
497.796521742
 72
1
 10
560.6473290808
 20
497.796521742
 11
561.0388769504
 21
500.268657697
 72
1
 10
561.0388769504
 20
500.268657697
 11
562.1751931258
 21
502.4988037603
 72
1
 10
562.1751931258
 20
502.4988037603
 11
563.9450470624
 21
504.268657697
 72
1
 10
563.9450470624
 20
504.268657697
 11
566.1751931258
 21
505.4049738724
 72
1
 10
566.1751931258
 20
505.4049738724
 11
568.6473290808
 21
505.796521742
 72
1
 10
568.6473290808
 20
505.796521742
 11
568.6473290808
 21
497.796521742
 97
1
330
246
 75
0
 76
1
 98
1
 10
0.0
 20
0.0
  0
ENDBLK
  5
248
100
AcDbEntity
  8
0
  6
BYBLOCK
 62
0
100
AcDbBlockEnd
  0
BLOCK
  5
249
100
AcDbEntity
  8
0
100
AcDbBlockBegin
 62
2
  6
CONTINUOUS
  2
CG_3D_BL0
 70
64
 10
132.9016323432
 20
1013.2060883814
  3
CG_3D_BL0
  1

  0
ARC
  5
24A
100
AcDbEntity
  8
0
100
AcDbCircle
 62
7
  6
CONTINUOUS
 10
132.9016323432
 20
1013.2060883814
 40
6.5
100
AcDbArc
 50
90.0
 51
180.0
  0
ARC
  5
24B
100
AcDbEntity
  8
0
100
AcDbCircle
 62
7
  6
CONTINUOUS
 10
132.9016323432
 20
1013.2060883814
 40
6.5
100
AcDbArc
 50
180.0
 51
270.0
  0
ARC
  5
24C
100
AcDbEntity
  8
0
100
AcDbCircle
 62
7
  6
CONTINUOUS
 10
132.9016323432
 20
1013.2060883814
 40
6.5
100
AcDbArc
 50
270.0
 51
360.0
  0
ARC
  5
24D
100
AcDbEntity
  8
0
100
AcDbCircle
 62
7
  6
CONTINUOUS
 10
132.9016323432
 20
1013.2060883814
 40
6.5
100
AcDbArc
 50
0.0
 51
90.0
  0
LINE
  5
24E
100
AcDbEntity
  8
0
100
AcDbLine
 62
7
  6
CONTINUOUS
 10
132.9016323432
 20
1013.2060883814
 11
139.4016323432
 21
1013.2060883814
  0
LINE
  5
24F
100
AcDbEntity
  8
0
100
AcDbLine
 62
7
  6
CONTINUOUS
 10
132.9016323432
 20
1013.2060883814
 11
132.9016323432
 21
1006.7060883814
  0
LINE
  5
250
100
AcDbEntity
  8
0
100
AcDbLine
 62
7
  6
CONTINUOUS
 10
126.4016323432
 20
1013.2060883814
 11
132.9016323432
 21
1013.2060883814
  0
LINE
  5
251
100
AcDbEntity
  8
0
100
AcDbLine
 62
7
  6
CONTINUOUS
 10
132.9016323432
 20
1019.7060883814
 11
132.9016323432
 21
1013.2060883814
  0
LINE
  5
252
100
AcDbEntity
  8
0
100
AcDbLine
 62
2
  6
CONTINUOUS
 10
132.9016323432
 20
1013.1632490956
 11
132.944471629
 21
1013.2060883814
  0
LWPOLYLINE
  5
253
100
AcDbEntity
  8
0
100
AcDbPolyline
 62
7
  6
CONTINUOUS
 90
8
 70
0
 10
132.9016323432
 20
1013.2060883814
 10
132.9016323432
 20
1006.7060883814
 10
134.9102428066
 20
1007.0242210255
 10
136.7222364831
 20
1007.947477918
 10
138.1602428066
 20
1009.3854842415
 10
139.0834996991
 20
1011.197477918
 10
139.4016323432
 20
1013.2060883814
 10
132.9016323432
 20
1013.2060883814
  0
HATCH
  5
254
100
AcDbEntity
  8
0
100
AcDbHatch
 62
7
  6
CONTINUOUS
 10
0.0
 20
0.0
 30
0.0
210
0.0
220
0.0
230
1.0
  2
SOLID
 70
1
 71
1
 91
1
 92
1
 93
7
 72
1
 10
132.9016323432
 20
1013.2060883814
 11
132.9016323432
 21
1006.7060883814
 72
1
 10
132.9016323432
 20
1006.7060883814
 11
134.9102428066
 21
1007.0242210255
 72
1
 10
134.9102428066
 20
1007.0242210255
 11
136.7222364831
 21
1007.947477918
 72
1
 10
136.7222364831
 20
1007.947477918
 11
138.1602428066
 21
1009.3854842415
 72
1
 10
138.1602428066
 20
1009.3854842415
 11
139.0834996991
 21
1011.197477918
 72
1
 10
139.0834996991
 20
1011.197477918
 11
139.4016323432
 21
1013.2060883814
 72
1
 10
139.4016323432
 20
1013.2060883814
 11
132.9016323432
 21
1013.2060883814
 97
1
330
253
 75
0
 76
1
 98
1
 10
0.0
 20
0.0
  0
LWPOLYLINE
  5
255
100
AcDbEntity
  8
0
100
AcDbPolyline
 62
7
  6
CONTINUOUS
 90
8
 70
0
 10
132.9016323432
 20
1013.2060883814
 10
126.4016323432
 20
1013.2060883814
 10
126.7197649873
 20
1015.2146988449
 10
127.6430218797
 20
1017.0266925213
 10
129.0810282033
 20
1018.4646988449
 10
130.8930218797
 20
1019.3879557374
 10
132.9016323432
 20
1019.7060883814
 10
132.9016323432
 20
1013.2060883814
  0
HATCH
  5
256
100
AcDbEntity
  8
0
100
AcDbHatch
 62
7
  6
CONTINUOUS
 10
0.0
 20
0.0
 30
0.0
210
0.0
220
0.0
230
1.0
  2
SOLID
 70
1
 71
1
 91
1
 92
1
 93
7
 72
1
 10
132.9016323432
 20
1013.2060883814
 11
126.4016323432
 21
1013.2060883814
 72
1
 10
126.4016323432
 20
1013.2060883814
 11
126.7197649873
 21
1015.2146988449
 72
1
 10
126.7197649873
 20
1015.2146988449
 11
127.6430218797
 21
1017.0266925213
 72
1
 10
127.6430218797
 20
1017.0266925213
 11
129.0810282033
 21
1018.4646988449
 72
1
 10
129.0810282033
 20
1018.4646988449
 11
130.8930218797
 21
1019.3879557374
 72
1
 10
130.8930218797
 20
1019.3879557374
 11
132.9016323432
 21
1019.7060883814
 72
1
 10
132.9016323432
 20
1019.7060883814
 11
132.9016323432
 21
1013.2060883814
 97
1
330
255
 75
0
 76
1
 98
1
 10
0.0
 20
0.0
  0
ENDBLK
  5
257
100
AcDbEntity
  8
0
  6
BYBLOCK
 62
0
100
AcDbBlockEnd
  0
BLOCK
  5
258
100
AcDbEntity
  8
0
100
AcDbBlockBegin
  2
_FILLED
 70
64
 10
0.0
 20
0.0
  3
_FILLED
  1

  0
SOLID
  5
259
100
AcDbEntity
  8
0
  6
BYBLOCK
 62
0
100
AcDbTrace
 10
0.0
 20
0.0
 11
-1.0
 21
0.1275
 12
-1.0
 22
-0.1275
 13
-1.0
 23
-0.1275
  0
ENDBLK
  5
25A
100
AcDbEntity
  8
0
  6
BYBLOCK
 62
0
100
AcDbBlockEnd
  0
BLOCK
  5
25B
100
AcDbEntity
  8
0
100
AcDbBlockBegin
 62
2
  6
CONTINUOUS
  2
*D0
 70
65
 10
0.0
 20
0.0
  3
*D0
  1

  0
MTEXT
  5
25C
100
AcDbEntity
  8
0
100
AcDbMText
 62
2
  6
CONTINUOUS
  7
STANDARD
 71
2
 72
1
 10
236.4148325272
 20
692.5871452086
 30
0.0
 11
1.0
 21
0.0
 31
0.0
 73
2
 44
0.9
  1
33,0\P[1.30]
 40
9.144
 41
33.7206245353
  0
LINE
  5
25D
100
AcDbEntity
  8
0
100
AcDbLine
 62
2
  6
CONTINUOUS
 10
552.1776378587
 20
751.9526838773
 11
228.2018511145
 21
751.9526838773
  0
LINE
  5
25E
100
AcDbEntity
  8
0
100
AcDbLine
 62
2
  6
CONTINUOUS
 10
275.8373641304
 20
718.9944238989
 11
228.2018511145
 21
718.9944238989
  0
LINE
  5
25F
100
AcDbEntity
  8
0
100
AcDbLine
 62
2
  6
CONTINUOUS
 10
240.9018511145
 20
751.9526838773
 11
240.9018511145
 21
767.9526838773
  0
LINE
  5
260
100
AcDbEntity
  8
0
100
AcDbLine
 62
2
  6
CONTINUOUS
 10
240.9018511145
 20
718.9944238989
 11
240.9018511145
 21
697.1591452086
  0
INSERT
  5
261
100
AcDbEntity
  8
0
100
AcDbBlockReference
 62
2
  6
CONTINUOUS
  2
_FILLED
 10
240.9018511145
 20
751.9526838773
 41
8.0
 42
8.0
 43
8.0
 50
270.0
  0
INSERT
  5
262
100
AcDbEntity
  8
0
100
AcDbBlockReference
 62
2
  6
CONTINUOUS
  2
_FILLED
 10
240.9018511145
 20
718.9944238989
 41
8.0
 42
8.0
 43
8.0
 50
90.0
  0
ENDBLK
  5
263
100
AcDbEntity
  8
0
  6
BYBLOCK
 62
0
100
AcDbBlockEnd
  0
BLOCK
  5
264
100
AcDbEntity
  8
0
100
AcDbBlockBegin
 62
2
  6
CONTINUOUS
  2
*D1
 70
65
 10
0.0
 20
0.0
  3
*D1
  1

  0
MTEXT
  5
265
100
AcDbEntity
  8
0
100
AcDbMText
 62
2
  6
CONTINUOUS
  7
STANDARD
 71
2
 72
1
 10
407.4719131615
 20
695.9309829224
 30
0.0
 11
1.0
 21
0.0
 31
0.0
 73
2
 44
0.9
  1
291,5\P[11.48]
 40
9.144
 41
40.7910780669
  0
LINE
  5
266
100
AcDbEntity
  8
0
100
AcDbLine
 62
2
  6
CONTINUOUS
 10
277.1873641304
 20
717.6444238989
 11
277.1873641304
 21
678.6589829224
  0
LINE
  5
267
100
AcDbEntity
  8
0
100
AcDbLine
 62
2
  6
CONTINUOUS
 10
568.6877378587
 20
735.4425838773
 11
568.6877378587
 21
678.6589829224
  0
LINE
  5
268
100
AcDbEntity
  8
0
100
AcDbLine
 62
2
  6
CONTINUOUS
 10
277.1873641304
 20
691.3589829224
 11
386.9913927154
 21
691.3589829224
  0
LINE
  5
269
100
AcDbEntity
  8
0
100
AcDbLine
 62
2
  6
CONTINUOUS
 10
568.6877378587
 20
691.3589829224
 11
436.9264707823
 21
691.3589829224
  0
INSERT
  5
26A
100
AcDbEntity
  8
0
100
AcDbBlockReference
 62
2
  6
CONTINUOUS
  2
_FILLED
 10
277.1873641304
 20
691.3589829224
 41
8.0
 42
8.0
 43
8.0
 50
180.0
  0
INSERT
  5
26B
100
AcDbEntity
  8
0
100
AcDbBlockReference
 62
2
  6
CONTINUOUS
  2
_FILLED
 10
568.6877378587
 20
691.3589829224
 41
8.0
 42
8.0
 43
8.0
  0
ENDBLK
  5
26C
100
AcDbEntity
  8
0
  6
BYBLOCK
 62
0
100
AcDbBlockEnd
  0
BLOCK
  5
26D
100
AcDbEntity
  8
0
100
AcDbBlockBegin
 62
2
  6
CONTINUOUS
  2
*D2
 70
65
 10
0.0
 20
0.0
  3
*D2
  1

  0
MTEXT
  5
26E
100
AcDbEntity
  8
0
100
AcDbMText
 62
2
  6
CONTINUOUS
  7
STANDARD
 71
2
 72
1
 10
249.5150543201
 20
463.4827927766
 30
0.0
 11
1.0
 21
0.0
 31
0.0
 73
2
 44
0.9
  1
12,2\P[.48]
 40
9.144
 41
26.6501710037
  0
LINE
  5
26F
100
AcDbEntity
  8
0
100
AcDbLine
 62
2
  6
CONTINUOUS
 10
552.1776378587
 20
497.8452845552
 11
237.7668461417
 21
497.8452845552
  0
LINE
  5
270
100
AcDbEntity
  8
0
100
AcDbLine
 62
2
  6
CONTINUOUS
 10
275.8373641304
 20
485.6198567417
 11
237.7668461417
 21
485.6198567417
  0
LINE
  5
271
100
AcDbEntity
  8
0
100
AcDbLine
 62
2
  6
CONTINUOUS
 10
250.4668461417
 20
497.8452845552
 11
250.4668461417
 21
513.8452845552
  0
LINE
  5
272
100
AcDbEntity
  8
0
100
AcDbLine
 62
2
  6
CONTINUOUS
 10
250.4668461417
 20
485.6198567417
 11
250.4668461417
 21
468.0547927766
  0
INSERT
  5
273
100
AcDbEntity
  8
0
100
AcDbBlockReference
 62
2
  6
CONTINUOUS
  2
_FILLED
 10
250.4668461417
 20
497.8452845552
 41
8.0
 42
8.0
 43
8.0
 50
270.0
  0
INSERT
  5
274
100
AcDbEntity
  8
0
100
AcDbBlockReference
 62
2
  6
CONTINUOUS
  2
_FILLED
 10
250.4668461417
 20
485.6198567417
 41
8.0
 42
8.0
 43
8.0
 50
90.0
  0
ENDBLK
  5
275
100
AcDbEntity
  8
0
  6
BYBLOCK
 62
0
100
AcDbBlockEnd
  0
BLOCK
  5
276
100
AcDbEntity
  8
0
100
AcDbBlockBegin
 62
2
  6
CONTINUOUS
  2
*D3
 70
65
 10
0.0
 20
0.0
  3
*D3
  1

  0
MTEXT
  5
277
100
AcDbEntity
  8
0
100
AcDbMText
 62
2
  6
CONTINUOUS
  7
STANDARD
 71
2
 72
1
 10
1161.5435349569
 20
771.9471743913
 30
0.0
 11
1.0
 21
0.0
 31
0.0
 73
2
 44
0.9
  1
80,0{\ftxt;\W0.0001;\H0.0001;\~}{\ftxt;\W0.9814126394;\H9.144; }2X \P[3.15]
 40
9.144
 41
52.0766096654
  0
LINE
  5
278
100
AcDbEntity
  8
0
100
AcDbLine
 62
2
  6
CONTINUOUS
 10
1127.625251954
 20
718.9944238989
 11
1174.2435349569
 21
718.9944238989
  0
LINE
  5
279
100
AcDbEntity
  8
0
100
AcDbLine
 62
2
  6
CONTINUOUS
 10
1087.785351954
 20
798.9944238989
 11
1174.2435349569
 21
798.9944238989
  0
LINE
  5
27A
100
AcDbEntity
  8
0
100
AcDbLine
 62
2
  6
CONTINUOUS
 10
1161.5435349569
 20
718.9944238989
 11
1161.5435349569
 21
742.0336962402
  0
LINE
  5
27B
100
AcDbEntity
  8
0
100
AcDbLine
 62
2
  6
CONTINUOUS
 10
1161.5435349569
 20
798.9944238989
 11
1161.5435349569
 21
776.5191743913
  0
INSERT
  5
27C
100
AcDbEntity
  8
0
100
AcDbBlockReference
 62
2
  6
CONTINUOUS
  2
_FILLED
 10
1161.5435349569
 20
718.9944238989
 41
8.0
 42
8.0
 43
8.0
 50
270.0
  0
INSERT
  5
27D
100
AcDbEntity
  8
0
100
AcDbBlockReference
 62
2
  6
CONTINUOUS
  2
_FILLED
 10
1161.5435349569
 20
798.9944238989
 41
8.0
 42
8.0
 43
8.0
 50
90.0
  0
ENDBLK
  5
27E
100
AcDbEntity
  8
0
  6
BYBLOCK
 62
0
100
AcDbBlockEnd
  0
BLOCK
  5
27F
100
AcDbEntity
  8
0
100
AcDbBlockBegin
 62
2
  6
CONTINUOUS
  2
*D4
 70
65
 10
0.0
 20
0.0
  3
*D4
  1

  0
MTEXT
  5
280
100
AcDbEntity
  8
0
100
AcDbMText
 62
2
  6
CONTINUOUS
  7
STANDARD
 71
1
 72
1
 10
1144.0346864505
 20
854.739015186
 30
0.0
 11
1.0
 21
0.0
 31
0.0
 73
2
 44
0.9
  1
50,0{\ftxt;\W0.0001;\H0.0001;\~}{\ftxt;\W0.9814126394;\H9.144; }2X\P[1.97]
 40
9.144
 41
48.5413828996
  0
LINE
  5
281
100
AcDbEntity
  8
0
100
AcDbLine
 62
2
  6
CONTINUOUS
 10
1121.275251954
 20
801.1414575996
 11
1121.275251954
 21
862.867015186
  0
LINE
  5
282
100
AcDbEntity
  8
0
100
AcDbLine
 62
2
  6
CONTINUOUS
 10
1071.275251954
 20
815.5045238989
 11
1071.275251954
 21
862.867015186
  0
LINE
  5
283
100
AcDbEntity
  8
0
100
AcDbLine
 62
2
  6
CONTINUOUS
 10
1121.275251954
 20
850.167015186
 11
1139.4626864505
 21
850.167015186
  0
LINE
  5
284
100
AcDbEntity
  8
0
100
AcDbLine
 62
2
  6
CONTINUOUS
 10
1071.275251954
 20
850.167015186
 11
1055.275251954
 21
850.167015186
  0
INSERT
  5
285
100
AcDbEntity
  8
0
100
AcDbBlockReference
 62
2
  6
CONTINUOUS
  2
_FILLED
 10
1121.275251954
 20
850.167015186
 41
8.0
 42
8.0
 43
8.0
 50
180.0
  0
INSERT
  5
286
100
AcDbEntity
  8
0
100
AcDbBlockReference
 62
2
  6
CONTINUOUS
  2
_FILLED
 10
1071.275251954
 20
850.167015186
 41
8.0
 42
8.0
 43
8.0
  0
ENDBLK
  5
287
100
AcDbEntity
  8
0
  6
BYBLOCK
 62
0
100
AcDbBlockEnd
  0
BLOCK
  5
288
100
AcDbEntity
  8
0
100
AcDbBlockBegin
 62
2
  6
CONTINUOUS
  2
*D5
 70
65
 10
0.0
 20
0.0
  3
*D5
  1

  0
MTEXT
  5
289
100
AcDbEntity
  8
0
100
AcDbMText
 62
2
  6
CONTINUOUS
  7
TEXTSTYLE_4
 71
3
 72
1
 10
1023.2982168161
 20
822.5571569913
 30
0.0
 11
1.0
 21
0.0
 31
0.0
 73
2
 44
0.9
  1
{\fgdt;n}\fCentury Gothic;{\W0.8;8,3}{\W0.8;{\ftxt;\W0.0001;\H0.0001;\~}{\ftxt;\W0.9814126394;\H9.144; }2X}\P{\W0.8;[}{\W0.8;.33}{\W0.8;]}
 40
9.144
 41
53.662929368
  0
LINE
  5
28A
100
AcDbEntity
  8
0
100
AcDbLine
 62
2
  6
CONTINUOUS
 10
1068.0993803628
 20
801.6658167259
 11
1048.6982168161
 21
817.9851569913
  0
LINE
  5
28B
100
AcDbEntity
  8
0
100
AcDbLine
 62
2
  6
CONTINUOUS
 10
1048.6982168161
 20
817.9851569913
 11
1027.8702168161
 21
817.9851569913
  0
INSERT
  5
28C
100
AcDbEntity
  8
0
100
AcDbBlockReference
 62
2
  6
CONTINUOUS
  2
_FILLED
 10
1068.0993803628
 20
801.6658167259
 41
8.0
 42
8.0
 43
8.0
 50
319.9310417957
  0
ENDBLK
  5
28D
100
AcDbEntity
  8
0
  6
BYBLOCK
 62
0
100
AcDbBlockEnd
  0
BLOCK
  5
28E
100
AcDbEntity
  8
0
100
AcDbBlockBegin
 62
2
  6
CONTINUOUS
  2
*D6
 70
65
 10
0.0
 20
0.0
  3
*D6
  1

  0
MTEXT
  5
28F
100
AcDbEntity
  8
0
100
AcDbMText
 62
2
  6
CONTINUOUS
  7
STANDARD
 71
2
 72
1
 10
1085.2792347889
 20
462.0856755993
 30
0.0
 11
1.0
 21
0.0
 31
0.0
 73
2
 44
0.9
  1
100,8{\ftxt;\W0.0001;\H0.0001;\~}{\ftxt;\W0.2081784387;\H9.144; } 2X\P[3.97]
 40
9.144
 41
52.0766096654
  0
LINE
  5
290
100
AcDbEntity
  8
0
100
AcDbLine
 62
2
  6
CONTINUOUS
 10
1038.4929069423
 20
479.2698567417
 11
1038.4929069423
 21
444.8136755993
  0
LINE
  5
291
100
AcDbEntity
  8
0
100
AcDbLine
 62
2
  6
CONTINUOUS
 10
1139.289940643
 20
504.2698567417
 11
1139.289940643
 21
444.8136755993
  0
LINE
  5
292
100
AcDbEntity
  8
0
100
AcDbLine
 62
2
  6
CONTINUOUS
 10
1038.4929069423
 20
457.5136755993
 11
1054.6689299562
 21
457.5136755993
  0
LINE
  5
293
100
AcDbEntity
  8
0
100
AcDbLine
 62
2
  6
CONTINUOUS
 10
1139.289940643
 20
457.5136755993
 11
1115.8895396216
 21
457.5136755993
  0
INSERT
  5
294
100
AcDbEntity
  8
0
100
AcDbBlockReference
 62
2
  6
CONTINUOUS
  2
_FILLED
 10
1038.4929069423
 20
457.5136755993
 41
8.0
 42
8.0
 43
8.0
 50
180.0
  0
INSERT
  5
295
100
AcDbEntity
  8
0
100
AcDbBlockReference
 62
2
  6
CONTINUOUS
  2
_FILLED
 10
1139.289940643
 20
457.5136755993
 41
8.0
 42
8.0
 43
8.0
  0
ENDBLK
  5
296
100
AcDbEntity
  8
0
  6
BYBLOCK
 62
0
100
AcDbBlockEnd
  0
BLOCK
  5
297
100
AcDbEntity
  8
0
100
AcDbBlockBegin
 62
2
  6
CONTINUOUS
  2
*D7
 70
65
 10
0.0
 20
0.0
  3
*D7
  1

  0
MTEXT
  5
298
100
AcDbEntity
  8
0
100
AcDbMText
 62
2
  6
CONTINUOUS
  7
STANDARD
 71
2
 72
1
 10
995.0578580543
 20
528.6574051186
 30
0.0
 11
1.0
 21
0.0
 31
0.0
 73
2
 44
0.9
  1
62,5{\ftxt;\W0.0001;\H0.0001;\~}{\ftxt;\W0.9814126394;\H9.144; }2X\P[2.46]
 40
9.144
 41
48.5413828996
  0
LINE
  5
299
100
AcDbEntity
  8
0
100
AcDbLine
 62
2
  6
CONTINUOUS
 10
1112.1429069423
 20
548.1198567417
 11
982.3578580543
 21
548.1198567417
  0
LINE
  5
29A
100
AcDbEntity
  8
0
100
AcDbLine
 62
2
  6
CONTINUOUS
 10
1032.1429069423
 20
485.6198567417
 11
982.3578580543
 21
485.6198567417
  0
LINE
  5
29B
100
AcDbEntity
  8
0
100
AcDbLine
 62
2
  6
CONTINUOUS
 10
995.0578580543
 20
548.1198567417
 11
995.0578580543
 21
533.2294051186
  0
LINE
  5
29C
100
AcDbEntity
  8
0
100
AcDbLine
 62
2
  6
CONTINUOUS
 10
995.0578580543
 20
485.6198567417
 11
995.0578580543
 21
498.7439665283
  0
INSERT
  5
29D
100
AcDbEntity
  8
0
100
AcDbBlockReference
 62
2
  6
CONTINUOUS
  2
_FILLED
 10
995.0578580543
 20
548.1198567417
 41
8.0
 42
8.0
 43
8.0
 50
90.0
  0
INSERT
  5
29E
100
AcDbEntity
  8
0
100
AcDbBlockReference
 62
2
  6
CONTINUOUS
  2
_FILLED
 10
995.0578580543
 20
485.6198567417
 41
8.0
 42
8.0
 43
8.0
 50
270.0
  0
ENDBLK
  5
29F
100
AcDbEntity
  8
0
  6
BYBLOCK
 62
0
100
AcDbBlockEnd
  0
BLOCK
  5
2A0
100
AcDbEntity
  8
0
100
AcDbBlockBegin
 62
2
  6
CONTINUOUS
  2
*D8
 70
65
 10
0.0
 20
0.0
  3
*D8
  1

  0
MTEXT
  5
2A1
100
AcDbEntity
  8
0
100
AcDbMText
 62
2
  6
CONTINUOUS
  7
STANDARD
 71
2
 72
1
 10
239.361186717
 20
367.0393869565
 30
0.0
 11
1.0
 21
0.0
 31
0.0
 73
2
 44
0.9
  1
29,0\P[1.14]
 40
9.144
 41
33.7206245353
  0
LINE
  5
2A2
100
AcDbEntity
  8
0
100
AcDbLine
 62
2
  6
CONTINUOUS
 10
275.8373641304
 20
325.5109248837
 11
231.1482053043
 21
325.5109248837
  0
LINE
  5
2A3
100
AcDbEntity
  8
0
100
AcDbLine
 62
2
  6
CONTINUOUS
 10
347.5328310786
 20
296.5109248837
 11
231.1482053043
 21
296.5109248837
  0
LINE
  5
2A4
100
AcDbEntity
  8
0
100
AcDbLine
 62
2
  6
CONTINUOUS
 10
243.8482053043
 20
325.5109248837
 11
243.8482053043
 21
311.0109248837
  0
LINE
  5
2A5
100
AcDbEntity
  8
0
100
AcDbLine
 62
2
  6
CONTINUOUS
 10
243.8482053043
 20
311.0109248837
 11
243.8482053043
 21
337.1259493408
  0
LINE
  5
2A6
100
AcDbEntity
  8
0
100
AcDbLine
 62
2
  6
CONTINUOUS
 10
243.8482053043
 20
296.5109248837
 11
243.8482053043
 21
311.0109248837
  0
INSERT
  5
2A7
100
AcDbEntity
  8
0
100
AcDbBlockReference
 62
2
  6
CONTINUOUS
  2
_FILLED
 10
243.8482053043
 20
325.5109248837
 41
8.0
 42
8.0
 43
8.0
 50
90.0
  0
INSERT
  5
2A8
100
AcDbEntity
  8
0
100
AcDbBlockReference
 62
2
  6
CONTINUOUS
  2
_FILLED
 10
243.8482053043
 20
296.5109248837
 41
8.0
 42
8.0
 43
8.0
 50
270.0
  0
ENDBLK
  5
2A9
100
AcDbEntity
  8
0
  6
BYBLOCK
 62
0
100
AcDbBlockEnd
  0
BLOCK
  5
2AA
100
AcDbEntity
  8
0
100
AcDbBlockBegin
 62
2
  6
CONTINUOUS
  2
*D9
 70
65
 10
0.0
 20
0.0
  3
*D9
  1

  0
MTEXT
  5
2AB
100
AcDbEntity
  8
0
100
AcDbMText
 62
2
  6
CONTINUOUS
  7
STANDARD
 71
2
 72
1
 10
459.2233726475
 20
366.1290063666
 30
0.0
 11
1.0
 21
0.0
 31
0.0
 73
2
 44
0.9
  1
200,0{\ftxt;\W0.0001;\H0.0001;\~}{\ftxt;\W0.2081784387;\H9.144; } 2X\P[7.87]
 40
9.144
 41
52.0766096654
  0
LINE
  5
2AC
100
AcDbEntity
  8
0
100
AcDbLine
 62
2
  6
CONTINUOUS
 10
568.6873641304
 20
317.3648310057
 11
568.6873641304
 21
374.2570063666
  0
LINE
  5
2AD
100
AcDbEntity
  8
0
100
AcDbLine
 62
2
  6
CONTINUOUS
 10
368.6873641304
 20
317.6654579356
 11
368.6873641304
 21
374.2570063666
  0
LINE
  5
2AE
100
AcDbEntity
  8
0
100
AcDbLine
 62
2
  6
CONTINUOUS
 10
568.6873641304
 20
361.5570063666
 11
489.8336774803
 21
361.5570063666
  0
LINE
  5
2AF
100
AcDbEntity
  8
0
100
AcDbLine
 62
2
  6
CONTINUOUS
 10
368.6873641304
 20
361.5570063666
 11
428.6130678148
 21
361.5570063666
  0
INSERT
  5
2B0
100
AcDbEntity
  8
0
100
AcDbBlockReference
 62
2
  6
CONTINUOUS
  2
_FILLED
 10
568.6873641304
 20
361.5570063666
 41
8.0
 42
8.0
 43
8.0
  0
INSERT
  5
2B1
100
AcDbEntity
  8
0
100
AcDbBlockReference
 62
2
  6
CONTINUOUS
  2
_FILLED
 10
368.6873641304
 20
361.5570063666
 41
8.0
 42
8.0
 43
8.0
 50
180.0
  0
ENDBLK
  5
2B2
100
AcDbEntity
  8
0
  6
BYBLOCK
 62
0
100
AcDbBlockEnd
  0
BLOCK
  5
2B3
100
AcDbEntity
  8
0
100
AcDbBlockBegin
 62
2
  6
CONTINUOUS
  2
*D10
 70
65
 10
0.0
 20
0.0
  3
*D10
  1

  0
MTEXT
  5
2B4
100
AcDbEntity
  8
0
100
AcDbMText
 62
2
  6
CONTINUOUS
  7
STANDARD
 71
2
 72
1
 10
617.1970314126
 20
399.7252113043
 30
0.0
 11
1.0
 21
0.0
 31
0.0
 73
2
 44
0.9
  1
583,0\P[22.95]
 40
9.144
 41
40.7910780669
  0
LINE
  5
2B5
100
AcDbEntity
  8
0
100
AcDbLine
 62
2
  6
CONTINUOUS
 10
277.1873641304
 20
326.8609248837
 11
277.1873641304
 21
407.8532113043
  0
LINE
  5
2B6
100
AcDbEntity
  8
0
100
AcDbLine
 62
2
  6
CONTINUOUS
 10
860.1873641304
 20
326.8609248837
 11
860.1873641304
 21
407.8532113043
  0
LINE
  5
2B7
100
AcDbEntity
  8
0
100
AcDbLine
 62
2
  6
CONTINUOUS
 10
277.1873641304
 20
395.1532113043
 11
596.7165109665
 21
395.1532113043
  0
LINE
  5
2B8
100
AcDbEntity
  8
0
100
AcDbLine
 62
2
  6
CONTINUOUS
 10
860.1873641304
 20
395.1532113043
 11
646.6515890335
 21
395.1532113043
  0
INSERT
  5
2B9
100
AcDbEntity
  8
0
100
AcDbBlockReference
 62
2
  6
CONTINUOUS
  2
_FILLED
 10
277.1873641304
 20
395.1532113043
 41
8.0
 42
8.0
 43
8.0
 50
180.0
  0
INSERT
  5
2BA
100
AcDbEntity
  8
0
100
AcDbBlockReference
 62
2
  6
CONTINUOUS
  2
_FILLED
 10
860.1873641304
 20
395.1532113043
 41
8.0
 42
8.0
 43
8.0
  0
ENDBLK
  5
2BB
100
AcDbEntity
  8
0
  6
BYBLOCK
 62
0
100
AcDbBlockEnd
  0
BLOCK
  5
2BC
100
AcDbEntity
  8
0
100
AcDbBlockBegin
 62
2
  6
CONTINUOUS
  2
*D11
 70
65
 10
0.0
 20
0.0
  3
*D11
  1

  0
MTEXT
  5
2BD
100
AcDbEntity
  8
0
100
AcDbMText
 62
2
  6
CONTINUOUS
  7
STANDARD
 71
2
 72
1
 10
176.7821156213
 20
308.991485913
 30
0.0
 11
1.0
 21
0.0
 31
0.0
 73
2
 44
0.9
  1
58,0\P[2.28]
 40
9.144
 41
33.7206245353
  0
LINE
  5
2BE
100
AcDbEntity
  8
0
100
AcDbLine
 62
2
  6
CONTINUOUS
 10
275.8373641304
 20
325.5109248837
 11
168.5691342087
 21
325.5109248837
  0
LINE
  5
2BF
100
AcDbEntity
  8
0
100
AcDbLine
 62
2
  6
CONTINUOUS
 10
279.8373641304
 20
267.5109248837
 11
168.5691342087
 21
267.5109248837
  0
LINE
  5
2C0
100
AcDbEntity
  8
0
100
AcDbLine
 62
2
  6
CONTINUOUS
 10
181.2691342087
 20
325.5109248837
 11
181.2691342087
 21
313.563485913
  0
LINE
  5
2C1
100
AcDbEntity
  8
0
100
AcDbLine
 62
2
  6
CONTINUOUS
 10
181.2691342087
 20
267.5109248837
 11
181.2691342087
 21
279.0780506592
  0
INSERT
  5
2C2
100
AcDbEntity
  8
0
100
AcDbBlockReference
 62
2
  6
CONTINUOUS
  2
_FILLED
 10
181.2691342087
 20
325.5109248837
 41
8.0
 42
8.0
 43
8.0
 50
90.0
  0
INSERT
  5
2C3
100
AcDbEntity
  8
0
100
AcDbBlockReference
 62
2
  6
CONTINUOUS
  2
_FILLED
 10
181.2691342087
 20
267.5109248837
 41
8.0
 42
8.0
 43
8.0
 50
270.0
  0
ENDBLK
  5
2C4
100
AcDbEntity
  8
0
  6
BYBLOCK
 62
0
100
AcDbBlockEnd
  0
BLOCK
  5
2C5
100
AcDbEntity
  8
0
100
AcDbBlockBegin
 62
2
  6
CONTINUOUS
  2
*D12
 70
65
 10
0.0
 20
0.0
  3
*D12
  1

  0
MTEXT
  5
2C6
100
AcDbEntity
  8
0
100
AcDbMText
 62
2
  6
CONTINUOUS
  7
TEXTSTYLE_4
 71
1
 72
1
 10
636.708389776
 20
246.3333868035
 30
0.0
 11
1.0
 21
0.0
 31
0.0
 73
2
 44
0.9
  1
{\fgdt;n}\fCentury Gothic;{\W0.8;20,0}{\W0.8;{\ftxt;\W0.0001;\H0.0001;\~}{\ftxt;\W0.2081784387;\H9.144; } 3X}\P{\W0.8;[}{\W0.8;.79}{\W0.8;]}
 40
9.144
 41
57.1981561338
  0
LINE
  5
2C7
100
AcDbEntity
  8
0
100
AcDbLine
 62
2
  6
CONTINUOUS
 10
574.8301867965
 20
288.6200611989
 11
611.308389776
 21
241.7613868035
  0
LINE
  5
2C8
100
AcDbEntity
  8
0
100
AcDbLine
 62
2
  6
CONTINUOUS
 10
611.308389776
 20
241.7613868035
 11
632.136389776
 21
241.7613868035
  0
INSERT
  5
2C9
100
AcDbEntity
  8
0
100
AcDbBlockReference
 62
2
  6
CONTINUOUS
  2
_FILLED
 10
574.8301867965
 20
288.6200611989
 41
8.0
 42
8.0
 43
8.0
 50
127.8997869982
  0
ENDBLK
  5
2CA
100
AcDbEntity
  8
0
  6
BYBLOCK
 62
0
100
AcDbBlockEnd
  0
BLOCK
  5
2CB
100
AcDbEntity
  8
0
100
AcDbBlockBegin
 62
2
  6
CONTINUOUS
  2
*D13
 70
65
 10
0.0
 20
0.0
  3
*D13
  1

  0
MTEXT
  5
2CC
100
AcDbEntity
  8
0
100
AcDbMText
 62
2
  6
CONTINUOUS
  7
STANDARD
 71
1
 72
1
 10
306.4993963589
 20
209.1749884913
 30
0.0
 11
1.0
 21
0.0
 31
0.0
 73
2
 44
0.9
  1
6,0{\ftxt;\W0.0001;\H0.0001;\~}{\ftxt;\W0.9814126394;\H9.144; }2X\P[.24]
 40
9.144
 41
41.470929368
  0
LINE
  5
2CD
100
AcDbEntity
  8
0
100
AcDbLine
 62
2
  6
CONTINUOUS
 10
277.1873641304
 20
218.363891183
 11
277.1873641304
 21
191.9029884913
  0
LINE
  5
2CE
100
AcDbEntity
  8
0
100
AcDbLine
 62
2
  6
CONTINUOUS
 10
283.1873641304
 20
218.363891183
 11
283.1873641304
 21
191.9029884913
  0
LINE
  5
2CF
100
AcDbEntity
  8
0
100
AcDbLine
 62
2
  6
CONTINUOUS
 10
277.1873641304
 20
204.6029884913
 11
261.1873641304
 21
204.6029884913
  0
LINE
  5
2D0
100
AcDbEntity
  8
0
100
AcDbLine
 62
2
  6
CONTINUOUS
 10
283.1873641304
 20
204.6029884913
 11
301.9273963589
 21
204.6029884913
  0
INSERT
  5
2D1
100
AcDbEntity
  8
0
100
AcDbBlockReference
 62
2
  6
CONTINUOUS
  2
_FILLED
 10
277.1873641304
 20
204.6029884913
 41
8.0
 42
8.0
 43
8.0
  0
INSERT
  5
2D2
100
AcDbEntity
  8
0
100
AcDbBlockReference
 62
2
  6
CONTINUOUS
  2
_FILLED
 10
283.1873641304
 20
204.6029884913
 41
8.0
 42
8.0
 43
8.0
 50
180.0
  0
ENDBLK
  5
2D3
100
AcDbEntity
  8
0
  6
BYBLOCK
 62
0
100
AcDbBlockEnd
  0
BLOCK
  5
2D4
100
AcDbEntity
  8
0
100
AcDbBlockBegin
 62
2
  6
CONTINUOUS
  2
*D14
 70
65
 10
0.0
 20
0.0
  3
*D14
  1

  0
MTEXT
  5
2D5
100
AcDbEntity
  8
0
100
AcDbMText
 62
2
  6
CONTINUOUS
  7
STANDARD
 71
1
 72
1
 10
1138.8929926348
 20
697.5760232865
 30
0.0
 11
1.0
 21
0.0
 31
0.0
 73
2
 44
0.9
  1
22,0\P[.87]
 40
9.144
 41
26.6501710037
  0
LINE
  5
2D6
100
AcDbEntity
  8
0
100
AcDbLine
 62
2
  6
CONTINUOUS
 10
1121.275251954
 20
712.6444238989
 11
1121.275251954
 21
680.3040232865
  0
LINE
  5
2D7
100
AcDbEntity
  8
0
100
AcDbLine
 62
2
  6
CONTINUOUS
 10
1099.275251954
 20
717.6444238989
 11
1099.275251954
 21
680.3040232865
  0
LINE
  5
2D8
100
AcDbEntity
  8
0
100
AcDbLine
 62
2
  6
CONTINUOUS
 10
1121.275251954
 20
693.0040232865
 11
1110.275251954
 21
693.0040232865
  0
LINE
  5
2D9
100
AcDbEntity
  8
0
100
AcDbLine
 62
2
  6
CONTINUOUS
 10
1110.275251954
 20
693.0040232865
 11
1134.3209926348
 21
693.0040232865
  0
LINE
  5
2DA
100
AcDbEntity
  8
0
100
AcDbLine
 62
2
  6
CONTINUOUS
 10
1099.275251954
 20
693.0040232865
 11
1110.275251954
 21
693.0040232865
  0
INSERT
  5
2DB
100
AcDbEntity
  8
0
100
AcDbBlockReference
 62
2
  6
CONTINUOUS
  2
_FILLED
 10
1121.275251954
 20
693.0040232865
 41
8.0
 42
8.0
 43
8.0
  0
INSERT
  5
2DC
100
AcDbEntity
  8
0
100
AcDbBlockReference
 62
2
  6
CONTINUOUS
  2
_FILLED
 10
1099.275251954
 20
693.0040232865
 41
8.0
 42
8.0
 43
8.0
 50
180.0
  0
ENDBLK
  5
2DD
100
AcDbEntity
  8
0
  6
BYBLOCK
 62
0
100
AcDbBlockEnd
  0
ENDSEC
  0
SECTION
  2
ENTITIES
  0
MTEXT
  5
2DE
100
AcDbEntity
  8
0
100
AcDbMText
 62
2
  6
CONTINUOUS
  7
TEXTSTYLE_2
 71
1
 72
1
 10
908.9616186372
 20
63.8923724266
 30
0.0
 11
1.0
 21
0.0
 31
0.0
 73
2
 44
1.0000002
  1
DRAWN BY
 40
4.0
 41
29.1747211896
  0
MTEXT
  5
2DF
100
AcDbEntity
  8
0
100
AcDbMText
 62
2
  6
CONTINUOUS
  7
TEXTSTYLE_2
 71
1
 72
1
 10
909.0186536509
 20
45.9024195011
 30
0.0
 11
1.0
 21
0.0
 31
0.0
 73
2
 44
1.0000002
  1
MECH ENGINEER
 40
4.0
 41
44.7286245353
  0
MTEXT
  5
2E0
100
AcDbEntity
  8
0
100
AcDbMText
 62
2
  6
CONTINUOUS
  7
TEXTSTYLE_2
 71
1
 72
1
 10
788.8124246464
 20
56.3429189546
 30
0.0
 11
1.0
 21
0.0
 31
0.0
 73
2
 44
1.0000002
  1
DECIMALS          ANGLES
 40
5.92
 41
95.3802230483
  0
MTEXT
  5
2E1
100
AcDbEntity
  8
0
100
AcDbMText
 62
2
  6
CONTINUOUS
  7
TEXTSTYLE_2
 71
1
 72
1
 10
651.3209059061
 20
40.4701444964
 30
0.0
 11
1.0
 21
0.0
 31
0.0
 73
2
 44
1.0000002
  1
PROJECTION
 40
6.28
 41
53.9519702602
  0
MTEXT
  5
2E2
100
AcDbEntity
  8
0
100
AcDbMText
 62
2
  6
CONTINUOUS
  7
TEXTSTYLE_2
 71
2
 72
1
 10
705.8698055747
 20
64.5376893728
 30
0.0
 11
1.0
 21
0.0
 31
0.0
 73
2
 44
0.81
  1
UNLESS  OTHERWISE  SPECIFIED\PDIMENSIONS ARE IN MM [IN]
 40
5.92
 41
119.6764312268
  0
MTEXT
  5
2E3
100
AcDbEntity
  8
0
100
AcDbMText
 62
2
  6
CONTINUOUS
  7
TEXTSTYLE_2
 71
1
 72
1
 10
568.9149211299
 20
66.5708040424
 30
0.0
 11
1.0
 21
0.0
 31
0.0
 73
2
 44
1.0000002
  1
CAGE CODE
 40
5.291668
 41
45.7365356877
  0
MTEXT
  5
2E4
100
AcDbEntity
  8
0
100
AcDbMText
 62
2
  6
CONTINUOUS
  7
TEXTSTYLE_2
 71
1
 72
1
 10
576.3608321997
 20
57.6431794159
 30
0.0
 11
1.0
 21
0.0
 31
0.0
 73
2
 44
1.0000002
  1
00PW4
 40
7.408332
 41
33.2135627955
  0
MTEXT
  5
2E5
100
AcDbEntity
  8
0
100
AcDbMText
 62
2
  6
CONTINUOUS
  7
TEXTSTYLE_2
 71
1
 72
1
 10
196.1575178859
 20
46.5940069939
 30
0.0
 11
1.0
 21
0.0
 31
0.0
 73
2
 44
1.0000002
  1
1675 MACARTHUR BOULEVARD\PCOSTA MESA, CA 92626 USA
 40
6.096
 41
126.2257249071
  0
MTEXT
  5
2E6
100
AcDbEntity
  8
0
100
AcDbMText
 62
2
  6
CONTINUOUS
  7
TEXTSTYLE_2
 71
1
 72
1
 10
195.5919520639
 20
60.6748330172
 30
0.0
 11
1.0
 21
0.0
 31
0.0
 73
2
 44
1.0000002
  1
QSC, LLC
 40
10.16
 41
63.3772490706
  0
MTEXT
  5
2E7
100
AcDbEntity
  8
0
100
AcDbMText
 62
2
  6
CONTINUOUS
  7
TEXTSTYLE_2
 71
2
 72
1
 10
593.2683224413
 20
43.9841450818
 30
0.0
 11
1.0
 21
0.0
 31
0.0
 73
2
 44
1.0000002
  1
FORM
 40
5.2
 41
20.8966542751
  0
MTEXT
  5
2E8
100
AcDbEntity
  8
0
100
AcDbMText
 62
2
  6
CONTINUOUS
  7
TEXTSTYLE_2
 71
1
 72
1
 10
337.4130556513
 20
59.6093149325
 30
0.0
 11
1.0
 21
0.0
 31
0.0
 73
2
 44
1.0000002
  3
THIS DOCUMENT CONTAINS CONFIDENTIAL OR PROPRIETARY INFORMATION WHICH \PIS THE PROPERTY OF QSC, LLC, THAT MAY NOT BE DISCLOSED, REPRODUCED OR\P USED WITHOUT EXPRESS WRITTEN CONSENT FROM QSC, LLC. NO PORTION OF THIS \PDOCUMENT MAY BE REPRODUCED,REDISTR
  1
UBUTED, OR OTHERWISE DISCLOSED TO \P                        ANY THIRD PARTY WITHOUT QSC'S WRITTEN PERMISSION.
 40
3.6
 41
200.2483271375
  0
MTEXT
  5
2E9
100
AcDbEntity
  8
0
100
AcDbMText
 62
2
  6
CONTINUOUS
  7
TEXTSTYLE_2
 71
2
 72
1
 10
592.1604760117
 20
36.5615533129
 30
0.0
 11
1.0
 21
0.0
 31
0.0
 73
2
 44
1.0000002
  1
QOS40169 B
 40
6.8
 41
55.5881040892
  0
MTEXT
  5
2EA
100
AcDbEntity
  8
0
100
AcDbMText
 62
2
  6
CONTINUOUS
  7
TEXTSTYLE_2
 71
1
 72
1
 10
789.1734057814
 20
64.1785980347
 30
0.0
 11
1.0
 21
0.0
 31
0.0
 73
2
 44
1.2
  1
TOLERANCES ARE:
 40
5.92
 41
71.5021561338
  0
MTEXT
  5
2EB
100
AcDbEntity
  8
0
100
AcDbMText
 62
2
  6
CONTINUOUS
  7
TEXTSTYLE_2
 71
1
 72
1
 10
1015.1146303091
 20
63.8697325794
 30
0.0
 11
1.0
 21
0.0
 31
0.0
 73
2
 44
1.0000002
  1
TECH DIRECTOR
 40
4.0
 41
42.2007434944
  0
MTEXT
  5
2EC
100
AcDbEntity
  8
0
100
AcDbMText
 62
2
  6
CONTINUOUS
  7
TEXTSTYLE_2
 71
1
 72
1
 10
1014.6630469225
 20
45.8731441405
 30
0.0
 11
1.0
 21
0.0
 31
0.0
 73
2
 44
1.0000002
  1
MFG ENGINEER
 40
4.0
 41
40.9665427509
  0
MTEXT
  5
2ED
100
AcDbEntity
  8
0
100
AcDbMText
 62
2
  6
CONTINUOUS
  7
TEXTSTYLE_2
 71
1
 72
1
 10
1121.655165346
 20
63.8556107553
 30
0.0
 11
1.0
 21
0.0
 31
0.0
 73
2
 44
1.0000002
  1
REV BY
 40
4.0
 41
18.3345724907
  0
MTEXT
  5
2EE
100
AcDbEntity
  8
0
100
AcDbMText
 62
2
  6
CONTINUOUS
  7
TEXTSTYLE_2
 71
1
 72
1
 10
1121.6565865618
 20
45.8613813643
 30
0.0
 11
1.0
 21
0.0
 31
0.0
 73
2
 44
1.0000002
  1
REV DATE
 40
4.0
 41
25.4721189591
  0
MTEXT
  5
2EF
100
AcDbEntity
  8
0
100
AcDbMText
 62
2
  6
CONTINUOUS
  7
TEXTSTYLE_2
 71
1
 72
1
 10
1531.2608776974
 20
66.2231134639
 30
0.0
 11
1.0
 21
0.0
 31
0.0
 73
2
 44
1.0000002
  1
DRAWING NUMBER
 40
4.0
 41
51.2862453532
  0
MTEXT
  5
2F0
100
AcDbEntity
  8
0
100
AcDbMText
 62
2
  6
CONTINUOUS
  7
TEXTSTYLE_2
 71
1
 72
1
 10
1661.7765770227
 20
65.2368100712
 30
0.0
 11
1.0
 21
0.0
 31
0.0
 73
2
 44
1.0000002
  1
REV
 40
4.0
 41
10.2899628253
  0
MTEXT
  5
2F1
100
AcDbEntity
  8
0
100
AcDbMText
 62
2
  6
CONTINUOUS
  7
TEXTSTYLE_2
 71
1
 72
1
 10
1532.204961989
 20
38.247332783
 30
0.0
 11
1.0
 21
0.0
 31
0.0
 73
2
 44
1.0000002
  1
SCALE:  
 40
5.291668
 41
28.6222191078
  0
MTEXT
  5
2F2
100
AcDbEntity
  8
0
100
AcDbMText
 62
2
  6
CONTINUOUS
  7
TEXTSTYLE_2
 71
1
 72
1
 10
1635.0053329348
 20
38.3827360884
 30
0.0
 11
1.0
 21
0.0
 31
0.0
 73
2
 44
1.0000002
  1
SHEET:
 40
5.291668
 41
21.8158357323
  0
MTEXT
  5
2F3
100
AcDbEntity
  8
0
100
AcDbMText
 62
2
  6
CONTINUOUS
  7
TEXTSTYLE_3
 71
1
 72
1
 10
171.2789404097
 20
53.934777886
 30
0.0
 11
1.0
 21
0.0
 31
0.0
 73
2
 44
1.0000002
  1
TM
 40
2.28
 41
4.5854275093
  0
DIMENSION
  5
2F4
100
AcDbEntity
  8
0
100
AcDbDimension
 62
2
  6
CONTINUOUS
  2
*D0
 10
240.9018511145
 20
718.9944238989
 11
240.9018511145
 21
681.1571452086
 70
160
 71
2
 72
2
 41
0.9
 42
32.9582599784
  1
<>\P[]
  3
DIMSTYLE_1
100
AcDbAlignedDimension
 13
553.7651378587
 23
751.9526838773
 14
277.4248641304
 24
718.9944238989
 50
270.0
100
AcDbRotatedDimension
  0
DIMENSION
  5
2F5
100
AcDbEntity
  8
0
100
AcDbDimension
 62
2
  6
CONTINUOUS
  2
*D1
 10
568.6877378587
 20
691.3589829224
 11
411.9589317489
 21
684.5009829224
 70
160
 71
2
 72
2
 41
0.9
 42
291.5003737283
  1
<>\P[]
  3
DIMSTYLE_1
100
AcDbAlignedDimension
 13
277.1873641304
 23
719.2319238989
 14
568.6877378587
 24
737.0300838773
100
AcDbRotatedDimension
  0
DIMENSION
  5
2F6
100
AcDbEntity
  8
0
100
AcDbDimension
 62
2
  6
CONTINUOUS
  2
*D2
 10
250.4668461417
 20
485.6198567417
 11
250.4668461417
 21
452.0527927766
 70
160
 71
2
 72
2
 41
0.9
 42
12.2254278135
  1
<>\P[]
  3
DIMSTYLE_1
100
AcDbAlignedDimension
 13
553.7651378587
 23
497.8452845552
 14
277.4248641304
 24
485.6198567417
 50
270.0
100
AcDbRotatedDimension
  0
DIMENSION
  5
2F7
100
AcDbEntity
  8
0
100
AcDbDimension
 62
2
  6
CONTINUOUS
  2
*D3
 10
1161.5435349569
 20
798.9944238989
 11
1161.5435349569
 21
760.5171743913
 70
160
 71
2
 72
2
 41
0.9
 42
80.0
  1
<>2X \P[]
  3
DIMSTYLE_1
100
AcDbAlignedDimension
 13
1126.037751954
 23
718.9944238989
 14
1086.197851954
 24
798.9944238989
 50
90.0
100
AcDbRotatedDimension
  0
DIMENSION
  5
2F8
100
AcDbEntity
  8
0
100
AcDbDimension
 62
2
  6
CONTINUOUS
  2
*D4
 10
1071.275251954
 20
850.167015186
 11
1168.3053779003
 21
843.309015186
 70
160
 71
1
 72
2
 41
0.9
 42
50.0
  1
<>2X\P[]
  3
DIMSTYLE_1
100
AcDbAlignedDimension
 13
1121.275251954
 23
799.5539575996
 14
1071.275251954
 24
813.9170238989
 50
180.0
100
AcDbRotatedDimension
  0
DIMENSION
  5
2F9
100
AcDbEntity
  8
0
100
AcDbDimension
 62
2
  6
CONTINUOUS
  2
*D5
 10
1068.0993803628
 20
801.6658167259
 11
996.4667521321
 21
811.1271569913
 70
163
 71
3
 72
2
 41
0.9
 42
8.3
  1
%%c<>2X\P[]
  3
DIMSTYLE_2
100
AcDbDiametricDimension
 15
1074.4511235452
 25
796.3230310718
  0
DIMENSION
  5
2FA
100
AcDbEntity
  8
0
100
AcDbDimension
 62
2
  6
CONTINUOUS
  2
*D6
 10
1139.289940643
 20
457.5136755993
 11
1085.2792347889
 21
450.6556755993
 70
160
 71
2
 72
2
 41
0.9
 42
100.7970337007
  1
<> 2X\P[]
  3
DIMSTYLE_1
100
AcDbAlignedDimension
 13
1038.4929069423
 23
480.8573567417
 14
1139.289940643
 24
505.8573567417
100
AcDbRotatedDimension
  0
DIMENSION
  5
2FB
100
AcDbEntity
  8
0
100
AcDbDimension
 62
2
  6
CONTINUOUS
  2
*D7
 10
995.0578580543
 20
485.6198567417
 11
995.0578580543
 21
517.2274051186
 70
160
 71
2
 72
2
 41
0.9
 42
62.5
  1
<>2X\P[]
  3
DIMSTYLE_1
100
AcDbAlignedDimension
 13
1113.7304069423
 23
548.1198567417
 14
1033.7304069423
 24
485.6198567417
 50
270.0
100
AcDbRotatedDimension
  0
DIMENSION
  5
2FC
100
AcDbEntity
  8
0
100
AcDbDimension
 62
2
  6
CONTINUOUS
  2
*D8
 10
243.8482053043
 20
296.5109248837
 11
243.8482053043
 21
355.6093869565
 70
160
 71
2
 72
2
 41
0.9
 42
29.0
  1
<>\P[]
  3
DIMSTYLE_1
100
AcDbAlignedDimension
 13
277.4248641304
 23
325.5109248837
 14
349.1203310786
 24
296.5109248837
 50
270.0
100
AcDbRotatedDimension
  0
DIMENSION
  5
2FD
100
AcDbEntity
  8
0
100
AcDbDimension
 62
2
  6
CONTINUOUS
  2
*D9
 10
368.6873641304
 20
361.5570063666
 11
459.2233726475
 21
354.6990063666
 70
160
 71
2
 72
2
 41
0.9
 42
200.0
  1
<> 2X\P[]
  3
DIMSTYLE_1
100
AcDbAlignedDimension
 13
568.6873641304
 23
315.7773310057
 14
368.6873641304
 24
316.0779579356
 50
180.0
100
AcDbRotatedDimension
  0
DIMENSION
  5
2FE
100
AcDbEntity
  8
0
100
AcDbDimension
 62
2
  6
CONTINUOUS
  2
*D10
 10
860.1873641304
 20
395.1532113043
 11
621.68405
 21
388.2952113043
 70
160
 71
2
 72
2
 41
0.9
 42
583.0
  1
<>\P[]
  3
DIMSTYLE_1
100
AcDbAlignedDimension
 13
277.1873641304
 23
325.2734248837
 14
860.1873641304
 24
325.2734248837
100
AcDbRotatedDimension
  0
DIMENSION
  5
2FF
100
AcDbEntity
  8
0
100
AcDbDimension
 62
2
  6
CONTINUOUS
  2
*D11
 10
181.2691342087
 20
267.5109248837
 11
181.2691342087
 21
297.561485913
 70
160
 71
2
 72
2
 41
0.9
 42
58.0
  1
<>\P[]
  3
DIMSTYLE_1
100
AcDbAlignedDimension
 13
277.4248641304
 23
325.5109248837
 14
281.4248641304
 24
267.5109248837
 50
270.0
100
AcDbRotatedDimension
  0
DIMENSION
  5
300
100
AcDbEntity
  8
0
100
AcDbDimension
 62
2
  6
CONTINUOUS
  2
*D12
 10
574.8301867965
 20
288.6200611989
 11
665.3074678429
 21
234.9033868035
 70
163
 71
1
 72
2
 41
0.9
 42
20.0
  1
%%c<> 3X\P[]
  3
DIMSTYLE_2
100
AcDbDiametricDimension
 15
562.5445414643
 25
304.4017885686
  0
DIMENSION
  5
301
100
AcDbEntity
  8
0
100
AcDbDimension
 62
2
  6
CONTINUOUS
  2
*D13
 10
283.1873641304
 20
204.6029884913
 11
327.2348610429
 21
197.7449884913
 70
160
 71
1
 72
2
 41
0.9
 42
6.0
  1
<>2X\P[]
  3
DIMSTYLE_1
100
AcDbAlignedDimension
 13
277.1873641304
 23
219.951391183
 14
283.1873641304
 24
219.951391183
100
AcDbRotatedDimension
  0
DIMENSION
  5
302
100
AcDbEntity
  8
0
100
AcDbDimension
 62
2
  6
CONTINUOUS
  2
*D14
 10
1099.275251954
 20
693.0040232865
 11
1152.2180781366
 21
686.1460232865
 70
160
 71
1
 72
2
 41
0.9
 42
22.0
  1
<>\P[]
  3
DIMSTYLE_1
100
AcDbAlignedDimension
 13
1121.275251954
 23
714.2319238989
 14
1099.275251954
 24
719.2319238989
 50
180.0
100
AcDbRotatedDimension
  0
LINE
  5
303
100
AcDbEntity
  8
0
100
AcDbLine
 62
2
  6
CONTINUOUS
 10
1257.3289752462
 20
72.078746919
 11
1492.9289752462
 21
72.078746919
  0
LINE
  5
304
100
AcDbEntity
  8
0
100
AcDbLine
 62
2
  6
CONTINUOUS
 10
1257.3289752462
 20
72.078746919
 11
1257.3289752462
 21
-4.358753081
  0
LINE
  5
305
100
AcDbEntity
  8
0
100
AcDbLine
 62
2
  6
CONTINUOUS
 10
1257.3289752462
 20
-4.358753081
 11
1492.9289752462
 21
-4.358753081
  0
LINE
  5
306
100
AcDbEntity
  8
0
100
AcDbLine
 62
2
  6
CONTINUOUS
 10
1492.9289752462
 20
72.078746919
 11
1492.9289752462
 21
-4.358753081
  0
MTEXT
  5
307
100
AcDbEntity
  8
0
100
AcDbMText
 62
2
  6
CONTINUOUS
  7
TEXTSTYLE_2
 71
2
 72
1
 10
1375.1289752462
 20
50.793329829
 30
0.0
 11
1.0
 21
0.0
 31
0.0
 73
2
 44
0.99999996
  1
ACCESSORY, PL-LA12-PB, \PPULL BACK BAR
 40
12.7
 41
217.2691449814
  0
LINE
  5
308
100
AcDbEntity
  8
0
100
AcDbLine
 62
2
  6
CONTINUOUS
 10
1659.3653788375
 20
67.187082079
 11
1701.2153788375
 21
67.187082079
  0
LINE
  5
309
100
AcDbEntity
  8
0
100
AcDbLine
 62
2
  6
CONTINUOUS
 10
1659.3653788375
 20
67.187082079
 11
1659.3653788375
 21
42.787082079
  0
LINE
  5
30A
100
AcDbEntity
  8
0
100
AcDbLine
 62
2
  6
CONTINUOUS
 10
1659.3653788375
 20
42.787082079
 11
1701.2153788375
 21
42.787082079
  0
LINE
  5
30B
100
AcDbEntity
  8
0
100
AcDbLine
 62
2
  6
CONTINUOUS
 10
1701.2153788375
 20
67.187082079
 11
1701.2153788375
 21
42.787082079
  0
MTEXT
  5
30C
100
AcDbEntity
  8
0
100
AcDbMText
 62
2
  6
CONTINUOUS
  7
TEXTSTYLE_2
 71
2
 72
1
 10
1680.2903788375
 20
60.679582079
 30
0.0
 11
1.0
 21
0.0
 31
0.0
 73
2
 44
0.9
  1
A
 40
12.7
 41
13.0776951673
  0
LINE
  5
30D
100
AcDbEntity
  8
0
100
AcDbLine
 62
2
  6
CONTINUOUS
 10
1530.4974260922
 20
67.641222168
 11
1656.4974260922
 21
67.641222168
  0
LINE
  5
30E
100
AcDbEntity
  8
0
100
AcDbLine
 62
2
  6
CONTINUOUS
 10
1530.4974260922
 20
67.641222168
 11
1530.4974260922
 21
42.703722168
  0
LINE
  5
30F
100
AcDbEntity
  8
0
100
AcDbLine
 62
2
  6
CONTINUOUS
 10
1530.4974260922
 20
42.703722168
 11
1656.4974260922
 21
42.703722168
  0
LINE
  5
310
100
AcDbEntity
  8
0
100
AcDbLine
 62
2
  6
CONTINUOUS
 10
1656.4974260922
 20
67.641222168
 11
1656.4974260922
 21
42.703722168
  0
MTEXT
  5
311
100
AcDbEntity
  8
0
100
AcDbMText
 62
2
  6
CONTINUOUS
  7
TEXTSTYLE_2
 71
2
 72
1
 10
1593.4974260922
 20
59.016222168
 30
0.0
 11
1.0
 21
0.0
 31
0.0
 73
2
 44
0.9
  1
FG-901582-2D
 40
12.7
 41
117.7464684015
  0
LINE
  5
312
100
AcDbEntity
  8
0
100
AcDbLine
 62
2
  6
CONTINUOUS
 10
1530.7288520578
 20
41.5177978148
 11
1592.7288520578
 21
41.5177978148
  0
LINE
  5
313
100
AcDbEntity
  8
0
100
AcDbLine
 62
2
  6
CONTINUOUS
 10
1530.7288520578
 20
41.5177978148
 11
1530.7288520578
 21
29.1115478148
  0
LINE
  5
314
100
AcDbEntity
  8
0
100
AcDbLine
 62
2
  6
CONTINUOUS
 10
1530.7288520578
 20
29.1115478148
 11
1592.7288520578
 21
29.1115478148
  0
LINE
  5
315
100
AcDbEntity
  8
0
100
AcDbLine
 62
2
  6
CONTINUOUS
 10
1592.7288520578
 20
41.5177978148
 11
1592.7288520578
 21
29.1115478148
  0
MTEXT
  5
316
100
AcDbEntity
  8
0
100
AcDbMText
 62
2
  6
CONTINUOUS
  7
TEXTSTYLE_2
 71
1
 72
1
 10
1564.9788520578
 20
38.8706728148
 30
0.0
 11
1.0
 21
0.0
 31
0.0
 73
2
 44
0.9
  1
1:4
 40
7.112
 41
13.7481040892
  0
LINE
  5
317
100
AcDbEntity
  8
0
100
AcDbLine
 62
2
  6
CONTINUOUS
 10
774.2649723096
 20
72.0567472258
 11
894.4149723096
 21
72.0567472258
  0
LINE
  5
318
100
AcDbEntity
  8
0
100
AcDbLine
 62
2
  6
CONTINUOUS
 10
774.2649723096
 20
72.0567472258
 11
774.2649723096
 21
23.1504972258
  0
MTEXT
  5
319
100
AcDbEntity
  8
0
100
AcDbMText
 62
2
  6
CONTINUOUS
  7
TEXTSTYLE_2
 71
1
 72
1
 10
787.8649723096
 20
40.8692472258
 30
0.0
 11
1.0
 21
0.0
 31
0.0
 73
2
 44
0.9
  1
.X \fgdt;{\W1.0;{\fgdt;`}}\fCentury Gothic; 3.0 [.12]       \fgdt;{\W1.0;{\fgdt;`}}\fCentury Gothic;1\fgdt;{\W1.0;{\fgdt;~}}\P\fCentury Gothic;.XX \fgdt;{\W1.0;{\fgdt;`}}\fCentury Gothic; 
 40
6.35
 41
87.1295539033
  0
LINE
  5
31A
100
AcDbEntity
  8
0
100
AcDbLine
 62
2
  6
CONTINUOUS
 10
1632.2388290287
 20
41.0127845118
 11
1701.2388290287
 21
41.0127845118
  0
LINE
  5
31B
100
AcDbEntity
  8
0
100
AcDbLine
 62
2
  6
CONTINUOUS
 10
1632.2388290287
 20
41.0127845118
 11
1632.2388290287
 21
28.9815345118
  0
LINE
  5
31C
100
AcDbEntity
  8
0
100
AcDbLine
 62
2
  6
CONTINUOUS
 10
1632.2388290287
 20
28.9815345118
 11
1701.2388290287
 21
28.9815345118
  0
LINE
  5
31D
100
AcDbEntity
  8
0
100
AcDbLine
 62
2
  6
CONTINUOUS
 10
1701.2388290287
 20
41.0127845118
 11
1701.2388290287
 21
28.9815345118
  0
MTEXT
  5
31E
100
AcDbEntity
  8
0
100
AcDbMText
 62
2
  6
CONTINUOUS
  7
TEXTSTYLE_2
 71
2
 72
1
 10
1680.5388290287
 20
38.7013255118
 30
0.0
 11
1.0
 21
0.0
 31
0.0
 73
2
 44
0.9
  1
1 OF 1
 40
7.408332
 41
31.1755829888
  0
LINE
  5
31F
100
AcDbEntity
  8
0
100
AcDbLine
 62
2
  6
CONTINUOUS
 10
907.1555668628
 20
64.6516612072
 11
1009.1555668628
 21
64.6516612072
  0
LINE
  5
320
100
AcDbEntity
  8
0
100
AcDbLine
 62
2
  6
CONTINUOUS
 10
907.1555668628
 20
64.6516612072
 11
907.1555668628
 21
48.5579112072
  0
LINE
  5
321
100
AcDbEntity
  8
0
100
AcDbLine
 62
2
  6
CONTINUOUS
 10
907.1555668628
 20
48.5579112072
 11
1009.1555668628
 21
48.5579112072
  0
LINE
  5
322
100
AcDbEntity
  8
0
100
AcDbLine
 62
2
  6
CONTINUOUS
 10
1009.1555668628
 20
64.6516612072
 11
1009.1555668628
 21
48.5579112072
  0
MTEXT
  5
323
100
AcDbEntity
  8
0
100
AcDbMText
 62
2
  6
CONTINUOUS
  7
TEXTSTYLE_2
 71
1
 72
1
 10
907.4055668628
 20
56.5610362072
 30
0.0
 11
1.0
 21
0.0
 31
0.0
 73
2
 44
0.9
  1
 M. DAVILA
 40
6.35
 41
47.4715613383
  0
LINE
  5
324
100
AcDbEntity
  8
0
100
AcDbLine
 62
2
  6
CONTINUOUS
 10
907.2626340036
 20
46.557446053
 11
1009.2626340036
 21
46.557446053
  0
LINE
  5
325
100
AcDbEntity
  8
0
100
AcDbLine
 62
2
  6
CONTINUOUS
 10
907.2626340036
 20
46.557446053
 11
907.2626340036
 21
30.463696053
  0
LINE
  5
326
100
AcDbEntity
  8
0
100
AcDbLine
 62
2
  6
CONTINUOUS
 10
907.2626340036
 20
30.463696053
 11
1009.2626340036
 21
30.463696053
  0
LINE
  5
327
100
AcDbEntity
  8
0
100
AcDbLine
 62
2
  6
CONTINUOUS
 10
1009.2626340036
 20
46.557446053
 11
1009.2626340036
 21
30.463696053
  0
MTEXT
  5
328
100
AcDbEntity
  8
0
100
AcDbMText
 62
2
  6
CONTINUOUS
  7
TEXTSTYLE_2
 71
1
 72
1
 10
907.5126340036
 20
38.466821053
 30
0.0
 11
1.0
 21
0.0
 31
0.0
 73
2
 44
0.9
  1
 B. HAWKINS
 40
6.35
 41
51.7206319703
  0
LINE
  5
329
100
AcDbEntity
  8
0
100
AcDbLine
 62
2
  6
CONTINUOUS
 10
1012.854522913
 20
64.5698414628
 11
1114.854522913
 21
64.5698414628
  0
LINE
  5
32A
100
AcDbEntity
  8
0
100
AcDbLine
 62
2
  6
CONTINUOUS
 10
1012.854522913
 20
64.5698414628
 11
1012.854522913
 21
48.4760914628
  0
LINE
  5
32B
100
AcDbEntity
  8
0
100
AcDbLine
 62
2
  6
CONTINUOUS
 10
1012.854522913
 20
48.4760914628
 11
1114.854522913
 21
48.4760914628
  0
LINE
  5
32C
100
AcDbEntity
  8
0
100
AcDbLine
 62
2
  6
CONTINUOUS
 10
1114.854522913
 20
64.5698414628
 11
1114.854522913
 21
48.4760914628
  0
MTEXT
  5
32D
100
AcDbEntity
  8
0
100
AcDbMText
 62
2
  6
CONTINUOUS
  7
TEXTSTYLE_2
 71
1
 72
1
 10
1013.104522913
 20
56.4792164628
 30
0.0
 11
1.0
 21
0.0
 31
0.0
 73
2
 44
0.9
  1
 R. VAUCHER
 40
6.35
 41
54.6713754647
  0
LINE
  5
32E
100
AcDbEntity
  8
0
100
AcDbLine
 62
2
  6
CONTINUOUS
 10
1012.8137536003
 20
46.5034488113
 11
1114.8137536003
 21
46.5034488113
  0
LINE
  5
32F
100
AcDbEntity
  8
0
100
AcDbLine
 62
2
  6
CONTINUOUS
 10
1012.8137536003
 20
46.5034488113
 11
1012.8137536003
 21
30.4096988113
  0
LINE
  5
330
100
AcDbEntity
  8
0
100
AcDbLine
 62
2
  6
CONTINUOUS
 10
1012.8137536003
 20
30.4096988113
 11
1114.8137536003
 21
30.4096988113
  0
LINE
  5
331
100
AcDbEntity
  8
0
100
AcDbLine
 62
2
  6
CONTINUOUS
 10
1114.8137536003
 20
46.5034488113
 11
1114.8137536003
 21
30.4096988113
  0
MTEXT
  5
332
100
AcDbEntity
  8
0
100
AcDbMText
 62
2
  6
CONTINUOUS
  7
TEXTSTYLE_2
 71
1
 72
1
 10
1013.0637536003
 20
38.4128238113
 30
0.0
 11
1.0
 21
0.0
 31
0.0
 73
2
 44
0.9
  1
 A. TRAN
 40
6.35
 41
36.1407063197
  0
LINE
  5
333
100
AcDbEntity
  8
0
100
AcDbLine
 62
2
  6
CONTINUOUS
 10
1120.2153180921
 20
64.6591592838
 11
1222.2153180921
 21
64.6591592838
  0
LINE
  5
334
100
AcDbEntity
  8
0
100
AcDbLine
 62
2
  6
CONTINUOUS
 10
1120.2153180921
 20
64.6591592838
 11
1120.2153180921
 21
48.5654092838
  0
LINE
  5
335
100
AcDbEntity
  8
0
100
AcDbLine
 62
2
  6
CONTINUOUS
 10
1120.2153180921
 20
48.5654092838
 11
1222.2153180921
 21
48.5654092838
  0
LINE
  5
336
100
AcDbEntity
  8
0
100
AcDbLine
 62
2
  6
CONTINUOUS
 10
1222.2153180921
 20
64.6591592838
 11
1222.2153180921
 21
48.5654092838
  0
MTEXT
  5
337
100
AcDbEntity
  8
0
100
AcDbMText
 62
2
  6
CONTINUOUS
  7
TEXTSTYLE_2
 71
1
 72
1
 10
1120.4653180921
 20
56.5685342838
 30
0.0
 11
1.0
 21
0.0
 31
0.0
 73
2
 44
0.9
  1
 MD
 40
6.35
 41
17.1851301115
  0
LINE
  5
338
100
AcDbEntity
  8
0
100
AcDbLine
 62
2
  6
CONTINUOUS
 10
1119.8930635233
 20
46.5837896906
 11
1221.8930635233
 21
46.5837896906
  0
LINE
  5
339
100
AcDbEntity
  8
0
100
AcDbLine
 62
2
  6
CONTINUOUS
 10
1119.8930635233
 20
46.5837896906
 11
1119.8930635233
 21
30.4900396906
  0
LINE
  5
33A
100
AcDbEntity
  8
0
100
AcDbLine
 62
2
  6
CONTINUOUS
 10
1119.8930635233
 20
30.4900396906
 11
1221.8930635233
 21
30.4900396906
  0
LINE
  5
33B
100
AcDbEntity
  8
0
100
AcDbLine
 62
2
  6
CONTINUOUS
 10
1221.8930635233
 20
46.5837896906
 11
1221.8930635233
 21
30.4900396906
  0
MTEXT
  5
33C
100
AcDbEntity
  8
0
100
AcDbMText
 62
2
  6
CONTINUOUS
  7
TEXTSTYLE_2
 71
1
 72
1
 10
1120.1430635233
 20
38.4931646906
 30
0.0
 11
1.0
 21
0.0
 31
0.0
 73
2
 44
0.9
  1
 19-JAN-2024
 40
6.35
 41
55.1671003717
  0
MTEXT
  5
33D
100
AcDbEntity
  8
0
100
AcDbMText
 62
2
  6
CONTINUOUS
  7
TEXTSTYLE_2
 71
1
 72
1
 10
1665.0929545215
 20
38.7716541509
 30
0.0
 11
1.0
 21
0.0
 31
0.0
 73
2
 44
0.9
  1
1 OF 1
 40
7.408332
 41
31.1755829888
  0
MTEXT
  5
33E
100
AcDbEntity
  8
0
100
AcDbMText
 62
2
  6
CONTINUOUS
  7
STANDARD
 71
1
 72
1
 10
39.4963033393
 20
1072.419877903
 30
0.0
 11
1.0
 21
0.0
 31
0.0
 73
2
 44
0.9
  1
NOTES: UNLESS OTHERWISE SPECIFIED\P \P1.      NET WEIGHT APPROX. 2.08 KG [5 LBS]. \P \P2.      SYMBOL      INDICATES CENTER OF GRAVITY.\P \P3.      PARTS ARE SYMMETRICAL ABOUT CENTER LINES\P         UNLESS OTHERWISE NOTED. 
 40
9.144
 41
315.5529814126
  0
MTEXT
  5
33F
100
AcDbEntity
  8
0
100
AcDbMText
 62
2
  6
CONTINUOUS
  7
TEXTSTYLE_4
 71
1
 72
1
 10
562.4619482408
 20
242.6196427061
 30
0.0
 11
1.0
 21
0.0
 31
0.0
 73
2
 44
0.9
  1
{\fgdt;q}
 40
9.144
 41
14.478
  0
INSERT
  5
340
100
AcDbEntity
  8
0
100
AcDbBlockReference
 62
2
  6
CONTINUOUS
  2
CG_3D_BL0
 10
132.9016323432
 20
1013.2060883814
  0
INSERT
  5
341
100
AcDbEntity
  8
0
100
AcDbBlockReference
 62
2
  6
CONTINUOUS
  2
CG_3D_BL1
 10
568.6473290808
 20
497.796521742
  0
INSERT
  5
342
100
AcDbEntity
  8
0
100
AcDbBlockReference
 62
2
  6
CONTINUOUS
  2
CG_3D_BL2
 10
568.6997585695
 20
751.9574950744
  0
LINE
  5
343
100
AcDbEntity
  8
0
100
AcDbLine
 62
7
  6
CONTINUOUS
 10
50.1905013589
 20
39.8429549364
 11
54.984666675
 21
37.1835878942
  0
LINE
  5
344
100
AcDbEntity
  8
0
100
AcDbLine
 62
7
  6
CONTINUOUS
 10
52.587584017
 20
42.2613694892
 11
57.2877460915
 21
39.6541468988
  0
LINE
  5
345
100
AcDbEntity
  8
0
100
AcDbLine
 62
7
  6
CONTINUOUS
 10
30.0503068695
 20
37.4956564757
 11
41.0251853135
 21
31.1593074517
  0
LINE
  5
346
100
AcDbEntity
  8
0
100
AcDbLine
 62
7
  6
CONTINUOUS
 10
34.0454446328
 20
40.6163422905
 11
41.7302096247
 21
36.1795411538
  0
LINE
  5
347
100
AcDbEntity
  8
0
100
AcDbLine
 62
7
  6
CONTINUOUS
 10
38.087584017
 20
43.4928005198
 11
42.2002258322
 21
41.1183656607
  0
LINE
  5
348
100
AcDbEntity
  8
0
100
AcDbLine
 62
7
  6
CONTINUOUS
 10
47.4879081661
 20
50.2769001173
 11
43.3752663508
 21
52.6513349764
  0
LINE
  5
349
100
AcDbEntity
  8
0
100
AcDbLine
 62
7
  6
CONTINUOUS
 10
51.5300475502
 20
53.1533583466
 11
43.8452825583
 21
57.5901594833
  0
LINE
  5
34A
100
AcDbEntity
  8
0
100
AcDbLine
 62
7
  6
CONTINUOUS
 10
55.5251853135
 20
56.2740441614
 11
44.5503068695
 21
62.6103931854
  0
LINE
  5
34B
100
AcDbEntity
  8
0
100
AcDbLine
 62
7
  6
CONTINUOUS
 10
28.2877460915
 20
53.2211993426
 11
28.2877460915
 21
40.5485012945
  0
LINE
  5
34C
100
AcDbEntity
  8
0
100
AcDbLine
 62
7
  6
CONTINUOUS
 10
32.9879081661
 20
51.3216514553
 11
32.9879081661
 21
42.4480491818
  0
LINE
  5
34D
100
AcDbEntity
  8
0
100
AcDbLine
 62
7
  6
CONTINUOUS
 10
37.5000637576
 20
49.2592851777
 11
37.5000637576
 21
44.5104154594
  0
LINE
  5
34E
100
AcDbEntity
  8
0
100
AcDbLine
 62
7
  6
CONTINUOUS
 10
48.0754284254
 20
44.5104154594
 11
48.0754284254
 21
49.2592851777
  0
LINE
  5
34F
100
AcDbEntity
  8
0
100
AcDbLine
 62
7
  6
CONTINUOUS
 10
52.587584017
 20
42.2613694892
 11
52.587584017
 21
51.3216514553
  0
LINE
  5
350
100
AcDbEntity
  8
0
100
AcDbLine
 62
7
  6
CONTINUOUS
 10
57.2877460915
 20
39.6541468988
 11
57.2877460915
 21
53.2211993426
  0
LINE
  5
351
100
AcDbEntity
  8
0
100
AcDbLine
 62
7
  6
CONTINUOUS
 10
41.0251853135
 20
62.6103931854
 11
30.0503068695
 21
56.2740441614
  0
LINE
  5
352
100
AcDbEntity
  8
0
100
AcDbLine
 62
7
  6
CONTINUOUS
 10
41.7302096247
 20
57.5901594833
 11
34.0454446328
 21
53.1533583466
  0
LINE
  5
353
100
AcDbEntity
  8
0
100
AcDbLine
 62
7
  6
CONTINUOUS
 10
42.2002258322
 20
52.6513349764
 11
38.087584017
 21
50.2769001173
  0
LINE
  5
354
100
AcDbEntity
  8
0
100
AcDbLine
 62
7
  6
CONTINUOUS
 10
43.3752663508
 20
41.1183656607
 11
47.4879081661
 21
43.4928005198
  0
LINE
  5
355
100
AcDbEntity
  8
0
100
AcDbLine
 62
7
  6
CONTINUOUS
 10
43.8452825583
 20
36.1795411538
 11
50.1905013589
 21
39.8429549364
  0
LINE
  5
356
100
AcDbEntity
  8
0
100
AcDbLine
 62
7
  6
CONTINUOUS
 10
44.5503068695
 20
31.1593074517
 11
54.984666675
 21
37.1835878942
  0
ARC
  5
357
100
AcDbEntity
  8
0
100
AcDbCircle
 62
7
  6
CONTINUOUS
 10
53.7626245356
 20
53.2211993426
 40
3.5251215559
100
AcDbArc
 50
0.0
 51
60.0
  0
ARC
  5
358
100
AcDbEntity
  8
0
100
AcDbCircle
 62
7
  6
CONTINUOUS
 10
42.7877460915
 20
59.5575483666
 40
3.5251215559
100
AcDbArc
 50
60.0
 51
120.0
  0
ARC
  5
359
100
AcDbEntity
  8
0
100
AcDbCircle
 62
7
  6
CONTINUOUS
 10
31.8128676474
 20
53.2211993426
 40
3.5251215559
100
AcDbArc
 50
120.0
 51
180.0
  0
ARC
  5
35A
100
AcDbEntity
  8
0
100
AcDbCircle
 62
7
  6
CONTINUOUS
 10
31.8128676474
 20
40.5485012945
 40
3.5251215559
100
AcDbArc
 50
180.0
 51
240.0
  0
ARC
  5
35B
100
AcDbEntity
  8
0
100
AcDbCircle
 62
7
  6
CONTINUOUS
 10
42.7877460915
 20
34.2121522705
 40
3.5251215559
100
AcDbArc
 50
240.0
 51
300.0
  0
ARC
  5
35C
100
AcDbEntity
  8
0
100
AcDbCircle
 62
7
  6
CONTINUOUS
 10
50.4725110834
 20
51.3216514553
 40
2.1150729335
100
AcDbArc
 50
0.0
 51
60.0
  0
ARC
  5
35D
100
AcDbEntity
  8
0
100
AcDbCircle
 62
7
  6
CONTINUOUS
 10
42.7877460915
 20
55.758452592
 40
2.1150729335
100
AcDbArc
 50
60.0
 51
120.0
  0
ARC
  5
35E
100
AcDbEntity
  8
0
100
AcDbCircle
 62
7
  6
CONTINUOUS
 10
35.1029810996
 20
51.3216514553
 40
2.1150729335
100
AcDbArc
 50
120.0
 51
180.0
  0
ARC
  5
35F
100
AcDbEntity
  8
0
100
AcDbCircle
 62
7
  6
CONTINUOUS
 10
35.1029810996
 20
42.4480491818
 40
2.1150729335
100
AcDbArc
 50
180.0
 51
240.0
  0
ARC
  5
360
100
AcDbEntity
  8
0
100
AcDbCircle
 62
7
  6
CONTINUOUS
 10
42.7877460915
 20
38.0112480451
 40
2.1150729335
100
AcDbArc
 50
240.0
 51
300.0
  0
ARC
  5
361
100
AcDbEntity
  8
0
100
AcDbCircle
 62
7
  6
CONTINUOUS
 10
42.7877460915
 20
42.1359806003
 40
1.1750405186
100
AcDbArc
 50
240.0
 51
300.0
  0
ARC
  5
362
100
AcDbEntity
  8
0
100
AcDbCircle
 62
7
  6
CONTINUOUS
 10
46.9003879067
 20
44.5104154594
 40
1.1750405186
100
AcDbArc
 50
300.0
 51
360.0
  0
ARC
  5
363
100
AcDbEntity
  8
0
100
AcDbCircle
 62
7
  6
CONTINUOUS
 10
46.9003879067
 20
49.2592851777
 40
1.1750405186
100
AcDbArc
 50
0.0
 51
60.0
  0
ARC
  5
364
100
AcDbEntity
  8
0
100
AcDbCircle
 62
7
  6
CONTINUOUS
 10
42.7877460915
 20
51.6337200368
 40
1.1750405186
100
AcDbArc
 50
60.0
 51
120.0
  0
ARC
  5
365
100
AcDbEntity
  8
0
100
AcDbCircle
 62
7
  6
CONTINUOUS
 10
38.6751042763
 20
49.2592851777
 40
1.1750405186
100
AcDbArc
 50
120.0
 51
180.0
  0
ARC
  5
366
100
AcDbEntity
  8
0
100
AcDbCircle
 62
7
  6
CONTINUOUS
 10
38.6751042763
 20
44.5104154594
 40
1.1750405186
100
AcDbArc
 50
180.0
 51
240.0
  0
HATCH
  5
367
100
AcDbEntity
  8
0
100
AcDbHatch
 62
7
  6
CONTINUOUS
 10
0.0
 20
0.0
 30
0.0
210
0.0
220
0.0
230
1.0
  2
XSEC0001
 70
1
 71
1
 91
2
 92
1
 93
24
 72
1
 10
54.984666675
 20
37.1835878942
 11
44.5503068695
 21
31.1593074517
 72
2
 10
42.7877460915
 20
34.2121522705
 40
3.5251215559
 50
-300.0
 51
-240.0
 73
0
 72
1
 10
41.0251853135
 20
31.1593074517
 11
30.0503068695
 21
37.4956564757
 72
2
 10
31.8128676474
 20
40.5485012945
 40
3.5251215559
 50
-240.0
 51
-180.0
 73
0
 72
1
 10
28.2877460915
 20
40.5485012945
 11
28.2877460915
 21
53.2211993426
 72
2
 10
31.8128676474
 20
53.2211993426
 40
3.5251215559
 50
-180.0
 51
-120.0
 73
0
 72
1
 10
30.0503068695
 20
56.2740441614
 11
41.0251853135
 21
62.6103931854
 72
2
 10
42.7877460915
 20
59.5575483666
 40
3.5251215559
 50
-120.0
 51
-60.0
 73
0
 72
1
 10
44.5503068695
 20
62.6103931854
 11
55.5251853135
 21
56.2740441614
 72
2
 10
53.7626245356
 20
53.2211993426
 40
3.5251215559
 50
-60.0
 51
0.0
 73
0
 72
1
 10
57.2877460915
 20
53.2211993426
 11
57.2877460915
 21
39.6541468988
 72
1
 10
57.2877460915
 20
39.6541468988
 11
52.587584017
 21
42.2613694892
 72
1
 10
52.587584017
 20
42.2613694892
 11
52.587584017
 21
51.3216514553
 72
2
 10
50.4725110834
 20
51.3216514553
 40
2.1150729335
 50
0.0
 51
60.0
 73
1
 72
1
 10
51.5300475502
 20
53.1533583466
 11
43.8452825583
 21
57.5901594833
 72
2
 10
42.7877460915
 20
55.758452592
 40
2.1150729335
 50
60.0
 51
120.0
 73
1
 72
1
 10
41.7302096247
 20
57.5901594833
 11
34.0454446328
 21
53.1533583466
 72
2
 10
35.1029810996
 20
51.3216514553
 40
2.1150729335
 50
120.0
 51
180.0
 73
1
 72
1
 10
32.9879081661
 20
51.3216514553
 11
32.9879081661
 21
42.4480491818
 72
2
 10
35.1029810996
 20
42.4480491818
 40
2.1150729335
 50
180.0
 51
240.0
 73
1
 72
1
 10
34.0454446328
 20
40.6163422905
 11
41.7302096247
 21
36.1795411538
 72
2
 10
42.7877460915
 20
38.0112480451
 40
2.1150729335
 50
240.0
 51
300.0
 73
1
 72
1
 10
43.8452825583
 20
36.1795411538
 11
50.1905013589
 21
39.8429549364
 72
1
 10
50.1905013589
 20
39.8429549364
 11
54.984666675
 21
37.1835878942
 97
36
330
343
330
344
330
345
330
346
330
347
330
348
330
349
330
34A
330
34B
330
34C
330
34D
330
34E
330
34F
330
350
330
351
330
352
330
353
330
354
330
355
330
356
330
357
330
358
330
359
330
35A
330
35B
330
35C
330
35D
330
35E
330
35F
330
360
330
361
330
362
330
363
330
364
330
365
330
366
 92
1
 93
12
 72
2
 10
42.7877460915
 20
42.1359806003
 40
1.1750405186
 50
240.0
 51
300.0
 73
1
 72
1
 10
43.3752663508
 20
41.1183656607
 11
47.4879081661
 21
43.4928005198
 72
2
 10
46.9003879067
 20
44.5104154594
 40
1.1750405186
 50
-60.0
 51
0.0
 73
1
 72
1
 10
48.0754284254
 20
44.5104154594
 11
48.0754284254
 21
49.2592851777
 72
2
 10
46.9003879067
 20
49.2592851777
 40
1.1750405186
 50
0.0
 51
60.0
 73
1
 72
1
 10
47.4879081661
 20
50.2769001173
 11
43.3752663508
 21
52.6513349764
 72
2
 10
42.7877460915
 20
51.6337200368
 40
1.1750405186
 50
60.0
 51
120.0
 73
1
 72
1
 10
42.2002258322
 20
52.6513349764
 11
38.087584017
 21
50.2769001173
 72
2
 10
38.6751042763
 20
49.2592851777
 40
1.1750405186
 50
120.0
 51
180.0
 73
1
 72
1
 10
37.5000637576
 20
49.2592851777
 11
37.5000637576
 21
44.5104154594
 72
2
 10
38.6751042763
 20
44.5104154594
 40
1.1750405186
 50
180.0
 51
240.0
 73
1
 72
1
 10
38.087584017
 20
43.4928005198
 11
42.2002258322
 21
41.1183656607
 97
36
330
343
330
344
330
345
330
346
330
347
330
348
330
349
330
34A
330
34B
330
34C
330
34D
330
34E
330
34F
330
350
330
351
330
352
330
353
330
354
330
355
330
356
330
357
330
358
330
359
330
35A
330
35B
330
35C
330
35D
330
35E
330
35F
330
360
330
361
330
362
330
363
330
364
330
365
330
366
 75
0
 76
1
 98
1
 10
0.0
 20
0.0
  0
LINE
  5
368
100
AcDbEntity
  8
0
100
AcDbLine
 62
7
  6
CONTINUOUS
 10
136.438475427
 20
45.2097535016
 11
126.8031431742
 21
53.9245126093
  0
LINE
  5
369
100
AcDbEntity
  8
0
100
AcDbLine
 62
7
  6
CONTINUOUS
 10
137.9425272909
 20
47.2502824634
 11
130.5632728338
 21
53.9245126093
  0
LINE
  5
36A
100
AcDbEntity
  8
0
100
AcDbLine
 62
7
  6
CONTINUOUS
 10
136.438475427
 20
45.2097535016
 11
136.438475427
 21
39.5420166612
  0
LINE
  5
36B
100
AcDbEntity
  8
0
100
AcDbLine
 62
7
  6
CONTINUOUS
 10
139.4465791547
 20
45.2097535016
 11
139.4465791547
 21
39.5420166612
  0
LINE
  5
36C
100
AcDbEntity
  8
0
100
AcDbLine
 62
7
  6
CONTINUOUS
 10
139.4465791547
 20
39.5420166612
 11
136.438475427
 21
39.5420166612
  0
LINE
  5
36D
100
AcDbEntity
  8
0
100
AcDbLine
 62
7
  6
CONTINUOUS
 10
130.5632728338
 20
53.9245126093
 11
126.8031431742
 21
53.9245126093
  0
LINE
  5
36E
100
AcDbEntity
  8
0
100
AcDbLine
 62
7
  6
CONTINUOUS
 10
145.3217817479
 20
53.9245126093
 11
149.0819114076
 21
53.9245126093
  0
LINE
  5
36F
100
AcDbEntity
  8
0
100
AcDbLine
 62
7
  6
CONTINUOUS
 10
137.9425272909
 20
47.2502824634
 11
145.3217817479
 21
53.9245126093
  0
LINE
  5
370
100
AcDbEntity
  8
0
100
AcDbLine
 62
7
  6
CONTINUOUS
 10
139.4465791547
 20
45.2097535016
 11
149.0819114076
 21
53.9245126093
  0
HATCH
  5
371
100
AcDbEntity
  8
0
100
AcDbHatch
 62
7
  6
CONTINUOUS
 10
0.0
 20
0.0
 30
0.0
210
0.0
220
0.0
230
1.0
  2
XSEC0005
 70
1
 71
1
 91
1
 92
1
 93
9
 72
1
 10
126.8031431742
 20
53.9245126093
 11
130.5632728338
 21
53.9245126093
 72
1
 10
130.5632728338
 20
53.9245126093
 11
137.9425272909
 21
47.2502824634
 72
1
 10
137.9425272909
 20
47.2502824634
 11
145.3217817479
 21
53.9245126093
 72
1
 10
145.3217817479
 20
53.9245126093
 11
149.0819114076
 21
53.9245126093
 72
1
 10
149.0819114076
 20
53.9245126093
 11
139.4465791547
 21
45.2097535016
 72
1
 10
139.4465791547
 20
45.2097535016
 11
139.4465791547
 21
39.5420166612
 72
1
 10
139.4465791547
 20
39.5420166612
 11
136.438475427
 21
39.5420166612
 72
1
 10
136.438475427
 20
39.5420166612
 11
136.438475427
 21
45.2097535016
 72
1
 10
136.438475427
 20
45.2097535016
 11
126.8031431742
 21
53.9245126093
 97
9
330
368
330
369
330
36A
330
36B
330
36C
330
36D
330
36E
330
36F
330
370
 75
0
 76
1
 98
1
 10
0.0
 20
0.0
  0
LINE
  5
372
100
AcDbEntity
  8
0
100
AcDbLine
 62
7
  6
CONTINUOUS
 10
70.6362063832
 20
43.3021463208
 11
70.6362063832
 21
50.1643829497
  0
LINE
  5
373
100
AcDbEntity
  8
0
100
AcDbLine
 62
7
  6
CONTINUOUS
 10
73.2212955242
 20
43.3256471312
 11
73.2212955242
 21
50.1408821393
  0
LINE
  5
374
100
AcDbEntity
  8
0
100
AcDbLine
 62
7
  6
CONTINUOUS
 10
81.8225921207
 20
39.5420166612
 11
81.8225921207
 21
41.7040912155
  0
LINE
  5
375
100
AcDbEntity
  8
0
100
AcDbLine
 62
7
  6
CONTINUOUS
 10
82.9976326393
 20
37.7559550728
 11
82.9976326393
 21
43.1141398378
  0
LINE
  5
376
100
AcDbEntity
  8
0
100
AcDbLine
 62
7
  6
CONTINUOUS
 10
85.7237266426
 20
37.7559550728
 11
85.7237266426
 21
43.1141398378
  0
LINE
  5
377
100
AcDbEntity
  8
0
100
AcDbLine
 62
7
  6
CONTINUOUS
 10
86.9927704027
 20
39.5420166612
 11
86.9927704027
 21
41.7040912155
  0
LINE
  5
378
100
AcDbEntity
  8
0
100
AcDbLine
 62
7
  6
CONTINUOUS
 10
89.6718627852
 20
43.3256471312
 11
89.6718627852
 21
50.1408821393
  0
LINE
  5
379
100
AcDbEntity
  8
0
100
AcDbLine
 62
7
  6
CONTINUOUS
 10
92.2569519262
 20
43.3021463208
 11
92.2569519262
 21
50.1643829497
  0
LINE
  5
37A
100
AcDbEntity
  8
0
100
AcDbLine
 62
7
  6
CONTINUOUS
 10
82.9976326393
 20
37.7559550728
 11
85.7237266426
 21
37.7559550728
  0
LINE
  5
37B
100
AcDbEntity
  8
0
100
AcDbLine
 62
7
  6
CONTINUOUS
 10
87.3092568337
 20
39.5420166612
 11
86.9927704027
 21
39.5420166612
  0
LINE
  5
37C
100
AcDbEntity
  8
0
100
AcDbLine
 62
7
  6
CONTINUOUS
 10
75.5839014757
 20
39.5420166612
 11
81.8225921207
 21
39.5420166612
  0
LINE
  5
37D
100
AcDbEntity
  8
0
100
AcDbLine
 62
7
  6
CONTINUOUS
 10
87.0576385021
 20
41.7040912155
 11
86.9927704027
 21
41.7040912155
  0
LINE
  5
37E
100
AcDbEntity
  8
0
100
AcDbLine
 62
7
  6
CONTINUOUS
 10
75.8355198074
 20
41.7040912155
 11
81.8225921207
 21
41.7040912155
  0
LINE
  5
37F
100
AcDbEntity
  8
0
100
AcDbLine
 62
7
  6
CONTINUOUS
 10
82.9976326393
 20
43.1141398378
 11
85.7237266426
 21
43.1141398378
  0
LINE
  5
380
100
AcDbEntity
  8
0
100
AcDbLine
 62
7
  6
CONTINUOUS
 10
75.8355198074
 20
51.762438055
 11
87.0576385021
 21
51.762438055
  0
LINE
  5
381
100
AcDbEntity
  8
0
100
AcDbLine
 62
7
  6
CONTINUOUS
 10
75.5839014757
 20
53.9245126093
 11
87.3092568337
 21
53.9245126093
  0
ELLIPSE
  5
382
100
AcDbEntity
  8
0
100
AcDbEllipse
 62
7
  6
CONTINUOUS
 10
87.0576385021
 20
43.3256471312
 30
0.0
 11
2.6142242831
 21
0.0
 31
0.0
 40
0.6202818657
 41
-1.5707963268
 42
0.0
  0
ELLIPSE
  5
383
100
AcDbEntity
  8
0
100
AcDbEllipse
 62
7
  6
CONTINUOUS
 10
87.3092568337
 20
43.3021463208
 30
0.0
 11
4.9476950925
 21
0.0
 31
0.0
 40
0.7599760271
 41
4.7123889804
 42
6.2831853072
  0
ELLIPSE
  5
384
100
AcDbEntity
  8
0
100
AcDbEllipse
 62
7
  6
CONTINUOUS
 10
75.8355198074
 20
43.3256471312
 30
0.0
 11
2.6142242831
 21
0.0
 31
0.0
 40
0.6202818657
 41
9.4247779608
 42
10.9955742876
  0
ELLIPSE
  5
385
100
AcDbEntity
  8
0
100
AcDbEllipse
 62
7
  6
CONTINUOUS
 10
75.8355198074
 20
50.1408821393
 30
0.0
 11
2.6142242831
 21
0.0
 31
0.0
 40
0.6202818657
 41
1.5707963268
 42
3.1415926536
  0
ELLIPSE
  5
386
100
AcDbEntity
  8
0
100
AcDbEllipse
 62
7
  6
CONTINUOUS
 10
75.5839014757
 20
43.3021463208
 30
0.0
 11
4.9476950925
 21
0.0
 31
0.0
 40
0.7599760271
 41
3.1415926536
 42
4.7123889804
  0
ELLIPSE
  5
387
100
AcDbEntity
  8
0
100
AcDbEllipse
 62
7
  6
CONTINUOUS
 10
75.5839014757
 20
50.1643829497
 30
0.0
 11
4.9476950925
 21
0.0
 31
0.0
 40
0.7599760271
 41
7.853981634
 42
9.4247779608
  0
ELLIPSE
  5
388
100
AcDbEntity
  8
0
100
AcDbEllipse
 62
7
  6
CONTINUOUS
 10
87.0576385021
 20
50.1408821393
 30
0.0
 11
-2.6142242831
 21
0.0
 31
0.0
 40
0.6202818657
 41
3.1415926536
 42
4.7123889804
  0
ELLIPSE
  5
389
100
AcDbEntity
  8
0
100
AcDbEllipse
 62
7
  6
CONTINUOUS
 10
87.3092568337
 20
50.1643829497
 30
0.0
 11
4.9476950925
 21
0.0
 31
0.0
 40
0.7599760271
 41
0.0
 42
1.5707963268
  0
HATCH
  5
38A
100
AcDbEntity
  8
0
100
AcDbHatch
 62
7
  6
CONTINUOUS
 10
0.0
 20
0.0
 30
0.0
210
0.0
220
0.0
230
1.0
  2
XSEC0002
 70
1
 71
1
 91
2
 92
1
 93
20
 72
3
 10
75.5839014757
 20
50.1643829497
 11
4.9476950925
 21
0.0
 40
0.7599760271
 50
-180.0
 51
-90.0
 73
0
 72
1
 10
75.5839014757
 20
53.9245126093
 11
87.3092568337
 21
53.9245126093
 72
3
 10
87.3092568337
 20
50.1643829497
 11
4.9476950925
 21
0.0
 40
0.7599760271
 50
-90.0
 51
0.0
 73
0
 72
1
 10
92.2569519262
 20
50.1643829497
 11
92.2569519262
 21
43.3021463208
 72
3
 10
87.3092568337
 20
43.3021463208
 11
4.9476950925
 21
0.0
 40
0.7599760271
 50
0.0
 51
90.0
 73
0
 72
1
 10
87.3092568337
 20
39.5420166612
 11
86.9927704027
 21
39.5420166612
 72
1
 10
86.9927704027
 20
39.5420166612
 11
86.9927704027
 21
41.7040912155
 72
1
 10
86.9927704027
 20
41.7040912155
 11
87.0576385021
 21
41.7040912155
 72
3
 10
87.0576385021
 20
43.3256471312
 11
2.6142242831
 21
0.0
 40
0.6202818657
 50
-90.0
 51
0.0
 73
1
 72
1
 10
89.6718627852
 20
43.3256471312
 11
89.6718627852
 21
50.1408821393
 72
3
 10
87.0576385021
 20
50.1408821393
 11
-2.6142242831
 21
0.0
 40
0.6202818657
 50
180.0
 51
-90.0
 73
1
 72
1
 10
87.0576385021
 20
51.762438055
 11
75.8355198074
 21
51.762438055
 72
3
 10
75.8355198074
 20
50.1408821393
 11
2.6142242831
 21
0.0
 40
0.6202818657
 50
90.0
 51
180.0
 73
1
 72
1
 10
73.2212955242
 20
50.1408821393
 11
73.2212955242
 21
43.3256471312
 72
3
 10
75.8355198074
 20
43.3256471312
 11
2.6142242831
 21
0.0
 40
0.6202818657
 50
180.0
 51
-90.0
 73
1
 72
1
 10
75.8355198074
 20
41.7040912155
 11
81.8225921207
 21
41.7040912155
 72
1
 10
81.8225921207
 20
41.7040912155
 11
81.8225921207
 21
39.5420166612
 72
1
 10
81.8225921207
 20
39.5420166612
 11
75.5839014757
 21
39.5420166612
 72
3
 10
75.5839014757
 20
43.3021463208
 11
4.9476950925
 21
0.0
 40
0.7599760271
 50
-270.0
 51
-180.0
 73
0
 72
1
 10
70.6362063832
 20
43.3021463208
 11
70.6362063832
 21
50.1643829497
 97
24
330
372
330
373
330
374
330
375
330
376
330
377
330
378
330
379
330
37A
330
37B
330
37C
330
37D
330
37E
330
37F
330
380
330
381
330
382
330
383
330
384
330
385
330
386
330
387
330
388
330
389
 92
1
 93
4
 72
1
 10
82.9976326393
 20
43.1141398378
 11
85.7237266426
 21
43.1141398378
 72
1
 10
85.7237266426
 20
43.1141398378
 11
85.7237266426
 21
37.7559550728
 72
1
 10
85.7237266426
 20
37.7559550728
 11
82.9976326393
 21
37.7559550728
 72
1
 10
82.9976326393
 20
37.7559550728
 11
82.9976326393
 21
43.1141398378
 97
24
330
372
330
373
330
374
330
375
330
376
330
377
330
378
330
379
330
37A
330
37B
330
37C
330
37D
330
37E
330
37F
330
380
330
381
330
382
330
383
330
384
330
385
330
386
330
387
330
388
330
389
 75
0
 76
1
 98
1
 10
0.0
 20
0.0
  0
LINE
  5
38B
100
AcDbEntity
  8
0
100
AcDbLine
 62
7
  6
CONTINUOUS
 10
96.3460929311
 20
43.9601690112
 11
96.3460929311
 21
45.7462305996
  0
LINE
  5
38C
100
AcDbEntity
  8
0
100
AcDbLine
 62
7
  6
CONTINUOUS
 10
102.2212955242
 20
43.9601690112
 11
102.2212955242
 21
45.7462305996
  0
LINE
  5
38D
100
AcDbEntity
  8
0
100
AcDbLine
 62
7
  6
CONTINUOUS
 10
96.3460929311
 20
43.9601690112
 11
102.2212955242
 21
43.9601690112
  0
LINE
  5
38E
100
AcDbEntity
  8
0
100
AcDbLine
 62
7
  6
CONTINUOUS
 10
96.3460929311
 20
45.7462305996
 11
102.2212955242
 21
45.7462305996
  0
HATCH
  5
38F
100
AcDbEntity
  8
0
100
AcDbHatch
 62
7
  6
CONTINUOUS
 10
0.0
 20
0.0
 30
0.0
210
0.0
220
0.0
230
1.0
  2
XSEC0003
 70
1
 71
1
 91
1
 92
1
 93
4
 72
1
 10
96.3460929311
 20
45.7462305996
 11
102.2212955242
 21
45.7462305996
 72
1
 10
102.2212955242
 20
45.7462305996
 11
102.2212955242
 21
43.9601690112
 72
1
 10
102.2212955242
 20
43.9601690112
 11
96.3460929311
 21
43.9601690112
 72
1
 10
96.3460929311
 20
43.9601690112
 11
96.3460929311
 21
45.7462305996
 97
4
330
38B
330
38C
330
38D
330
38E
 75
0
 76
1
 98
1
 10
0.0
 20
0.0
  0
LINE
  5
390
100
AcDbEntity
  8
0
100
AcDbLine
 62
7
  6
CONTINUOUS
 10
105.2764008727
 20
43.3021463208
 11
105.2764008727
 21
44.2421787357
  0
LINE
  5
391
100
AcDbEntity
  8
0
100
AcDbLine
 62
7
  6
CONTINUOUS
 10
105.2764008727
 20
49.4123570177
 11
105.2764008727
 21
50.1643829497
  0
LINE
  5
392
100
AcDbEntity
  8
0
100
AcDbLine
 62
7
  6
CONTINUOUS
 10
107.8614900137
 20
43.3256471312
 11
107.8614900137
 21
44.2421787357
  0
LINE
  5
393
100
AcDbEntity
  8
0
100
AcDbLine
 62
7
  6
CONTINUOUS
 10
107.8614900137
 20
49.4358578281
 11
107.8614900137
 21
50.1408821393
  0
LINE
  5
394
100
AcDbEntity
  8
0
100
AcDbLine
 62
7
  6
CONTINUOUS
 10
122.4319924448
 20
44.0306714424
 11
122.4319924448
 21
43.3256471312
  0
LINE
  5
395
100
AcDbEntity
  8
0
100
AcDbLine
 62
7
  6
CONTINUOUS
 10
122.4319924448
 20
49.2243505347
 11
122.4319924448
 21
50.1408821393
  0
LINE
  5
396
100
AcDbEntity
  8
0
100
AcDbLine
 62
7
  6
CONTINUOUS
 10
125.0170815858
 20
43.3021463208
 11
125.0170815858
 21
44.0541722527
  0
LINE
  5
397
100
AcDbEntity
  8
0
100
AcDbLine
 62
7
  6
CONTINUOUS
 10
125.0170815858
 20
49.2243505347
 11
125.0170815858
 21
50.1643829497
  0
LINE
  5
398
100
AcDbEntity
  8
0
100
AcDbLine
 62
7
  6
CONTINUOUS
 10
110.2240959652
 20
39.5420166612
 11
120.0693864933
 21
39.5420166612
  0
LINE
  5
399
100
AcDbEntity
  8
0
100
AcDbLine
 62
7
  6
CONTINUOUS
 10
110.4757142968
 20
41.7040912155
 11
119.8177681617
 21
41.7040912155
  0
LINE
  5
39A
100
AcDbEntity
  8
0
100
AcDbLine
 62
7
  6
CONTINUOUS
 10
105.2764008727
 20
44.2421787357
 11
107.8614900137
 21
44.2421787357
  0
LINE
  5
39B
100
AcDbEntity
  8
0
100
AcDbLine
 62
7
  6
CONTINUOUS
 10
110.2240959652
 20
45.6522273581
 11
119.8177681617
 21
45.6522273581
  0
LINE
  5
39C
100
AcDbEntity
  8
0
100
AcDbLine
 62
7
  6
CONTINUOUS
 10
110.4757142968
 20
47.8143019124
 11
120.0693864933
 21
47.8143019124
  0
LINE
  5
39D
100
AcDbEntity
  8
0
100
AcDbLine
 62
7
  6
CONTINUOUS
 10
122.4319924448
 20
49.2243505347
 11
125.0170815858
 21
49.2243505347
  0
LINE
  5
39E
100
AcDbEntity
  8
0
100
AcDbLine
 62
7
  6
CONTINUOUS
 10
110.4757142968
 20
51.762438055
 11
119.8177681617
 21
51.762438055
  0
LINE
  5
39F
100
AcDbEntity
  8
0
100
AcDbLine
 62
7
  6
CONTINUOUS
 10
110.2240959652
 20
53.9245126093
 11
120.0693864933
 21
53.9245126093
  0
ELLIPSE
  5
3A0
100
AcDbEntity
  8
0
100
AcDbEllipse
 62
7
  6
CONTINUOUS
 10
110.4757142968
 20
43.3256471312
 30
0.0
 11
2.6142242831
 21
0.0
 31
0.0
 40
0.6202818657
 41
9.4247779608
 42
10.9955742876
  0
ELLIPSE
  5
3A1
100
AcDbEntity
  8
0
100
AcDbEllipse
 62
7
  6
CONTINUOUS
 10
110.4757142968
 20
50.1408821393
 30
0.0
 11
2.6142242831
 21
0.0
 31
0.0
 40
0.6202818657
 41
1.5707963268
 42
3.1415926536
  0
ELLIPSE
  5
3A2
100
AcDbEntity
  8
0
100
AcDbEllipse
 62
7
  6
CONTINUOUS
 10
119.8177681617
 20
43.3256471312
 30
0.0
 11
2.6142242831
 21
-0.0
 31
0.0
 40
0.6202818657
 41
-1.5707963268
 42
0.0
  0
ELLIPSE
  5
3A3
100
AcDbEntity
  8
0
100
AcDbEllipse
 62
7
  6
CONTINUOUS
 10
119.8177681617
 20
50.1408821393
 30
0.0
 11
-2.6142242831
 21
0.0
 31
0.0
 40
0.6202818657
 41
3.1415926536
 42
4.7123889804
  0
ELLIPSE
  5
3A4
100
AcDbEntity
  8
0
100
AcDbEllipse
 62
7
  6
CONTINUOUS
 10
119.8177681617
 20
44.0306714424
 30
0.0
 11
2.6142242831
 21
0.0
 31
0.0
 40
0.6202818657
 41
0.0
 42
1.5707963268
  0
ELLIPSE
  5
3A5
100
AcDbEntity
  8
0
100
AcDbEllipse
 62
7
  6
CONTINUOUS
 10
110.4757142968
 20
49.4358578281
 30
0.0
 11
2.6142242831
 21
0.0
 31
0.0
 40
0.6202818657
 41
3.1415926536
 42
4.7123889804
  0
ELLIPSE
  5
3A6
100
AcDbEntity
  8
0
100
AcDbEllipse
 62
7
  6
CONTINUOUS
 10
120.0693864933
 20
43.3021463208
 30
0.0
 11
4.9476950925
 21
0.0
 31
0.0
 40
0.7599760271
 41
4.7123889804
 42
6.2831853072
  0
ELLIPSE
  5
3A7
100
AcDbEntity
  8
0
100
AcDbEllipse
 62
7
  6
CONTINUOUS
 10
110.2240959652
 20
43.3021463208
 30
0.0
 11
4.9476950925
 21
0.0
 31
0.0
 40
0.7599760271
 41
3.1415926536
 42
4.7123889804
  0
ELLIPSE
  5
3A8
100
AcDbEntity
  8
0
100
AcDbEllipse
 62
7
  6
CONTINUOUS
 10
120.0693864933
 20
50.1643829497
 30
0.0
 11
4.9476950925
 21
0.0
 31
0.0
 40
0.7599760271
 41
0.0
 42
1.5707963268
  0
ELLIPSE
  5
3A9
100
AcDbEntity
  8
0
100
AcDbEllipse
 62
7
  6
CONTINUOUS
 10
110.2240959652
 20
49.4123570177
 30
0.0
 11
4.9476950925
 21
0.0
 31
0.0
 40
0.7599760271
 41
9.4247779608
 42
10.9955742876
  0
ELLIPSE
  5
3AA
100
AcDbEntity
  8
0
100
AcDbEllipse
 62
7
  6
CONTINUOUS
 10
120.0693864933
 20
44.0541722527
 30
0.0
 11
4.9476950925
 21
0.0
 31
0.0
 40
0.7599760271
 41
6.2831853072
 42
7.853981634
  0
ELLIPSE
  5
3AB
100
AcDbEntity
  8
0
100
AcDbEllipse
 62
7
  6
CONTINUOUS
 10
110.2240959652
 20
50.1643829497
 30
0.0
 11
4.9476950925
 21
0.0
 31
0.0
 40
0.7599760271
 41
7.853981634
 42
9.4247779608
  0
HATCH
  5
3AC
100
AcDbEntity
  8
0
100
AcDbHatch
 62
7
  6
CONTINUOUS
 10
0.0
 20
0.0
 30
0.0
210
0.0
220
0.0
230
1.0
  2
XSEC0004
 70
1
 71
1
 91
1
 92
1
 93
28
 72
1
 10
105.2764008727
 20
44.2421787357
 11
107.8614900137
 21
44.2421787357
 72
1
 10
107.8614900137
 20
44.2421787357
 11
107.8614900137
 21
43.3256471312
 72
3
 10
110.4757142968
 20
43.3256471312
 11
2.6142242831
 21
0.0
 40
0.6202818657
 50
180.0
 51
-90.0
 73
1
 72
1
 10
110.4757142968
 20
41.7040912155
 11
119.8177681617
 21
41.7040912155
 72
3
 10
119.8177681617
 20
43.3256471312
 11
2.6142242831
 21
-0.0
 40
0.6202818657
 50
-90.0
 51
0.0
 73
1
 72
1
 10
122.4319924448
 20
43.3256471312
 11
122.4319924448
 21
44.0306714424
 72
3
 10
119.8177681617
 20
44.0306714424
 11
2.6142242831
 21
0.0
 40
0.6202818657
 50
0.0
 51
90.0
 73
1
 72
1
 10
119.8177681617
 20
45.6522273581
 11
110.2240959652
 21
45.6522273581
 72
3
 10
110.2240959652
 20
49.4123570177
 11
4.9476950925
 21
0.0
 40
0.7599760271
 50
-270.0
 51
-180.0
 73
0
 72
1
 10
105.2764008727
 20
49.4123570177
 11
105.2764008727
 21
50.1643829497
 72
3
 10
110.2240959652
 20
50.1643829497
 11
4.9476950925
 21
0.0
 40
0.7599760271
 50
-180.0
 51
-90.0
 73
0
 72
1
 10
110.2240959652
 20
53.9245126093
 11
120.0693864933
 21
53.9245126093
 72
3
 10
120.0693864933
 20
50.1643829497
 11
4.9476950925
 21
0.0
 40
0.7599760271
 50
-90.0
 51
0.0
 73
0
 72
1
 10
125.0170815858
 20
50.1643829497
 11
125.0170815858
 21
49.2243505347
 72
1
 10
125.0170815858
 20
49.2243505347
 11
122.4319924448
 21
49.2243505347
 72
1
 10
122.4319924448
 20
49.2243505347
 11
122.4319924448
 21
50.1408821393
 72
3
 10
119.8177681617
 20
50.1408821393
 11
-2.6142242831
 21
0.0
 40
0.6202818657
 50
180.0
 51
-90.0
 73
1
 72
1
 10
119.8177681617
 20
51.762438055
 11
110.4757142968
 21
51.762438055
 72
3
 10
110.4757142968
 20
50.1408821393
 11
2.6142242831
 21
0.0
 40
0.6202818657
 50
90.0
 51
180.0
 73
1
 72
1
 10
107.8614900137
 20
50.1408821393
 11
107.8614900137
 21
49.4358578281
 72
3
 10
110.4757142968
 20
49.4358578281
 11
2.6142242831
 21
0.0
 40
0.6202818657
 50
180.0
 51
-90.0
 73
1
 72
1
 10
110.4757142968
 20
47.8143019124
 11
120.0693864933
 21
47.8143019124
 72
3
 10
120.0693864933
 20
44.0541722527
 11
4.9476950925
 21
0.0
 40
0.7599760271
 50
-90.0
 51
0.0
 73
0
 72
1
 10
125.0170815858
 20
44.0541722527
 11
125.0170815858
 21
43.3021463208
 72
3
 10
120.0693864933
 20
43.3021463208
 11
4.9476950925
 21
0.0
 40
0.7599760271
 50
0.0
 51
90.0
 73
0
 72
1
 10
120.0693864933
 20
39.5420166612
 11
110.2240959652
 21
39.5420166612
 72
3
 10
110.2240959652
 20
43.3021463208
 11
4.9476950925
 21
0.0
 40
0.7599760271
 50
-270.0
 51
-180.0
 73
0
 72
1
 10
105.2764008727
 20
43.3021463208
 11
105.2764008727
 21
44.2421787357
 97
28
330
390
330
391
330
392
330
393
330
394
330
395
330
396
330
397
330
398
330
399
330
39A
330
39B
330
39C
330
39D
330
39E
330
39F
330
3A0
330
3A1
330
3A2
330
3A3
330
3A4
330
3A5
330
3A6
330
3A7
330
3A8
330
3A9
330
3AA
330
3AB
 75
0
 76
1
 98
1
 10
0.0
 20
0.0
  0
LINE
  5
3AD
100
AcDbEntity
  8
0
100
AcDbLine
 62
7
  6
CONTINUOUS
 10
150.3039535469
 20
43.3021463208
 11
150.3039535469
 21
44.2421787357
  0
LINE
  5
3AE
100
AcDbEntity
  8
0
100
AcDbLine
 62
7
  6
CONTINUOUS
 10
150.3039535469
 20
49.4123570177
 11
150.3039535469
 21
50.1643829497
  0
LINE
  5
3AF
100
AcDbEntity
  8
0
100
AcDbLine
 62
7
  6
CONTINUOUS
 10
152.8890426879
 20
43.3256471312
 11
152.8890426879
 21
44.2421787357
  0
LINE
  5
3B0
100
AcDbEntity
  8
0
100
AcDbLine
 62
7
  6
CONTINUOUS
 10
152.8890426879
 20
49.4358578281
 11
152.8890426879
 21
50.1408821393
  0
LINE
  5
3B1
100
AcDbEntity
  8
0
100
AcDbLine
 62
7
  6
CONTINUOUS
 10
167.4595451191
 20
44.0306714424
 11
167.4595451191
 21
43.3256471312
  0
LINE
  5
3B2
100
AcDbEntity
  8
0
100
AcDbLine
 62
7
  6
CONTINUOUS
 10
167.4595451191
 20
49.2243505347
 11
167.4595451191
 21
50.1408821393
  0
LINE
  5
3B3
100
AcDbEntity
  8
0
100
AcDbLine
 62
7
  6
CONTINUOUS
 10
170.0446342601
 20
43.3021463208
 11
170.0446342601
 21
44.0541722527
  0
LINE
  5
3B4
100
AcDbEntity
  8
0
100
AcDbLine
 62
7
  6
CONTINUOUS
 10
170.0446342601
 20
49.2243505347
 11
170.0446342601
 21
50.1643829497
  0
LINE
  5
3B5
100
AcDbEntity
  8
0
100
AcDbLine
 62
7
  6
CONTINUOUS
 10
155.2516486394
 20
39.5420166612
 11
165.0969391676
 21
39.5420166612
  0
LINE
  5
3B6
100
AcDbEntity
  8
0
100
AcDbLine
 62
7
  6
CONTINUOUS
 10
155.503266971
 20
41.7040912155
 11
164.8453208359
 21
41.7040912155
  0
LINE
  5
3B7
100
AcDbEntity
  8
0
100
AcDbLine
 62
7
  6
CONTINUOUS
 10
150.3039535469
 20
44.2421787357
 11
152.8890426879
 21
44.2421787357
  0
LINE
  5
3B8
100
AcDbEntity
  8
0
100
AcDbLine
 62
7
  6
CONTINUOUS
 10
155.2516486394
 20
45.6522273581
 11
164.8453208359
 21
45.6522273581
  0
LINE
  5
3B9
100
AcDbEntity
  8
0
100
AcDbLine
 62
7
  6
CONTINUOUS
 10
155.503266971
 20
47.8143019124
 11
165.0969391676
 21
47.8143019124
  0
LINE
  5
3BA
100
AcDbEntity
  8
0
100
AcDbLine
 62
7
  6
CONTINUOUS
 10
167.4595451191
 20
49.2243505347
 11
170.0446342601
 21
49.2243505347
  0
LINE
  5
3BB
100
AcDbEntity
  8
0
100
AcDbLine
 62
7
  6
CONTINUOUS
 10
155.503266971
 20
51.762438055
 11
164.8453208359
 21
51.762438055
  0
LINE
  5
3BC
100
AcDbEntity
  8
0
100
AcDbLine
 62
7
  6
CONTINUOUS
 10
155.2516486394
 20
53.9245126093
 11
165.0969391676
 21
53.9245126093
  0
ELLIPSE
  5
3BD
100
AcDbEntity
  8
0
100
AcDbEllipse
 62
7
  6
CONTINUOUS
 10
155.503266971
 20
43.3256471312
 30
0.0
 11
2.6142242831
 21
0.0
 31
0.0
 40
0.6202818657
 41
9.4247779608
 42
10.9955742876
  0
ELLIPSE
  5
3BE
100
AcDbEntity
  8
0
100
AcDbEllipse
 62
7
  6
CONTINUOUS
 10
155.503266971
 20
50.1408821393
 30
0.0
 11
2.6142242831
 21
0.0
 31
0.0
 40
0.6202818657
 41
1.5707963268
 42
3.1415926536
  0
ELLIPSE
  5
3BF
100
AcDbEntity
  8
0
100
AcDbEllipse
 62
7
  6
CONTINUOUS
 10
164.8453208359
 20
43.3256471312
 30
0.0
 11
2.6142242831
 21
-0.0
 31
0.0
 40
0.6202818657
 41
-1.5707963268
 42
0.0
  0
ELLIPSE
  5
3C0
100
AcDbEntity
  8
0
100
AcDbEllipse
 62
7
  6
CONTINUOUS
 10
164.8453208359
 20
50.1408821393
 30
0.0
 11
-2.6142242831
 21
0.0
 31
0.0
 40
0.6202818657
 41
3.1415926536
 42
4.7123889804
  0
ELLIPSE
  5
3C1
100
AcDbEntity
  8
0
100
AcDbEllipse
 62
7
  6
CONTINUOUS
 10
164.8453208359
 20
44.0306714424
 30
0.0
 11
2.6142242831
 21
0.0
 31
0.0
 40
0.6202818657
 41
0.0
 42
1.5707963268
  0
ELLIPSE
  5
3C2
100
AcDbEntity
  8
0
100
AcDbEllipse
 62
7
  6
CONTINUOUS
 10
155.503266971
 20
49.4358578281
 30
0.0
 11
2.6142242831
 21
0.0
 31
0.0
 40
0.6202818657
 41
3.1415926536
 42
4.7123889804
  0
ELLIPSE
  5
3C3
100
AcDbEntity
  8
0
100
AcDbEllipse
 62
7
  6
CONTINUOUS
 10
165.0969391676
 20
43.3021463208
 30
0.0
 11
4.9476950925
 21
0.0
 31
0.0
 40
0.7599760271
 41
4.7123889804
 42
6.2831853072
  0
ELLIPSE
  5
3C4
100
AcDbEntity
  8
0
100
AcDbEllipse
 62
7
  6
CONTINUOUS
 10
155.2516486394
 20
43.3021463208
 30
0.0
 11
4.9476950925
 21
0.0
 31
0.0
 40
0.7599760271
 41
3.1415926536
 42
4.7123889804
  0
ELLIPSE
  5
3C5
100
AcDbEntity
  8
0
100
AcDbEllipse
 62
7
  6
CONTINUOUS
 10
165.0969391676
 20
50.1643829497
 30
0.0
 11
4.9476950925
 21
0.0
 31
0.0
 40
0.7599760271
 41
0.0
 42
1.5707963268
  0
ELLIPSE
  5
3C6
100
AcDbEntity
  8
0
100
AcDbEllipse
 62
7
  6
CONTINUOUS
 10
155.2516486394
 20
50.1643829497
 30
0.0
 11
4.9476950925
 21
0.0
 31
0.0
 40
0.7599760271
 41
7.853981634
 42
9.4247779608
  0
ELLIPSE
  5
3C7
100
AcDbEntity
  8
0
100
AcDbEllipse
 62
7
  6
CONTINUOUS
 10
155.2516486394
 20
49.4123570177
 30
0.0
 11
4.9476950925
 21
0.0
 31
0.0
 40
0.7599760271
 41
9.4247779608
 42
10.9955742876
  0
ELLIPSE
  5
3C8
100
AcDbEntity
  8
0
100
AcDbEllipse
 62
7
  6
CONTINUOUS
 10
165.0969391676
 20
44.0541722527
 30
0.0
 11
4.9476950925
 21
0.0
 31
0.0
 40
0.7599760271
 41
6.2831853072
 42
7.853981634
  0
HATCH
  5
3C9
100
AcDbEntity
  8
0
100
AcDbHatch
 62
7
  6
CONTINUOUS
 10
0.0
 20
0.0
 30
0.0
210
0.0
220
0.0
230
1.0
  2
XSEC0006
 70
1
 71
1
 91
1
 92
1
 93
28
 72
1
 10
150.3039535469
 20
44.2421787357
 11
152.8890426879
 21
44.2421787357
 72
1
 10
152.8890426879
 20
44.2421787357
 11
152.8890426879
 21
43.3256471312
 72
3
 10
155.503266971
 20
43.3256471312
 11
2.6142242831
 21
0.0
 40
0.6202818657
 50
180.0
 51
-90.0
 73
1
 72
1
 10
155.503266971
 20
41.7040912155
 11
164.8453208359
 21
41.7040912155
 72
3
 10
164.8453208359
 20
43.3256471312
 11
2.6142242831
 21
-0.0
 40
0.6202818657
 50
-90.0
 51
0.0
 73
1
 72
1
 10
167.4595451191
 20
43.3256471312
 11
167.4595451191
 21
44.0306714424
 72
3
 10
164.8453208359
 20
44.0306714424
 11
2.6142242831
 21
0.0
 40
0.6202818657
 50
0.0
 51
90.0
 73
1
 72
1
 10
164.8453208359
 20
45.6522273581
 11
155.2516486394
 21
45.6522273581
 72
3
 10
155.2516486394
 20
49.4123570177
 11
4.9476950925
 21
0.0
 40
0.7599760271
 50
-270.0
 51
-180.0
 73
0
 72
1
 10
150.3039535469
 20
49.4123570177
 11
150.3039535469
 21
50.1643829497
 72
3
 10
155.2516486394
 20
50.1643829497
 11
4.9476950925
 21
0.0
 40
0.7599760271
 50
-180.0
 51
-90.0
 73
0
 72
1
 10
155.2516486394
 20
53.9245126093
 11
165.0969391676
 21
53.9245126093
 72
3
 10
165.0969391676
 20
50.1643829497
 11
4.9476950925
 21
0.0
 40
0.7599760271
 50
-90.0
 51
0.0
 73
0
 72
1
 10
170.0446342601
 20
50.1643829497
 11
170.0446342601
 21
49.2243505347
 72
1
 10
170.0446342601
 20
49.2243505347
 11
167.4595451191
 21
49.2243505347
 72
1
 10
167.4595451191
 20
49.2243505347
 11
167.4595451191
 21
50.1408821393
 72
3
 10
164.8453208359
 20
50.1408821393
 11
-2.6142242831
 21
0.0
 40
0.6202818657
 50
180.0
 51
-90.0
 73
1
 72
1
 10
164.8453208359
 20
51.762438055
 11
155.503266971
 21
51.762438055
 72
3
 10
155.503266971
 20
50.1408821393
 11
2.6142242831
 21
0.0
 40
0.6202818657
 50
90.0
 51
180.0
 73
1
 72
1
 10
152.8890426879
 20
50.1408821393
 11
152.8890426879
 21
49.4358578281
 72
3
 10
155.503266971
 20
49.4358578281
 11
2.6142242831
 21
0.0
 40
0.6202818657
 50
180.0
 51
-90.0
 73
1
 72
1
 10
155.503266971
 20
47.8143019124
 11
165.0969391676
 21
47.8143019124
 72
3
 10
165.0969391676
 20
44.0541722527
 11
4.9476950925
 21
0.0
 40
0.7599760271
 50
-90.0
 51
0.0
 73
0
 72
1
 10
170.0446342601
 20
44.0541722527
 11
170.0446342601
 21
43.3021463208
 72
3
 10
165.0969391676
 20
43.3021463208
 11
4.9476950925
 21
0.0
 40
0.7599760271
 50
0.0
 51
90.0
 73
0
 72
1
 10
165.0969391676
 20
39.5420166612
 11
155.2516486394
 21
39.5420166612
 72
3
 10
155.2516486394
 20
43.3021463208
 11
4.9476950925
 21
0.0
 40
0.7599760271
 50
-270.0
 51
-180.0
 73
0
 72
1
 10
150.3039535469
 20
43.3021463208
 11
150.3039535469
 21
44.2421787357
 97
28
330
3AD
330
3AE
330
3AF
330
3B0
330
3B1
330
3B2
330
3B3
330
3B4
330
3B5
330
3B6
330
3B7
330
3B8
330
3B9
330
3BA
330
3BB
330
3BC
330
3BD
330
3BE
330
3BF
330
3C0
330
3C1
330
3C2
330
3C3
330
3C4
330
3C5
330
3C6
330
3C7
330
3C8
 75
0
 76
1
 98
1
 10
0.0
 20
0.0
  0
LWPOLYLINE
  5
3CA
100
AcDbEntity
  8
0
100
AcDbPolyline
 62
7
  6
CONTINUOUS
 90
2
 70
0
 43
0.9999999955
 10
736.9639201033
 20
35.0787110479
 10
752.2039201037
 20
32.5387110479
  0
LWPOLYLINE
  5
3CB
100
AcDbEntity
  8
0
100
AcDbPolyline
 62
7
  6
CONTINUOUS
 90
2
 70
0
 43
0.9999999955
 10
736.9639201033
 20
40.1587110479
 10
752.2039201037
 20
42.6987110479
  0
LWPOLYLINE
  5
3CC
100
AcDbEntity
  8
0
100
AcDbPolyline
 62
7
  6
CONTINUOUS
 90
2
 70
0
 43
0.3999999879
 10
720.2202401033
 20
37.6187110479
 10
733.3876001037
 20
37.6187110479
  0
LWPOLYLINE
  5
3CD
100
AcDbEntity
  8
0
100
AcDbPolyline
 62
7
  6
CONTINUOUS
 90
2
 70
0
 43
0.3999999879
 10
735.0723741361
 20
37.6187110479
 10
753.7584341337
 20
37.6187110479
  0
LWPOLYLINE
  5
3CE
100
AcDbEntity
  8
0
100
AcDbPolyline
 62
7
  6
CONTINUOUS
 90
2
 70
0
 43
0.9999999955
 10
1701.2
 20
72.0
 10
26.0
 20
72.0
  0
LWPOLYLINE
  5
3CF
100
AcDbEntity
  8
0
100
AcDbPolyline
 62
7
  6
CONTINUOUS
 90
2
 70
0
 43
0.3999999879
 10
726.8039201033
 20
31.0350310479
 10
726.8039201033
 20
44.2023910479
  0
LWPOLYLINE
  5
3D0
100
AcDbEntity
  8
0
100
AcDbPolyline
 62
7
  6
CONTINUOUS
 90
2
 70
0
 43
0.9999999955
 10
736.9639201033
 20
40.1587110479
 10
736.9639201033
 20
35.0787110479
  0
LWPOLYLINE
  5
3D1
100
AcDbEntity
  8
0
100
AcDbPolyline
 62
7
  6
CONTINUOUS
 90
2
 70
0
 43
0.9999999955
 10
752.2039201037
 20
42.6987110479
 10
752.2039201037
 20
32.5387110479
  0
LWPOLYLINE
  5
3D2
100
AcDbEntity
  8
0
100
AcDbPolyline
 62
7
  6
CONTINUOUS
 90
2
 70
0
 43
0.9999999955
 10
26.0
 20
1091.6
 10
1701.2
 20
1091.6
  0
LINE
  5
3D3
100
AcDbEntity
  8
6_COPYGEOM
100
AcDbLine
 62
7
  6
CONTINUOUS
 10
277.1873641304
 20
548.1198566656
 11
277.1873641304
 21
507.6198567417
  0
LINE
  5
3D4
100
AcDbEntity
  8
7_ALL_ROUNDS
100
AcDbLine
 62
7
  6
CONTINUOUS
 10
277.1873641304
 20
485.6198567417
 11
277.1873641304
 21
507.6198567417
  0
LINE
  5
3D5
100
AcDbEntity
  8
7_ALL_ROUNDS
100
AcDbLine
 62
9
  6
CONTINUOUS
 10
282.1873641304
 20
485.6198567417
 11
282.1873641304
 21
502.6198567417
  0
LINE
  5
3D6
100
AcDbEntity
  8
6_COPYGEOM
100
AcDbLine
 62
7
  6
CONTINUOUS
 10
283.1873641304
 20
507.6198567417
 11
283.1873641304
 21
548.1198566656
  0
LINE
  5
3D7
100
AcDbEntity
  8
7_ALL_ROUNDS
100
AcDbLine
 62
7
  6
CONTINUOUS
 10
282.1873641304
 20
502.6198567417
 11
277.1873641304
 21
507.6198567417
  0
LINE
  5
3D8
100
AcDbEntity
  8
7_ALL_ROUNDS
100
AcDbLine
 62
7
  6
CONTINUOUS
 10
277.1873641304
 20
485.6198567417
 11
860.1873641304
 21
485.6198567417
  0
LINE
  5
3D9
100
AcDbEntity
  8
3_ALL_AXES
100
AcDbLine
 62
7
  6
CENTER
 10
568.6877378587
 20
497.8452845552
 11
558.5276378587
 21
497.8452845552
  0
LINE
  5
3DA
100
AcDbEntity
  8
3_ALL_AXES
100
AcDbLine
 62
7
  6
CENTER
 10
568.6877378587
 20
497.8452845552
 11
578.8478378587
 21
497.8452845552
  0
LINE
  5
3DB
100
AcDbEntity
  8
3_ALL_AXES
100
AcDbLine
 62
7
  6
CENTER
 10
568.6877378587
 20
497.8452845552
 11
568.6877378587
 21
487.6851845552
  0
LINE
  5
3DC
100
AcDbEntity
  8
3_ALL_AXES
100
AcDbLine
 62
7
  6
CENTER
 10
568.6877378587
 20
497.8452845552
 11
568.6877378587
 21
508.0053845552
  0
LINE
  5
3DD
100
AcDbEntity
  8
7_ALL_ROUNDS
100
AcDbLine
 62
9
  6
CONTINUOUS
 10
855.1873641304
 20
502.6198567417
 11
282.1873641304
 21
502.6198567417
  0
LINE
  5
3DE
100
AcDbEntity
  8
7_ALL_ROUNDS
100
AcDbLine
 62
7
  6
CONTINUOUS
 10
860.1873641304
 20
507.6198567417
 11
277.1873641304
 21
507.6198567417
  0
LINE
  5
3DF
100
AcDbEntity
  8
6_COPYGEOM
100
AcDbLine
 62
9
  6
CONTINUOUS
 10
283.1873641304
 20
521.0400581749
 11
277.1873641304
 21
521.0400581749
  0
LINE
  5
3E0
100
AcDbEntity
  8
6_COPYGEOM
100
AcDbLine
 62
9
  6
CONTINUOUS
 10
854.1873641304
 20
521.0400581749
 11
860.1873641304
 21
521.0400581749
  0
LINE
  5
3E1
100
AcDbEntity
  8
6_COPYGEOM
100
AcDbLine
 62
9
  6
CONTINUOUS
 10
860.1873641304
 20
531.3446049501
 11
854.1873641304
 21
531.3446049501
  0
LINE
  5
3E2
100
AcDbEntity
  8
6_COPYGEOM
100
AcDbLine
 62
9
  6
CONTINUOUS
 10
277.1873641304
 20
531.3446049501
 11
283.1873641304
 21
531.3446049501
  0
LINE
  5
3E3
100
AcDbEntity
  8
6_COPYGEOM
100
AcDbLine
 62
7
  6
CONTINUOUS
 10
277.1873641304
 20
548.1198567417
 11
283.1873641304
 21
548.1198567417
  0
LINE
  5
3E4
100
AcDbEntity
  8
6_COPYGEOM
100
AcDbLine
 62
7
  6
CONTINUOUS
 10
854.1873641304
 20
548.1198567417
 11
860.1873641304
 21
548.1198567417
  0
LINE
  5
3E5
100
AcDbEntity
  8
7_ALL_ROUNDS
100
AcDbLine
 62
7
  6
CONTINUOUS
 10
855.1873641304
 20
502.6198567417
 11
860.1873641304
 21
507.6198567417
  0
LINE
  5
3E6
100
AcDbEntity
  8
6_COPYGEOM
100
AcDbLine
 62
7
  6
CONTINUOUS
 10
854.1873641304
 20
507.6198567417
 11
854.1873641304
 21
548.1198566656
  0
LINE
  5
3E7
100
AcDbEntity
  8
7_ALL_ROUNDS
100
AcDbLine
 62
9
  6
CONTINUOUS
 10
855.1873641304
 20
502.6198567417
 11
855.1873641304
 21
485.6198567417
  0
LINE
  5
3E8
100
AcDbEntity
  8
6_COPYGEOM
100
AcDbLine
 62
7
  6
CONTINUOUS
 10
860.1873641304
 20
548.1198566656
 11
860.1873641304
 21
507.6198567417
  0
LINE
  5
3E9
100
AcDbEntity
  8
7_ALL_ROUNDS
100
AcDbLine
 62
7
  6
CONTINUOUS
 10
860.1873641304
 20
507.6198567417
 11
860.1873641304
 21
485.6198567417
  0
LINE
  5
3EA
100
AcDbEntity
  8
6_COPYGEOM
100
AcDbLine
 62
7
  6
CONTINUOUS
 10
277.1873641304
 20
819.7914574431
 11
277.1873641304
 21
781.6018882349
  0
LINE
  5
3EB
100
AcDbEntity
  8
7_ALL_ROUNDS
100
AcDbLine
 62
7
  6
CONTINUOUS
 10
277.1873641304
 20
781.6018882349
 11
277.1873641304
 21
723.9944238989
  0
LINE
  5
3EC
100
AcDbEntity
  8
7_ALL_ROUNDS
100
AcDbLine
 62
7
  6
CONTINUOUS
 10
283.1873641304
 20
781.6018882349
 11
283.1873641304
 21
779.9944238989
  0
LINE
  5
3ED
100
AcDbEntity
  8
6_COPYGEOM
100
AcDbLine
 62
7
  6
CONTINUOUS
 10
283.1873641304
 20
781.6018882349
 11
283.1873641304
 21
819.7914574431
  0
LINE
  5
3EE
100
AcDbEntity
  8
7_ALL_ROUNDS
100
AcDbLine
 62
7
  6
CONTINUOUS
 10
855.1873641304
 20
718.9944238989
 11
282.1873641304
 21
718.9944238989
  0
LINE
  5
3EF
100
AcDbEntity
  8
7_ALL_ROUNDS
100
AcDbLine
 62
9
  6
CONTINUOUS
 10
860.1873641304
 20
723.9944238989
 11
277.1873641304
 21
723.9944238989
  0
LINE
  5
3F0
100
AcDbEntity
  8
3_ALL_AXES
100
AcDbLine
 62
7
  6
CENTER
 10
568.6877378587
 20
751.9526838773
 11
558.5276378587
 21
751.9526838773
  0
LINE
  5
3F1
100
AcDbEntity
  8
3_ALL_AXES
100
AcDbLine
 62
7
  6
CENTER
 10
568.6877378587
 20
751.9526838773
 11
578.8478378587
 21
751.9526838773
  0
LINE
  5
3F2
100
AcDbEntity
  8
3_ALL_AXES
100
AcDbLine
 62
7
  6
CENTER
 10
568.6877378587
 20
751.9526838773
 11
568.6877378587
 21
741.7925838773
  0
LINE
  5
3F3
100
AcDbEntity
  8
3_ALL_AXES
100
AcDbLine
 62
7
  6
CENTER
 10
568.6877378587
 20
751.9526838773
 11
568.6877378587
 21
762.1127838773
  0
LINE
  5
3F4
100
AcDbEntity
  8
7_ALL_ROUNDS
100
AcDbLine
 62
7
  6
CONTINUOUS
 10
286.1873641304
 20
776.9944238989
 11
851.1873641304
 21
776.9944238989
  0
LINE
  5
3F5
100
AcDbEntity
  8
6_COPYGEOM
100
AcDbLine
 62
9
  6
CONTINUOUS
 10
283.1873641304
 20
781.6018882349
 11
277.1873641304
 21
781.6018882349
  0
LINE
  5
3F6
100
AcDbEntity
  8
6_COPYGEOM
100
AcDbLine
 62
9
  6
CONTINUOUS
 10
854.1873641304
 20
781.6018882349
 11
860.1873641304
 21
781.6018882349
  0
LINE
  5
3F7
100
AcDbEntity
  8
6_COPYGEOM
100
AcDbLine
 62
7
  6
CONTINUOUS
 10
277.1873641304
 20
786.4944238989
 11
283.1873641304
 21
786.4944238989
  0
LINE
  5
3F8
100
AcDbEntity
  8
6_COPYGEOM
100
AcDbLine
 62
7
  6
CONTINUOUS
 10
854.1873641304
 20
786.4944238989
 11
860.1873641304
 21
786.4944238989
  0
LINE
  5
3F9
100
AcDbEntity
  8
6_COPYGEOM
100
AcDbLine
 62
9
  6
CONTINUOUS
 10
860.1873641304
 20
810.7405816587
 11
854.1873641304
 21
810.7405816587
  0
LINE
  5
3FA
100
AcDbEntity
  8
6_COPYGEOM
100
AcDbLine
 62
9
  6
CONTINUOUS
 10
277.1873641304
 20
810.7405816587
 11
283.1873641304
 21
810.7405816587
  0
LINE
  5
3FB
100
AcDbEntity
  8
6_COPYGEOM
100
AcDbLine
 62
9
  6
CONTINUOUS
 10
860.1873641304
 20
818.2837731192
 11
854.1873641304
 21
818.2837731192
  0
LINE
  5
3FC
100
AcDbEntity
  8
6_COPYGEOM
100
AcDbLine
 62
9
  6
CONTINUOUS
 10
277.1873641304
 20
818.2837731192
 11
283.1873641304
 21
818.2837731192
  0
LINE
  5
3FD
100
AcDbEntity
  8
6_COPYGEOM
100
AcDbLine
 62
7
  6
CONTINUOUS
 10
860.1873641304
 20
819.7914575996
 11
854.1873641304
 21
819.7914575996
  0
LINE
  5
3FE
100
AcDbEntity
  8
6_COPYGEOM
100
AcDbLine
 62
7
  6
CONTINUOUS
 10
283.1873641304
 20
819.7914575996
 11
277.1873641304
 21
819.7914575996
  0
LINE
  5
3FF
100
AcDbEntity
  8
7_ALL_ROUNDS
100
AcDbLine
 62
7
  6
CONTINUOUS
 10
854.1873641304
 20
781.6018882349
 11
854.1873641304
 21
779.9944238989
  0
LINE
  5
400
100
AcDbEntity
  8
6_COPYGEOM
100
AcDbLine
 62
7
  6
CONTINUOUS
 10
854.1873641304
 20
781.6018882349
 11
854.1873641304
 21
819.7914574431
  0
LINE
  5
401
100
AcDbEntity
  8
6_COPYGEOM
100
AcDbLine
 62
7
  6
CONTINUOUS
 10
860.1873641304
 20
819.7914574431
 11
860.1873641304
 21
781.6018882349
  0
LINE
  5
402
100
AcDbEntity
  8
7_ALL_ROUNDS
100
AcDbLine
 62
7
  6
CONTINUOUS
 10
860.1873641304
 20
781.6018882349
 11
860.1873641304
 21
723.9944238989
  0
LINE
  5
403
100
AcDbEntity
  8
7_ALL_ROUNDS
100
AcDbLine
 62
7
  6
CONTINUOUS
 10
1228.9420555057
 20
928.6148185505
 11
1228.9420555057
 21
945.3798158954
  0
LINE
  5
404
100
AcDbEntity
  8
7_ALL_ROUNDS
100
AcDbLine
 62
9
  6
CONTINUOUS
 10
1230.4065215997
 20
926.5730425502
 11
1230.4065215997
 21
940.4516666059
  0
LINE
  5
405
100
AcDbEntity
  8
7_ALL_ROUNDS
100
AcDbLine
 62
9
  6
CONTINUOUS
 10
1274.2471420333
 20
969.0349268609
 11
1274.2471420333
 21
966.5847956606
  0
LINE
  5
406
100
AcDbEntity
  8
7_ALL_ROUNDS
100
AcDbLine
 62
7
  6
CONTINUOUS
 10
1271.1411502787
 20
972.1414744818
 11
1230.4065215997
 21
948.6171668581
  0
LINE
  5
407
100
AcDbEntity
  8
7_ALL_ROUNDS
100
AcDbLine
 62
7
  6
CONTINUOUS
 10
1275.3837909658
 20
969.6913432814
 11
1274.2471420333
 21
969.0349268609
  0
LINE
  5
408
100
AcDbEntity
  8
6_COPYGEOM
100
AcDbLine
 62
7
  6
CONTINUOUS
 10
1275.1337423839
 20
993.8158411546
 11
1277.7857805226
 21
986.9348717188
  0
LINE
  5
409
100
AcDbEntity
  8
6_COPYGEOM
100
AcDbLine
 62
7
  6
CONTINUOUS
 10
1279.376383071
 20
991.3657099542
 11
1282.0284212097
 21
984.4847405185
  0
LINE
  5
40A
100
AcDbEntity
  8
6_COPYGEOM
100
AcDbLine
 62
7
  6
CONTINUOUS
 10
1301.3218005142
 20
994.1002933032
 11
1295.9879586807
 21
1007.9394617885
  0
LINE
  5
40B
100
AcDbEntity
  8
7_ALL_ROUNDS
100
AcDbLine
 62
7
  6
CONTINUOUS
 10
1230.4065215997
 20
926.5730425502
 11
1635.5787072196
 21
692.5855129182
  0
LINE
  5
40C
100
AcDbEntity
  8
7_ALL_ROUNDS
100
AcDbLine
 62
9
  6
CONTINUOUS
 10
1635.5787072196
 20
706.4641369739
 11
1230.4065215997
 21
940.4516666059
  0
LINE
  5
40D
100
AcDbEntity
  8
7_ALL_ROUNDS
100
AcDbLine
 62
9
  6
CONTINUOUS
 10
1642.6497750315
 20
710.5460852256
 11
1230.4065215997
 21
948.6171668581
  0
LINE
  5
40E
100
AcDbEntity
  8
7_ALL_ROUNDS
100
AcDbLine
 62
7
  6
CONTINUOUS
 10
1274.2471420333
 20
966.5847956606
 11
1673.7624734037
 21
735.8641076291
  0
LINE
  5
40F
100
AcDbEntity
  8
6_COPYGEOM
100
AcDbLine
 62
9
  6
CONTINUOUS
 10
1275.3837909658
 20
969.6913432814
 11
1271.1411502787
 21
972.1414744818
  0
LINE
  5
410
100
AcDbEntity
  8
6_COPYGEOM
100
AcDbLine
 62
9
  6
CONTINUOUS
 10
1679.1417630234
 20
736.5205240496
 11
1683.3844037105
 21
734.0703928493
  0
LINE
  5
411
100
AcDbEntity
  8
6_COPYGEOM
100
AcDbLine
 62
9
  6
CONTINUOUS
 10
1282.0284212097
 20
984.4847405185
 11
1277.7857805226
 21
986.9348717188
  0
LINE
  5
412
100
AcDbEntity
  8
6_COPYGEOM
100
AcDbLine
 62
9
  6
CONTINUOUS
 10
1685.7863932673
 20
751.3139212867
 11
1690.0290339544
 21
748.8637900863
  0
LINE
  5
413
100
AcDbEntity
  8
6_COPYGEOM
100
AcDbLine
 62
9
  6
CONTINUOUS
 10
1687.3769958156
 20
755.7447595221
 11
1683.1343551285
 21
758.1948907224
  0
LINE
  5
414
100
AcDbEntity
  8
6_COPYGEOM
100
AcDbLine
 62
9
  6
CONTINUOUS
 10
1275.1337423839
 20
993.8158411546
 11
1279.376383071
 21
991.3657099542
  0
LINE
  5
415
100
AcDbEntity
  8
6_COPYGEOM
100
AcDbLine
 62
7
  6
CONTINUOUS
 10
1289.6907576023
 20
1012.9273258786
 11
1293.9333982894
 21
1010.4771946783
  0
LINE
  5
416
100
AcDbEntity
  8
6_COPYGEOM
100
AcDbLine
 62
7
  6
CONTINUOUS
 10
1697.6913703469
 20
777.3063754465
 11
1701.9340110341
 21
774.8562442461
  0
LINE
  5
417
100
AcDbEntity
  8
7_ALL_ROUNDS
100
AcDbLine
 62
9
  6
CONTINUOUS
 10
1635.5787072196
 20
706.4641369739
 11
1635.5787072196
 21
692.5855129182
  0
LINE
  5
418
100
AcDbEntity
  8
7_ALL_ROUNDS
100
AcDbLine
 62
9
  6
CONTINUOUS
 10
1642.6497750315
 20
710.5460852256
 11
1642.6497750315
 21
692.5855129182
  0
LINE
  5
419
100
AcDbEntity
  8
6_COPYGEOM
100
AcDbLine
 62
7
  6
CONTINUOUS
 10
1683.1343551285
 20
758.1948907224
 11
1685.7863932673
 21
751.3139212867
  0
LINE
  5
41A
100
AcDbEntity
  8
6_COPYGEOM
100
AcDbLine
 62
7
  6
CONTINUOUS
 10
1687.3769958156
 20
755.7447595221
 11
1690.0290339544
 21
748.8637900863
  0
LINE
  5
41B
100
AcDbEntity
  8
6_COPYGEOM
100
AcDbLine
 62
7
  6
CONTINUOUS
 10
1709.3224132589
 20
758.479342871
 11
1703.9885714253
 21
772.3185113563
  0
LINE
  5
41C
100
AcDbEntity
  8
7_ALL_ROUNDS
100
AcDbLine
 62
7
  6
CONTINUOUS
 10
1679.1417630234
 20
736.5205240496
 11
1678.0051140908
 21
735.8641076291
  0
LINE
  5
41D
100
AcDbEntity
  8
7_ALL_ROUNDS
100
AcDbLine
 62
7
  6
CONTINUOUS
 10
1635.5787072196
 20
706.4641369739
 11
1683.3844037105
 21
734.0703928493
  0
LINE
  5
41E
100
AcDbEntity
  8
7_ALL_ROUNDS
100
AcDbLine
 62
7
  6
CONTINUOUS
 10
1642.6497750315
 20
692.5855129182
 11
1692.7108376491
 21
721.4958497784
  0
LINE
  5
41F
100
AcDbEntity
  8
7_ALL_ROUNDS
100
AcDbLine
 62
7
  6
CONTINUOUS
 10
1104.275251954
 20
718.9944238989
 11
1121.275251954
 21
718.9944238989
  0
LINE
  5
420
100
AcDbEntity
  8
6_COPYGEOM
100
AcDbLine
 62
7
  6
CONTINUOUS
 10
1087.7247483709
 20
818.2837731192
 11
1067.0000001624
 21
810.7405816587
  0
LINE
  5
421
100
AcDbEntity
  8
7_ALL_ROUNDS
100
AcDbLine
 62
9
  6
CONTINUOUS
 10
1099.275251954
 20
723.9944238989
 11
1121.275251954
 21
723.9944238989
  0
LINE
  5
422
100
AcDbEntity
  8
6_COPYGEOM
100
AcDbLine
 62
7
  6
CONTINUOUS
 10
1075.5505037456
 20
787.248266139
 11
1085.8550505207
 21
790.9988144428
  0
LINE
  5
423
100
AcDbEntity
  8
3_ALL_AXES
100
AcDbLine
 62
7
  6
CENTER
 10
1071.275251954
 20
798.9944238989
 11
1071.275251954
 21
788.8343238989
  0
LINE
  5
424
100
AcDbEntity
  8
3_ALL_AXES
100
AcDbLine
 62
7
  6
CENTER
 10
1071.275251954
 20
798.9944238989
 11
1071.275251954
 21
809.1545238989
  0
LINE
  5
425
100
AcDbEntity
  8
7_ALL_ROUNDS
100
AcDbLine
 62
7
  6
CONTINUOUS
 10
1099.275251954
 20
781.6018882349
 11
1099.275251954
 21
723.9944238989
  0
LINE
  5
426
100
AcDbEntity
  8
7_ALL_ROUNDS
100
AcDbLine
 62
7
  6
CONTINUOUS
 10
1121.275251954
 20
718.9944238989
 11
1121.275251954
 21
794.7914575996
  0
LINE
  5
427
100
AcDbEntity
  8
3_ALL_AXES
100
AcDbLine
 62
7
  6
CENTER
 10
1071.275251954
 20
798.9944238989
 11
1061.115151954
 21
798.9944238989
  0
LINE
  5
428
100
AcDbEntity
  8
3_ALL_AXES
100
AcDbLine
 62
7
  6
CENTER
 10
1071.275251954
 20
798.9944238989
 11
1081.435351954
 21
798.9944238989
  0
LINE
  5
429
100
AcDbEntity
  8
7_ALL_ROUNDS
100
AcDbLine
 62
7
  6
CONTINUOUS
 10
277.1873641304
 20
320.5109248837
 11
277.1873641304
 21
249.713891183
  0
LINE
  5
42A
100
AcDbEntity
  8
6_COPYGEOM
100
AcDbLine
 62
7
  6
CONTINUOUS
 10
277.1873641304
 20
249.713891183
 11
277.1873641304
 21
224.7138913395
  0
LINE
  5
42B
100
AcDbEntity
  8
6_COPYGEOM
100
AcDbLine
 62
7
  6
CONTINUOUS
 10
283.1873641304
 20
224.7138913395
 11
283.1873641304
 21
249.713891183
  0
LINE
  5
42C
100
AcDbEntity
  8
7_ALL_ROUNDS
100
AcDbLine
 62
7
  6
CONTINUOUS
 10
283.1873641304
 20
249.713891183
 11
283.1873641304
 21
266.2659268853
  0
LINE
  5
42D
100
AcDbEntity
  8
7_ALL_ROUNDS
100
AcDbLine
 62
9
  6
CONTINUOUS
 10
286.1873641304
 20
267.5109248837
 11
286.1873641304
 21
272.5109248837
  0
LINE
  5
42E
100
AcDbEntity
  8
3_ALL_AXES
100
AcDbLine
 62
7
  6
CENTER
 10
368.6873641304
 20
296.5109248837
 11
368.6873641304
 21
281.7063918319
  0
LINE
  5
42F
100
AcDbEntity
  8
3_ALL_AXES
100
AcDbLine
 62
7
  6
CENTER
 10
368.6873641304
 20
296.5109248837
 11
368.6873641304
 21
311.3154579356
  0
LINE
  5
430
100
AcDbEntity
  8
6_COPYGEOM
100
AcDbLine
 62
7
  6
CONTINUOUS
 10
860.1873641304
 20
224.713891183
 11
854.1873641304
 21
224.713891183
  0
LINE
  5
431
100
AcDbEntity
  8
6_COPYGEOM
100
AcDbLine
 62
7
  6
CONTINUOUS
 10
283.1873641304
 20
224.713891183
 11
277.1873641304
 21
224.713891183
  0
LINE
  5
432
100
AcDbEntity
  8
6_COPYGEOM
100
AcDbLine
 62
9
  6
CONTINUOUS
 10
860.1873641304
 20
249.713891183
 11
854.1873641304
 21
249.713891183
  0
LINE
  5
433
100
AcDbEntity
  8
6_COPYGEOM
100
AcDbLine
 62
9
  6
CONTINUOUS
 10
277.1873641304
 20
249.713891183
 11
283.1873641304
 21
249.713891183
  0
LINE
  5
434
100
AcDbEntity
  8
3_ALL_AXES
100
AcDbLine
 62
7
  6
CENTER
 10
568.6873641304
 20
296.5109248837
 11
568.6873641304
 21
248.1649682333
  0
LINE
  5
435
100
AcDbEntity
  8
3_ALL_AXES
100
AcDbLine
 62
7
  6
CENTER
 10
568.6873641304
 20
296.5109248837
 11
568.6873641304
 21
311.0148310057
  0
LINE
  5
436
100
AcDbEntity
  8
7_ALL_ROUNDS
100
AcDbLine
 62
7
  6
CONTINUOUS
 10
286.1873641304
 20
267.5109248837
 11
851.1873641304
 21
267.5109248837
  0
LINE
  5
437
100
AcDbEntity
  8
7_ALL_ROUNDS
100
AcDbLine
 62
9
  6
CONTINUOUS
 10
286.1873641304
 20
272.5109248837
 11
851.1873641304
 21
272.5109248837
  0
LINE
  5
438
100
AcDbEntity
  8
3_ALL_AXES
100
AcDbLine
 62
7
  6
CENTER
 10
768.6873641304
 20
296.5109248837
 11
579.6694904385
 21
296.5109248837
  0
LINE
  5
439
100
AcDbEntity
  8
3_ALL_AXES
100
AcDbLine
 62
7
  6
CENTER
 10
568.6873641304
 20
296.5109248837
 11
382.2747820847
 21
296.5109248837
  0
LINE
  5
43A
100
AcDbEntity
  8
3_ALL_AXES
100
AcDbLine
 62
7
  6
CENTER
 10
368.6873641304
 20
296.5109248837
 11
353.8828310786
 21
296.5109248837
  0
LINE
  5
43B
100
AcDbEntity
  8
3_ALL_AXES
100
AcDbLine
 62
7
  6
CENTER
 10
368.6873641304
 20
296.5109248837
 11
382.2747820847
 21
296.5109248837
  0
LINE
  5
43C
100
AcDbEntity
  8
3_ALL_AXES
100
AcDbLine
 62
7
  6
CENTER
 10
568.6873641304
 20
296.5109248837
 11
579.6694904385
 21
296.5109248837
  0
LINE
  5
43D
100
AcDbEntity
  8
3_ALL_AXES
100
AcDbLine
 62
7
  6
CENTER
 10
768.6873641304
 20
296.5109248837
 11
783.1538156928
 21
296.5109248837
  0
LINE
  5
43E
100
AcDbEntity
  8
7_ALL_ROUNDS
100
AcDbLine
 62
7
  6
CONTINUOUS
 10
282.1873641304
 20
325.5109248837
 11
855.1873641304
 21
325.5109248837
  0
LINE
  5
43F
100
AcDbEntity
  8
3_ALL_AXES
100
AcDbLine
 62
7
  6
CENTER
 10
768.6873641304
 20
296.5109248837
 11
768.6873641304
 21
283.0852608
  0
LINE
  5
440
100
AcDbEntity
  8
3_ALL_AXES
100
AcDbLine
 62
7
  6
CENTER
 10
768.6873641304
 20
296.5109248837
 11
768.6873641304
 21
310.1325297704
  0
LINE
  5
441
100
AcDbEntity
  8
7_ALL_ROUNDS
100
AcDbLine
 62
9
  6
CONTINUOUS
 10
851.1873641304
 20
272.5109248837
 11
851.1873641304
 21
267.5109248837
  0
LINE
  5
442
100
AcDbEntity
  8
7_ALL_ROUNDS
100
AcDbLine
 62
7
  6
CONTINUOUS
 10
854.1873641304
 20
266.2659268853
 11
854.1873641304
 21
249.713891183
  0
LINE
  5
443
100
AcDbEntity
  8
6_COPYGEOM
100
AcDbLine
 62
7
  6
CONTINUOUS
 10
854.1873641304
 20
224.7138913395
 11
854.1873641304
 21
249.713891183
  0
LINE
  5
444
100
AcDbEntity
  8
7_ALL_ROUNDS
100
AcDbLine
 62
7
  6
CONTINUOUS
 10
860.1873641304
 20
320.5109248837
 11
860.1873641304
 21
249.713891183
  0
LINE
  5
445
100
AcDbEntity
  8
6_COPYGEOM
100
AcDbLine
 62
7
  6
CONTINUOUS
 10
860.1873641304
 20
249.713891183
 11
860.1873641304
 21
224.7138913395
  0
LINE
  5
446
100
AcDbEntity
  8
7_ALL_ROUNDS
100
AcDbLine
 62
7
  6
CONTINUOUS
 10
1038.4929069423
 20
502.6198567417
 11
1038.4929069423
 21
485.6198567417
  0
LINE
  5
447
100
AcDbEntity
  8
7_ALL_ROUNDS
100
AcDbLine
 62
9
  6
CONTINUOUS
 10
1043.4929069423
 20
507.6198567417
 11
1043.4929069423
 21
485.6198567417
  0
LINE
  5
448
100
AcDbEntity
  8
7_ALL_ROUNDS
100
AcDbLine
 62
7
  6
CONTINUOUS
 10
1038.4929069423
 20
485.6198567417
 11
1114.289940643
 21
485.6198567417
  0
LINE
  5
449
100
AcDbEntity
  8
7_ALL_ROUNDS
100
AcDbLine
 62
7
  6
CONTINUOUS
 10
1101.1003712784
 20
507.6198567417
 11
1043.4929069423
 21
507.6198567417
  0
LINE
  5
44A
100
AcDbEntity
  8
6_COPYGEOM
100
AcDbLine
 62
7
  6
CONTINUOUS
 10
1106.7467491825
 20
531.3446049501
 11
1110.4972974863
 21
521.0400581749
  0
LINE
  5
44B
100
AcDbEntity
  8
6_COPYGEOM
100
AcDbLine
 62
7
  6
CONTINUOUS
 10
1137.7822561627
 20
519.1703603248
 11
1130.2390647022
 21
539.8951085332
  0
LWPOLYLINE
  5
44C
100
AcDbEntity
  8
0
100
AcDbPolyline
 62
7
  6
CONTINUOUS
 90
2
 70
1
 43
1.0
 10
721.7239201033
 20
37.6187110479
 42
1.0
 10
731.8839201033
 20
37.6187110479
 42
1.0
  0
LWPOLYLINE
  5
44D
100
AcDbEntity
  8
0
100
AcDbPolyline
 62
7
  6
CONTINUOUS
 90
2
 70
1
 43
1.0
 10
724.2639201033
 20
37.6187110479
 42
1.0
 10
729.3439201033
 20
37.6187110479
 42
1.0
  0
CIRCLE
  5
44E
100
AcDbEntity
  8
6_COPYGEOM
100
AcDbCircle
 62
7
  6
CONTINUOUS
 10
368.6873641304
 20
747.9944238989
 40
10.0
  0
CIRCLE
  5
44F
100
AcDbEntity
  8
6_COPYGEOM
100
AcDbCircle
 62
7
  6
CONTINUOUS
 10
768.6873641304
 20
747.9944238989
 40
10.0
  0
CIRCLE
  5
450
100
AcDbEntity
  8
6_COPYGEOM
100
AcDbCircle
 62
7
  6
CONTINUOUS
 10
568.6873641304
 20
747.9944238989
 40
10.0
  0
ARC
  5
451
100
AcDbEntity
  8
7_ALL_ROUNDS
100
AcDbCircle
 62
7
  6
CONTINUOUS
 10
282.1873641304
 20
723.9944238989
 40
5.0
100
AcDbArc
 50
180.0
 51
270.0
  0
ARC
  5
452
100
AcDbEntity
  8
7_ALL_ROUNDS
100
AcDbCircle
 62
7
  6
CONTINUOUS
 10
855.1873641304
 20
723.9944238989
 40
5.0
100
AcDbArc
 50
270.0
 51
360.0
  0
ARC
  5
453
100
AcDbEntity
  8
7_ALL_ROUNDS
100
AcDbCircle
 62
7
  6
CONTINUOUS
 10
851.1873641304
 20
779.9944238989
 40
3.0
100
AcDbArc
 50
270.0
 51
360.0
  0
ARC
  5
454
100
AcDbEntity
  8
7_ALL_ROUNDS
100
AcDbCircle
 62
7
  6
CONTINUOUS
 10
286.1873641304
 20
779.9944238989
 40
3.0
100
AcDbArc
 50
180.0
 51
270.0
  0
ARC
  5
455
100
AcDbEntity
  8
6_COPYGEOM
100
AcDbCircle
 62
7
  6
CONTINUOUS
 10
1459.1816729145
 20
836.5646393581
 40
4.3915352426
100
AcDbArc
 50
28.3695321583
 51
32.0363131502
  0
ARC
  5
456
100
AcDbEntity
  8
6_COPYGEOM
100
AcDbCircle
 62
7
  6
CONTINUOUS
 10
1306.3942883024
 20
918.2357417023
 40
4.3914134503
100
AcDbArc
 50
147.9633773158
 51
151.6340771473
  0
ARC
  5
457
100
AcDbEntity
  8
6_COPYGEOM
100
AcDbCircle
 62
7
  6
CONTINUOUS
 10
1589.2370007768
 20
754.8936616802
 40
4.39141345
100
AcDbArc
 50
147.9633773157
 51
151.6340771475
  0
ARC
  5
458
100
AcDbEntity
  8
6_COPYGEOM
100
AcDbCircle
 62
7
  6
CONTINUOUS
 10
1096.275251954
 20
794.7914575996
 40
25.0
100
AcDbArc
 50
0.0
 51
110.0
  0
ARC
  5
459
100
AcDbEntity
  8
6_COPYGEOM
100
AcDbCircle
 62
7
  6
CONTINUOUS
 10
1071.275251954
 20
798.9944238989
 40
12.5
100
AcDbArc
 50
110.0
 51
290.0
  0
ARC
  5
45A
100
AcDbEntity
  8
6_COPYGEOM
100
AcDbCircle
 62
7
  6
CONTINUOUS
 10
1089.275251954
 20
781.6018882349
 40
10.0
100
AcDbArc
 50
0.0
 51
110.0
  0
ARC
  5
45B
100
AcDbEntity
  8
7_ALL_ROUNDS
100
AcDbCircle
 62
7
  6
CONTINUOUS
 10
1104.275251954
 20
723.9944238989
 40
5.0
100
AcDbArc
 50
180.0
 51
270.0
  0
CIRCLE
  5
45C
100
AcDbEntity
  8
6_COPYGEOM
100
AcDbCircle
 62
7
  6
CONTINUOUS
 10
1071.275251954
 20
798.9944238989
 40
4.15
  0
CIRCLE
  5
45D
100
AcDbEntity
  8
6_COPYGEOM
100
AcDbCircle
 62
7
  6
CONTINUOUS
 10
368.6873641304
 20
296.5109248837
 40
10.0
  0
CIRCLE
  5
45E
100
AcDbEntity
  8
6_COPYGEOM
100
AcDbCircle
 62
7
  6
CONTINUOUS
 10
768.6873641304
 20
296.5109248837
 40
10.0
  0
CIRCLE
  5
45F
100
AcDbEntity
  8
6_COPYGEOM
100
AcDbCircle
 62
7
  6
CONTINUOUS
 10
568.6873641304
 20
296.5109248837
 40
10.0
  0
ARC
  5
460
100
AcDbEntity
  8
7_ALL_ROUNDS
100
AcDbCircle
 62
7
  6
CONTINUOUS
 10
282.1873641304
 20
320.5109248837
 40
5.0
100
AcDbArc
 50
90.0
 51
180.0
  0
ARC
  5
461
100
AcDbEntity
  8
7_ALL_ROUNDS
100
AcDbCircle
 62
7
  6
CONTINUOUS
 10
855.1873641304
 20
320.5109248837
 40
5.0
100
AcDbArc
 50
0.0
 51
90.0
  0
ARC
  5
462
100
AcDbEntity
  8
7_ALL_ROUNDS
100
AcDbCircle
 62
7
  6
CONTINUOUS
 10
851.1873641304
 20
264.5109248837
 40
3.0
100
AcDbArc
 50
0.0000008693
 51
90.0
  0
ARC
  5
463
100
AcDbEntity
  8
7_ALL_ROUNDS
100
AcDbCircle
 62
7
  6
CONTINUOUS
 10
286.1873641304
 20
264.510925041
 40
3.0
100
AcDbArc
 50
90.0
 51
180.0000030042
  0
ARC
  5
464
100
AcDbEntity
  8
6_COPYGEOM
100
AcDbCircle
 62
7
  6
CONTINUOUS
 10
1114.289940643
 20
510.6198567417
 40
25.0
100
AcDbArc
 50
270.0
 51
20.0
  0
ARC
  5
465
100
AcDbEntity
  8
6_COPYGEOM
100
AcDbCircle
 62
7
  6
CONTINUOUS
 10
1118.4929069423
 20
535.6198567417
 40
12.5
100
AcDbArc
 50
20.0
 51
200.0
  0
ARC
  5
466
100
AcDbEntity
  8
6_COPYGEOM
100
AcDbCircle
 62
7
  6
CONTINUOUS
 10
1101.1003712784
 20
517.6198567417
 40
10.0
100
AcDbArc
 50
270.0
 51
20.0
  0
ARC
  5
467
100
AcDbEntity
  8
7_ALL_ROUNDS
100
AcDbCircle
 62
7
  6
CONTINUOUS
 10
1043.4929069423
 20
502.6198567417
 40
5.0
100
AcDbArc
 50
90.0
 51
180.0
  0
CIRCLE
  5
468
100
AcDbEntity
  8
6_COPYGEOM
100
AcDbCircle
 62
7
  6
CONTINUOUS
 10
1118.4929069423
 20
535.6198567417
 40
4.15
  0
SPLINE
  5
469
100
AcDbEntity
  8
6_COPYGEOM
100
AcDbSpline
 62
7
  6
CONTINUOUS
 70
0
 71
3
 72
9
 73
5
 74
0
 42
0.0000001
 43
0.0000001
 44
0.0000000001
 40
0.0
 40
0.0
 40
0.0
 40
0.0
 40
0.5508265653
 40
1.0
 40
1.0
 40
1.0
 40
1.0
 10
1692.7482904785
 20
762.3369613589
 30
0.0
 10
1692.7482904785
 20
761.9407600376
 30
0.0
 10
1692.8443130428
 20
761.2045328388
 30
0.0
 10
1693.3276812332
 20
760.5995792566
 30
0.0
 10
1693.6074546726
 20
760.4379935904
 30
0.0
  0
SPLINE
  5
46A
100
AcDbEntity
  8
6_COPYGEOM
100
AcDbSpline
 62
7
  6
CONTINUOUS
 70
0
 71
3
 72
9
 73
5
 74
0
 42
0.0000001
 43
0.0000001
 44
0.0000000001
 40
0.0
 40
0.0
 40
0.0
 40
0.0
 40
0.5204773138
 40
1.0
 40
1.0
 40
1.0
 40
1.0
 10
1703.9885714253
 20
772.3185113563
 30
0.0
 10
1703.7819038684
 20
772.85473032
 30
0.0
 10
1703.246163719
 20
773.8431919356
 30
0.0
 10
1702.3937983453
 20
774.5904617034
 30
0.0
 10
1701.9354271329
 20
774.8554362024
 30
0.0
  0
SPLINE
  5
46B
100
AcDbEntity
  8
6_COPYGEOM
100
AcDbSpline
 62
7
  6
CONTINUOUS
 70
0
 71
3
 72
11
 73
7
 74
0
 42
0.0000001
 43
0.0000001
 44
0.0000000001
 40
0.0
 40
0.0
 40
0.0
 40
0.0
 40
0.2502677903
 40
0.5261389857
 40
0.7870208301
 40
1.0
 40
1.0
 40
1.0
 40
1.0
 10
1692.7108376491
 20
721.4958497784
 30
0.0
 10
1695.818528125
 20
723.2905455723
 30
0.0
 10
1701.5320589435
 20
728.4777584524
 30
0.0
 10
1707.5621747579
 20
738.1578468347
 30
0.0
 10
1710.7394775495
 20
748.5397319576
 30
0.0
 10
1710.4207201656
 20
755.6296793818
 30
0.0
 10
1709.3224132589
 20
758.479342871
 30
0.0
  0
SPLINE
  5
46C
100
AcDbEntity
  8
7_ALL_ROUNDS
100
AcDbSpline
 62
7
  6
CONTINUOUS
 70
0
 71
3
 72
9
 73
5
 74
0
 42
0.0000001
 43
0.0000001
 44
0.0000000001
 40
0.0
 40
0.0
 40
0.0
 40
0.0
 40
0.5233949396
 40
1.0
 40
1.0
 40
1.0
 40
1.0
 10
1228.9420132173
 20
945.3798241346
 30
0.0
 10
1228.9421529991
 20
946.0212614428
 30
0.0
 10
1229.0953182453
 20
947.2672787565
 30
0.0
 10
1229.9007137631
 20
948.3250620929
 30
0.0
 10
1230.4065215997
 20
948.6171668581
 30
0.0
  0
SPLINE
  5
46D
100
AcDbEntity
  8
6_COPYGEOM
100
AcDbSpline
 62
7
  6
CONTINUOUS
 70
0
 71
3
 72
13
 73
9
 74
0
 42
0.0000001
 43
0.0000001
 44
0.0000000001
 40
0.0
 40
0.0
 40
0.0
 40
0.0
 40
0.2698433663
 40
0.5612749346
 40
0.6954163463
 40
0.8131027299
 40
0.9128342173
 40
1.0
 40
1.0
 40
1.0
 40
1.0
 10
1319.1484226386
 20
916.9696388538
 30
0.0
 10
1317.601814477
 20
916.076470379
 30
0.0
 10
1313.9041902334
 20
915.0752192919
 30
0.0
 10
1309.228632268
 20
915.3117421263
 30
0.0
 10
1305.795034771
 20
916.4555215745
 30
0.0
 10
1303.7869000166
 20
917.6797208144
 30
0.0
 10
1302.4262306172
 20
919.226820398
 30
0.0
 10
1302.0777162095
 20
920.4749988795
 30
0.0
 10
1302.0773937754
 20
921.0519145301
 30
0.0
  0
SPLINE
  5
46E
100
AcDbEntity
  8
6_COPYGEOM
100
AcDbSpline
 62
7
  6
CONTINUOUS
 70
0
 71
3
 72
9
 73
5
 74
0
 42
0.0000001
 43
0.0000001
 44
0.0000000001
 40
0.0
 40
0.0
 40
0.0
 40
0.0
 40
0.5507506055
 40
1.0
 40
1.0
 40
1.0
 40
1.0
 10
1601.9911351132
 20
753.6275588315
 30
0.0
 10
1602.8184231348
 20
754.1053188736
 30
0.0
 10
1604.2397183308
 20
755.1940004846
 30
0.0
 10
1604.9204638802
 20
756.9331188951
 30
0.0
 10
1604.9200283527
 20
757.7123871563
 30
0.0
  0
SPLINE
  5
46F
100
AcDbEntity
  8
6_COPYGEOM
100
AcDbSpline
 62
7
  6
CONTINUOUS
 70
0
 71
3
 72
8
 73
4
 74
0
 42
0.0000001
 43
0.0000001
 44
0.0000000001
 40
0.0
 40
0.0
 40
0.0
 40
0.0
 40
1.0
 40
1.0
 40
1.0
 40
1.0
 10
1302.2935310969
 20
919.7979829765
 30
0.0
 10
1302.359380431
 20
919.9780036011
 30
0.0
 10
1302.4391405782
 20
920.1534008949
 30
0.0
 10
1302.5301461617
 20
920.3221063894
 30
0.0
  0
SPLINE
  5
470
100
AcDbEntity
  8
6_COPYGEOM
100
AcDbSpline
 62
7
  6
CONTINUOUS
 70
0
 71
3
 72
9
 73
5
 74
0
 42
0.0000001
 43
0.0000001
 44
0.0000000001
 40
0.0
 40
0.0
 40
0.0
 40
0.0
 40
0.2279408855
 40
1.0
 40
1.0
 40
1.0
 40
1.0
 10
1302.6716466944
 20
920.5652162245
 30
0.0
 10
1302.7994842488
 20
920.7696751673
 30
0.0
 10
1303.4319925526
 20
921.6221632644
 30
0.0
 10
1304.2990091483
 20
922.2791199018
 30
0.0
 10
1305.0062870149
 20
922.6875739039
 30
0.0
  0
SPLINE
  5
471
100
AcDbEntity
  8
7_ALL_ROUNDS
100
AcDbSpline
 62
7
  6
CONTINUOUS
 70
0
 71
3
 72
9
 73
5
 74
0
 42
0.0000001
 43
0.0000001
 44
0.0000000001
 40
0.0
 40
0.0
 40
0.0
 40
0.0
 40
0.5507951038
 40
1.0
 40
1.0
 40
1.0
 40
1.0
 10
1230.4065215997
 20
926.5730425502
 30
0.0
 10
1229.9929489592
 20
926.8118813548
 30
0.0
 10
1229.2822822781
 20
927.3559872387
 30
0.0
 10
1228.9422877958
 20
928.225321643
 30
0.0
 10
1228.9422877958
 20
928.6148185505
 30
0.0
  0
SPLINE
  5
472
100
AcDbEntity
  8
7_ALL_ROUNDS
100
AcDbSpline
 62
7
  6
CONTINUOUS
 70
0
 71
3
 72
9
 73
5
 74
0
 42
0.0000001
 43
0.0000001
 44
0.0000000001
 40
0.0
 40
0.0
 40
0.0
 40
0.0
 40
0.5
 40
1.0
 40
1.0
 40
1.0
 40
1.0
 10
1642.6497750315
 20
692.5855129182
 30
0.0
 10
1641.6004377714
 20
691.9795191162
 30
0.0
 10
1639.1142411255
 20
691.5003123947
 30
0.0
 10
1636.6280444797
 20
691.9795191162
 30
0.0
 10
1635.5787072196
 20
692.5855129182
 30
0.0
  0
SPLINE
  5
473
100
AcDbEntity
  8
6_COPYGEOM
100
AcDbSpline
 62
7
  6
CONTINUOUS
 70
0
 71
3
 72
9
 73
5
 74
0
 42
0.0000001
 43
0.0000001
 44
0.0000000001
 40
0.0
 40
0.0
 40
0.0
 40
0.0
 40
0.4492493945
 40
1.0
 40
1.0
 40
1.0
 40
1.0
 10
1322.0773158781
 20
921.0544671786
 30
0.0
 10
1322.0777514056
 20
920.2751989174
 30
0.0
 10
1321.3970058562
 20
918.536080507
 30
0.0
 10
1319.9757106602
 20
917.4473988959
 30
0.0
 10
1319.1484226386
 20
916.9696388538
 30
0.0
  0
SPLINE
  5
474
100
AcDbEntity
  8
6_COPYGEOM
100
AcDbSpline
 62
7
  6
CONTINUOUS
 70
0
 71
3
 72
9
 73
5
 74
0
 42
0.0000001
 43
0.0000001
 44
0.0000000001
 40
0.0
 40
0.0
 40
0.0
 40
0.0
 40
0.2412992971
 40
1.0
 40
1.0
 40
1.0
 40
1.0
 10
1443.7429953534
 20
838.2015666003
 30
0.0
 10
1443.7802585927
 20
838.2970860905
 30
0.0
 10
1443.9505479269
 20
838.68670451
 30
0.0
 10
1444.1814452539
 20
839.0486936983
 30
0.0
 10
1444.3796031349
 20
839.3029813736
 30
0.0
  0
SPLINE
  5
475
100
AcDbEntity
  8
6_COPYGEOM
100
AcDbSpline
 62
7
  6
CONTINUOUS
 70
0
 71
3
 72
11
 73
7
 74
0
 42
0.0000001
 43
0.0000001
 44
0.0000000001
 40
0.0
 40
0.0
 40
0.0
 40
0.0
 40
0.2120210424
 40
0.4727591455
 40
0.7491579543
 40
1.0
 40
1.0
 40
1.0
 40
1.0
 10
1444.3796031349
 20
839.3029813736
 30
0.0
 10
1445.1309559372
 20
840.2671608269
 30
0.0
 10
1447.5187092403
 20
841.8263194225
 30
0.0
 10
1451.7650294343
 20
842.8257425835
 30
0.0
 10
1456.3544712282
 20
842.68495994
 30
0.0
 10
1459.3174337917
 20
841.73976501
 30
0.0
 10
1460.5697788759
 20
841.0165338927
 30
0.0
  0
SPLINE
  5
476
100
AcDbEntity
  8
6_COPYGEOM
100
AcDbSpline
 62
7
  6
CONTINUOUS
 70
0
 71
3
 72
11
 73
7
 74
0
 42
0.0000001
 43
0.0000001
 44
0.0000000001
 40
0.0
 40
0.0
 40
0.0
 40
0.0
 40
0.2508409972
 40
0.5272387247
 40
0.7879770505
 40
1.0
 40
1.0
 40
1.0
 40
1.0
 10
1305.0062870149
 20
922.6875739039
 30
0.0
 10
1306.2586143549
 20
923.4107947739
 30
0.0
 10
1309.2215313232
 20
924.3559839312
 30
0.0
 10
1313.8109141349
 20
924.4967899392
 30
0.0
 10
1318.0572058384
 20
923.4974126424
 30
0.0
 10
1320.4449679178
 20
921.9383143894
 30
0.0
 10
1321.1963532867
 20
920.9741618558
 30
0.0
  0
SPLINE
  5
477
100
AcDbEntity
  8
6_COPYGEOM
100
AcDbSpline
 62
7
  6
CONTINUOUS
 70
0
 71
3
 72
9
 73
5
 74
0
 42
0.0000001
 43
0.0000001
 44
0.0000000001
 40
0.0
 40
0.0
 40
0.0
 40
0.0
 40
0.260045987
 40
1.0
 40
1.0
 40
1.0
 40
1.0
 10
1321.1963532867
 20
920.9741618558
 30
0.0
 10
1321.2642767042
 20
920.887004802
 30
0.0
 10
1321.5145697062
 20
920.5436360905
 30
0.0
 10
1321.7187866068
 20
920.1655525262
 30
0.0
 10
1321.833060392
 20
919.8726327502
 30
0.0
  0
SPLINE
  5
478
100
AcDbEntity
  8
6_COPYGEOM
100
AcDbSpline
 62
7
  6
CONTINUOUS
 70
0
 71
3
 72
9
 73
5
 74
0
 42
0.0000001
 43
0.0000001
 44
0.0000000001
 40
0.0
 40
0.0
 40
0.0
 40
0.0
 40
0.4492495098
 40
1.0
 40
1.0
 40
1.0
 40
1.0
 10
1443.4987500686
 20
839.383426696
 30
0.0
 10
1443.4983146546
 20
838.6041583066
 30
0.0
 10
1444.1790604135
 20
836.8650401472
 30
0.0
 10
1445.6003554803
 20
835.7763587406
 30
0.0
 10
1446.4276432522
 20
835.2985988426
 30
0.0
  0
SPLINE
  5
479
100
AcDbEntity
  8
6_COPYGEOM
100
AcDbSpline
 62
7
  6
CONTINUOUS
 70
0
 71
3
 72
9
 73
5
 74
0
 42
0.0000001
 43
0.0000001
 44
0.0000000001
 40
0.0
 40
0.0
 40
0.0
 40
0.0
 40
0.2742702574
 40
1.0
 40
1.0
 40
1.0
 40
1.0
 10
1587.8489994895
 20
759.3454938816
 30
0.0
 10
1587.5979188071
 20
759.2004944203
 30
0.0
 10
1586.7091332333
 20
758.6314030488
 30
0.0
 10
1585.9210891795
 20
757.8736460493
 30
0.0
 10
1585.514359169
 20
757.2231362022
 30
0.0
  0
SPLINE
  5
47A
100
AcDbEntity
  8
6_COPYGEOM
100
AcDbSpline
 62
7
  6
CONTINUOUS
 70
0
 71
3
 72
8
 73
4
 74
0
 42
0.0000001
 43
0.0000001
 44
0.0000000001
 40
0.0
 40
0.0
 40
0.0
 40
0.0
 40
1.0
 40
1.0
 40
1.0
 40
1.0
 10
1585.3728586363
 20
756.9800263671
 30
0.0
 10
1585.2818530528
 20
756.8113208726
 30
0.0
 10
1585.2020929056
 20
756.6359235788
 30
0.0
 10
1585.1362435715
 20
756.4559029541
 30
0.0
  0
SPLINE
  5
47B
100
AcDbEntity
  8
6_COPYGEOM
100
AcDbSpline
 62
7
  6
CONTINUOUS
 70
0
 71
3
 72
13
 73
9
 74
0
 42
0.0000001
 43
0.0000001
 44
0.0000000001
 40
0.0
 40
0.0
 40
0.0
 40
0.0
 40
0.0871398106
 40
0.1868507923
 40
0.3045312557
 40
0.4386786338
 40
0.7301372637
 40
1.0
 40
1.0
 40
1.0
 40
1.0
 10
1289.7574998237
 20
1003.2462277201
 30
0.0
 10
1289.5502266635
 20
1003.365940198
 30
0.0
 10
1289.0294214422
 20
1003.4998759468
 30
0.0
 10
1288.1911440988
 20
1003.331873488
 30
0.0
 10
1287.3344937881
 20
1002.8641802852
 30
0.0
 10
1286.2108134814
 20
1001.8674120401
 30
0.0
 10
1285.1553190447
 20
1000.2360287528
 30
0.0
 10
1284.7476777339
 20
998.6991844818
 30
0.0
 10
1284.7476777339
 20
997.9579117911
 30
0.0
  0
SPLINE
  5
47C
100
AcDbEntity
  8
6_COPYGEOM
100
AcDbSpline
 62
7
  6
CONTINUOUS
 70
0
 71
3
 72
14
 73
10
 74
0
 42
0.0000001
 43
0.0000001
 44
0.0000000001
 40
0.0
 40
0.0
 40
0.0
 40
0.0
 40
0.0890095925
 40
0.1940709953
 40
0.3201561407
 40
0.4628565625
 40
0.7571832098
 40
0.8888318037
 40
1.0
 40
1.0
 40
1.0
 40
1.0
 10
1289.6921737012
 20
1012.9265178349
 30
0.0
 10
1288.9717147343
 20
1013.3429996047
 30
0.0
 10
1287.0882050091
 20
1013.7378182271
 30
0.0
 10
1284.1468733348
 20
1012.8702145296
 30
0.0
 10
1281.2180309502
 20
1010.891360861
 30
0.0
 10
1277.6305922237
 20
1007.0020952199
 30
0.0
 10
1275.1734663519
 20
1002.0923974933
 30
0.0
 10
1274.4361685292
 20
997.0923494765
 30
0.0
 10
1274.7599630183
 20
994.7856478674
 30
0.0
 10
1275.1337423839
 20
993.8158411546
 30
0.0
  0
SPLINE
  5
47D
100
AcDbEntity
  8
6_COPYGEOM
100
AcDbSpline
 62
7
  6
CONTINUOUS
 70
0
 71
3
 72
13
 73
9
 74
0
 42
0.0000001
 43
0.0000001
 44
0.0000000001
 40
0.0
 40
0.0
 40
0.0
 40
0.0
 40
0.0871657827
 40
0.1868972701
 40
0.3045836537
 40
0.4387250654
 40
0.7301566337
 40
1.0
 40
1.0
 40
1.0
 40
1.0
 10
1584.92010625
 20
757.7098345078
 30
0.0
 10
1584.9204286841
 20
757.1329188572
 30
0.0
 10
1585.2689430918
 20
755.8847403757
 30
0.0
 10
1586.6296124912
 20
754.3376407921
 30
0.0
 10
1588.6377472456
 20
753.1134415522
 30
0.0
 10
1592.0713447426
 20
751.969662104
 30
0.0
 10
1596.746902708
 20
751.7331392696
 30
0.0
 10
1600.4445269516
 20
752.7343903567
 30
0.0
 10
1601.9911351132
 20
753.6275588315
 30
0.0
  0
SPLINE
  5
47E
100
AcDbEntity
  8
6_COPYGEOM
100
AcDbSpline
 62
7
  6
CONTINUOUS
 70
0
 71
3
 72
9
 73
5
 74
0
 42
0.0000001
 43
0.0000001
 44
0.0000000001
 40
0.0
 40
0.0
 40
0.0
 40
0.0
 40
0.2412981562
 40
1.0
 40
1.0
 40
1.0
 40
1.0
 10
1604.6757728667
 20
756.5305527279
 30
0.0
 10
1604.6385047404
 20
756.6260826973
 30
0.0
 10
1604.4681908628
 20
757.0157448936
 30
0.0
 10
1604.237255965
 20
757.3777708035
 30
0.0
 10
1604.0390657613
 20
757.6320818335
 30
0.0
  0
SPLINE
  5
47F
100
AcDbEntity
  8
6_COPYGEOM
100
AcDbSpline
 62
7
  6
CONTINUOUS
 70
0
 71
3
 72
11
 73
7
 74
0
 42
0.0000001
 43
0.0000001
 44
0.0000000001
 40
0.0
 40
0.0
 40
0.0
 40
0.0
 40
0.2120229495
 40
0.4727612753
 40
0.7491590028
 40
1.0
 40
1.0
 40
1.0
 40
1.0
 10
1604.0390657613
 20
757.6320818335
 30
0.0
 10
1603.2876803925
 20
758.5962343671
 30
0.0
 10
1600.899918313
 20
760.1553326201
 30
0.0
 10
1596.6536266095
 20
761.1547099169
 30
0.0
 10
1592.0642437978
 20
761.0139039089
 30
0.0
 10
1589.1013268295
 20
760.0687147516
 30
0.0
 10
1587.8489994895
 20
759.3454938816
 30
0.0
  0
SPLINE
  5
480
100
AcDbEntity
  8
6_COPYGEOM
100
AcDbSpline
 62
7
  6
CONTINUOUS
 70
0
 71
3
 72
13
 73
9
 74
0
 42
0.0000001
 43
0.0000001
 44
0.0000000001
 40
0.0
 40
0.0
 40
0.0
 40
0.0
 40
0.0871657894
 40
0.1868972989
 40
0.3045837218
 40
0.438725176
 40
0.7301567647
 40
1.0
 40
1.0
 40
1.0
 40
1.0
 10
1463.4986720596
 20
839.3808749903
 30
0.0
 10
1463.4983497096
 20
838.8039592821
 30
0.0
 10
1463.1498354015
 20
837.5557805178
 30
0.0
 10
1461.7891656408
 20
836.0086805258
 30
0.0
 10
1459.7810301305
 20
834.7844810712
 30
0.0
 10
1456.3474317891
 20
833.6407017331
 30
0.0
 10
1451.6718741014
 20
833.4041795251
 30
0.0
 10
1447.9742506991
 20
834.4054307806
 30
0.0
 10
1446.4276432522
 20
835.2985988426
 30
0.0
  0
SPLINE
  5
481
100
AcDbEntity
  8
6_COPYGEOM
100
AcDbSpline
 62
7
  6
CONTINUOUS
 70
0
 71
3
 72
8
 73
4
 74
0
 42
0.0000001
 43
0.0000001
 44
0.0000000001
 40
0.0
 40
0.0
 40
0.0
 40
0.0
 40
1.0
 40
1.0
 40
1.0
 40
1.0
 10
1463.2825233589
 20
838.1269741833
 30
0.0
 10
1463.2166451869
 20
838.307068622
 30
0.0
 10
1463.1368447493
 20
838.4825359142
 30
0.0
 10
1463.0457907838
 20
838.6513053302
 30
0.0
  0
SPLINE
  5
482
100
AcDbEntity
  8
6_COPYGEOM
100
AcDbSpline
 62
7
  6
CONTINUOUS
 70
0
 71
3
 72
9
 73
5
 74
0
 42
0.0000001
 43
0.0000001
 44
0.0000000001
 40
0.0
 40
0.0
 40
0.0
 40
0.0
 40
0.2279407844
 40
1.0
 40
1.0
 40
1.0
 40
1.0
 10
1462.904430352
 20
838.8941583746
 30
0.0
 10
1462.7765929707
 20
839.0986191566
 30
0.0
 10
1462.1440835635
 20
839.9511151785
 30
0.0
 10
1461.2770614535
 20
840.60807717
 30
0.0
 10
1460.5697788759
 20
841.0165338927
 30
0.0
  0
SPLINE
  5
483
100
AcDbEntity
  8
6_COPYGEOM
100
AcDbSpline
 62
7
  6
CONTINUOUS
 70
0
 71
3
 72
11
 73
7
 74
0
 42
0.0000001
 43
0.0000001
 44
0.0000000001
 40
0.0
 40
0.0
 40
0.0
 40
0.0
 40
0.2502688214
 40
0.5261388485
 40
0.78702031
 40
1.0
 40
1.0
 40
1.0
 40
1.0
 10
1679.1417630234
 20
736.5205240496
 30
0.0
 10
1680.3848458978
 20
737.2384062272
 30
0.0
 10
1682.6703031123
 20
739.3132545756
 30
0.0
 10
1685.0822679677
 20
743.1853392345
 30
0.0
 10
1686.353284385
 20
747.3380682577
 30
0.0
 10
1686.2257176552
 20
750.174051674
 30
0.0
 10
1685.7863932673
 20
751.3139212867
 30
0.0
  0
SPLINE
  5
484
100
AcDbEntity
  8
6_COPYGEOM
100
AcDbSpline
 62
7
  6
CONTINUOUS
 70
0
 71
3
 72
13
 73
9
 74
0
 42
0.0000001
 43
0.0000001
 44
0.0000000001
 40
0.0
 40
0.0
 40
0.0
 40
0.0
 40
0.0871398106
 40
0.1868507923
 40
0.3045312557
 40
0.4386786338
 40
0.7301372637
 40
1.0
 40
1.0
 40
1.0
 40
1.0
 10
1697.7581125683
 20
767.6252772879
 30
0.0
 10
1697.5508394082
 20
767.7449897658
 30
0.0
 10
1697.0300341869
 20
767.8789255146
 30
0.0
 10
1696.1917568435
 20
767.7109230559
 30
0.0
 10
1695.3351065328
 20
767.243229853
 30
0.0
 10
1694.211426226
 20
766.2464616079
 30
0.0
 10
1693.1559317894
 20
764.6150783206
 30
0.0
 10
1692.7482904785
 20
763.0782340496
 30
0.0
 10
1692.7482904785
 20
762.3369613589
 30
0.0
  0
SPLINE
  5
485
100
AcDbEntity
  8
6_COPYGEOM
100
AcDbSpline
 62
7
  6
CONTINUOUS
 70
0
 71
3
 72
14
 73
10
 74
0
 42
0.0000001
 43
0.0000001
 44
0.0000000001
 40
0.0
 40
0.0
 40
0.0
 40
0.0
 40
0.0890095925
 40
0.1940709953
 40
0.3201561407
 40
0.4628565625
 40
0.7571832098
 40
0.8888318037
 40
1.0
 40
1.0
 40
1.0
 40
1.0
 10
1697.6927864458
 20
777.3055674027
 30
0.0
 10
1696.972327479
 20
777.7220491725
 30
0.0
 10
1695.0888177537
 20
778.1168677949
 30
0.0
 10
1692.1474860794
 20
777.2492640975
 30
0.0
 10
1689.2186436949
 20
775.2704104288
 30
0.0
 10
1685.6312049683
 20
771.3811447877
 30
0.0
 10
1683.1740790966
 20
766.4714470611
 30
0.0
 10
1682.4367812739
 20
761.4713990443
 30
0.0
 10
1682.760575763
 20
759.1646974353
 30
0.0
 10
1683.1343551285
 20
758.1948907224
 30
0.0
  0
SPLINE
  5
486
100
AcDbEntity
  8
6_COPYGEOM
100
AcDbSpline
 62
7
  6
CONTINUOUS
 70
0
 71
3
 72
9
 73
5
 74
0
 42
0.0000001
 43
0.0000001
 44
0.0000000001
 40
0.0
 40
0.0
 40
0.0
 40
0.0
 40
0.5508265653
 40
1.0
 40
1.0
 40
1.0
 40
1.0
 10
1284.7476777339
 20
997.9579117911
 30
0.0
 10
1284.7476777339
 20
997.5617104698
 30
0.0
 10
1284.8437002981
 20
996.825483271
 30
0.0
 10
1285.3270684886
 20
996.2205296888
 30
0.0
 10
1285.6068419279
 20
996.0589440226
 30
0.0
  0
SPLINE
  5
487
100
AcDbEntity
  8
6_COPYGEOM
100
AcDbSpline
 62
7
  6
CONTINUOUS
 70
0
 71
3
 72
9
 73
5
 74
0
 42
0.0000001
 43
0.0000001
 44
0.0000000001
 40
0.0
 40
0.0
 40
0.0
 40
0.0
 40
0.5204773138
 40
1.0
 40
1.0
 40
1.0
 40
1.0
 10
1295.9879586807
 20
1007.9394617885
 30
0.0
 10
1295.7812911238
 20
1008.4756807522
 30
0.0
 10
1295.2455509743
 20
1009.4641423677
 30
0.0
 10
1294.3931856006
 20
1010.2114121356
 30
0.0
 10
1293.9348143883
 20
1010.4763866345
 30
0.0
  0
SPLINE
  5
488
100
AcDbEntity
  8
6_COPYGEOM
100
AcDbSpline
 62
7
  6
CONTINUOUS
 70
0
 71
3
 72
11
 73
7
 74
0
 42
0.0000001
 43
0.0000001
 44
0.0000000001
 40
0.0
 40
0.0
 40
0.0
 40
0.0
 40
0.2097690836
 40
0.4650765925
 40
0.7399894174
 40
1.0
 40
1.0
 40
1.0
 40
1.0
 10
1301.3218005142
 20
994.1002933032
 30
0.0
 10
1302.3227591465
 20
991.5032093267
 30
0.0
 10
1302.7716908873
 20
985.1069057016
 30
0.0
 10
1300.2381693484
 20
975.5253310948
 30
0.0
 10
1295.11036651
 20
966.2651242372
 30
0.0
 10
1290.1746448391
 20
961.0074204391
 30
0.0
 10
1287.4235674614
 20
958.925700556
 30
0.0
  0
SPLINE
  5
489
100
AcDbEntity
  8
7_ALL_ROUNDS
100
AcDbSpline
 62
7
  6
CONTINUOUS
 70
0
 71
3
 72
9
 73
5
 74
0
 42
0.0000001
 43
0.0000001
 44
0.0000000001
 40
0.0
 40
0.0
 40
0.0
 40
0.0
 40
0.5
 40
1.0
 40
1.0
 40
1.0
 40
1.0
 10
1678.0051140908
 20
735.8641076291
 30
0.0
 10
1677.37550633
 20
735.5005082266
 30
0.0
 10
1675.8837937472
 20
735.2128294588
 30
0.0
 10
1674.3920811645
 20
735.5005082266
 30
0.0
 10
1673.7624734037
 20
735.8641076291
 30
0.0
  0
SPLINE
  5
48A
100
AcDbEntity
  8
7_ALL_ROUNDS
100
AcDbSpline
 62
7
  6
CONTINUOUS
 70
0
 71
3
 72
9
 73
5
 74
0
 42
0.0000001
 43
0.0000001
 44
0.0000000001
 40
0.0
 40
0.0
 40
0.0
 40
0.0
 40
0.5507201556
 40
1.0
 40
1.0
 40
1.0
 40
1.0
 10
1274.2471420333
 20
966.5847956606
 30
0.0
 10
1273.9990268022
 20
966.7280825693
 30
0.0
 10
1273.5727252161
 20
967.0545918107
 30
0.0
 10
1273.3684623768
 20
967.5761190257
 30
0.0
 10
1273.3684623768
 20
967.8098612607
 30
0.0
  0
SPLINE
  5
48B
100
AcDbEntity
  8
6_COPYGEOM
100
AcDbSpline
 62
7
  6
CONTINUOUS
 70
0
 71
3
 72
11
 73
7
 74
0
 42
0.0000001
 43
0.0000001
 44
0.0000000001
 40
0.0
 40
0.0
 40
0.0
 40
0.0
 40
0.21297969
 40
0.4738611515
 40
0.7497311786
 40
1.0
 40
1.0
 40
1.0
 40
1.0
 10
1277.7857805226
 20
986.9348717188
 30
0.0
 10
1278.2251049106
 20
985.7950021062
 30
0.0
 10
1278.3526716404
 20
982.9590186899
 30
0.0
 10
1277.0816552231
 20
978.8062896667
 30
0.0
 10
1274.6696903677
 20
974.9342050078
 30
0.0
 10
1272.3842331531
 20
972.8593566594
 30
0.0
 10
1271.1411502787
 20
972.1414744818
 30
0.0
  0
SPLINE
  5
48C
100
AcDbEntity
  8
6_COPYGEOM
100
AcDbSpline
 62
7
  6
CONTINUOUS
 70
0
 71
3
 72
9
 73
5
 74
0
 42
0.0000001
 43
0.0000001
 44
0.0000000001
 40
0.0
 40
0.0
 40
0.0
 40
0.0
 40
0.5508265653
 40
1.0
 40
1.0
 40
1.0
 40
1.0
 10
1698.6172767624
 20
765.7263095194
 30
0.0
 10
1698.6172767624
 20
766.1225108407
 30
0.0
 10
1698.5212541982
 20
766.8587380395
 30
0.0
 10
1698.0378860077
 20
767.4636916217
 30
0.0
 10
1697.7581125683
 20
767.6252772879
 30
0.0
  0
SPLINE
  5
48D
100
AcDbEntity
  8
6_COPYGEOM
100
AcDbSpline
 62
7
  6
CONTINUOUS
 70
0
 71
3
 72
11
 73
7
 74
0
 42
0.0000001
 43
0.0000001
 44
0.0000000001
 40
0.0
 40
0.0
 40
0.0
 40
0.0
 40
0.21297969
 40
0.4738611515
 40
0.7497311786
 40
1.0
 40
1.0
 40
1.0
 40
1.0
 10
1690.0290339544
 20
748.8637900863
 30
0.0
 10
1690.4683583423
 20
747.7239204737
 30
0.0
 10
1690.5959250721
 20
744.8879370574
 30
0.0
 10
1689.3249086548
 20
740.7352080342
 30
0.0
 10
1686.9129437994
 20
736.8631233753
 30
0.0
 10
1684.6274865849
 20
734.7882750268
 30
0.0
 10
1683.3844037105
 20
734.0703928493
 30
0.0
  0
SPLINE
  5
48E
100
AcDbEntity
  8
6_COPYGEOM
100
AcDbSpline
 62
7
  6
CONTINUOUS
 70
0
 71
3
 72
13
 73
9
 74
0
 42
0.0000001
 43
0.0000001
 44
0.0000000001
 40
0.0
 40
0.0
 40
0.0
 40
0.0
 40
0.2698433663
 40
0.5612749346
 40
0.6954163463
 40
0.8131027299
 40
0.9128342173
 40
1.0
 40
1.0
 40
1.0
 40
1.0
 10
1305.0062870149
 20
925.1367428549
 30
0.0
 10
1306.5528951765
 20
926.0299113297
 30
0.0
 10
1310.2505194201
 20
927.0311624168
 30
0.0
 10
1314.9260773856
 20
926.7946395824
 30
0.0
 10
1318.3596748825
 20
925.6508601342
 30
0.0
 10
1320.367809637
 20
924.4266608943
 30
0.0
 10
1321.7284790363
 20
922.8795613107
 30
0.0
 10
1322.076993444
 20
921.6313828292
 30
0.0
 10
1322.0773158781
 20
921.0544671786
 30
0.0
  0
SPLINE
  5
48F
100
AcDbEntity
  8
6_COPYGEOM
100
AcDbSpline
 62
7
  6
CONTINUOUS
 70
0
 71
3
 72
9
 73
5
 74
0
 42
0.0000001
 43
0.0000001
 44
0.0000000001
 40
0.0
 40
0.0
 40
0.0
 40
0.0
 40
0.2593746466
 40
1.0
 40
1.0
 40
1.0
 40
1.0
 10
1460.5697788759
 20
843.4657028438
 30
0.0
 10
1460.6804266379
 20
843.4018035995
 30
0.0
 10
1461.101863834
 20
843.146739558
 30
0.0
 10
1461.5022489942
 20
842.8559909485
 30
0.0
 10
1461.7798655837
 20
842.6192573478
 30
0.0
  0
SPLINE
  5
490
100
AcDbEntity
  8
6_COPYGEOM
100
AcDbSpline
 62
7
  6
CONTINUOUS
 70
0
 71
3
 72
9
 73
5
 74
0
 42
0.0000001
 43
0.0000001
 44
0.0000000001
 40
0.0
 40
0.0
 40
0.0
 40
0.0
 40
0.5341758777
 40
1.0
 40
1.0
 40
1.0
 40
1.0
 10
1461.7798655837
 20
842.6192573478
 30
0.0
 10
1462.2887050382
 20
842.1853517359
 30
0.0
 10
1463.1440880921
 20
841.2266228504
 30
0.0
 10
1463.4989978961
 20
839.9640306395
 30
0.0
 10
1463.4986720596
 20
839.3808749903
 30
0.0
  0
SPLINE
  5
491
100
AcDbEntity
  8
6_COPYGEOM
100
AcDbSpline
 62
7
  6
CONTINUOUS
 70
0
 71
3
 72
13
 73
9
 74
0
 42
0.0000001
 43
0.0000001
 44
0.0000000001
 40
0.0
 40
0.0
 40
0.0
 40
0.0
 40
0.0871398106
 40
0.1868507923
 40
0.3045312557
 40
0.4386786338
 40
0.7301372637
 40
1.0
 40
1.0
 40
1.0
 40
1.0
 10
1693.6074546726
 20
760.4379935904
 30
0.0
 10
1693.8147278328
 20
760.3182811126
 30
0.0
 10
1694.3355330541
 20
760.1843453638
 30
0.0
 10
1695.1738103975
 20
760.3523478225
 30
0.0
 10
1696.0304607082
 20
760.8200410253
 30
0.0
 10
1697.1541410149
 20
761.8168092704
 30
0.0
 10
1698.2096354516
 20
763.4481925577
 30
0.0
 10
1698.6172767624
 20
764.9850368287
 30
0.0
 10
1698.6172767624
 20
765.7263095194
 30
0.0
  0
SPLINE
  5
492
100
AcDbEntity
  8
6_COPYGEOM
100
AcDbSpline
 62
7
  6
CONTINUOUS
 70
0
 71
3
 72
13
 73
9
 74
0
 42
0.0000001
 43
0.0000001
 44
0.0000000001
 40
0.0
 40
0.0
 40
0.0
 40
0.0
 40
0.0871398106
 40
0.1868507923
 40
0.3045312557
 40
0.4386786338
 40
0.7301372637
 40
1.0
 40
1.0
 40
1.0
 40
1.0
 10
1285.6068419279
 20
996.0589440226
 30
0.0
 10
1285.8141150881
 20
995.9392315447
 30
0.0
 10
1286.3349203094
 20
995.8052957959
 30
0.0
 10
1287.1731976528
 20
995.9732982547
 30
0.0
 10
1288.0298479635
 20
996.4409914575
 30
0.0
 10
1289.1535282703
 20
997.4377597026
 30
0.0
 10
1290.2090227069
 20
999.0691429899
 30
0.0
 10
1290.6166640178
 20
1000.6059872609
 30
0.0
 10
1290.6166640178
 20
1001.3472599516
 30
0.0
  0
SPLINE
  5
493
100
AcDbEntity
  8
6_COPYGEOM
100
AcDbSpline
 62
7
  6
CONTINUOUS
 70
0
 71
3
 72
14
 73
10
 74
0
 42
0.0000001
 43
0.0000001
 44
0.0000000001
 40
0.0
 40
0.0
 40
0.0
 40
0.0
 40
0.0890095925
 40
0.1940709953
 40
0.3201561407
 40
0.4628565625
 40
0.7571832098
 40
0.8888318037
 40
1.0
 40
1.0
 40
1.0
 40
1.0
 10
1701.9354271329
 20
774.8554362024
 30
0.0
 10
1701.2149681661
 20
775.2719179722
 30
0.0
 10
1699.3314584409
 20
775.6667365946
 30
0.0
 10
1696.3901267665
 20
774.7991328971
 30
0.0
 10
1693.461284382
 20
772.8202792285
 30
0.0
 10
1689.8738456554
 20
768.9310135874
 30
0.0
 10
1687.4167197837
 20
764.0213158608
 30
0.0
 10
1686.679421961
 20
759.021267844
 30
0.0
 10
1687.0032164501
 20
756.7145662349
 30
0.0
 10
1687.3769958156
 20
755.7447595221
 30
0.0
  0
SPLINE
  5
494
100
AcDbEntity
  8
6_COPYGEOM
100
AcDbSpline
 62
7
  6
CONTINUOUS
 70
0
 71
3
 72
9
 73
5
 74
0
 42
0.0000001
 43
0.0000001
 44
0.0000000001
 40
0.0
 40
0.0
 40
0.0
 40
0.0
 40
0.2593748627
 40
1.0
 40
1.0
 40
1.0
 40
1.0
 10
1587.8489994895
 20
761.7946628326
 30
0.0
 10
1587.7383486948
 20
761.7307618369
 30
0.0
 10
1587.3169004578
 20
761.4756907568
 30
0.0
 10
1586.9165054454
 20
761.1849331042
 30
0.0
 10
1586.6388828885
 20
760.9481917223
 30
0.0
  0
SPLINE
  5
495
100
AcDbEntity
  8
6_COPYGEOM
100
AcDbSpline
 62
7
  6
CONTINUOUS
 70
0
 71
3
 72
9
 73
5
 74
0
 42
0.0000001
 43
0.0000001
 44
0.0000000001
 40
0.0
 40
0.0
 40
0.0
 40
0.0
 40
0.5341755171
 40
1.0
 40
1.0
 40
1.0
 40
1.0
 10
1586.6388828885
 20
760.9481917223
 30
0.0
 10
1586.1300513891
 20
760.5142879586
 30
0.0
 10
1585.2746826194
 20
759.555564154
 30
0.0
 10
1584.9197803316
 20
758.2929846776
 30
0.0
 10
1584.92010625
 20
757.7098345078
 30
0.0
  0
SPLINE
  5
496
100
AcDbEntity
  8
6_COPYGEOM
100
AcDbSpline
 62
7
  6
CONTINUOUS
 70
0
 71
3
 72
9
 73
5
 74
0
 42
0.0000001
 43
0.0000001
 44
0.0000000001
 40
0.0
 40
0.0
 40
0.0
 40
0.0
 40
0.4658244829
 40
1.0
 40
1.0
 40
1.0
 40
1.0
 10
1302.0773937754
 20
921.0519145301
 30
0.0
 10
1302.0770678569
 20
921.6350646999
 30
0.0
 10
1302.4319701448
 20
922.8976441764
 30
0.0
 10
1303.2873389145
 20
923.8563679809
 30
0.0
 10
1303.7961704139
 20
924.2902717446
 30
0.0
  0
SPLINE
  5
497
100
AcDbEntity
  8
6_COPYGEOM
100
AcDbSpline
 62
7
  6
CONTINUOUS
 70
0
 71
3
 72
9
 73
5
 74
0
 42
0.0000001
 43
0.0000001
 44
0.0000000001
 40
0.0
 40
0.0
 40
0.0
 40
0.0
 40
0.240732737
 40
1.0
 40
1.0
 40
1.0
 40
1.0
 10
1303.7961704139
 20
924.2902717446
 30
0.0
 10
1303.8864122741
 20
924.3672250835
 30
0.0
 10
1304.2694491765
 20
924.6772594074
 30
0.0
 10
1304.6823669042
 20
924.9496785174
 30
0.0
 10
1305.0062870149
 20
925.1367428549
 30
0.0
  0
SPLINE
  5
498
100
AcDbEntity
  8
6_COPYGEOM
100
AcDbSpline
 62
7
  6
CONTINUOUS
 70
0
 71
3
 72
9
 73
5
 74
0
 42
0.0000001
 43
0.0000001
 44
0.0000000001
 40
0.0
 40
0.0
 40
0.0
 40
0.0
 40
0.5508265653
 40
1.0
 40
1.0
 40
1.0
 40
1.0
 10
1290.6166640178
 20
1001.3472599516
 30
0.0
 10
1290.6166640178
 20
1001.7434612729
 30
0.0
 10
1290.5206414535
 20
1002.4796884717
 30
0.0
 10
1290.0372732631
 20
1003.0846420539
 30
0.0
 10
1289.7574998237
 20
1003.2462277201
 30
0.0
  0
SPLINE
  5
499
100
AcDbEntity
  8
6_COPYGEOM
100
AcDbSpline
 62
7
  6
CONTINUOUS
 70
0
 71
3
 72
14
 73
10
 74
0
 42
0.0000001
 43
0.0000001
 44
0.0000000001
 40
0.0
 40
0.0
 40
0.0
 40
0.0
 40
0.0890095925
 40
0.1940709953
 40
0.3201561407
 40
0.4628565625
 40
0.7571832098
 40
0.8888318037
 40
1.0
 40
1.0
 40
1.0
 40
1.0
 10
1293.9348143883
 20
1010.4763866345
 30
0.0
 10
1293.2143554214
 20
1010.8928684044
 30
0.0
 10
1291.3308456962
 20
1011.2876870268
 30
0.0
 10
1288.3895140219
 20
1010.4200833293
 30
0.0
 10
1285.4606716374
 20
1008.4412296607
 30
0.0
 10
1281.8732329108
 20
1004.5519640195
 30
0.0
 10
1279.416107039
 20
999.642266293
 30
0.0
 10
1278.6788092163
 20
994.6422182761
 30
0.0
 10
1279.0026037055
 20
992.3355166671
 30
0.0
 10
1279.376383071
 20
991.3657099542
 30
0.0
  0
SPLINE
  5
49A
100
AcDbEntity
  8
7_ALL_ROUNDS
100
AcDbSpline
 62
7
  6
CONTINUOUS
 70
0
 71
3
 72
9
 73
5
 74
0
 42
0.0000001
 43
0.0000001
 44
0.0000000001
 40
0.0
 40
0.0
 40
0.0
 40
0.0
 40
0.4492798444
 40
1.0
 40
1.0
 40
1.0
 40
1.0
 10
1273.3684623768
 20
967.8098612607
 30
0.0
 10
1273.3684623768
 20
968.0436034957
 30
0.0
 10
1273.5727252161
 20
968.5651307108
 30
0.0
 10
1273.9990268022
 20
968.8916399521
 30
0.0
 10
1274.2471420333
 20
969.0349268609
 30
0.0
  0
SPLINE
  5
49B
100
AcDbEntity
  8
6_COPYGEOM
100
AcDbSpline
 62
7
  6
CONTINUOUS
 70
0
 71
3
 72
11
 73
7
 74
0
 42
0.0000001
 43
0.0000001
 44
0.0000000001
 40
0.0
 40
0.0
 40
0.0
 40
0.0
 40
0.2502688214
 40
0.5261388485
 40
0.78702031
 40
1.0
 40
1.0
 40
1.0
 40
1.0
 10
1275.3837909658
 20
969.6913432814
 30
0.0
 10
1276.6268738402
 20
970.409225459
 30
0.0
 10
1278.9123310548
 20
972.4840738074
 30
0.0
 10
1281.3242959102
 20
976.3561584663
 30
0.0
 10
1282.5953123275
 20
980.5088874896
 30
0.0
 10
1282.4677455977
 20
983.3448709059
 30
0.0
 10
1282.0284212097
 20
984.4847405185
 30
0.0
  0
SPLINE
  5
49C
100
AcDbEntity
  8
6_COPYGEOM
100
AcDbSpline
 62
7
  6
CONTINUOUS
 70
0
 71
3
 72
13
 73
9
 74
0
 42
0.0000001
 43
0.0000001
 44
0.0000000001
 40
0.0
 40
0.0
 40
0.0
 40
0.0
 40
0.2698432353
 40
0.561274824
 40
0.6954162782
 40
0.8131027011
 40
0.9128342106
 40
1.0
 40
1.0
 40
1.0
 40
1.0
 10
1460.5697788759
 20
843.4657028438
 30
0.0
 10
1459.023171429
 20
844.3588709058
 30
0.0
 10
1455.3255480268
 20
845.3601221613
 30
0.0
 10
1450.6499903391
 20
845.1235999532
 30
0.0
 10
1447.2163919977
 20
843.9798206152
 30
0.0
 10
1445.2082564873
 20
842.7556211606
 30
0.0
 10
1443.8475867267
 20
841.2085211686
 30
0.0
 10
1443.4990724185
 20
839.9603424043
 30
0.0
 10
1443.4987500686
 20
839.383426696
 30
0.0
  0
SPLINE
  5
49D
100
AcDbEntity
  8
6_COPYGEOM
100
AcDbSpline
 62
7
  6
CONTINUOUS
 70
0
 71
3
 72
13
 73
9
 74
0
 42
0.0000001
 43
0.0000001
 44
0.0000000001
 40
0.0
 40
0.0
 40
0.0
 40
0.0
 40
0.0871657827
 40
0.1868972701
 40
0.3045836537
 40
0.4387250654
 40
0.7301566337
 40
1.0
 40
1.0
 40
1.0
 40
1.0
 10
1604.9200283527
 20
757.7123871563
 30
0.0
 10
1604.9197059187
 20
758.2893028069
 30
0.0
 10
1604.571191511
 20
759.5374812884
 30
0.0
 10
1603.2105221116
 20
761.084580872
 30
0.0
 10
1601.2023873572
 20
762.3087801119
 30
0.0
 10
1597.7687898602
 20
763.4525595601
 30
0.0
 10
1593.0932318947
 20
763.6890823945
 30
0.0
 10
1589.3956076511
 20
762.6878313074
 30
0.0
 10
1587.8489994895
 20
761.7946628326
 30
0.0
  0
SPLINE
  5
49E
100
AcDbEntity
  8
7_ALL_ROUNDS
100
AcDbSpline
 62
7
  6
CONTINUOUS
 70
0
 71
3
 72
9
 73
5
 74
0
 42
0.0000001
 43
0.0000001
 44
0.0000000001
 40
0.0
 40
0.0
 40
0.0
 40
0.0
 40
0.2553433902
 40
1.0
 40
1.0
 40
1.0
 40
1.0
 10
1230.4065215997
 20
940.4516666059
 30
0.0
 10
1230.1865044508
 20
940.8327474798
 30
0.0
 10
1229.4082873575
 20
942.3669938989
 30
0.0
 10
1228.9417335677
 20
944.0965544323
 30
0.0
 10
1228.9420132173
 20
945.3798241346
 30
0.0
  0
SPLINE
  5
49F
100
AcDbEntity
  8
7_ALL_ROUNDS
100
AcDbSpline
 62
7
  6
CONTINUOUS
 70
0
 71
3
 72
9
 73
5
 74
0
 42
0.0000001
 43
0.0000001
 44
0.0000000001
 40
0.0
 40
0.0
 40
0.0
 40
0.0
 40
0.2505869415
 40
1.0
 40
1.0
 40
1.0
 40
1.0
 10
283.1873641304
 20
266.2659268853
 30
0.0
 10
283.1873641064
 20
266.8526424495
 30
0.0
 10
283.6140688903
 20
269.2026450956
 30
0.0
 10
285.1128650002
 20
271.1237524932
 30
0.0
 10
286.1873641304
 20
272.5109248837
 30
0.0
  0
SPLINE
  5
4A0
100
AcDbEntity
  8
7_ALL_ROUNDS
100
AcDbSpline
 62
7
  6
CONTINUOUS
 70
0
 71
3
 72
9
 73
5
 74
0
 42
0.0000001
 43
0.0000001
 44
0.0000000001
 40
0.0
 40
0.0
 40
0.0
 40
0.0
 40
0.2528593969
 40
1.0
 40
1.0
 40
1.0
 40
1.0
 10
851.1873641304
 20
272.5109248837
 30
0.0
 10
851.5473517488
 20
272.0461828741
 30
0.0
 10
852.9594318813
 20
270.2347216803
 30
0.0
 10
854.1873642015
 20
268.0029082794
 30
0.0
 10
854.1873641304
 20
266.2659268853
 30
0.0
  0
ENDSEC
  0
SECTION
  2
OBJECTS
  0
DICTIONARY
  5
C
100
AcDbDictionary
280
0
281
1
  3
ACAD_GROUP
350
D
  3
ACAD_MLINESTYLE
350
17
  3
ACAD_LAYOUT
350
1A
  3
ACAD_PLOTSETTINGS
350
19
  3
ACAD_PLOTSTYLENAME
350
E
  0
DICTIONARY
  5
D
102
{ACAD_REACTORS
330
C
102
}
100
AcDbDictionary
280
0
281
1
  0
ACDBDICTIONARYWDFLT
  5
E
102
{ACAD_REACTORS
330
C
102
}
100
AcDbDictionary
281
1
  3
Normal
350
F
100
AcDbDictionaryWithDefault
340
F
  0
DICTIONARY
  5
17
102
{ACAD_REACTORS
330
C
102
}
100
AcDbDictionary
280
0
281
1
  3
Standard
350
18
  0
DICTIONARY
  5
19
102
{ACAD_REACTORS
330
C
102
}
100
AcDbDictionary
281
1
  0
DICTIONARY
  5
1A
102
{ACAD_REACTORS
330
C
102
}
100
AcDbDictionary
281
1
  3
Model
350
4A1
  3
Layout1
350
4A2
  0
ACDBPLACEHOLDER
  5
F
102
{ACAD_REACTORS
330
E
102
}
  0
MLINESTYLE
  5
18
102
{ACAD_REACTORS
330
17
102
}
100
AcDbMlineStyle
  2
STANDARD
 70
0
  3

 62
256
 51
90.0
 52
90.0
 71
2
 49
0.5
 62
256
  6
BYLAYER
 49
-0.5
 62
256
  6
BYLAYER
  0
LAYOUT
  5
4A1
102
{ACAD_REACTORS
330
1A
102
}
100
AcDbPlotSettings
  1

  2
none_device
  4

  6

 40
0.0
 41
0.0
 42
0.0
 43
0.0
 44
431.8
 45
279.4
 46
0.0
 47
0.0
 48
0.0
 49
0.0
140
0.0
141
0.0
142
1.0
143
1.0
 70
1024
 72
1
 73
0
 74
0
  7

 75
0
147
1.0
148
0.0
149
0.0
100
AcDbLayout
  1
Model
 70
0
 71
0
 10
0.0
 20
0.0
 11
431.8
 21
279.4
 12
0.0
 22
0.0
 32
0.0
 14
0.0
 24
0.0
 34
0.0
 15
0.0
 25
0.0
 35
0.0
146
0.0
 13
0.0
 23
0.0
 33
0.0
 16
1.0
 26
0.0
 36
0.0
 17
0.0
 27
1.0
 37
0.0
 76
0
330
213
345
0
346
0
  0
LAYOUT
  5
4A2
102
{ACAD_REACTORS
330
1A
102
}
100
AcDbPlotSettings
  1

  2
none_device
  4

  6

 40
0.0
 41
0.0
 42
0.0
 43
0.0
 44
431.8
 45
279.4
 46
0.0
 47
0.0
 48
0.0
 49
0.0
140
0.0
141
0.0
142
1.0
143
1.0
 70
0
 72
1
 73
0
 74
0
  7

 75
0
147
1.0
148
0.0
149
0.0
100
AcDbLayout
  1
Layout1
 70
0
 71
1
 10
0.0
 20
0.0
 11
431.8
 21
279.4
 12
0.0
 22
0.0
 32
0.0
 14
0.0
 24
0.0
 34
0.0
 15
0.0
 25
0.0
 35
0.0
146
0.0
 13
0.0
 23
0.0
 33
0.0
 16
1.0
 26
0.0
 36
0.0
 17
0.0
 27
1.0
 37
0.0
 76
0
330
214
345
0
346
0
  0
ENDSEC
  0
EOF
