999
DXF file: D:\Agile attachment\ECO-113190\FG-901547-2D-A.dxf
999
Pro/ENGINEER 2022014 by Parametric Technology Corporation
  0
SECTION
  2
HEADER
  9
$ACADVER
  1
AC1015
  9
$DWGCODEPAGE
  3
ANSI_1252
  9
$EXTMAX
 10
3022.6
 20
1955.8
 30
0.0
  9
$EXTMIN
 10
0.0
 20
0.0
 30
0.0
  9
$LIMMIN
 10
0.0
 20
0.0
  9
$LIMMAX
 10
3022.6
 20
1955.8
  9
$VIEWCTR
 10
1511.3
 20
977.9
  9
$VIEWSIZE
 40
1955.8
  9
$CLAYER
  8
0
  9
$LTSCALE
 40
166.243
  9
$CELTYPE
  6
BYLAYER
  9
$DIMSCALE
 40
1.0
  9
$DIMASZ
 40
14.0
  9
$DIMEXO
 40
1.5875
  9
$DIMDLI
 40
114.8588
  9
$DIMEXE
 40
3.175
  9
$DIMCEN
 40
27.2034
  9
$DIMLFAC
 40
1.0
  9
$DIMBLK
  1
_FILLED
  9
$DIMALT
 70
1
  9
$DIMALTD
 70
1
  9
$DIMALTTD
 70
2
  9
$DIMALTF
 40
0.0393700787
  9
$DIMTXT
 40
16.002
  9
$DIMTOL
 70
1
  9
$DIMLIM
 70
0
  9
$DIMTFAC
 40
1.0
  9
$DIMTP
 40
0.02
  9
$DIMTM
 40
0.02
  9
$DIMGAP
 40
0.625
  9
$DIMDSEP
 70
46
  9
$AUNITS
 70
0
  9
$PDMODE
 70
3
  9
$PDSIZE
 40
7.9375
  9
$HANDSEED
  5
68F
  9
$TILEMODE
 70
1
  9
$MEASUREMENT
 70
1
  9
$INSUNITS
 70
4
  0
ENDSEC
  0
SECTION
  2
CLASSES
  0
CLASS
  1
ACDBDICTIONARYWDFLT
  2
AcDbDictionaryWithDefault
  3
AutoCAD 2000
 90
0
280
0
281
0
  0
CLASS
  1
ACDBPLACEHOLDER
  2
AcDbPlaceHolder
  3
AutoCAD 2000
 90
0
280
0
281
0
  0
CLASS
  1
LAYOUT
  2
AcDbLayout
  3
AutoCAD 2000
 90
0
280
0
281
0
  0
ENDSEC
  0
SECTION
  2
TABLES
  0
TABLE
  2
VPORT
  5
8
100
AcDbSymbolTable
 70
2
  0
VPORT
  5
1F4
100
AcDbSymbolTableRecord
100
AcDbViewportTableRecord
  2
*ACTIVE
 70
0
 10
0.0
 20
0.0
 11
1.0
 21
1.0
 12
1511.3
 22
977.9
 13
0.0
 23
0.0
 14
1.0
 24
1.0
 15
0.0
 25
0.0
 16
0.0
 26
0.0
 36
1.0
 17
0.0
 27
0.0
 37
0.0
 40
1955.8
 41
1.5454545455
 42
50.0
 43
0.0
 44
0.0
 50
0.0
 51
0.0
 71
0
 72
100
 73
1
 74
1
 75
0
 76
0
 77
0
 78
0
  0
ENDTAB
  0
TABLE
  2
LTYPE
  5
5
100
AcDbSymbolTable
 70
6
  0
LTYPE
  5
14
100
AcDbSymbolTableRecord
100
AcDbLinetypeTableRecord
  2
BYBLOCK
 70
0
  3

 72
65
 73
0
 40
0.0
  0
LTYPE
  5
15
100
AcDbSymbolTableRecord
100
AcDbLinetypeTableRecord
  2
BYLAYER
 70
0
  3

 72
65
 73
0
 40
0.0
  0
LTYPE
  5
16
100
AcDbSymbolTableRecord
100
AcDbLinetypeTableRecord
  2
CONTINUOUS
 70
64
  3
Solid line
 72
65
 73
0
 40
0.0
  0
LTYPE
  5
1F5
100
AcDbSymbolTableRecord
100
AcDbLinetypeTableRecord
  2
CENTER
 70
64
  3
____ _ ____ _ ____ _ ____ _ ____ _ ____ _ ____
 72
65
 73
4
 40
0.6
 49
0.375
 74
0
 49
-0.075
 74
0
 49
0.075
 74
0
 49
-0.075
 74
0
  0
LTYPE
  5
1F6
100
AcDbSymbolTableRecord
100
AcDbLinetypeTableRecord
  2
HIDDEN
 70
64
  3
- - - - - - - - - - - - - - - - - - - -
 72
65
 73
2
 40
0.2
 49
0.1
 74
0
 49
-0.1
 74
0
  0
LTYPE
  5
1F7
100
AcDbSymbolTableRecord
100
AcDbLinetypeTableRecord
  2
PHANTOM
 70
64
  3
_____ _ _ _____ _ _ _____ _ _ _____
 72
65
 73
6
 40
0.8
 49
0.45
 74
0
 49
-0.05
 74
0
 49
0.1
 74
0
 49
-0.05
 74
0
 49
0.1
 74
0
 49
-0.05
 74
0
  0
LTYPE
  5
1F8
100
AcDbSymbolTableRecord
100
AcDbLinetypeTableRecord
  2
DOT
 70
64
  3
. . . . . . . . . . . . . . . . . . . .
 72
65
 73
2
 40
0.2
 49
0.1
 74
0
 49
-0.1
 74
0
  0
LTYPE
  5
1F9
100
AcDbSymbolTableRecord
100
AcDbLinetypeTableRecord
  2
DASHED
 70
64
  3
- - - - - - - - - - - - - - - - - - - -
 72
65
 73
2
 40
0.2
 49
0.1
 74
0
 49
-0.1
 74
0
  0
ENDTAB
  0
TABLE
  2
LAYER
  5
2
100
AcDbSymbolTable
 70
36
  0
LAYER
  5
10
100
AcDbSymbolTableRecord
100
AcDbLayerTableRecord
  2
0
 70
0
 62
7
  6
CONTINUOUS
370
-3
390
F
  0
LAYER
  5
1FA
100
AcDbSymbolTableRecord
100
AcDbLayerTableRecord
  2
DEFAULT_1
 70
0
 62
7
  6
CENTER
370
-3
390
F
  0
LAYER
  5
1FB
100
AcDbSymbolTableRecord
100
AcDbLayerTableRecord
  2
DEFAULT_2
 70
0
 62
8
  6
HIDDEN
370
-3
390
F
  0
LAYER
  5
1FC
100
AcDbSymbolTableRecord
100
AcDbLayerTableRecord
  2
DEFAULT_3
 70
0
 62
7
  6
PHANTOM
370
-3
390
F
  0
LAYER
  5
1FD
100
AcDbSymbolTableRecord
100
AcDbLayerTableRecord
  2
1_ALL_PLANES
 70
0
 62
7
  6
CONTINUOUS
370
-3
390
F
  0
LAYER
  5
1FE
100
AcDbSymbolTableRecord
100
AcDbLayerTableRecord
  2
1_DEF_PLANES
 70
0
 62
7
  6
CONTINUOUS
370
-3
390
F
  0
LAYER
  5
1FF
100
AcDbSymbolTableRecord
100
AcDbLayerTableRecord
  2
2_ALL_CSYS
 70
0
 62
7
  6
CONTINUOUS
370
-3
390
F
  0
LAYER
  5
200
100
AcDbSymbolTableRecord
100
AcDbLayerTableRecord
  2
2_DEF_CSYS
 70
0
 62
7
  6
CONTINUOUS
370
-3
390
F
  0
LAYER
  5
201
100
AcDbSymbolTableRecord
100
AcDbLayerTableRecord
  2
3_ALL_AXES
 70
0
 62
7
  6
CONTINUOUS
370
-3
390
F
  0
LAYER
  5
202
100
AcDbSymbolTableRecord
100
AcDbLayerTableRecord
  2
3_AXES_OTHER
 70
0
 62
7
  6
CONTINUOUS
370
-3
390
F
  0
LAYER
  5
203
100
AcDbSymbolTableRecord
100
AcDbLayerTableRecord
  2
3_HOLES
 70
0
 62
7
  6
CONTINUOUS
370
-3
390
F
  0
LAYER
  5
204
100
AcDbSymbolTableRecord
100
AcDbLayerTableRecord
  2
4_ALL_POINTS
 70
0
 62
7
  6
CONTINUOUS
370
-3
390
F
  0
LAYER
  5
205
100
AcDbSymbolTableRecord
100
AcDbLayerTableRecord
  2
5_ALL_CURVES
 70
0
 62
7
  6
CONTINUOUS
370
-3
390
F
  0
LAYER
  5
206
100
AcDbSymbolTableRecord
100
AcDbLayerTableRecord
  2
6_ALL_SURFS
 70
0
 62
7
  6
CONTINUOUS
370
-3
390
F
  0
LAYER
  5
207
100
AcDbSymbolTableRecord
100
AcDbLayerTableRecord
  2
6_COPYGEOM
 70
0
 62
7
  6
CONTINUOUS
370
-3
390
F
  0
LAYER
  5
208
100
AcDbSymbolTableRecord
100
AcDbLayerTableRecord
  2
7_ALL_ROUNDS
 70
0
 62
7
  6
CONTINUOUS
370
-3
390
F
  0
LAYER
  5
209
100
AcDbSymbolTableRecord
100
AcDbLayerTableRecord
  2
7_MERGES
 70
0
 62
7
  6
CONTINUOUS
370
-3
390
F
  0
LAYER
  5
20A
100
AcDbSymbolTableRecord
100
AcDbLayerTableRecord
  2
8_GDT
 70
0
 62
7
  6
CONTINUOUS
370
-3
390
F
  0
LAYER
  5
20B
100
AcDbSymbolTableRecord
100
AcDbLayerTableRecord
  2
8_SET_DATUMS
 70
0
 62
7
  6
CONTINUOUS
370
-3
390
F
  0
LAYER
  5
20C
100
AcDbSymbolTableRecord
100
AcDbLayerTableRecord
  2
9_COSMETICS
 70
0
 62
7
  6
CONTINUOUS
370
-3
390
F
  0
LAYER
  5
20D
100
AcDbSymbolTableRecord
100
AcDbLayerTableRecord
  2
9_THREADS
 70
0
 62
7
  6
CONTINUOUS
370
-3
390
F
  0
ENDTAB
  0
TABLE
  2
STYLE
  5
3
100
AcDbSymbolTable
 70
1
  0
STYLE
  5
11
100
AcDbSymbolTableRecord
100
AcDbTextStyleTableRecord
  2
STANDARD
 70
0
 40
0.0
 41
1.0
 50
0.0
 71
0
 42
0.2
  3
gothic.ttf
  4

1001
ACAD
1000
Century Gothic
1071
34
  0
STYLE
  5
20E
100
AcDbSymbolTableRecord
100
AcDbTextStyleTableRecord
  2
TEXTSTYLE_1
 70
0
 40
0.0
 41
0.8
 50
0.0
 71
0
 42
0.2
  3
gdt
  4

  0
STYLE
  5
20F
100
AcDbSymbolTableRecord
100
AcDbTextStyleTableRecord
  2
TEXTSTYLE_2
 70
0
 40
0.0
 41
1.0
 50
0.0
 71
0
 42
0.2
  3
gothic.ttf
  4

1001
ACAD
1000
Century Gothic
1071
34
  0
STYLE
  5
210
100
AcDbSymbolTableRecord
100
AcDbTextStyleTableRecord
  2
TEXTSTYLE_3
 70
0
 40
0.0
 41
1.0
 50
0.0
 71
0
 42
0.2
  3
ar_wgl_b.ttf
  4

1001
ACAD
1000
Arial WGL
1071
33554466
  0
STYLE
  5
211
100
AcDbSymbolTableRecord
100
AcDbTextStyleTableRecord
  2
TEXTSTYLE_4
 70
0
 40
0.0
 41
1.0
 50
0.0
 71
0
 42
0.2
  3
gdt
  4

  0
ENDTAB
  0
TABLE
  2
VIEW
  5
6
100
AcDbSymbolTable
 70
0
  0
ENDTAB
  0
TABLE
  2
UCS
  5
7
100
AcDbSymbolTable
 70
0
  0
ENDTAB
  0
TABLE
  2
APPID
  5
9
100
AcDbSymbolTable
 70
1
  0
APPID
  5
212
100
AcDbSymbolTableRecord
100
AcDbRegAppTableRecord
  2
ACAD
 70
0
  0
ENDTAB
  0
TABLE
  2
BLOCK_RECORD
  5
1
100
AcDbSymbolTable
 70
0
  0
BLOCK_RECORD
  5
213
100
AcDbSymbolTableRecord
100
AcDbBlockTableRecord
  2
*Model_Space
  0
BLOCK_RECORD
  5
214
100
AcDbSymbolTableRecord
100
AcDbBlockTableRecord
  2
*Paper_Space
  0
BLOCK_RECORD
  5
215
100
AcDbSymbolTableRecord
100
AcDbBlockTableRecord
  2
_FILLED
  0
BLOCK_RECORD
  5
216
100
AcDbSymbolTableRecord
100
AcDbBlockTableRecord
  2
XSEC_FILLED
  0
BLOCK_RECORD
  5
217
100
AcDbSymbolTableRecord
100
AcDbBlockTableRecord
  2
*D0
  0
BLOCK_RECORD
  5
218
100
AcDbSymbolTableRecord
100
AcDbBlockTableRecord
  2
*D1
  0
BLOCK_RECORD
  5
219
100
AcDbSymbolTableRecord
100
AcDbBlockTableRecord
  2
*D2
  0
BLOCK_RECORD
  5
21A
100
AcDbSymbolTableRecord
100
AcDbBlockTableRecord
  2
*D3
  0
BLOCK_RECORD
  5
21B
100
AcDbSymbolTableRecord
100
AcDbBlockTableRecord
  2
*D4
  0
BLOCK_RECORD
  5
21C
100
AcDbSymbolTableRecord
100
AcDbBlockTableRecord
  2
*D5
  0
BLOCK_RECORD
  5
21D
100
AcDbSymbolTableRecord
100
AcDbBlockTableRecord
  2
*D6
  0
BLOCK_RECORD
  5
21E
100
AcDbSymbolTableRecord
100
AcDbBlockTableRecord
  2
*D7
  0
BLOCK_RECORD
  5
21F
100
AcDbSymbolTableRecord
100
AcDbBlockTableRecord
  2
*D8
  0
BLOCK_RECORD
  5
220
100
AcDbSymbolTableRecord
100
AcDbBlockTableRecord
  2
*D9
  0
BLOCK_RECORD
  5
221
100
AcDbSymbolTableRecord
100
AcDbBlockTableRecord
  2
*D10
  0
BLOCK_RECORD
  5
222
100
AcDbSymbolTableRecord
100
AcDbBlockTableRecord
  2
*D11
  0
BLOCK_RECORD
  5
223
100
AcDbSymbolTableRecord
100
AcDbBlockTableRecord
  2
*D12
  0
BLOCK_RECORD
  5
224
100
AcDbSymbolTableRecord
100
AcDbBlockTableRecord
  2
*D13
  0
BLOCK_RECORD
  5
225
100
AcDbSymbolTableRecord
100
AcDbBlockTableRecord
  2
*D14
  0
BLOCK_RECORD
  5
226
100
AcDbSymbolTableRecord
100
AcDbBlockTableRecord
  2
*D15
  0
BLOCK_RECORD
  5
227
100
AcDbSymbolTableRecord
100
AcDbBlockTableRecord
  2
*D16
  0
BLOCK_RECORD
  5
228
100
AcDbSymbolTableRecord
100
AcDbBlockTableRecord
  2
*D17
  0
BLOCK_RECORD
  5
229
100
AcDbSymbolTableRecord
100
AcDbBlockTableRecord
  2
*D18
  0
BLOCK_RECORD
  5
22A
100
AcDbSymbolTableRecord
100
AcDbBlockTableRecord
  2
*D19
  0
BLOCK_RECORD
  5
22B
100
AcDbSymbolTableRecord
100
AcDbBlockTableRecord
  2
*D20
  0
BLOCK_RECORD
  5
22C
100
AcDbSymbolTableRecord
100
AcDbBlockTableRecord
  2
CG_3D_BL2
  0
BLOCK_RECORD
  5
22D
100
AcDbSymbolTableRecord
100
AcDbBlockTableRecord
  2
CG_3D_BL1
  0
BLOCK_RECORD
  5
22E
100
AcDbSymbolTableRecord
100
AcDbBlockTableRecord
  2
CG_3D_BL0
  0
ENDTAB
  0
TABLE
  2
DIMSTYLE
  5
A
100
AcDbSymbolTable
 70
1
100
AcDbDimStyleTable
 71
0
  0
DIMSTYLE
105
22F
100
AcDbSymbolTableRecord
100
AcDbDimStyleTableRecord
  2
STANDARD
 70
0
  3

  4

 40
1.0
 41
14.0
 42
1.5875
 43
0.38
 44
3.175
 45
0.0
 46
0.0
 47
0.02
 48
0.02
140
16.002
141
0.09
142
0.0
143
0.0393700787
144
1.0
145
0.0
146
1.0
147
0.625
 71
1
 72
0
 73
1
 74
1
 75
0
 76
0
 77
0
 78
4
 79
1
170
1
171
1
172
0
173
0
174
0
175
0
176
0
177
0
178
0
270
2
179
2
271
2
272
2
273
2
274
2
275
0
280
0
281
0
282
0
283
1
284
4
285
0
286
0
287
3
288
0
340
11
278
46
341
215
342
215
343
215
344
215
  0
DIMSTYLE
105
230
100
AcDbSymbolTableRecord
100
AcDbDimStyleTableRecord
  2
DIMSTYLE_1
 70
0
  3

  4

 40
1.0
 41
14.0
 42
1.5875
 43
0.38
 44
3.175
 45
0.0
 46
0.0
 47
0.02
 48
0.02
140
16.002
141
0.09
142
0.0
143
0.0393700787
144
1.0
145
0.0
146
1.0
147
1.143
 71
0
 72
0
 73
1
 74
1
 75
0
 76
0
 77
0
 78
4
 79
1
170
1
171
2
172
0
173
0
174
0
175
0
176
0
177
0
178
0
270
2
179
2
271
1
272
1
273
2
274
2
275
0
280
0
281
0
282
0
283
1
284
4
285
0
286
0
287
3
288
0
340
11
278
46
341
215
342
215
343
215
344
215
  0
DIMSTYLE
105
231
100
AcDbSymbolTableRecord
100
AcDbDimStyleTableRecord
  2
DIMSTYLE_2
 70
0
  3

  4

 40
1.0
 41
14.0
 42
1.5875
 43
0.38
 44
3.175
 45
0.0
 46
0.0
 47
0.02
 48
0.02
140
16.002
141
0.09
142
0.0
143
0.0393700787
144
1.0
145
0.0
146
1.0
147
1.143
 71
0
 72
0
 73
1
 74
1
 75
0
 76
0
 77
0
 78
4
 79
1
170
1
171
3
172
0
173
0
174
0
175
0
176
0
177
0
178
0
270
2
179
2
271
2
272
2
273
2
274
3
275
0
280
0
281
0
282
0
283
1
284
4
285
0
286
0
287
3
288
0
340
11
278
46
341
215
342
215
343
215
344
215
  0
DIMSTYLE
105
232
100
AcDbSymbolTableRecord
100
AcDbDimStyleTableRecord
  2
DIMSTYLE_3
 70
0
  3

  4

 40
1.0
 41
14.0
 42
1.5875
 43
0.38
 44
3.175
 45
0.0
 46
0.0
 47
0.5
 48
0.5
140
16.002
141
0.09
142
0.0
143
0.0393700787
144
1.0
145
0.0
146
1.0
147
1.143
 71
0
 72
0
 73
1
 74
1
 75
0
 76
0
 77
0
 78
4
 79
1
170
0
171
1
172
0
173
0
174
0
175
0
176
0
177
0
178
0
270
2
179
2
271
0
272
0
273
2
274
2
275
0
280
0
281
0
282
0
283
1
284
4
285
0
286
0
287
3
288
0
340
11
278
46
341
215
342
215
343
215
344
215
  0
ENDTAB
  0
ENDSEC
  0
SECTION
  2
BLOCKS
  0
BLOCK
  5
20
100
AcDbEntity
  8
0
100
AcDbBlockBegin
  2
*Model_Space
 70
0
 10
0.0
 20
0.0
 30
0.0
  3
*Model_Space
  1

  0
ENDBLK
  5
21
100
AcDbEntity
  8
0
100
AcDbBlockEnd
  0
BLOCK
  5
1C
100
AcDbEntity
  8
0
100
AcDbBlockBegin
  2
*Paper_Space
 70
0
 10
0.0
 20
0.0
 30
0.0
  3
*Paper_Space
  1

  0
ENDBLK
  5
1D
100
AcDbEntity
  8
0
100
AcDbBlockEnd
  0
BLOCK
  5
233
100
AcDbEntity
  8
0
100
AcDbBlockBegin
 62
2
  6
CONTINUOUS
  2
CG_3D_BL2
 70
64
 10
605.6066851444
 20
562.3294008079
  3
CG_3D_BL2
  1

  0
ARC
  5
234
100
AcDbEntity
  8
0
100
AcDbCircle
 62
7
  6
CONTINUOUS
 10
605.6066851444
 20
562.3294008079
 40
14.0
100
AcDbArc
 50
90.0
 51
180.0
  0
ARC
  5
235
100
AcDbEntity
  8
0
100
AcDbCircle
 62
7
  6
CONTINUOUS
 10
605.6066851444
 20
562.3294008079
 40
14.0
100
AcDbArc
 50
180.0
 51
270.0
  0
ARC
  5
236
100
AcDbEntity
  8
0
100
AcDbCircle
 62
7
  6
CONTINUOUS
 10
605.6066851444
 20
562.3294008079
 40
14.0
100
AcDbArc
 50
270.0
 51
360.0
  0
ARC
  5
237
100
AcDbEntity
  8
0
100
AcDbCircle
 62
7
  6
CONTINUOUS
 10
605.6066851444
 20
562.3294008079
 40
14.0
100
AcDbArc
 50
0.0
 51
90.0
  0
LINE
  5
238
100
AcDbEntity
  8
0
100
AcDbLine
 62
7
  6
CONTINUOUS
 10
605.6066851444
 20
562.3294008079
 11
619.6066851444
 21
562.3294008079
  0
LINE
  5
239
100
AcDbEntity
  8
0
100
AcDbLine
 62
7
  6
CONTINUOUS
 10
605.6066851444
 20
562.3294008079
 11
605.6066851444
 21
548.3294008079
  0
LINE
  5
23A
100
AcDbEntity
  8
0
100
AcDbLine
 62
7
  6
CONTINUOUS
 10
591.6066851444
 20
562.3294008079
 11
605.6066851444
 21
562.3294008079
  0
LINE
  5
23B
100
AcDbEntity
  8
0
100
AcDbLine
 62
7
  6
CONTINUOUS
 10
605.6066851444
 20
576.3294008079
 11
605.6066851444
 21
562.3294008079
  0
LINE
  5
23C
100
AcDbEntity
  8
0
100
AcDbLine
 62
2
  6
CONTINUOUS
 10
605.6066851444
 20
562.2371315768
 11
605.6989543755
 21
562.3294008079
  0
LWPOLYLINE
  5
23D
100
AcDbEntity
  8
0
100
AcDbPolyline
 62
7
  6
CONTINUOUS
 90
8
 70
0
 10
605.6066851444
 20
562.3294008079
 10
605.6066851444
 20
548.3294008079
 10
609.9329230657
 20
549.0146095797
 10
613.8356786765
 20
551.0031628866
 10
616.9329230657
 20
554.1004072758
 10
618.9214763726
 20
558.0031628866
 10
619.6066851444
 20
562.3294008079
 10
605.6066851444
 20
562.3294008079
  0
HATCH
  5
23E
100
AcDbEntity
  8
0
100
AcDbHatch
 62
7
  6
CONTINUOUS
 10
0.0
 20
0.0
 30
0.0
210
0.0
220
0.0
230
1.0
  2
SOLID
 70
1
 71
1
 91
1
 92
1
 93
7
 72
1
 10
605.6066851444
 20
562.3294008079
 11
605.6066851444
 21
548.3294008079
 72
1
 10
605.6066851444
 20
548.3294008079
 11
609.9329230657
 21
549.0146095797
 72
1
 10
609.9329230657
 20
549.0146095797
 11
613.8356786765
 21
551.0031628866
 72
1
 10
613.8356786765
 20
551.0031628866
 11
616.9329230657
 21
554.1004072758
 72
1
 10
616.9329230657
 20
554.1004072758
 11
618.9214763726
 21
558.0031628866
 72
1
 10
618.9214763726
 20
558.0031628866
 11
619.6066851444
 21
562.3294008079
 72
1
 10
619.6066851444
 20
562.3294008079
 11
605.6066851444
 21
562.3294008079
 97
1
330
23D
 75
0
 76
1
 98
1
 10
0.0
 20
0.0
  0
LWPOLYLINE
  5
23F
100
AcDbEntity
  8
0
100
AcDbPolyline
 62
7
  6
CONTINUOUS
 90
8
 70
0
 10
605.6066851444
 20
562.3294008079
 10
591.6066851444
 20
562.3294008079
 10
592.2918939163
 20
566.6556387291
 10
594.2804472232
 20
570.55839434
 10
597.3776916123
 20
573.6556387291
 10
601.2804472232
 20
575.644192036
 10
605.6066851444
 20
576.3294008079
 10
605.6066851444
 20
562.3294008079
  0
HATCH
  5
240
100
AcDbEntity
  8
0
100
AcDbHatch
 62
7
  6
CONTINUOUS
 10
0.0
 20
0.0
 30
0.0
210
0.0
220
0.0
230
1.0
  2
SOLID
 70
1
 71
1
 91
1
 92
1
 93
7
 72
1
 10
605.6066851444
 20
562.3294008079
 11
591.6066851444
 21
562.3294008079
 72
1
 10
591.6066851444
 20
562.3294008079
 11
592.2918939163
 21
566.6556387291
 72
1
 10
592.2918939163
 20
566.6556387291
 11
594.2804472232
 21
570.55839434
 72
1
 10
594.2804472232
 20
570.55839434
 11
597.3776916123
 21
573.6556387291
 72
1
 10
597.3776916123
 20
573.6556387291
 11
601.2804472232
 21
575.644192036
 72
1
 10
601.2804472232
 20
575.644192036
 11
605.6066851444
 21
576.3294008079
 72
1
 10
605.6066851444
 20
576.3294008079
 11
605.6066851444
 21
562.3294008079
 97
1
330
23F
 75
0
 76
1
 98
1
 10
0.0
 20
0.0
  0
ENDBLK
  5
241
100
AcDbEntity
  8
0
  6
BYBLOCK
 62
0
100
AcDbBlockEnd
  0
BLOCK
  5
242
100
AcDbEntity
  8
0
100
AcDbBlockBegin
 62
2
  6
CONTINUOUS
  2
CG_3D_BL1
 70
64
 10
1009.479700854
 20
562.3060535436
  3
CG_3D_BL1
  1

  0
ARC
  5
243
100
AcDbEntity
  8
0
100
AcDbCircle
 62
7
  6
CONTINUOUS
 10
1009.479700854
 20
562.3060535436
 40
14.0
100
AcDbArc
 50
90.0
 51
180.0
  0
ARC
  5
244
100
AcDbEntity
  8
0
100
AcDbCircle
 62
7
  6
CONTINUOUS
 10
1009.479700854
 20
562.3060535436
 40
14.0
100
AcDbArc
 50
180.0
 51
270.0
  0
ARC
  5
245
100
AcDbEntity
  8
0
100
AcDbCircle
 62
7
  6
CONTINUOUS
 10
1009.479700854
 20
562.3060535436
 40
14.0
100
AcDbArc
 50
270.0
 51
360.0
  0
ARC
  5
246
100
AcDbEntity
  8
0
100
AcDbCircle
 62
7
  6
CONTINUOUS
 10
1009.479700854
 20
562.3060535436
 40
14.0
100
AcDbArc
 50
0.0
 51
90.0
  0
LINE
  5
247
100
AcDbEntity
  8
0
100
AcDbLine
 62
7
  6
CONTINUOUS
 10
1009.479700854
 20
562.3060535436
 11
1023.479700854
 21
562.3060535436
  0
LINE
  5
248
100
AcDbEntity
  8
0
100
AcDbLine
 62
7
  6
CONTINUOUS
 10
1009.479700854
 20
562.3060535436
 11
1009.479700854
 21
548.3060535436
  0
LINE
  5
249
100
AcDbEntity
  8
0
100
AcDbLine
 62
7
  6
CONTINUOUS
 10
995.479700854
 20
562.3060535436
 11
1009.479700854
 21
562.3060535436
  0
LINE
  5
24A
100
AcDbEntity
  8
0
100
AcDbLine
 62
7
  6
CONTINUOUS
 10
1009.479700854
 20
576.3060535436
 11
1009.479700854
 21
562.3060535436
  0
LINE
  5
24B
100
AcDbEntity
  8
0
100
AcDbLine
 62
2
  6
CONTINUOUS
 10
1009.479700854
 20
562.2137843126
 11
1009.5719700851
 21
562.3060535436
  0
LWPOLYLINE
  5
24C
100
AcDbEntity
  8
0
100
AcDbPolyline
 62
7
  6
CONTINUOUS
 90
8
 70
0
 10
1009.479700854
 20
562.3060535436
 10
1009.479700854
 20
548.3060535436
 10
1013.8059387752
 20
548.9912623155
 10
1017.7086943861
 20
550.9798156224
 10
1020.8059387752
 20
554.0770600115
 10
1022.7944920821
 20
557.9798156224
 10
1023.479700854
 20
562.3060535436
 10
1009.479700854
 20
562.3060535436
  0
HATCH
  5
24D
100
AcDbEntity
  8
0
100
AcDbHatch
 62
7
  6
CONTINUOUS
 10
0.0
 20
0.0
 30
0.0
210
0.0
220
0.0
230
1.0
  2
SOLID
 70
1
 71
1
 91
1
 92
1
 93
7
 72
1
 10
1009.479700854
 20
562.3060535436
 11
1009.479700854
 21
548.3060535436
 72
1
 10
1009.479700854
 20
548.3060535436
 11
1013.8059387752
 21
548.9912623155
 72
1
 10
1013.8059387752
 20
548.9912623155
 11
1017.7086943861
 21
550.9798156224
 72
1
 10
1017.7086943861
 20
550.9798156224
 11
1020.8059387752
 21
554.0770600115
 72
1
 10
1020.8059387752
 20
554.0770600115
 11
1022.7944920821
 21
557.9798156224
 72
1
 10
1022.7944920821
 20
557.9798156224
 11
1023.479700854
 21
562.3060535436
 72
1
 10
1023.479700854
 20
562.3060535436
 11
1009.479700854
 21
562.3060535436
 97
1
330
24C
 75
0
 76
1
 98
1
 10
0.0
 20
0.0
  0
LWPOLYLINE
  5
24E
100
AcDbEntity
  8
0
100
AcDbPolyline
 62
7
  6
CONTINUOUS
 90
8
 70
0
 10
1009.479700854
 20
562.3060535436
 10
995.479700854
 20
562.3060535436
 10
996.1649096258
 20
566.6322914649
 10
998.1534629327
 20
570.5350470757
 10
1001.2507073219
 20
573.6322914649
 10
1005.1534629327
 20
575.6208447718
 10
1009.479700854
 20
576.3060535436
 10
1009.479700854
 20
562.3060535436
  0
HATCH
  5
24F
100
AcDbEntity
  8
0
100
AcDbHatch
 62
7
  6
CONTINUOUS
 10
0.0
 20
0.0
 30
0.0
210
0.0
220
0.0
230
1.0
  2
SOLID
 70
1
 71
1
 91
1
 92
1
 93
7
 72
1
 10
1009.479700854
 20
562.3060535436
 11
995.479700854
 21
562.3060535436
 72
1
 10
995.479700854
 20
562.3060535436
 11
996.1649096258
 21
566.6322914649
 72
1
 10
996.1649096258
 20
566.6322914649
 11
998.1534629327
 21
570.5350470757
 72
1
 10
998.1534629327
 20
570.5350470757
 11
1001.2507073219
 21
573.6322914649
 72
1
 10
1001.2507073219
 20
573.6322914649
 11
1005.1534629327
 21
575.6208447718
 72
1
 10
1005.1534629327
 20
575.6208447718
 11
1009.479700854
 21
576.3060535436
 72
1
 10
1009.479700854
 20
576.3060535436
 11
1009.479700854
 21
562.3060535436
 97
1
330
24E
 75
0
 76
1
 98
1
 10
0.0
 20
0.0
  0
ENDBLK
  5
250
100
AcDbEntity
  8
0
  6
BYBLOCK
 62
0
100
AcDbBlockEnd
  0
BLOCK
  5
251
100
AcDbEntity
  8
0
100
AcDbBlockBegin
 62
2
  6
CONTINUOUS
  2
CG_3D_BL0
 70
64
 10
236.5307364298
 20
1777.867409211
  3
CG_3D_BL0
  1

  0
ARC
  5
252
100
AcDbEntity
  8
0
100
AcDbCircle
 62
7
  6
CONTINUOUS
 10
236.5307364298
 20
1777.867409211
 40
11.375
100
AcDbArc
 50
90.0
 51
180.0
  0
ARC
  5
253
100
AcDbEntity
  8
0
100
AcDbCircle
 62
7
  6
CONTINUOUS
 10
236.5307364298
 20
1777.867409211
 40
11.375
100
AcDbArc
 50
180.0
 51
270.0
  0
ARC
  5
254
100
AcDbEntity
  8
0
100
AcDbCircle
 62
7
  6
CONTINUOUS
 10
236.5307364298
 20
1777.867409211
 40
11.375
100
AcDbArc
 50
270.0
 51
360.0
  0
ARC
  5
255
100
AcDbEntity
  8
0
100
AcDbCircle
 62
7
  6
CONTINUOUS
 10
236.5307364298
 20
1777.867409211
 40
11.375
100
AcDbArc
 50
0.0
 51
90.0
  0
LINE
  5
256
100
AcDbEntity
  8
0
100
AcDbLine
 62
7
  6
CONTINUOUS
 10
236.5307364298
 20
1777.867409211
 11
247.9057364298
 21
1777.867409211
  0
LINE
  5
257
100
AcDbEntity
  8
0
100
AcDbLine
 62
7
  6
CONTINUOUS
 10
236.5307364298
 20
1777.867409211
 11
236.5307364298
 21
1766.492409211
  0
LINE
  5
258
100
AcDbEntity
  8
0
100
AcDbLine
 62
7
  6
CONTINUOUS
 10
225.1557364298
 20
1777.867409211
 11
236.5307364298
 21
1777.867409211
  0
LINE
  5
259
100
AcDbEntity
  8
0
100
AcDbLine
 62
7
  6
CONTINUOUS
 10
236.5307364298
 20
1789.242409211
 11
236.5307364298
 21
1777.867409211
  0
LINE
  5
25A
100
AcDbEntity
  8
0
100
AcDbLine
 62
2
  6
CONTINUOUS
 10
236.5307364298
 20
1777.7924404608
 11
236.6057051801
 21
1777.867409211
  0
LWPOLYLINE
  5
25B
100
AcDbEntity
  8
0
100
AcDbPolyline
 62
7
  6
CONTINUOUS
 90
8
 70
0
 10
236.5307364298
 20
1777.867409211
 10
236.5307364298
 20
1766.492409211
 10
240.0458047408
 20
1767.0491413382
 10
243.2167936746
 20
1768.6648409
 10
245.7333047408
 20
1771.1813519662
 10
247.3490043027
 20
1774.3523409
 10
247.9057364298
 20
1777.867409211
 10
236.5307364298
 20
1777.867409211
  0
HATCH
  5
25C
100
AcDbEntity
  8
0
100
AcDbHatch
 62
7
  6
CONTINUOUS
 10
0.0
 20
0.0
 30
0.0
210
0.0
220
0.0
230
1.0
  2
SOLID
 70
1
 71
1
 91
1
 92
1
 93
7
 72
1
 10
236.5307364298
 20
1777.867409211
 11
236.5307364298
 21
1766.492409211
 72
1
 10
236.5307364298
 20
1766.492409211
 11
240.0458047408
 21
1767.0491413382
 72
1
 10
240.0458047408
 20
1767.0491413382
 11
243.2167936746
 21
1768.6648409
 72
1
 10
243.2167936746
 20
1768.6648409
 11
245.7333047408
 21
1771.1813519662
 72
1
 10
245.7333047408
 20
1771.1813519662
 11
247.3490043027
 21
1774.3523409
 72
1
 10
247.3490043027
 20
1774.3523409
 11
247.9057364298
 21
1777.867409211
 72
1
 10
247.9057364298
 20
1777.867409211
 11
236.5307364298
 21
1777.867409211
 97
1
330
25B
 75
0
 76
1
 98
1
 10
0.0
 20
0.0
  0
LWPOLYLINE
  5
25D
100
AcDbEntity
  8
0
100
AcDbPolyline
 62
7
  6
CONTINUOUS
 90
8
 70
0
 10
236.5307364298
 20
1777.867409211
 10
225.1557364298
 20
1777.867409211
 10
225.712468557
 20
1781.382477522
 10
227.3281681188
 20
1784.5534664558
 10
229.844679185
 20
1787.069977522
 10
233.0156681188
 20
1788.6856770839
 10
236.5307364298
 20
1789.242409211
 10
236.5307364298
 20
1777.867409211
  0
HATCH
  5
25E
100
AcDbEntity
  8
0
100
AcDbHatch
 62
7
  6
CONTINUOUS
 10
0.0
 20
0.0
 30
0.0
210
0.0
220
0.0
230
1.0
  2
SOLID
 70
1
 71
1
 91
1
 92
1
 93
7
 72
1
 10
236.5307364298
 20
1777.867409211
 11
225.1557364298
 21
1777.867409211
 72
1
 10
225.1557364298
 20
1777.867409211
 11
225.712468557
 21
1781.382477522
 72
1
 10
225.712468557
 20
1781.382477522
 11
227.3281681188
 21
1784.5534664558
 72
1
 10
227.3281681188
 20
1784.5534664558
 11
229.844679185
 21
1787.069977522
 72
1
 10
229.844679185
 20
1787.069977522
 11
233.0156681188
 21
1788.6856770839
 72
1
 10
233.0156681188
 20
1788.6856770839
 11
236.5307364298
 21
1789.242409211
 72
1
 10
236.5307364298
 20
1789.242409211
 11
236.5307364298
 21
1777.867409211
 97
1
330
25D
 75
0
 76
1
 98
1
 10
0.0
 20
0.0
  0
ENDBLK
  5
25F
100
AcDbEntity
  8
0
  6
BYBLOCK
 62
0
100
AcDbBlockEnd
  0
BLOCK
  5
260
100
AcDbEntity
  8
0
100
AcDbBlockBegin
  2
_FILLED
 70
64
 10
0.0
 20
0.0
  3
_FILLED
  1

  0
SOLID
  5
261
100
AcDbEntity
  8
0
  6
BYBLOCK
 62
0
100
AcDbTrace
 10
0.0
 20
0.0
 11
-1.0
 21
0.1275
 12
-1.0
 22
-0.1275
 13
-1.0
 23
-0.1275
  0
ENDBLK
  5
262
100
AcDbEntity
  8
0
  6
BYBLOCK
 62
0
100
AcDbBlockEnd
  0
BLOCK
  5
263
100
AcDbEntity
  8
0
100
AcDbBlockBegin
  2
XSEC_FILLED
 70
64
 10
0.0
 20
0.0
  3
XSEC_FILLED
  1

  0
SOLID
  5
264
100
AcDbEntity
  8
0
  6
BYBLOCK
 62
0
100
AcDbTrace
 10
0.0
 20
0.0
 11
-1.0
 21
0.166
 12
-1.0
 22
-0.166
 13
-1.0
 23
-0.166
  0
ENDBLK
  5
265
100
AcDbEntity
  8
0
  6
BYBLOCK
 62
0
100
AcDbBlockEnd
  0
BLOCK
  5
266
100
AcDbEntity
  8
0
100
AcDbBlockBegin
 62
2
  6
CONTINUOUS
  2
*D0
 70
65
 10
0.0
 20
0.0
  3
*D0
  1

  0
MTEXT
  5
267
100
AcDbEntity
  8
0
100
AcDbMText
 62
2
  6
CONTINUOUS
  7
STANDARD
 71
3
 72
1
 10
1949.3252222448
 20
283.2705500915
 30
0.0
 11
1.0
 21
0.0
 31
0.0
 73
2
 44
0.9
  1
40,3\P[1.59]
 40
16.002
 41
59.0110929368
  0
LINE
  5
268
100
AcDbEntity
  8
0
100
AcDbLine
 62
2
  6
CONTINUOUS
 10
2036.3348505435
 20
313.0655434783
 11
1987.2547873005
 21
313.0655434783
  0
LINE
  5
269
100
AcDbEntity
  8
0
100
AcDbLine
 62
2
  6
CONTINUOUS
 10
2129.5548505435
 20
353.3655434783
 11
1987.2547873005
 21
353.3655434783
  0
LINE
  5
26A
100
AcDbEntity
  8
0
100
AcDbLine
 62
2
  6
CONTINUOUS
 10
2009.4797873005
 20
313.0655434783
 11
2009.4797873005
 21
275.2695500915
  0
LINE
  5
26B
100
AcDbEntity
  8
0
100
AcDbLine
 62
2
  6
CONTINUOUS
 10
2009.4797873005
 20
275.2695500915
 11
1973.0307873005
 21
275.2695500915
  0
LINE
  5
26C
100
AcDbEntity
  8
0
100
AcDbLine
 62
2
  6
CONTINUOUS
 10
2009.4797873005
 20
353.3655434783
 11
2009.4797873005
 21
381.3655434783
  0
INSERT
  5
26D
100
AcDbEntity
  8
0
100
AcDbBlockReference
 62
2
  6
CONTINUOUS
  2
_FILLED
 10
2009.4797873005
 20
313.0655434783
 41
14.0
 42
14.0
 43
14.0
 50
90.0
  0
INSERT
  5
26E
100
AcDbEntity
  8
0
100
AcDbBlockReference
 62
2
  6
CONTINUOUS
  2
_FILLED
 10
2009.4797873005
 20
353.3655434783
 41
14.0
 42
14.0
 43
14.0
 50
270.0
  0
ENDBLK
  5
26F
100
AcDbEntity
  8
0
  6
BYBLOCK
 62
0
100
AcDbBlockEnd
  0
BLOCK
  5
270
100
AcDbEntity
  8
0
100
AcDbBlockBegin
 62
2
  6
CONTINUOUS
  2
*D1
 70
65
 10
0.0
 20
0.0
  3
*D1
  1

  0
MTEXT
  5
271
100
AcDbEntity
  8
0
100
AcDbMText
 62
2
  6
CONTINUOUS
  7
STANDARD
 71
2
 72
1
 10
1962.2153798678
 20
537.1835228034
 30
0.0
 11
1.0
 21
0.0
 31
0.0
 73
2
 44
0.9
  1
459,7\P[18.10]
 40
16.002
 41
71.3843866171
  0
LINE
  5
272
100
AcDbEntity
  8
0
100
AcDbLine
 62
2
  6
CONTINUOUS
 10
2036.3348505435
 20
313.0655434783
 11
1947.8426623957
 21
313.0655434783
  0
LINE
  5
273
100
AcDbEntity
  8
0
100
AcDbLine
 62
2
  6
CONTINUOUS
 10
2129.5548505435
 20
772.7655434783
 11
1947.8426623957
 21
772.7655434783
  0
LINE
  5
274
100
AcDbEntity
  8
0
100
AcDbLine
 62
2
  6
CONTINUOUS
 10
1970.0676623957
 20
313.0655434783
 11
1970.0676623957
 21
484.8349783081
  0
LINE
  5
275
100
AcDbEntity
  8
0
100
AcDbLine
 62
2
  6
CONTINUOUS
 10
1970.0676623957
 20
772.7655434783
 11
1970.0676623957
 21
545.1845228034
  0
INSERT
  5
276
100
AcDbEntity
  8
0
100
AcDbBlockReference
 62
2
  6
CONTINUOUS
  2
_FILLED
 10
1970.0676623957
 20
313.0655434783
 41
14.0
 42
14.0
 43
14.0
 50
270.0
  0
INSERT
  5
277
100
AcDbEntity
  8
0
100
AcDbBlockReference
 62
2
  6
CONTINUOUS
  2
_FILLED
 10
1970.0676623957
 20
772.7655434783
 41
14.0
 42
14.0
 43
14.0
 50
90.0
  0
ENDBLK
  5
278
100
AcDbEntity
  8
0
  6
BYBLOCK
 62
0
100
AcDbBlockEnd
  0
BLOCK
  5
279
100
AcDbEntity
  8
0
100
AcDbBlockBegin
 62
2
  6
CONTINUOUS
  2
*D2
 70
65
 10
0.0
 20
0.0
  3
*D2
  1

  0
MTEXT
  5
27A
100
AcDbEntity
  8
0
100
AcDbMText
 62
2
  6
CONTINUOUS
  7
STANDARD
 71
2
 72
1
 10
2348.8433150558
 20
427.1120264556
 30
0.0
 11
1.0
 21
0.0
 31
0.0
 73
2
 44
0.9
  1
245,0\P[9.65]
 40
16.002
 41
59.0110929368
  0
LINE
  5
27B
100
AcDbEntity
  8
0
100
AcDbLine
 62
2
  6
CONTINUOUS
 10
2257.2898505435
 20
558.0655434783
 11
2372.7339507436
 21
558.0655434783
  0
LINE
  5
27C
100
AcDbEntity
  8
0
100
AcDbLine
 62
2
  6
CONTINUOUS
 10
2300.5598505435
 20
313.0655434783
 11
2372.7339507436
 21
313.0655434783
  0
LINE
  5
27D
100
AcDbEntity
  8
0
100
AcDbLine
 62
2
  6
CONTINUOUS
 10
2350.5089507436
 20
558.0655434783
 11
2350.5089507436
 21
435.1130264556
  0
LINE
  5
27E
100
AcDbEntity
  8
0
100
AcDbLine
 62
2
  6
CONTINUOUS
 10
2350.5089507436
 20
313.0655434783
 11
2350.5089507436
 21
374.7634682678
  0
INSERT
  5
27F
100
AcDbEntity
  8
0
100
AcDbBlockReference
 62
2
  6
CONTINUOUS
  2
_FILLED
 10
2350.5089507436
 20
558.0655434783
 41
14.0
 42
14.0
 43
14.0
 50
90.0
  0
INSERT
  5
280
100
AcDbEntity
  8
0
100
AcDbBlockReference
 62
2
  6
CONTINUOUS
  2
_FILLED
 10
2350.5089507436
 20
313.0655434783
 41
14.0
 42
14.0
 43
14.0
 50
270.0
  0
ENDBLK
  5
281
100
AcDbEntity
  8
0
  6
BYBLOCK
 62
0
100
AcDbBlockEnd
  0
BLOCK
  5
282
100
AcDbEntity
  8
0
100
AcDbBlockBegin
 62
2
  6
CONTINUOUS
  2
*D3
 70
65
 10
0.0
 20
0.0
  3
*D3
  1

  0
MTEXT
  5
283
100
AcDbEntity
  8
0
100
AcDbMText
 62
2
  6
CONTINUOUS
  7
STANDARD
 71
2
 72
1
 10
1582.2049599738
 20
1431.1178151344
 30
0.0
 11
1.0
 21
0.0
 31
0.0
 73
2
 44
0.9
  1
197,9\P[7.79]\PBOTH ENDS
 40
16.002
 41
119.2714126394
  0
LINE
  5
284
100
AcDbEntity
  8
0
100
AcDbLine
 62
2
  6
CONTINUOUS
 10
1659.2467482507
 20
1297.5805648362
 11
1574.4170741662
 21
1289.4123962597
  0
LINE
  5
285
100
AcDbEntity
  8
0
100
AcDbLine
 62
2
  6
CONTINUOUS
 10
1628.8121608632
 20
1493.4627201823
 11
1555.4494509838
 21
1486.3986946748
  0
LINE
  5
286
100
AcDbEntity
  8
0
100
AcDbLine
 62
2
  6
CONTINUOUS
 10
1596.5397546749
 20
1291.5425681094
 11
1590.4520051165
 21
1354.766264598
  0
LINE
  5
287
100
AcDbEntity
  8
0
100
AcDbLine
 62
2
  6
CONTINUOUS
 10
1577.5721314925
 20
1488.5288665246
 11
1582.3297783123
 21
1439.1188151344
  0
INSERT
  5
288
100
AcDbEntity
  8
0
100
AcDbBlockReference
 62
2
  6
CONTINUOUS
  2
_FILLED
 10
1596.5397546749
 20
1291.5425681094
 41
14.0
 42
14.0
 43
14.0
 50
275.5
  0
INSERT
  5
289
100
AcDbEntity
  8
0
100
AcDbBlockReference
 62
2
  6
CONTINUOUS
  2
_FILLED
 10
1577.5721314925
 20
1488.5288665246
 41
14.0
 42
14.0
 43
14.0
 50
95.5
  0
ENDBLK
  5
28A
100
AcDbEntity
  8
0
  6
BYBLOCK
 62
0
100
AcDbBlockEnd
  0
BLOCK
  5
28B
100
AcDbEntity
  8
0
100
AcDbBlockBegin
 62
2
  6
CONTINUOUS
  2
*D4
 70
65
 10
0.0
 20
0.0
  3
*D4
  1

  0
MTEXT
  5
28C
100
AcDbEntity
  8
0
100
AcDbMText
 62
2
  6
CONTINUOUS
  7
STANDARD
 71
3
 72
1
 10
1597.6038832665
 20
1213.0891130566
 30
0.0
 11
1.0
 21
0.0
 31
0.0
 73
2
 44
0.9
  1
40,30\P[1.587]\PBOTH ENDS
 40
16.002
 41
119.2714126394
  0
LINE
  5
28D
100
AcDbEntity
  8
0
100
AcDbLine
 62
2
  6
CONTINUOUS
 10
1702.7791177765
 20
1261.6952486752
 11
1709.896286715
 21
1187.7806231619
  0
LINE
  5
28E
100
AcDbEntity
  8
0
100
AcDbLine
 62
2
  6
CONTINUOUS
 10
1666.7269102703
 20
1215.6444890998
 11
1669.7818199208
 21
1183.9180393353
  0
LINE
  5
28F
100
AcDbEntity
  8
0
100
AcDbLine
 62
2
  6
CONTINUOUS
 10
1707.7661148653
 20
1209.9033036706
 11
1687.7088814682
 21
1207.9720117573
  0
LINE
  5
290
100
AcDbEntity
  8
0
100
AcDbLine
 62
2
  6
CONTINUOUS
 10
1667.6516480711
 20
1206.040719844
 11
1687.7088814682
 21
1207.9720117573
  0
LINE
  5
291
100
AcDbEntity
  8
0
100
AcDbLine
 62
2
  6
CONTINUOUS
 10
1687.7088814682
 20
1207.9720117573
 11
1657.7584483223
 21
1205.0881130566
  0
LINE
  5
292
100
AcDbEntity
  8
0
100
AcDbLine
 62
2
  6
CONTINUOUS
 10
1657.7584483223
 20
1205.0881130566
 11
1621.3094483223
 21
1205.0881130566
  0
INSERT
  5
293
100
AcDbEntity
  8
0
100
AcDbBlockReference
 62
2
  6
CONTINUOUS
  2
_FILLED
 10
1707.7661148653
 20
1209.9033036706
 41
14.0
 42
14.0
 43
14.0
 50
5.5
  0
INSERT
  5
294
100
AcDbEntity
  8
0
100
AcDbBlockReference
 62
2
  6
CONTINUOUS
  2
_FILLED
 10
1667.6516480711
 20
1206.040719844
 41
14.0
 42
14.0
 43
14.0
 50
185.5
  0
ENDBLK
  5
295
100
AcDbEntity
  8
0
  6
BYBLOCK
 62
0
100
AcDbBlockEnd
  0
BLOCK
  5
296
100
AcDbEntity
  8
0
100
AcDbBlockBegin
 62
2
  6
CONTINUOUS
  2
*D5
 70
65
 10
0.0
 20
0.0
  3
*D5
  1

  0
MTEXT
  5
297
100
AcDbEntity
  8
0
100
AcDbMText
 62
2
  6
CONTINUOUS
  7
STANDARD
 71
2
 72
1
 10
1910.5102328473
 20
1202.680041251
 30
0.0
 11
1.0
 21
0.0
 31
0.0
 73
2
 44
0.9
  1
459,7\P[18.10]\PBOTH ENDS
 40
16.002
 41
119.2714126394
  0
LINE
  5
298
100
AcDbEntity
  8
0
100
AcDbLine
 62
2
  6
CONTINUOUS
 10
2120.2482833717
 20
1301.8929572822
 11
2130.7525399356
 21
1192.8020818339
  0
LINE
  5
299
100
AcDbEntity
  8
0
100
AcDbLine
 62
2
  6
CONTINUOUS
 10
1666.7269102703
 20
1215.6444890998
 11
1673.1689075462
 21
1148.7417894004
  0
LINE
  5
29A
100
AcDbEntity
  8
0
100
AcDbLine
 62
2
  6
CONTINUOUS
 10
2128.6223680859
 20
1214.9247623426
 11
1962.0557086837
 21
1198.8862172474
  0
LINE
  5
29B
100
AcDbEntity
  8
0
100
AcDbLine
 62
2
  6
CONTINUOUS
 10
1671.0387356965
 20
1170.8644699091
 11
1874.6693220666
 21
1190.4718652546
  0
INSERT
  5
29C
100
AcDbEntity
  8
0
100
AcDbBlockReference
 62
2
  6
CONTINUOUS
  2
_FILLED
 10
2128.6223680859
 20
1214.9247623426
 41
14.0
 42
14.0
 43
14.0
 50
5.5
  0
INSERT
  5
29D
100
AcDbEntity
  8
0
100
AcDbBlockReference
 62
2
  6
CONTINUOUS
  2
_FILLED
 10
1671.0387356965
 20
1170.8644699091
 41
14.0
 42
14.0
 43
14.0
 50
185.5
  0
ENDBLK
  5
29E
100
AcDbEntity
  8
0
  6
BYBLOCK
 62
0
100
AcDbBlockEnd
  0
BLOCK
  5
29F
100
AcDbEntity
  8
0
100
AcDbBlockBegin
 62
2
  6
CONTINUOUS
  2
*D6
 70
65
 10
0.0
 20
0.0
  3
*D6
  1

  0
MTEXT
  5
2A0
100
AcDbEntity
  8
0
100
AcDbMText
 62
2
  6
CONTINUOUS
  7
STANDARD
 71
3
 72
1
 10
808.0716100818
 20
1509.6397250743
 30
0.0
 11
1.0
 21
0.0
 31
0.0
 73
2
 44
0.9
  1
40,3\P[1.59]
 40
16.002
 41
59.0110929368
  0
LINE
  5
2A1
100
AcDbEntity
  8
0
100
AcDbLine
 62
2
  6
CONTINUOUS
 10
902.6847011941
 20
1443.6516327633
 11
846.0011751376
 21
1443.6516327633
  0
LINE
  5
2A2
100
AcDbEntity
  8
0
100
AcDbLine
 62
2
  6
CONTINUOUS
 10
973.7582201087
 20
1403.3516327633
 11
846.0011751376
 21
1403.3516327633
  0
LINE
  5
2A3
100
AcDbEntity
  8
0
100
AcDbLine
 62
2
  6
CONTINUOUS
 10
868.2261751376
 20
1443.6516327633
 11
868.2261751376
 21
1423.5016327633
  0
LINE
  5
2A4
100
AcDbEntity
  8
0
100
AcDbLine
 62
2
  6
CONTINUOUS
 10
868.2261751376
 20
1423.5016327633
 11
868.2261751376
 21
1501.6387250743
  0
LINE
  5
2A5
100
AcDbEntity
  8
0
100
AcDbLine
 62
2
  6
CONTINUOUS
 10
868.2261751376
 20
1501.6387250743
 11
831.7771751376
 21
1501.6387250743
  0
LINE
  5
2A6
100
AcDbEntity
  8
0
100
AcDbLine
 62
2
  6
CONTINUOUS
 10
868.2261751376
 20
1403.3516327633
 11
868.2261751376
 21
1423.5016327633
  0
INSERT
  5
2A7
100
AcDbEntity
  8
0
100
AcDbBlockReference
 62
2
  6
CONTINUOUS
  2
_FILLED
 10
868.2261751376
 20
1443.6516327633
 41
14.0
 42
14.0
 43
14.0
 50
90.0
  0
INSERT
  5
2A8
100
AcDbEntity
  8
0
100
AcDbBlockReference
 62
2
  6
CONTINUOUS
  2
_FILLED
 10
868.2261751376
 20
1403.3516327633
 41
14.0
 42
14.0
 43
14.0
 50
270.0
  0
ENDBLK
  5
2A9
100
AcDbEntity
  8
0
  6
BYBLOCK
 62
0
100
AcDbBlockEnd
  0
BLOCK
  5
2AA
100
AcDbEntity
  8
0
100
AcDbBlockBegin
 62
2
  6
CONTINUOUS
  2
*D7
 70
65
 10
0.0
 20
0.0
  3
*D7
  1

  0
MTEXT
  5
2AB
100
AcDbEntity
  8
0
100
AcDbMText
 62
2
  6
CONTINUOUS
  7
STANDARD
 71
2
 72
1
 10
1163.703938561
 20
1396.8363064401
 30
0.0
 11
1.0
 21
0.0
 31
0.0
 73
2
 44
0.9
  1
146,0\P[5.75]
 40
16.002
 41
59.0110929368
  0
LINE
  5
2AC
100
AcDbEntity
  8
0
100
AcDbLine
 62
2
  6
CONTINUOUS
 10
1122.6167390233
 20
1443.6516327633
 11
1187.5945742487
 21
1443.6516327633
  0
LINE
  5
2AD
100
AcDbEntity
  8
0
100
AcDbLine
 62
2
  6
CONTINUOUS
 10
1049.5432201087
 20
1297.6516327633
 11
1187.5945742487
 21
1297.6516327633
  0
LINE
  5
2AE
100
AcDbEntity
  8
0
100
AcDbLine
 62
2
  6
CONTINUOUS
 10
1165.3695742487
 20
1443.6516327633
 11
1165.3695742487
 21
1404.8373064401
  0
LINE
  5
2AF
100
AcDbEntity
  8
0
100
AcDbLine
 62
2
  6
CONTINUOUS
 10
1165.3695742487
 20
1297.6516327633
 11
1165.3695742487
 21
1344.4877665283
  0
INSERT
  5
2B0
100
AcDbEntity
  8
0
100
AcDbBlockReference
 62
2
  6
CONTINUOUS
  2
_FILLED
 10
1165.3695742487
 20
1443.6516327633
 41
14.0
 42
14.0
 43
14.0
 50
90.0
  0
INSERT
  5
2B1
100
AcDbEntity
  8
0
100
AcDbBlockReference
 62
2
  6
CONTINUOUS
  2
_FILLED
 10
1165.3695742487
 20
1297.6516327633
 41
14.0
 42
14.0
 43
14.0
 50
270.0
  0
ENDBLK
  5
2B2
100
AcDbEntity
  8
0
  6
BYBLOCK
 62
0
100
AcDbBlockEnd
  0
BLOCK
  5
2B3
100
AcDbEntity
  8
0
100
AcDbBlockBegin
 62
2
  6
CONTINUOUS
  2
*D8
 70
65
 10
0.0
 20
0.0
  3
*D8
  1

  0
MTEXT
  5
2B4
100
AcDbEntity
  8
0
100
AcDbMText
 62
2
  6
CONTINUOUS
  7
STANDARD
 71
2
 72
1
 10
1270.9690159812
 20
1371.1567559327
 30
0.0
 11
1.0
 21
0.0
 31
0.0
 73
2
 44
0.9
  1
200,8{\ftxt;\W0.0001;\H0.0001;\~}{\ftxt;\W0.2081784387;\H16.002; } 2X\P[7.91]
 40
16.002
 41
91.1340669145
  0
LINE
  5
2B5
100
AcDbEntity
  8
0
100
AcDbLine
 62
2
  6
CONTINUOUS
 10
1122.6167390233
 20
1443.6516327633
 11
1293.1940159812
 21
1443.6516327633
  0
LINE
  5
2B6
100
AcDbEntity
  8
0
100
AcDbLine
 62
2
  6
CONTINUOUS
 10
1129.2498954114
 20
1242.8027505216
 11
1293.1940159812
 21
1242.8027505216
  0
LINE
  5
2B7
100
AcDbEntity
  8
0
100
AcDbLine
 62
2
  6
CONTINUOUS
 10
1270.9690159812
 20
1443.6516327633
 11
1270.9690159812
 21
1379.1577559327
  0
LINE
  5
2B8
100
AcDbEntity
  8
0
100
AcDbLine
 62
2
  6
CONTINUOUS
 10
1270.9690159812
 20
1242.8027505216
 11
1270.9690159812
 21
1318.808211499
  0
INSERT
  5
2B9
100
AcDbEntity
  8
0
100
AcDbBlockReference
 62
2
  6
CONTINUOUS
  2
_FILLED
 10
1270.9690159812
 20
1443.6516327633
 41
14.0
 42
14.0
 43
14.0
 50
90.0
  0
INSERT
  5
2BA
100
AcDbEntity
  8
0
100
AcDbBlockReference
 62
2
  6
CONTINUOUS
  2
_FILLED
 10
1270.9690159812
 20
1242.8027505216
 41
14.0
 42
14.0
 43
14.0
 50
270.0
  0
ENDBLK
  5
2BB
100
AcDbEntity
  8
0
  6
BYBLOCK
 62
0
100
AcDbBlockEnd
  0
BLOCK
  5
2BC
100
AcDbEntity
  8
0
100
AcDbBlockBegin
 62
2
  6
CONTINUOUS
  2
*D9
 70
65
 10
0.0
 20
0.0
  3
*D9
  1

  0
MTEXT
  5
2BD
100
AcDbEntity
  8
0
100
AcDbMText
 62
2
  6
CONTINUOUS
  7
STANDARD
 71
1
 72
1
 10
1075.6510640985
 20
1505.5336358956
 30
0.0
 11
1.0
 21
0.0
 31
0.0
 73
2
 44
0.9
  1
50,8\P[2.00]
 40
16.002
 41
59.0110929368
  0
LINE
  5
2BE
100
AcDbEntity
  8
0
100
AcDbLine
 62
2
  6
CONTINUOUS
 10
1038.0507201087
 20
1386.4941327633
 11
1038.0507201087
 21
1519.7576358956
  0
LINE
  5
2BF
100
AcDbEntity
  8
0
100
AcDbLine
 62
2
  6
CONTINUOUS
 10
987.2507201087
 20
1386.4941327633
 11
987.2507201087
 21
1519.7576358956
  0
LINE
  5
2C0
100
AcDbEntity
  8
0
100
AcDbLine
 62
2
  6
CONTINUOUS
 10
1038.0507201087
 20
1497.5326358956
 11
1067.6500640985
 21
1497.5326358956
  0
LINE
  5
2C1
100
AcDbEntity
  8
0
100
AcDbLine
 62
2
  6
CONTINUOUS
 10
987.2507201087
 20
1497.5326358956
 11
959.2507201087
 21
1497.5326358956
  0
INSERT
  5
2C2
100
AcDbEntity
  8
0
100
AcDbBlockReference
 62
2
  6
CONTINUOUS
  2
_FILLED
 10
1038.0507201087
 20
1497.5326358956
 41
14.0
 42
14.0
 43
14.0
 50
180.0
  0
INSERT
  5
2C3
100
AcDbEntity
  8
0
100
AcDbBlockReference
 62
2
  6
CONTINUOUS
  2
_FILLED
 10
987.2507201087
 20
1497.5326358956
 41
14.0
 42
14.0
 43
14.0
  0
ENDBLK
  5
2C4
100
AcDbEntity
  8
0
  6
BYBLOCK
 62
0
100
AcDbBlockEnd
  0
BLOCK
  5
2C5
100
AcDbEntity
  8
0
100
AcDbBlockBegin
 62
2
  6
CONTINUOUS
  2
*D10
 70
65
 10
0.0
 20
0.0
  3
*D10
  1

  0
MTEXT
  5
2C6
100
AcDbEntity
  8
0
100
AcDbMText
 62
2
  6
CONTINUOUS
  7
STANDARD
 71
2
 72
1
 10
1010.985084421
 20
1140.1973223333
 30
0.0
 11
1.0
 21
0.0
 31
0.0
 73
2
 44
0.9
  1
155,4\P[6.12]
 40
16.002
 41
59.0110929368
  0
LINE
  5
2C7
100
AcDbEntity
  8
0
100
AcDbLine
 62
2
  6
CONTINUOUS
 10
1090.3573954114
 20
1203.9102505216
 11
1090.3573954114
 21
1109.9713223333
  0
LINE
  5
2C8
100
AcDbEntity
  8
0
100
AcDbLine
 62
2
  6
CONTINUOUS
 10
934.944044806
 20
1203.9102505216
 11
934.944044806
 21
1109.9713223333
  0
LINE
  5
2C9
100
AcDbEntity
  8
0
100
AcDbLine
 62
2
  6
CONTINUOUS
 10
1090.3573954114
 20
1132.1963223333
 11
1050.1572665771
 21
1132.1963223333
  0
LINE
  5
2CA
100
AcDbEntity
  8
0
100
AcDbLine
 62
2
  6
CONTINUOUS
 10
934.944044806
 20
1132.1963223333
 11
975.1441736403
 21
1132.1963223333
  0
INSERT
  5
2CB
100
AcDbEntity
  8
0
100
AcDbBlockReference
 62
2
  6
CONTINUOUS
  2
_FILLED
 10
1090.3573954114
 20
1132.1963223333
 41
14.0
 42
14.0
 43
14.0
  0
INSERT
  5
2CC
100
AcDbEntity
  8
0
100
AcDbBlockReference
 62
2
  6
CONTINUOUS
  2
_FILLED
 10
934.944044806
 20
1132.1963223333
 41
14.0
 42
14.0
 43
14.0
 50
180.0
  0
ENDBLK
  5
2CD
100
AcDbEntity
  8
0
  6
BYBLOCK
 62
0
100
AcDbBlockEnd
  0
BLOCK
  5
2CE
100
AcDbEntity
  8
0
100
AcDbBlockBegin
 62
2
  6
CONTINUOUS
  2
*D11
 70
65
 10
0.0
 20
0.0
  3
*D11
  1

  0
MTEXT
  5
2CF
100
AcDbEntity
  8
0
100
AcDbMText
 62
2
  6
CONTINUOUS
  7
STANDARD
 71
2
 72
1
 10
1333.569984534
 20
581.8101491831
 30
0.0
 11
1.0
 21
0.0
 31
0.0
 73
2
 44
0.9
  1
500,0\P[19.69]
 40
16.002
 41
71.3843866171
  0
LINE
  5
2D0
100
AcDbEntity
  8
0
100
AcDbLine
 62
2
  6
CONTINUOUS
 10
1401.2958474864
 20
813.0655434783
 11
1319.1972670619
 21
813.0655434783
  0
LINE
  5
2D1
100
AcDbEntity
  8
0
100
AcDbLine
 62
2
  6
CONTINUOUS
 10
1401.2958474864
 20
313.0655434783
 11
1319.1972670619
 21
313.0655434783
  0
LINE
  5
2D2
100
AcDbEntity
  8
0
100
AcDbLine
 62
2
  6
CONTINUOUS
 10
1341.4222670619
 20
813.0655434783
 11
1341.4222670619
 21
589.8111491831
  0
LINE
  5
2D3
100
AcDbEntity
  8
0
100
AcDbLine
 62
2
  6
CONTINUOUS
 10
1341.4222670619
 20
313.0655434783
 11
1341.4222670619
 21
529.4615900085
  0
INSERT
  5
2D4
100
AcDbEntity
  8
0
100
AcDbBlockReference
 62
2
  6
CONTINUOUS
  2
_FILLED
 10
1341.4222670619
 20
813.0655434783
 41
14.0
 42
14.0
 43
14.0
 50
90.0
  0
INSERT
  5
2D5
100
AcDbEntity
  8
0
100
AcDbBlockReference
 62
2
  6
CONTINUOUS
  2
_FILLED
 10
1341.4222670619
 20
313.0655434783
 41
14.0
 42
14.0
 43
14.0
 50
270.0
  0
ENDBLK
  5
2D6
100
AcDbEntity
  8
0
  6
BYBLOCK
 62
0
100
AcDbBlockEnd
  0
BLOCK
  5
2D7
100
AcDbEntity
  8
0
100
AcDbBlockBegin
 62
2
  6
CONTINUOUS
  2
*D12
 70
65
 10
0.0
 20
0.0
  3
*D12
  1

  0
MTEXT
  5
2D8
100
AcDbEntity
  8
0
100
AcDbMText
 62
2
  6
CONTINUOUS
  7
STANDARD
 71
2
 72
1
 10
1010.985084421
 20
922.2392722149
 30
0.0
 11
1.0
 21
0.0
 31
0.0
 73
2
 44
0.9
  1
242,0\P[9.53]
 40
16.002
 41
59.0110929368
  0
LINE
  5
2D9
100
AcDbEntity
  8
0
100
AcDbLine
 62
2
  6
CONTINUOUS
 10
891.6507201087
 20
824.1780434783
 11
891.6507201087
 21
936.4632722149
  0
LINE
  5
2DA
100
AcDbEntity
  8
0
100
AcDbLine
 62
2
  6
CONTINUOUS
 10
1133.6507201087
 20
824.1780434783
 11
1133.6507201087
 21
936.4632722149
  0
LINE
  5
2DB
100
AcDbEntity
  8
0
100
AcDbLine
 62
2
  6
CONTINUOUS
 10
891.6507201087
 20
914.2382722149
 11
975.1441736403
 21
914.2382722149
  0
LINE
  5
2DC
100
AcDbEntity
  8
0
100
AcDbLine
 62
2
  6
CONTINUOUS
 10
1133.6507201087
 20
914.2382722149
 11
1050.1572665771
 21
914.2382722149
  0
INSERT
  5
2DD
100
AcDbEntity
  8
0
100
AcDbBlockReference
 62
2
  6
CONTINUOUS
  2
_FILLED
 10
891.6507201087
 20
914.2382722149
 41
14.0
 42
14.0
 43
14.0
 50
180.0
  0
INSERT
  5
2DE
100
AcDbEntity
  8
0
100
AcDbBlockReference
 62
2
  6
CONTINUOUS
  2
_FILLED
 10
1133.6507201087
 20
914.2382722149
 41
14.0
 42
14.0
 43
14.0
  0
ENDBLK
  5
2DF
100
AcDbEntity
  8
0
  6
BYBLOCK
 62
0
100
AcDbBlockEnd
  0
BLOCK
  5
2E0
100
AcDbEntity
  8
0
100
AcDbBlockBegin
 62
2
  6
CONTINUOUS
  2
*D13
 70
65
 10
0.0
 20
0.0
  3
*D13
  1

  0
MTEXT
  5
2E1
100
AcDbEntity
  8
0
100
AcDbMText
 62
2
  6
CONTINUOUS
  7
STANDARD
 71
2
 72
1
 10
662.2892818006
 20
1313.2826327633
 30
0.0
 11
1.0
 21
0.0
 31
0.0
 73
2
 44
0.9
  1
276,7\P[10.90]
 40
16.002
 41
71.3843866171
  0
LINE
  5
2E2
100
AcDbEntity
  8
0
100
AcDbLine
 62
2
  6
CONTINUOUS
 10
902.6847011941
 20
1443.6516327633
 11
647.9165643285
 21
1443.6516327633
  0
LINE
  5
2E3
100
AcDbEntity
  8
0
100
AcDbLine
 62
2
  6
CONTINUOUS
 10
974.6446288027
 20
1166.9116327633
 11
940.4498027839
 21
1166.9116327633
  0
LINE
  5
2E4
100
AcDbEntity
  8
0
100
AcDbLine
 62
2
  6
CONTINUOUS
 10
930.1405927833
 20
1166.9116327633
 11
891.4113001428
 21
1166.9116327633
  0
LINE
  5
2E5
100
AcDbEntity
  8
0
100
AcDbLine
 62
2
  6
CONTINUOUS
 10
881.5051418749
 20
1166.9116327633
 11
647.9165643285
 21
1166.9116327633
  0
LINE
  5
2E6
100
AcDbEntity
  8
0
100
AcDbLine
 62
2
  6
CONTINUOUS
 10
670.1415643285
 20
1443.6516327633
 11
670.1415643285
 21
1321.2836327633
  0
LINE
  5
2E7
100
AcDbEntity
  8
0
100
AcDbLine
 62
2
  6
CONTINUOUS
 10
670.1415643285
 20
1166.9116327633
 11
670.1415643285
 21
1260.9340184937
  0
INSERT
  5
2E8
100
AcDbEntity
  8
0
100
AcDbBlockReference
 62
2
  6
CONTINUOUS
  2
_FILLED
 10
670.1415643285
 20
1443.6516327633
 41
14.0
 42
14.0
 43
14.0
 50
90.0
  0
INSERT
  5
2E9
100
AcDbEntity
  8
0
100
AcDbBlockReference
 62
2
  6
CONTINUOUS
  2
_FILLED
 10
670.1415643285
 20
1166.9116327633
 41
14.0
 42
14.0
 43
14.0
 50
270.0
  0
ENDBLK
  5
2EA
100
AcDbEntity
  8
0
  6
BYBLOCK
 62
0
100
AcDbBlockEnd
  0
BLOCK
  5
2EB
100
AcDbEntity
  8
0
100
AcDbBlockBegin
 62
2
  6
CONTINUOUS
  2
*D14
 70
65
 10
0.0
 20
0.0
  3
*D14
  1

  0
MTEXT
  5
2EC
100
AcDbEntity
  8
0
100
AcDbMText
 62
2
  6
CONTINUOUS
  7
STANDARD
 71
1
 72
1
 10
2258.3358781167
 20
872.4006730811
 30
0.0
 11
1.0
 21
0.0
 31
0.0
 73
2
 44
0.9
  1
107,9\P[4.25]
 40
16.002
 41
59.0110929368
  0
LINE
  5
2ED
100
AcDbEntity
  8
0
100
AcDbLine
 62
2
  6
CONTINUOUS
 10
2114.4973505435
 20
643.7580434783
 11
2114.4973505435
 21
886.6246730811
  0
LINE
  5
2EE
100
AcDbEntity
  8
0
100
AcDbLine
 62
2
  6
CONTINUOUS
 10
2222.3973505435
 20
643.7580434783
 11
2222.3973505435
 21
886.6246730811
  0
LINE
  5
2EF
100
AcDbEntity
  8
0
100
AcDbLine
 62
2
  6
CONTINUOUS
 10
2114.4973505435
 20
864.3996730811
 11
2086.4973505435
 21
864.3996730811
  0
LINE
  5
2F0
100
AcDbEntity
  8
0
100
AcDbLine
 62
2
  6
CONTINUOUS
 10
2222.3973505435
 20
864.3996730811
 11
2250.3348781167
 21
864.3996730811
  0
INSERT
  5
2F1
100
AcDbEntity
  8
0
100
AcDbBlockReference
 62
2
  6
CONTINUOUS
  2
_FILLED
 10
2114.4973505435
 20
864.3996730811
 41
14.0
 42
14.0
 43
14.0
  0
INSERT
  5
2F2
100
AcDbEntity
  8
0
100
AcDbBlockReference
 62
2
  6
CONTINUOUS
  2
_FILLED
 10
2222.3973505435
 20
864.3996730811
 41
14.0
 42
14.0
 43
14.0
 50
180.0
  0
ENDBLK
  5
2F3
100
AcDbEntity
  8
0
  6
BYBLOCK
 62
0
100
AcDbBlockEnd
  0
BLOCK
  5
2F4
100
AcDbEntity
  8
0
100
AcDbBlockBegin
 62
2
  6
CONTINUOUS
  2
*D15
 70
65
 10
0.0
 20
0.0
  3
*D15
  1

  0
MTEXT
  5
2F5
100
AcDbEntity
  8
0
100
AcDbMText
 62
2
  6
CONTINUOUS
  7
STANDARD
 71
2
 72
1
 10
389.220358476
 20
469.2797303977
 30
0.0
 11
1.0
 21
0.0
 31
0.0
 73
2
 44
0.9
  1
249,2\P[9.81]
 40
16.002
 41
59.0110929368
  0
LINE
  5
2F6
100
AcDbEntity
  8
0
100
AcDbLine
 62
2
  6
CONTINUOUS
 10
448.4479080217
 20
313.0655434783
 11
368.6609941638
 21
313.0655434783
  0
LINE
  5
2F7
100
AcDbEntity
  8
0
100
AcDbLine
 62
2
  6
CONTINUOUS
 10
587.4119678911
 20
562.3055434783
 11
368.6609941638
 21
562.3055434783
  0
LINE
  5
2F8
100
AcDbEntity
  8
0
100
AcDbLine
 62
2
  6
CONTINUOUS
 10
390.8859941638
 20
313.0655434783
 11
390.8859941638
 21
416.931173468
  0
LINE
  5
2F9
100
AcDbEntity
  8
0
100
AcDbLine
 62
2
  6
CONTINUOUS
 10
390.8859941638
 20
562.3055434783
 11
390.8859941638
 21
477.2807303977
  0
INSERT
  5
2FA
100
AcDbEntity
  8
0
100
AcDbBlockReference
 62
2
  6
CONTINUOUS
  2
_FILLED
 10
390.8859941638
 20
313.0655434783
 41
14.0
 42
14.0
 43
14.0
 50
270.0
  0
INSERT
  5
2FB
100
AcDbEntity
  8
0
100
AcDbBlockReference
 62
2
  6
CONTINUOUS
  2
_FILLED
 10
390.8859941638
 20
562.3055434783
 41
14.0
 42
14.0
 43
14.0
 50
90.0
  0
ENDBLK
  5
2FC
100
AcDbEntity
  8
0
  6
BYBLOCK
 62
0
100
AcDbBlockEnd
  0
BLOCK
  5
2FD
100
AcDbEntity
  8
0
100
AcDbBlockBegin
 62
2
  6
CONTINUOUS
  2
*D16
 70
65
 10
0.0
 20
0.0
  3
*D16
  1

  0
MTEXT
  5
2FE
100
AcDbEntity
  8
0
100
AcDbMText
 62
2
  6
CONTINUOUS
  7
STANDARD
 71
2
 72
1
 10
526.0082374326
 20
264.0979119629
 30
0.0
 11
1.0
 21
0.0
 31
0.0
 73
2
 44
0.9
  1
146,1\P[5.75]
 40
16.002
 41
59.0110929368
  0
LINE
  5
2FF
100
AcDbEntity
  8
0
100
AcDbLine
 62
2
  6
CONTINUOUS
 10
459.5604080217
 20
301.9530434783
 11
459.5604080217
 21
233.8719119629
  0
LINE
  5
300
100
AcDbEntity
  8
0
100
AcDbLine
 62
2
  6
CONTINUOUS
 10
605.6104080217
 20
542.4833023968
 11
605.6104080217
 21
233.8719119629
  0
LINE
  5
301
100
AcDbEntity
  8
0
100
AcDbLine
 62
2
  6
CONTINUOUS
 10
459.5604080217
 20
256.0969119629
 11
490.1673266519
 21
256.0969119629
  0
LINE
  5
302
100
AcDbEntity
  8
0
100
AcDbLine
 62
2
  6
CONTINUOUS
 10
605.6104080217
 20
256.0969119629
 11
565.1804195887
 21
256.0969119629
  0
INSERT
  5
303
100
AcDbEntity
  8
0
100
AcDbBlockReference
 62
2
  6
CONTINUOUS
  2
_FILLED
 10
459.5604080217
 20
256.0969119629
 41
14.0
 42
14.0
 43
14.0
 50
180.0
  0
INSERT
  5
304
100
AcDbEntity
  8
0
100
AcDbBlockReference
 62
2
  6
CONTINUOUS
  2
_FILLED
 10
605.6104080217
 20
256.0969119629
 41
14.0
 42
14.0
 43
14.0
  0
ENDBLK
  5
305
100
AcDbEntity
  8
0
  6
BYBLOCK
 62
0
100
AcDbBlockEnd
  0
BLOCK
  5
306
100
AcDbEntity
  8
0
100
AcDbBlockBegin
 62
2
  6
CONTINUOUS
  2
*D17
 70
65
 10
0.0
 20
0.0
  3
*D17
  1

  0
MTEXT
  5
307
100
AcDbEntity
  8
0
100
AcDbMText
 62
2
  6
CONTINUOUS
  7
STANDARD
 71
3
 72
1
 10
947.3278096472
 20
293.7540331855
 30
0.0
 11
1.0
 21
0.0
 31
0.0
 73
2
 44
0.9
  1
3,2\P[.13]
 40
16.002
 41
46.6377992565
  0
LINE
  5
308
100
AcDbEntity
  8
0
100
AcDbLine
 62
2
  6
CONTINUOUS
 10
1009.4757201087
 20
533.4129434783
 11
1009.4757201087
 21
263.5280331855
  0
LINE
  5
309
100
AcDbEntity
  8
0
100
AcDbLine
 62
2
  6
CONTINUOUS
 10
1012.6507201087
 20
284.1730434783
 11
1012.6507201087
 21
263.5280331855
  0
LINE
  5
30A
100
AcDbEntity
  8
0
100
AcDbLine
 62
2
  6
CONTINUOUS
 10
1009.4757201087
 20
285.7530331855
 11
971.033374703
 21
285.7530331855
  0
LINE
  5
30B
100
AcDbEntity
  8
0
100
AcDbLine
 62
2
  6
CONTINUOUS
 10
1012.6507201087
 20
285.7530331855
 11
1040.6507201087
 21
285.7530331855
  0
INSERT
  5
30C
100
AcDbEntity
  8
0
100
AcDbBlockReference
 62
2
  6
CONTINUOUS
  2
_FILLED
 10
1009.4757201087
 20
285.7530331855
 41
14.0
 42
14.0
 43
14.0
  0
INSERT
  5
30D
100
AcDbEntity
  8
0
100
AcDbBlockReference
 62
2
  6
CONTINUOUS
  2
_FILLED
 10
1012.6507201087
 20
285.7530331855
 41
14.0
 42
14.0
 43
14.0
 50
180.0
  0
ENDBLK
  5
30E
100
AcDbEntity
  8
0
  6
BYBLOCK
 62
0
100
AcDbBlockEnd
  0
BLOCK
  5
30F
100
AcDbEntity
  8
0
100
AcDbBlockBegin
 62
2
  6
CONTINUOUS
  2
*D18
 70
65
 10
0.0
 20
0.0
  3
*D18
  1

  0
MTEXT
  5
310
100
AcDbEntity
  8
0
100
AcDbMText
 62
2
  6
CONTINUOUS
  7
STANDARD
 71
1
 72
1
 10
2394.9589507436
 20
657.8581823355
 30
0.0
 11
1.0
 21
0.0
 31
0.0
 73
2
 44
0.9
  1
50,8\P[2.00]
 40
16.002
 41
59.0110929368
  0
LINE
  5
311
100
AcDbEntity
  8
0
100
AcDbLine
 62
2
  6
CONTINUOUS
 10
2257.2898505435
 20
558.0655434783
 11
2372.7339507436
 21
558.0655434783
  0
LINE
  5
312
100
AcDbEntity
  8
0
100
AcDbLine
 62
2
  6
CONTINUOUS
 10
2257.2898505435
 20
608.8655434783
 11
2372.7339507436
 21
608.8655434783
  0
LINE
  5
313
100
AcDbEntity
  8
0
100
AcDbLine
 62
2
  6
CONTINUOUS
 10
2350.5089507436
 20
558.0655434783
 11
2350.5089507436
 21
530.0655434783
  0
LINE
  5
314
100
AcDbEntity
  8
0
100
AcDbLine
 62
2
  6
CONTINUOUS
 10
2350.5089507436
 20
608.8655434783
 11
2350.5089507436
 21
649.8571823355
  0
LINE
  5
315
100
AcDbEntity
  8
0
100
AcDbLine
 62
2
  6
CONTINUOUS
 10
2350.5089507436
 20
649.8571823355
 11
2386.9579507436
 21
649.8571823355
  0
INSERT
  5
316
100
AcDbEntity
  8
0
100
AcDbBlockReference
 62
2
  6
CONTINUOUS
  2
_FILLED
 10
2350.5089507436
 20
558.0655434783
 41
14.0
 42
14.0
 43
14.0
 50
90.0
  0
INSERT
  5
317
100
AcDbEntity
  8
0
100
AcDbBlockReference
 62
2
  6
CONTINUOUS
  2
_FILLED
 10
2350.5089507436
 20
608.8655434783
 41
14.0
 42
14.0
 43
14.0
 50
270.0
  0
ENDBLK
  5
318
100
AcDbEntity
  8
0
  6
BYBLOCK
 62
0
100
AcDbBlockEnd
  0
BLOCK
  5
319
100
AcDbEntity
  8
0
100
AcDbBlockBegin
 62
2
  6
CONTINUOUS
  2
*D19
 70
65
 10
0.0
 20
0.0
  3
*D19
  1

  0
MTEXT
  5
31A
100
AcDbEntity
  8
0
100
AcDbMText
 62
2
  6
CONTINUOUS
  7
STANDARD
 71
2
 72
1
 10
750.0446352813
 20
1327.6269349304
 30
0.0
 11
1.0
 21
0.0
 31
0.0
 73
2
 44
0.9
  1
107,9\P[4.25]
 40
16.002
 41
59.0110929368
  0
LINE
  5
31B
100
AcDbEntity
  8
0
100
AcDbLine
 62
2
  6
CONTINUOUS
 10
952.3582201087
 20
1351.6016327633
 11
729.485270969
 21
1351.6016327633
  0
LINE
  5
31C
100
AcDbEntity
  8
0
100
AcDbLine
 62
2
  6
CONTINUOUS
 10
969.130674951
 20
1243.7016327633
 11
957.7267312674
 21
1243.7016327633
  0
LINE
  5
31D
100
AcDbEntity
  8
0
100
AcDbLine
 62
2
  6
CONTINUOUS
 10
957.7267312674
 20
1243.7016327633
 11
939.9086050224
 21
1259.5281944129
  0
LINE
  5
31E
100
AcDbEntity
  8
0
100
AcDbLine
 62
2
  6
CONTINUOUS
 10
939.9086050224
 20
1259.5281944129
 11
729.485270969
 21
1259.5281944129
  0
LINE
  5
31F
100
AcDbEntity
  8
0
100
AcDbLine
 62
2
  6
CONTINUOUS
 10
751.710270969
 20
1351.6016327633
 11
751.710270969
 21
1379.6016327633
  0
LINE
  5
320
100
AcDbEntity
  8
0
100
AcDbLine
 62
2
  6
CONTINUOUS
 10
751.710270969
 20
1259.5281944129
 11
751.710270969
 21
1231.5281944129
  0
INSERT
  5
321
100
AcDbEntity
  8
0
100
AcDbBlockReference
 62
2
  6
CONTINUOUS
  2
_FILLED
 10
751.710270969
 20
1351.6016327633
 41
14.0
 42
14.0
 43
14.0
 50
270.0
  0
INSERT
  5
322
100
AcDbEntity
  8
0
100
AcDbBlockReference
 62
2
  6
CONTINUOUS
  2
_FILLED
 10
751.710270969
 20
1259.5281944129
 41
14.0
 42
14.0
 43
14.0
 50
90.0
  0
ENDBLK
  5
323
100
AcDbEntity
  8
0
  6
BYBLOCK
 62
0
100
AcDbBlockEnd
  0
BLOCK
  5
324
100
AcDbEntity
  8
0
100
AcDbBlockBegin
 62
2
  6
CONTINUOUS
  2
*D20
 70
65
 10
0.0
 20
0.0
  3
*D20
  1

  0
MTEXT
  5
325
100
AcDbEntity
  8
0
100
AcDbMText
 62
2
  6
CONTINUOUS
  7
STANDARD
 71
2
 72
1
 10
1012.6507201087
 20
1074.1109137129
 30
0.0
 11
1.0
 21
0.0
 31
0.0
 73
2
 44
0.9
  1
11\fgdt;{\W1.0;{\fgdt;~}}
 40
16.002
 41
35.4145873606
  0
LINE
  5
326
100
AcDbEntity
  8
0
100
AcDbLine
 62
2
  6
CONTINUOUS
 10
890.5856341838
 20
1202.5902925089
 11
875.936361166
 21
1050.4517752835
  0
LINE
  5
327
100
AcDbEntity
  8
0
100
AcDbLine
 62
2
  6
CONTINUOUS
 10
1134.7158060336
 20
1202.5902925089
 11
1149.3650790514
 21
1050.4517752835
  0
ARC
  5
328
100
AcDbEntity
  8
0
100
AcDbCircle
 62
2
  6
CONTINUOUS
 10
1012.6507201087
 20
2470.28467946
 40
1404.1747657471
100
AcDbArc
 50
264.5
 51
268.9509432408
  0
ARC
  5
329
100
AcDbEntity
  8
0
100
AcDbCircle
 62
2
  6
CONTINUOUS
 10
1012.6507201087
 20
2470.28467946
 40
1404.1747657471
100
AcDbArc
 50
271.0490567592
 51
275.5
  0
SOLID
  5
32A
100
AcDbEntity
  8
0
100
AcDbTrace
 62
2
  6
CONTINUOUS
 10
892.1708209418
 20
1073.0797152297
 11
878.0665330158
 21
1072.5744557923
 12
891.8463707801
 22
1069.5244892042
 13
891.8463707801
 23
1069.5244892042
  0
SOLID
  5
32B
100
AcDbEntity
  8
0
100
AcDbTrace
 62
2
  6
CONTINUOUS
 10
1133.4550694373
 20
1069.5244892042
 11
1147.2349072016
 21
1072.5744557923
 12
1133.1306192756
 22
1073.0797152297
 13
1133.1306192756
 23
1073.0797152297
  0
ENDBLK
  5
32C
100
AcDbEntity
  8
0
  6
BYBLOCK
 62
0
100
AcDbBlockEnd
  0
ENDSEC
  0
SECTION
  2
ENTITIES
  0
MTEXT
  5
32D
100
AcDbEntity
  8
0
100
AcDbMText
 62
2
  6
CONTINUOUS
  7
TEXTSTYLE_2
 71
1
 72
1
 10
1590.6828326152
 20
111.8116517465
 30
0.0
 11
1.0
 21
0.0
 31
0.0
 73
2
 44
1.0000002
  1
DRAWN BY
 40
7.0
 41
51.0557620818
  0
MTEXT
  5
32E
100
AcDbEntity
  8
0
100
AcDbMText
 62
2
  6
CONTINUOUS
  7
TEXTSTYLE_2
 71
1
 72
1
 10
1590.7826438891
 20
80.3292341269
 30
0.0
 11
1.0
 21
0.0
 31
0.0
 73
2
 44
1.0000002
  1
MECH ENGINEER
 40
7.0
 41
78.2750929368
  0
MTEXT
  5
32F
100
AcDbEntity
  8
0
100
AcDbMText
 62
2
  6
CONTINUOUS
  7
TEXTSTYLE_2
 71
1
 72
1
 10
1380.4217431312
 20
98.6001081705
 30
0.0
 11
1.0
 21
0.0
 31
0.0
 73
2
 44
1.0000002
  1
DECIMALS          ANGLES
 40
10.36
 41
166.9153903346
  0
MTEXT
  5
330
100
AcDbEntity
  8
0
100
AcDbMText
 62
2
  6
CONTINUOUS
  7
TEXTSTYLE_2
 71
1
 72
1
 10
1139.8115853357
 20
70.8227528687
 30
0.0
 11
1.0
 21
0.0
 31
0.0
 73
2
 44
1.0000002
  1
PROJECTION
 40
10.99
 41
94.4159479554
  0
MTEXT
  5
331
100
AcDbEntity
  8
0
100
AcDbMText
 62
2
  6
CONTINUOUS
  7
TEXTSTYLE_2
 71
2
 72
1
 10
1235.2721597557
 20
112.9409564024
 30
0.0
 11
1.0
 21
0.0
 31
0.0
 73
2
 44
0.81
  1
UNLESS  OTHERWISE  SPECIFIED\PDIMENSIONS ARE IN MM [IN]
 40
10.36
 41
209.4337546468
  0
MTEXT
  5
332
100
AcDbEntity
  8
0
100
AcDbMText
 62
2
  6
CONTINUOUS
  7
TEXTSTYLE_2
 71
1
 72
1
 10
995.6011119774
 20
116.4989070743
 30
0.0
 11
1.0
 21
0.0
 31
0.0
 73
2
 44
1.0000002
  1
CAGE CODE
 40
9.260419
 41
80.0389374535
  0
MTEXT
  5
333
100
AcDbEntity
  8
0
100
AcDbMText
 62
2
  6
CONTINUOUS
  7
TEXTSTYLE_2
 71
1
 72
1
 10
1008.6314563494
 20
100.8755639778
 30
0.0
 11
1.0
 21
0.0
 31
0.0
 73
2
 44
1.0000002
  1
00PW4
 40
12.964581
 41
58.1237348922
  0
MTEXT
  5
334
100
AcDbEntity
  8
0
100
AcDbMText
 62
2
  6
CONTINUOUS
  7
TEXTSTYLE_2
 71
1
 72
1
 10
343.2756563003
 20
81.5395122394
 30
0.0
 11
1.0
 21
0.0
 31
0.0
 73
2
 44
1.0000002
  1
1675 MACARTHUR BOULEVARD\PCOSTA MESA, CA 92626 USA
 40
10.668
 41
220.8950185874
  0
MTEXT
  5
335
100
AcDbEntity
  8
0
100
AcDbMText
 62
2
  6
CONTINUOUS
  7
TEXTSTYLE_2
 71
1
 72
1
 10
342.2859161119
 20
106.18095778
 30
0.0
 11
1.0
 21
0.0
 31
0.0
 73
2
 44
1.0000002
  1
QSC, LLC
 40
17.78
 41
110.9101858736
  0
MTEXT
  5
336
100
AcDbEntity
  8
0
100
AcDbMText
 62
2
  6
CONTINUOUS
  7
TEXTSTYLE_2
 71
2
 72
1
 10
1038.2195642724
 20
76.9722538931
 30
0.0
 11
1.0
 21
0.0
 31
0.0
 73
2
 44
1.0000002
  1
FORM
 40
9.1
 41
36.5691449814
  0
MTEXT
  5
337
100
AcDbEntity
  8
0
100
AcDbMText
 62
2
  6
CONTINUOUS
  7
TEXTSTYLE_2
 71
1
 72
1
 10
590.4728473898
 20
104.3163011318
 30
0.0
 11
1.0
 21
0.0
 31
0.0
 73
2
 44
1.0000002
  3
THIS DOCUMENT CONTAINS CONFIDENTIAL OR PROPRIETARY INFORMATION WHICH \PIS THE PROPERTY OF QSC, LLC, THAT MAY NOT BE DISCLOSED, REPRODUCED OR\P USED WITHOUT EXPRESS WRITTEN CONSENT FROM QSC, LLC. NO PORTION OF THIS \PDOCUMENT MAY BE REPRODUCED,REDISTR
  1
UBUTED, OR OTHERWISE DISCLOSED TO \P                        ANY THIRD PARTY WITHOUT QSC'S WRITTEN PERMISSION.
 40
6.3
 41
350.4345724907
  0
MTEXT
  5
338
100
AcDbEntity
  8
0
100
AcDbMText
 62
2
  6
CONTINUOUS
  7
TEXTSTYLE_2
 71
2
 72
1
 10
1036.2808330205
 20
63.9827182975
 30
0.0
 11
1.0
 21
0.0
 31
0.0
 73
2
 44
1.0000002
  1
QOS40169 B
 40
11.9
 41
97.2791821561
  0
MTEXT
  5
339
100
AcDbEntity
  8
0
100
AcDbMText
 62
2
  6
CONTINUOUS
  7
TEXTSTYLE_2
 71
1
 72
1
 10
1381.0534601174
 20
112.3125465607
 30
0.0
 11
1.0
 21
0.0
 31
0.0
 73
2
 44
1.2
  1
TOLERANCES ARE:
 40
10.36
 41
125.1287732342
  0
MTEXT
  5
33A
100
AcDbEntity
  8
0
100
AcDbMText
 62
2
  6
CONTINUOUS
  7
TEXTSTYLE_2
 71
1
 72
1
 10
1776.4506030409
 20
111.772032014
 30
0.0
 11
1.0
 21
0.0
 31
0.0
 73
2
 44
1.0000002
  1
TECH DIRECTOR
 40
7.0
 41
73.8513011152
  0
MTEXT
  5
33B
100
AcDbEntity
  8
0
100
AcDbMText
 62
2
  6
CONTINUOUS
  7
TEXTSTYLE_2
 71
1
 72
1
 10
1775.6603321143
 20
80.2780022459
 30
0.0
 11
1.0
 21
0.0
 31
0.0
 73
2
 44
1.0000002
  1
MFG ENGINEER
 40
7.0
 41
71.6914498141
  0
MTEXT
  5
33C
100
AcDbEntity
  8
0
100
AcDbMText
 62
2
  6
CONTINUOUS
  7
TEXTSTYLE_2
 71
1
 72
1
 10
1962.8965393554
 20
111.7473188218
 30
0.0
 11
1.0
 21
0.0
 31
0.0
 73
2
 44
1.0000002
  1
REV BY
 40
7.0
 41
32.0855018587
  0
MTEXT
  5
33D
100
AcDbEntity
  8
0
100
AcDbMText
 62
2
  6
CONTINUOUS
  7
TEXTSTYLE_2
 71
1
 72
1
 10
1962.8990264832
 20
80.2574173875
 30
0.0
 11
1.0
 21
0.0
 31
0.0
 73
2
 44
1.0000002
  1
REV DATE
 40
7.0
 41
44.5762081784
  0
MTEXT
  5
33E
100
AcDbEntity
  8
0
100
AcDbMText
 62
2
  6
CONTINUOUS
  7
TEXTSTYLE_2
 71
1
 72
1
 10
2679.7065359704
 20
115.8904485619
 30
0.0
 11
1.0
 21
0.0
 31
0.0
 73
2
 44
1.0000002
  1
DRAWING NUMBER
 40
7.0
 41
89.750929368
  0
MTEXT
  5
33F
100
AcDbEntity
  8
0
100
AcDbMText
 62
2
  6
CONTINUOUS
  7
TEXTSTYLE_2
 71
1
 72
1
 10
2908.1090097897
 20
114.1644176246
 30
0.0
 11
1.0
 21
0.0
 31
0.0
 73
2
 44
1.0000002
  1
REV
 40
7.0
 41
18.0074349442
  0
MTEXT
  5
340
100
AcDbEntity
  8
0
100
AcDbMText
 62
2
  6
CONTINUOUS
  7
TEXTSTYLE_2
 71
1
 72
1
 10
2681.3586834808
 20
66.9328323703
 30
0.0
 11
1.0
 21
0.0
 31
0.0
 73
2
 44
1.0000002
  1
SCALE:  
 40
9.260419
 41
50.0888834387
  0
MTEXT
  5
341
100
AcDbEntity
  8
0
100
AcDbMText
 62
2
  6
CONTINUOUS
  7
TEXTSTYLE_2
 71
1
 72
1
 10
2861.2593326358
 20
67.1697881546
 30
0.0
 11
1.0
 21
0.0
 31
0.0
 73
2
 44
1.0000002
  1
SHEET:
 40
9.260419
 41
38.1777125316
  0
MTEXT
  5
342
100
AcDbEntity
  8
0
100
AcDbMText
 62
2
  6
CONTINUOUS
  7
TEXTSTYLE_3
 71
1
 72
1
 10
299.738145717
 20
94.3858613005
 30
0.0
 11
1.0
 21
0.0
 31
0.0
 73
2
 44
1.0000002
  1
TM
 40
3.99
 41
8.0244981413
  0
MTEXT
  5
343
100
AcDbEntity
  8
0
100
AcDbMText
 62
7
  6
CONTINUOUS
  7
STANDARD
 71
1
 72
1
 10
1280.03717645
 20
1537.9017499878
 30
0.0
 11
1.0
 21
0.0
 31
0.0
 73
2
 44
0.9
  1
A
 40
44.45
 41
45.7719330855
  0
LEADER
  5
344
100
AcDbEntity
  8
0
100
AcDbLeader
 62
7
  6
CONTINUOUS
  3
STANDARD
 71
1
 72
0
 73
3
 75
0
 76
2
 10
1334.4016745912
 20
1515.6767499878
 30
0.0
 10
1402.4452355375
 20
1522.2285997073
 30
0.0
1001
ACAD
1000
DSTYLE
1002
{
1070
77
1070
0
1070
341
1005
216
1070
41
1040
44.45
1002
}
  0
MTEXT
  5
345
100
AcDbEntity
  8
0
100
AcDbMText
 62
7
  6
CONTINUOUS
  7
STANDARD
 71
1
 72
1
 10
1313.1654908848
 20
1177.7649124226
 30
0.0
 11
1.0
 21
0.0
 31
0.0
 73
2
 44
0.9
  1
A
 40
44.45
 41
45.7719330855
  0
LEADER
  5
346
100
AcDbEntity
  8
0
100
AcDbLeader
 62
7
  6
CONTINUOUS
  3
STANDARD
 71
1
 72
0
 73
3
 75
0
 76
2
 10
1367.529989026
 20
1155.5399124226
 30
0.0
 10
1437.1082398464
 20
1162.2395359693
 30
0.0
1001
ACAD
1000
DSTYLE
1002
{
1070
77
1070
0
1070
341
1005
216
1070
41
1040
44.45
1002
}
  0
DIMENSION
  5
347
100
AcDbEntity
  8
0
100
AcDbDimension
 62
2
  6
CONTINUOUS
  2
*D0
 10
2009.4797873005
 20
353.3655434783
 11
1935.5242408321
 21
263.2680500915
 70
160
 71
3
 72
2
 41
0.9
 42
40.3
  1
<>\P[]
  3
DIMSTYLE_1
100
AcDbAlignedDimension
 13
2037.9223505435
 23
313.0655434783
 14
2131.1423505435
 24
353.3655434783
 50
90.0
100
AcDbRotatedDimension
  0
DIMENSION
  5
348
100
AcDbEntity
  8
0
100
AcDbDimension
 62
2
  6
CONTINUOUS
  2
*D1
 10
1970.0676623957
 20
772.7655434783
 11
1970.0676623957
 21
517.1810228034
 70
160
 71
2
 72
2
 41
0.9
 42
459.7
  1
<>\P[]
  3
DIMSTYLE_1
100
AcDbAlignedDimension
 13
2037.9223505435
 23
313.0655434783
 14
2131.1423505435
 24
772.7655434783
 50
90.0
100
AcDbRotatedDimension
  0
DIMENSION
  5
349
100
AcDbEntity
  8
0
100
AcDbDimension
 62
2
  6
CONTINUOUS
  2
*D2
 10
2350.5089507436
 20
313.0655434783
 11
2350.5089507436
 21
407.1095264556
 70
160
 71
2
 72
2
 41
0.9
 42
245.0
  1
<>\P[]
  3
DIMSTYLE_1
100
AcDbAlignedDimension
 13
2255.7023505435
 23
558.0655434783
 14
2298.9723505435
 24
313.0655434783
 50
270.0
100
AcDbRotatedDimension
  0
DIMENSION
  5
34A
100
AcDbEntity
  8
0
100
AcDbDimension
 62
2
  6
CONTINUOUS
  2
*D3
 10
1577.5721314925
 20
1488.5288665246
 11
1583.8705956615
 21
1396.9425398662
 70
160
 71
2
 72
2
 41
0.9
 42
197.8973786903
  1
<>\PBOTH ENDS\P[]
  3
DIMSTYLE_1
100
AcDbAlignedDimension
 13
1660.8269397156
 23
1297.7327199683
 14
1630.3923523281
 24
1493.6148753144
 50
95.5
100
AcDbRotatedDimension
  0
DIMENSION
  5
34B
100
AcDbEntity
  8
0
100
AcDbDimension
 62
2
  6
CONTINUOUS
  2
*D4
 10
1667.6516480711
 20
1206.040719844
 11
1553.6727420026
 21
1178.9138377884
 70
160
 71
3
 72
2
 41
0.9
 42
40.3
  1
<>\PBOTH ENDS\P[]
  3
DIMSTYLE_2
100
AcDbAlignedDimension
 13
1702.6269626443
 23
1263.2754401401
 14
1669.933975053
 24
1182.3378478704
 50
185.5
100
AcDbRotatedDimension
  0
DIMENSION
  5
34C
100
AcDbEntity
  8
0
100
AcDbDimension
 62
2
  6
CONTINUOUS
  2
*D5
 10
1671.0387356965
 20
1170.8644699091
 11
1918.3625153752
 21
1168.5047659828
 70
160
 71
2
 72
2
 41
0.9
 42
459.7
  1
<>\PBOTH ENDS\P[]
  3
DIMSTYLE_1
100
AcDbAlignedDimension
 13
2120.0961282395
 23
1303.4731487471
 14
1666.5747551382
 24
1217.2246805647
 50
185.5
100
AcDbRotatedDimension
  0
DIMENSION
  5
34D
100
AcDbEntity
  8
0
100
AcDbDimension
 62
2
  6
CONTINUOUS
  2
*D6
 10
868.2261751376
 20
1403.3516327633
 11
794.2706286692
 21
1489.6372250743
 70
160
 71
3
 72
2
 41
0.9
 42
40.3
  1
<>\P[]
  3
DIMSTYLE_1
100
AcDbAlignedDimension
 13
904.2722011941
 23
1443.6516327633
 14
975.3457201087
 24
1403.3516327633
 50
270.0
100
AcDbRotatedDimension
  0
DIMENSION
  5
34E
100
AcDbEntity
  8
0
100
AcDbDimension
 62
2
  6
CONTINUOUS
  2
*D7
 10
1165.3695742487
 20
1297.6516327633
 11
1165.3695742487
 21
1376.8338064401
 70
160
 71
2
 72
2
 41
0.9
 42
146.0
  1
<>\P[]
  3
DIMSTYLE_1
100
AcDbAlignedDimension
 13
1121.0292390233
 23
1443.6516327633
 14
1047.9557201087
 24
1297.6516327633
 50
270.0
100
AcDbRotatedDimension
  0
DIMENSION
  5
34F
100
AcDbEntity
  8
0
100
AcDbDimension
 62
2
  6
CONTINUOUS
  2
*D8
 10
1270.9690159812
 20
1242.8027505216
 11
1270.9690159812
 21
1351.1542559327
 70
160
 71
2
 72
2
 41
0.9
 42
200.8488822417
  1
<> 2X\P[]
  3
DIMSTYLE_1
100
AcDbAlignedDimension
 13
1121.0292390233
 23
1443.6516327633
 14
1127.6623954114
 24
1242.8027505216
 50
270.0
100
AcDbRotatedDimension
  0
DIMENSION
  5
350
100
AcDbEntity
  8
0
100
AcDbDimension
 62
2
  6
CONTINUOUS
  2
*D9
 10
987.2507201087
 20
1497.5326358956
 11
1105.1566105669
 21
1485.5311358956
 70
160
 71
1
 72
2
 41
0.9
 42
50.8
  1
<>\P[]
  3
DIMSTYLE_1
100
AcDbAlignedDimension
 13
1038.0507201087
 23
1384.9066327633
 14
987.2507201087
 24
1384.9066327633
 50
180.0
100
AcDbRotatedDimension
  0
DIMENSION
  5
351
100
AcDbEntity
  8
0
100
AcDbDimension
 62
2
  6
CONTINUOUS
  2
*D10
 10
934.944044806
 20
1132.1963223333
 11
1012.6507201087
 21
1120.1948223333
 70
160
 71
2
 72
2
 41
0.9
 42
155.4133506054
  1
<>\P[]
  3
DIMSTYLE_1
100
AcDbAlignedDimension
 13
1090.3573954114
 23
1205.4977505216
 14
934.944044806
 24
1205.4977505216
 50
180.0
100
AcDbRotatedDimension
  0
DIMENSION
  5
352
100
AcDbEntity
  8
0
100
AcDbDimension
 62
2
  6
CONTINUOUS
  2
*D11
 10
1341.4222670619
 20
313.0655434783
 11
1341.4222670619
 21
561.8076491831
 70
160
 71
2
 72
2
 41
0.9
 42
500.0
  1
<>\P[]
  3
DIMSTYLE_1
100
AcDbAlignedDimension
 13
1402.8833474864
 23
813.0655434783
 14
1402.8833474864
 24
313.0655434783
 50
270.0
100
AcDbRotatedDimension
  0
DIMENSION
  5
353
100
AcDbEntity
  8
0
100
AcDbDimension
 62
2
  6
CONTINUOUS
  2
*D12
 10
1133.6507201087
 20
914.2382722149
 11
1012.6507201087
 21
902.2367722149
 70
160
 71
2
 72
2
 41
0.9
 42
242.0
  1
<>\P[]
  3
DIMSTYLE_1
100
AcDbAlignedDimension
 13
891.6507201087
 23
822.5905434783
 14
1133.6507201087
 24
822.5905434783
100
AcDbRotatedDimension
  0
DIMENSION
  5
354
100
AcDbEntity
  8
0
100
AcDbDimension
 62
2
  6
CONTINUOUS
  2
*D13
 10
670.1415643285
 20
1166.9116327633
 11
670.1415643285
 21
1293.2801327633
 70
160
 71
2
 72
2
 41
0.9
 42
276.74
  1
<>\P[]
  3
DIMSTYLE_1
100
AcDbAlignedDimension
 13
904.2722011941
 23
1443.6516327633
 14
976.2321288027
 24
1166.9116327633
 50
270.0
100
AcDbRotatedDimension
  0
DIMENSION
  5
355
100
AcDbEntity
  8
0
100
AcDbDimension
 62
2
  6
CONTINUOUS
  2
*D14
 10
2222.3973505435
 20
864.3996730811
 11
2287.8414245851
 21
852.3981730811
 70
160
 71
1
 72
2
 41
0.9
 42
107.9
  1
<>\P[]
  3
DIMSTYLE_1
100
AcDbAlignedDimension
 13
2114.4973505435
 23
642.1705434783
 14
2222.3973505435
 24
642.1705434783
100
AcDbRotatedDimension
  0
DIMENSION
  5
356
100
AcDbEntity
  8
0
100
AcDbDimension
 62
2
  6
CONTINUOUS
  2
*D15
 10
390.8859941638
 20
562.3055434783
 11
390.8859941638
 21
449.2772303977
 70
160
 71
2
 72
2
 41
0.9
 42
249.24
  1
<>\P[]
  3
DIMSTYLE_1
100
AcDbAlignedDimension
 13
450.0354080217
 23
313.0655434783
 14
588.9994678911
 24
562.3055434783
 50
90.0
100
AcDbRotatedDimension
  0
DIMENSION
  5
357
100
AcDbEntity
  8
0
100
AcDbDimension
 62
2
  6
CONTINUOUS
  2
*D16
 10
605.6104080217
 20
256.0969119629
 11
527.6738731203
 21
244.0954119629
 70
160
 71
2
 72
2
 41
0.9
 42
146.05
  1
<>\P[]
  3
DIMSTYLE_1
100
AcDbAlignedDimension
 13
459.5604080217
 23
303.5405434783
 14
605.6104080217
 24
544.0708023968
100
AcDbRotatedDimension
  0
DIMENSION
  5
358
100
AcDbEntity
  8
0
100
AcDbDimension
 62
2
  6
CONTINUOUS
  2
*D17
 10
1012.6507201087
 20
285.7530331855
 11
939.7134750747
 21
273.7515331855
 70
160
 71
3
 72
2
 41
0.9
 42
3.175
  1
<>\P[]
  3
DIMSTYLE_1
100
AcDbAlignedDimension
 13
1009.4757201087
 23
535.0004434783
 14
1012.6507201087
 24
261.9405331855
100
AcDbRotatedDimension
  0
DIMENSION
  5
359
100
AcDbEntity
  8
0
100
AcDbDimension
 62
2
  6
CONTINUOUS
  2
*D18
 10
2350.5089507436
 20
608.8655434783
 11
2424.464497212
 21
637.8556823355
 70
160
 71
1
 72
2
 41
0.9
 42
50.8
  1
<>\P[]
  3
DIMSTYLE_1
100
AcDbAlignedDimension
 13
2255.7023505435
 23
558.0655434783
 14
2255.7023505435
 24
608.8655434783
 50
90.0
100
AcDbRotatedDimension
  0
DIMENSION
  5
35A
100
AcDbEntity
  8
0
100
AcDbDimension
 62
2
  6
CONTINUOUS
  2
*D19
 10
751.710270969
 20
1243.7016327633
 11
751.710270969
 21
1307.6244349304
 70
160
 71
2
 72
2
 41
0.9
 42
107.9
  1
<>\P[]
  3
DIMSTYLE_1
100
AcDbAlignedDimension
 13
953.9457201087
 23
1351.6016327633
 14
970.718174951
 24
1243.7016327633
 50
270.0
100
AcDbRotatedDimension
  0
DIMENSION
  5
35B
100
AcDbEntity
  8
0
100
AcDbDimension
 62
2
  6
CONTINUOUS
  2
*D20
 10
1134.5636509015
 20
1204.1704839738
 11
1012.6507201087
 21
1066.1099137129
 70
162
 71
2
 72
2
 41
0.9
 42
0.1919862177
  3
DIMSTYLE_3
100
AcDb2LineAngularDimension
 13
892.0836311869
 23
1218.1475862105
 14
890.7377893159
 24
1204.1704839738
 15
1133.2178090305
 25
1218.1475862105
 16
1012.6507201087
 26
1066.1099137129
  0
LINE
  5
35C
100
AcDbEntity
  8
0
100
AcDbLine
 62
2
  6
CONTINUOUS
 10
2200.3257066808
 20
126.1378071082
 11
2612.6257066808
 21
126.1378071082
  0
LINE
  5
35D
100
AcDbEntity
  8
0
100
AcDbLine
 62
2
  6
CONTINUOUS
 10
2200.3257066808
 20
126.1378071082
 11
2200.3257066808
 21
-7.6278178918
  0
LINE
  5
35E
100
AcDbEntity
  8
0
100
AcDbLine
 62
2
  6
CONTINUOUS
 10
2200.3257066808
 20
-7.6278178918
 11
2612.6257066808
 21
-7.6278178918
  0
LINE
  5
35F
100
AcDbEntity
  8
0
100
AcDbLine
 62
2
  6
CONTINUOUS
 10
2612.6257066808
 20
126.1378071082
 11
2612.6257066808
 21
-7.6278178918
  0
MTEXT
  5
360
100
AcDbEntity
  8
0
100
AcDbMText
 62
2
  6
CONTINUOUS
  7
TEXTSTYLE_2
 71
2
 72
1
 10
2406.4757066808
 20
88.8883272007
 30
0.0
 11
1.0
 21
0.0
 31
0.0
 73
2
 44
0.99999996
  1
LOUDSPEAKER, PL-DC8, 8" \P2-WAY
 40
22.225
 41
389.8050185874
  0
LINE
  5
361
100
AcDbEntity
  8
0
100
AcDbLine
 62
2
  6
CONTINUOUS
 10
2903.8894129657
 20
117.5773936382
 11
2977.1269129657
 21
117.5773936382
  0
LINE
  5
362
100
AcDbEntity
  8
0
100
AcDbLine
 62
2
  6
CONTINUOUS
 10
2903.8894129657
 20
117.5773936382
 11
2903.8894129657
 21
74.8773936382
  0
LINE
  5
363
100
AcDbEntity
  8
0
100
AcDbLine
 62
2
  6
CONTINUOUS
 10
2903.8894129657
 20
74.8773936382
 11
2977.1269129657
 21
74.8773936382
  0
LINE
  5
364
100
AcDbEntity
  8
0
100
AcDbLine
 62
2
  6
CONTINUOUS
 10
2977.1269129657
 20
117.5773936382
 11
2977.1269129657
 21
74.8773936382
  0
MTEXT
  5
365
100
AcDbEntity
  8
0
100
AcDbMText
 62
2
  6
CONTINUOUS
  7
TEXTSTYLE_2
 71
2
 72
1
 10
2940.5081629657
 20
106.1892686382
 30
0.0
 11
1.0
 21
0.0
 31
0.0
 73
2
 44
0.9
  1
A
 40
22.225
 41
22.8859665428
  0
LINE
  5
366
100
AcDbEntity
  8
0
100
AcDbLine
 62
2
  6
CONTINUOUS
 10
2678.3704956613
 20
118.3721387941
 11
2898.8704956613
 21
118.3721387941
  0
LINE
  5
367
100
AcDbEntity
  8
0
100
AcDbLine
 62
2
  6
CONTINUOUS
 10
2678.3704956613
 20
118.3721387941
 11
2678.3704956613
 21
74.7315137941
  0
LINE
  5
368
100
AcDbEntity
  8
0
100
AcDbLine
 62
2
  6
CONTINUOUS
 10
2678.3704956613
 20
74.7315137941
 11
2898.8704956613
 21
74.7315137941
  0
LINE
  5
369
100
AcDbEntity
  8
0
100
AcDbLine
 62
2
  6
CONTINUOUS
 10
2898.8704956613
 20
118.3721387941
 11
2898.8704956613
 21
74.7315137941
  0
MTEXT
  5
36A
100
AcDbEntity
  8
0
100
AcDbMText
 62
2
  6
CONTINUOUS
  7
TEXTSTYLE_2
 71
2
 72
1
 10
2788.6204956613
 20
103.2783887941
 30
0.0
 11
1.0
 21
0.0
 31
0.0
 73
2
 44
0.9
  1
FG-901547-2D
 40
22.225
 41
206.0563197026
  0
LINE
  5
36B
100
AcDbEntity
  8
0
100
AcDbLine
 62
2
  6
CONTINUOUS
 10
2678.7754911011
 20
72.6561461759
 11
2787.2754911011
 21
72.6561461759
  0
LINE
  5
36C
100
AcDbEntity
  8
0
100
AcDbLine
 62
2
  6
CONTINUOUS
 10
2678.7754911011
 20
72.6561461759
 11
2678.7754911011
 21
50.9452086759
  0
LINE
  5
36D
100
AcDbEntity
  8
0
100
AcDbLine
 62
2
  6
CONTINUOUS
 10
2678.7754911011
 20
50.9452086759
 11
2787.2754911011
 21
50.9452086759
  0
LINE
  5
36E
100
AcDbEntity
  8
0
100
AcDbLine
 62
2
  6
CONTINUOUS
 10
2787.2754911011
 20
72.6561461759
 11
2787.2754911011
 21
50.9452086759
  0
MTEXT
  5
36F
100
AcDbEntity
  8
0
100
AcDbMText
 62
2
  6
CONTINUOUS
  7
TEXTSTYLE_2
 71
1
 72
1
 10
2738.7129911011
 20
68.0236774259
 30
0.0
 11
1.0
 21
0.0
 31
0.0
 73
2
 44
0.9
  1
1:7
 40
12.446
 41
24.0591821561
  0
LINE
  5
370
100
AcDbEntity
  8
0
100
AcDbLine
 62
2
  6
CONTINUOUS
 10
1354.9637015418
 20
126.0993076452
 11
1565.2262015418
 21
126.0993076452
  0
LINE
  5
371
100
AcDbEntity
  8
0
100
AcDbLine
 62
2
  6
CONTINUOUS
 10
1354.9637015418
 20
126.0993076452
 11
1354.9637015418
 21
40.5133701452
  0
MTEXT
  5
372
100
AcDbEntity
  8
0
100
AcDbMText
 62
2
  6
CONTINUOUS
  7
TEXTSTYLE_2
 71
1
 72
1
 10
1378.7637015418
 20
71.5211826452
 30
0.0
 11
1.0
 21
0.0
 31
0.0
 73
2
 44
0.9
  1
.X \fgdt;{\W1.0;{\fgdt;`}}\fCentury Gothic; 3.0 [.12]        \fgdt;{\W1.0;{\fgdt;`}}\fCentury Gothic;1\fgdt;{\W1.0;{\fgdt;~}}\P\fCentury Gothic;.XX \fgdt;{\W1.0;{\fgdt;`}}\fCentury Gothic; 
 40
11.1125
 41
156.7730018587
  0
LINE
  5
373
100
AcDbEntity
  8
0
100
AcDbLine
 62
2
  6
CONTINUOUS
 10
2856.4179508003
 20
71.7723728957
 11
2977.1679508003
 21
71.7723728957
  0
LINE
  5
374
100
AcDbEntity
  8
0
100
AcDbLine
 62
2
  6
CONTINUOUS
 10
2856.4179508003
 20
71.7723728957
 11
2856.4179508003
 21
50.7176853957
  0
LINE
  5
375
100
AcDbEntity
  8
0
100
AcDbLine
 62
2
  6
CONTINUOUS
 10
2856.4179508003
 20
50.7176853957
 11
2977.1679508003
 21
50.7176853957
  0
LINE
  5
376
100
AcDbEntity
  8
0
100
AcDbLine
 62
2
  6
CONTINUOUS
 10
2977.1679508003
 20
71.7723728957
 11
2977.1679508003
 21
50.7176853957
  0
MTEXT
  5
377
100
AcDbEntity
  8
0
100
AcDbMText
 62
2
  6
CONTINUOUS
  7
TEXTSTYLE_2
 71
2
 72
1
 10
2940.9429508003
 20
67.7273196457
 30
0.0
 11
1.0
 21
0.0
 31
0.0
 73
2
 44
0.9
  1
1 OF 1
 40
12.964581
 41
54.5572702305
  0
LINE
  5
378
100
AcDbEntity
  8
0
100
AcDbLine
 62
2
  6
CONTINUOUS
 10
1587.5222420099
 20
113.1404071126
 11
1766.0222420099
 21
113.1404071126
  0
LINE
  5
379
100
AcDbEntity
  8
0
100
AcDbLine
 62
2
  6
CONTINUOUS
 10
1587.5222420099
 20
113.1404071126
 11
1587.5222420099
 21
84.9763446126
  0
LINE
  5
37A
100
AcDbEntity
  8
0
100
AcDbLine
 62
2
  6
CONTINUOUS
 10
1587.5222420099
 20
84.9763446126
 11
1766.0222420099
 21
84.9763446126
  0
LINE
  5
37B
100
AcDbEntity
  8
0
100
AcDbLine
 62
2
  6
CONTINUOUS
 10
1766.0222420099
 20
113.1404071126
 11
1766.0222420099
 21
84.9763446126
  0
MTEXT
  5
37C
100
AcDbEntity
  8
0
100
AcDbMText
 62
2
  6
CONTINUOUS
  7
TEXTSTYLE_2
 71
1
 72
1
 10
1587.9597420099
 20
98.9818133626
 30
0.0
 11
1.0
 21
0.0
 31
0.0
 73
2
 44
0.9
  1
 M. DAVILA
 40
11.1125
 41
83.075232342
  0
LINE
  5
37D
100
AcDbEntity
  8
0
100
AcDbLine
 62
2
  6
CONTINUOUS
 10
1587.7096095063
 20
81.4755305927
 11
1766.2096095063
 21
81.4755305927
  0
LINE
  5
37E
100
AcDbEntity
  8
0
100
AcDbLine
 62
2
  6
CONTINUOUS
 10
1587.7096095063
 20
81.4755305927
 11
1587.7096095063
 21
53.3114680927
  0
LINE
  5
37F
100
AcDbEntity
  8
0
100
AcDbLine
 62
2
  6
CONTINUOUS
 10
1587.7096095063
 20
53.3114680927
 11
1766.2096095063
 21
53.3114680927
  0
LINE
  5
380
100
AcDbEntity
  8
0
100
AcDbLine
 62
2
  6
CONTINUOUS
 10
1766.2096095063
 20
81.4755305927
 11
1766.2096095063
 21
53.3114680927
  0
MTEXT
  5
381
100
AcDbEntity
  8
0
100
AcDbMText
 62
2
  6
CONTINUOUS
  7
TEXTSTYLE_2
 71
1
 72
1
 10
1588.1471095063
 20
67.3169368427
 30
0.0
 11
1.0
 21
0.0
 31
0.0
 73
2
 44
0.9
  1
 B. HAWKINS
 40
11.1125
 41
90.511105948
  0
LINE
  5
382
100
AcDbEntity
  8
0
100
AcDbLine
 62
2
  6
CONTINUOUS
 10
1772.4954150977
 20
112.99722256
 11
1950.9954150977
 21
112.99722256
  0
LINE
  5
383
100
AcDbEntity
  8
0
100
AcDbLine
 62
2
  6
CONTINUOUS
 10
1772.4954150977
 20
112.99722256
 11
1772.4954150977
 21
84.83316006
  0
LINE
  5
384
100
AcDbEntity
  8
0
100
AcDbLine
 62
2
  6
CONTINUOUS
 10
1772.4954150977
 20
84.83316006
 11
1950.9954150977
 21
84.83316006
  0
LINE
  5
385
100
AcDbEntity
  8
0
100
AcDbLine
 62
2
  6
CONTINUOUS
 10
1950.9954150977
 20
112.99722256
 11
1950.9954150977
 21
84.83316006
  0
MTEXT
  5
386
100
AcDbEntity
  8
0
100
AcDbMText
 62
2
  6
CONTINUOUS
  7
TEXTSTYLE_2
 71
1
 72
1
 10
1772.9329150977
 20
98.83862881
 30
0.0
 11
1.0
 21
0.0
 31
0.0
 73
2
 44
0.9
  1
 R. VAUCHER
 40
11.1125
 41
95.6749070632
  0
LINE
  5
387
100
AcDbEntity
  8
0
100
AcDbLine
 62
2
  6
CONTINUOUS
 10
1772.4240688005
 20
81.3810354199
 11
1950.9240688005
 21
81.3810354199
  0
LINE
  5
388
100
AcDbEntity
  8
0
100
AcDbLine
 62
2
  6
CONTINUOUS
 10
1772.4240688005
 20
81.3810354199
 11
1772.4240688005
 21
53.2169729199
  0
LINE
  5
389
100
AcDbEntity
  8
0
100
AcDbLine
 62
2
  6
CONTINUOUS
 10
1772.4240688005
 20
53.2169729199
 11
1950.9240688005
 21
53.2169729199
  0
LINE
  5
38A
100
AcDbEntity
  8
0
100
AcDbLine
 62
2
  6
CONTINUOUS
 10
1950.9240688005
 20
81.3810354199
 11
1950.9240688005
 21
53.2169729199
  0
MTEXT
  5
38B
100
AcDbEntity
  8
0
100
AcDbMText
 62
2
  6
CONTINUOUS
  7
TEXTSTYLE_2
 71
1
 72
1
 10
1772.8615688005
 20
67.2224416699
 30
0.0
 11
1.0
 21
0.0
 31
0.0
 73
2
 44
0.9
  1
 A. TRAN
 40
11.1125
 41
63.2462360595
  0
LINE
  5
38C
100
AcDbEntity
  8
0
100
AcDbLine
 62
2
  6
CONTINUOUS
 10
1960.3768066612
 20
113.1535287466
 11
2138.8768066612
 21
113.1535287466
  0
LINE
  5
38D
100
AcDbEntity
  8
0
100
AcDbLine
 62
2
  6
CONTINUOUS
 10
1960.3768066612
 20
113.1535287466
 11
1960.3768066612
 21
84.9894662466
  0
LINE
  5
38E
100
AcDbEntity
  8
0
100
AcDbLine
 62
2
  6
CONTINUOUS
 10
1960.3768066612
 20
84.9894662466
 11
2138.8768066612
 21
84.9894662466
  0
LINE
  5
38F
100
AcDbEntity
  8
0
100
AcDbLine
 62
2
  6
CONTINUOUS
 10
2138.8768066612
 20
113.1535287466
 11
2138.8768066612
 21
84.9894662466
  0
MTEXT
  5
390
100
AcDbEntity
  8
0
100
AcDbMText
 62
2
  6
CONTINUOUS
  7
TEXTSTYLE_2
 71
1
 72
1
 10
1960.8143066612
 20
98.9949349966
 30
0.0
 11
1.0
 21
0.0
 31
0.0
 73
2
 44
0.9
  1
 MD
 40
11.1125
 41
30.0739776952
  0
LINE
  5
391
100
AcDbEntity
  8
0
100
AcDbLine
 62
2
  6
CONTINUOUS
 10
1959.8128611657
 20
81.5216319585
 11
2138.3128611657
 21
81.5216319585
  0
LINE
  5
392
100
AcDbEntity
  8
0
100
AcDbLine
 62
2
  6
CONTINUOUS
 10
1959.8128611657
 20
81.5216319585
 11
1959.8128611657
 21
53.3575694585
  0
LINE
  5
393
100
AcDbEntity
  8
0
100
AcDbLine
 62
2
  6
CONTINUOUS
 10
1959.8128611657
 20
53.3575694585
 11
2138.3128611657
 21
53.3575694585
  0
LINE
  5
394
100
AcDbEntity
  8
0
100
AcDbLine
 62
2
  6
CONTINUOUS
 10
2138.3128611657
 20
81.5216319585
 11
2138.3128611657
 21
53.3575694585
  0
MTEXT
  5
395
100
AcDbEntity
  8
0
100
AcDbMText
 62
2
  6
CONTINUOUS
  7
TEXTSTYLE_2
 71
1
 72
1
 10
1960.2503611657
 20
67.3630382085
 30
0.0
 11
1.0
 21
0.0
 31
0.0
 73
2
 44
0.9
  1
 12-JAN-2024
 40
11.1125
 41
96.5424256506
  0
MTEXT
  5
396
100
AcDbEntity
  8
0
100
AcDbMText
 62
2
  6
CONTINUOUS
  7
TEXTSTYLE_2
 71
1
 72
1
 10
2913.9126704127
 20
67.850394764
 30
0.0
 11
1.0
 21
0.0
 31
0.0
 73
2
 44
0.9
  1
1 OF 1
 40
12.964581
 41
54.5572702305
  0
TEXT
  5
397
100
AcDbEntity
  8
0
100
AcDbText
 62
2
  6
CONTINUOUS
 10
73.0714106731
 20
1865.4895408737
  7
STANDARD
 40
16.002
  1
NOTES: UNLESS OTHERWISE SPECIFIED
 41
1.0
 72
0
100
AcDbText
  0
TEXT
  5
398
100
AcDbEntity
  8
0
100
AcDbText
 62
2
  6
CONTINUOUS
 10
73.0714106731
 20
1841.4865408737
  7
STANDARD
 40
16.002
  1
 
 41
1.0
 72
0
100
AcDbText
  0
TEXT
  5
399
100
AcDbEntity
  8
0
100
AcDbText
 62
2
  6
CONTINUOUS
 10
73.0714106731
 20
1817.4835408737
  7
STANDARD
 40
16.002
  1
1.      NET WEIGHT APPROX. 12.1 KG [26.7 LBS]. 
 41
1.0
 72
0
100
AcDbText
  0
TEXT
  5
39A
100
AcDbEntity
  8
0
100
AcDbText
 62
2
  6
CONTINUOUS
 10
73.0714106731
 20
1793.4805408737
  7
STANDARD
 40
16.002
  1
 
 41
1.0
 72
0
100
AcDbText
  0
TEXT
  5
39B
100
AcDbEntity
  8
0
100
AcDbText
 62
2
  6
CONTINUOUS
 10
73.0714106731
 20
1769.4775408737
  7
STANDARD
 40
16.002
  1
2.      SYMBOL      INDICATES CENTER OF GRAVITY.
 41
1.0
 72
0
100
AcDbText
  0
TEXT
  5
39C
100
AcDbEntity
  8
0
100
AcDbText
 62
2
  6
CONTINUOUS
 10
73.0714106731
 20
1745.4745408737
  7
STANDARD
 40
16.002
  1
 
 41
1.0
 72
0
100
AcDbText
  0
TEXT
  5
39D
100
AcDbEntity
  8
0
100
AcDbText
 62
2
  6
CONTINUOUS
 10
81.0724106731
 20
1717.4710408737
  7
STANDARD
 40
16.002
  1
3
 41
1.0
 72
0
100
AcDbText
  0
TEXT
  5
39E
100
AcDbEntity
  8
0
100
AcDbText
 62
2
  6
CONTINUOUS
 10
101.4467043534
 20
1717.4710408737
  7
STANDARD
 40
16.002
  1
  SUSPENSION POINT LOCATION, M10 THREAD.
 41
1.0
 72
0
100
AcDbText
  0
TEXT
  5
39F
100
AcDbEntity
  8
0
100
AcDbText
 62
2
  6
CONTINUOUS
 10
73.0714106731
 20
1689.4675408737
  7
STANDARD
 40
16.002
  1
 
 41
1.0
 72
0
100
AcDbText
  0
TEXT
  5
3A0
100
AcDbEntity
  8
0
100
AcDbText
 62
2
  6
CONTINUOUS
 10
81.0724106731
 20
1661.4640408737
  7
STANDARD
 40
16.002
  1
4
 41
1.0
 72
0
100
AcDbText
  0
TEXT
  5
3A1
100
AcDbEntity
  8
0
100
AcDbText
 62
2
  6
CONTINUOUS
 10
101.4467043534
 20
1661.4640408737
  7
STANDARD
 40
16.002
  1
    SUSPENSION POINT LOCATION, M8 THREAD.
 41
1.0
 72
0
100
AcDbText
  0
TEXT
  5
3A2
100
AcDbEntity
  8
0
100
AcDbText
 62
2
  6
CONTINUOUS
 10
73.0714106731
 20
1633.4605408737
  7
STANDARD
 40
16.002
  1
 
 41
1.0
 72
0
100
AcDbText
  0
TEXT
  5
3A3
100
AcDbEntity
  8
0
100
AcDbText
 62
2
  6
CONTINUOUS
 10
81.0724106731
 20
1605.4570408737
  7
STANDARD
 40
16.002
  1
5
 41
1.0
 72
0
100
AcDbText
  0
TEXT
  5
3A4
100
AcDbEntity
  8
0
100
AcDbText
 62
2
  6
CONTINUOUS
 10
101.4467043534
 20
1605.4570408737
  7
STANDARD
 40
16.002
  1
     SUSPENSION POINT LOCATION, M6 THREAD.
 41
1.0
 72
0
100
AcDbText
  0
TEXT
  5
3A5
100
AcDbEntity
  8
0
100
AcDbText
 62
2
  6
CONTINUOUS
 10
73.0714106731
 20
1577.4535408737
  7
STANDARD
 40
16.002
  1
 
 41
1.0
 72
0
100
AcDbText
  0
TEXT
  5
3A6
100
AcDbEntity
  8
0
100
AcDbText
 62
2
  6
CONTINUOUS
 10
73.0714106731
 20
1553.4505408737
  7
STANDARD
 40
16.002
  1
6.      GRILLE NOT SHOWN FOR CLARITY. 
 41
1.0
 72
0
100
AcDbText
  0
MTEXT
  5
3A7
100
AcDbEntity
  8
0
100
AcDbMText
 62
2
  6
CONTINUOUS
  7
TEXTSTYLE_4
 71
1
 72
1
 10
2158.4218960912
 20
924.4686643032
 30
0.0
 11
1.0
 21
0.0
 31
0.0
 73
2
 44
0.9
  1
{\fgdt;q}
 40
16.002
 41
25.3365
  0
MTEXT
  5
3A8
100
AcDbEntity
  8
0
100
AcDbMText
 62
2
  6
CONTINUOUS
  7
TEXTSTYLE_4
 71
1
 72
1
 10
1000.363471071
 20
856.4886592865
 30
0.0
 11
1.0
 21
0.0
 31
0.0
 73
2
 44
0.9
  1
{\fgdt;q}
 40
16.002
 41
25.3365
  0
MTEXT
  5
3A9
100
AcDbEntity
  8
0
100
AcDbMText
 62
2
  6
CONTINUOUS
  7
TEXTSTYLE_4
 71
1
 72
1
 10
1001.8649216106
 20
1554.5466181761
 30
0.0
 11
1.0
 21
0.0
 31
0.0
 73
2
 44
0.9
  1
{\fgdt;q}
 40
16.002
 41
25.3365
  0
TEXT
  5
3AA
100
AcDbEntity
  8
0
100
AcDbText
 62
2
  6
CONTINUOUS
 10
801.6024092523
 20
1307.1798743556
  7
STANDARD
 40
16.002
  1
 4X 
 41
1.0
 72
2
 11
839.9120300701
 21
1307.1798743556
100
AcDbText
  0
TEXT
  5
3AB
100
AcDbEntity
  8
0
100
AcDbText
 62
2
  6
CONTINUOUS
 10
847.9130300701
 20
1307.1798743556
  7
STANDARD
 40
16.002
  1
5
 41
1.0
 72
2
 11
860.2863237504
 21
1307.1798743556
100
AcDbText
  0
LEADER
  5
3AC
100
AcDbEntity
  8
0
100
AcDbLeader
 62
2
  6
CONTINUOUS
  3
STANDARD
 71
1
 72
0
 73
3
 75
0
 76
3
 10
981.5876011481
 20
1347.4871359972
 30
0.0
 10
885.7873237504
 20
1315.1808743556
 30
0.0
 10
868.2873237504
 20
1315.1808743556
 30
0.0
1001
ACAD
1000
DSTYLE
1002
{
1070
77
1070
0
1002
}
  0
TEXT
  5
3AD
100
AcDbEntity
  8
0
100
AcDbText
 62
2
  6
CONTINUOUS
 10
1159.3546469047
 20
1261.8956143831
  7
STANDARD
 40
16.002
  1
4
 41
1.0
 72
0
100
AcDbText
  0
LEADER
  5
3AE
100
AcDbEntity
  8
0
100
AcDbLeader
 62
2
  6
CONTINUOUS
  3
STANDARD
 71
1
 72
0
 73
3
 75
0
 76
3
 10
1017.5164874658
 20
1290.0803509678
 30
0.0
 10
1133.8536469047
 20
1269.8966143831
 30
0.0
 10
1151.3536469047
 20
1269.8966143831
 30
0.0
1001
ACAD
1000
DSTYLE
1002
{
1070
77
1070
0
1002
}
  0
TEXT
  5
3AF
100
AcDbEntity
  8
0
100
AcDbText
 62
2
  6
CONTINUOUS
 10
795.1417447828
 20
1210.1164970346
  7
STANDARD
 40
16.002
  1
3X 
 41
1.0
 72
2
 11
827.2647187605
 21
1210.1164970346
100
AcDbText
  0
TEXT
  5
3B0
100
AcDbEntity
  8
0
100
AcDbText
 62
2
  6
CONTINUOUS
 10
835.2657187605
 20
1210.1164970346
  7
STANDARD
 40
16.002
  1
3
 41
1.0
 72
2
 11
847.6390124408
 21
1210.1164970346
100
AcDbText
  0
LEADER
  5
3B1
100
AcDbEntity
  8
0
100
AcDbLeader
 62
2
  6
CONTINUOUS
  3
STANDARD
 71
1
 72
0
 73
3
 75
0
 76
3
 10
927.1818255082
 20
1235.0099630082
 30
0.0
 10
873.1400124408
 20
1218.1174970346
 30
0.0
 10
855.6400124408
 20
1218.1174970346
 30
0.0
1001
ACAD
1000
DSTYLE
1002
{
1070
77
1070
0
1002
}
  0
MTEXT
  5
3B2
100
AcDbEntity
  8
0
100
AcDbMText
 62
2
  6
CONTINUOUS
  7
STANDARD
 71
1
 72
1
 10
908.3538132891
 20
1040.2264547063
 30
0.0
 11
1.0
 21
0.0
 31
0.0
 73
2
 44
0.9
  1
OUTLINE BOTH ENDS
 40
16.002
 41
212.7849591078
  0
MTEXT
  5
3B3
100
AcDbEntity
  8
0
100
AcDbMText
 62
2
  6
CONTINUOUS
  7
TEXTSTYLE_4
 71
1
 72
1
 10
1195.8395379919
 20
1306.7197655132
 30
0.0
 11
1.0
 21
0.0
 31
0.0
 73
2
 44
0.9
  1
{\fgdt;q}
 40
16.002
 41
25.3365
  0
MTEXT
  5
3B4
100
AcDbEntity
  8
0
100
AcDbMText
 62
2
  6
CONTINUOUS
  7
STANDARD
 71
3
 72
1
 10
1996.5160399531
 20
1058.3746884436
 30
0.0
 11
1.0
 21
0.0
 31
0.0
 73
2
 44
0.9
  1
VIEW \H44.45;A\H16.002;-\H44.45;A
 40
16.002
 41
159.2400594796
  0
TEXT
  5
3B5
100
AcDbEntity
  8
0
100
AcDbText
 62
2
  6
CONTINUOUS
 10
2210.4249392941
 20
1386.3661737924
  7
STANDARD
 40
16.002
  1
3
 41
1.0
 72
0
100
AcDbText
  0
TEXT
  5
3B6
100
AcDbEntity
  8
0
100
AcDbText
 62
2
  6
CONTINUOUS
 10
2230.7992329744
 20
1386.3661737924
  7
STANDARD
 40
16.002
  1
 2X BOTH ENDS
 41
1.0
 72
0
100
AcDbText
  0
LEADER
  5
3B7
100
AcDbEntity
  8
0
100
AcDbLeader
 62
2
  6
CONTINUOUS
  3
STANDARD
 71
1
 72
0
 73
3
 75
0
 76
3
 10
2125.9466698104
 20
1347.1093558913
 30
0.0
 10
2184.9239392941
 20
1394.3671737924
 30
0.0
 10
2202.4239392941
 20
1394.3671737924
 30
0.0
1001
ACAD
1000
DSTYLE
1002
{
1070
77
1070
0
1002
}
  0
TEXT
  5
3B8
100
AcDbEntity
  8
0
100
AcDbText
 62
2
  6
CONTINUOUS
 10
2230.3914455604
 20
271.8073785215
  7
STANDARD
 40
16.002
  1
3
 41
1.0
 72
0
100
AcDbText
  0
TEXT
  5
3B9
100
AcDbEntity
  8
0
100
AcDbText
 62
2
  6
CONTINUOUS
 10
2250.7657392407
 20
271.8073785215
  7
STANDARD
 40
16.002
  1
 2X
 41
1.0
 72
0
100
AcDbText
  0
LEADER
  5
3BA
100
AcDbEntity
  8
0
100
AcDbLeader
 62
2
  6
CONTINUOUS
  3
STANDARD
 71
1
 72
0
 73
3
 75
0
 76
3
 10
2175.9314825046
 20
345.304464656
 30
0.0
 10
2204.8904455604
 20
279.8083785215
 30
0.0
 10
2222.3904455604
 20
279.8083785215
 30
0.0
1001
ACAD
1000
DSTYLE
1002
{
1070
77
1070
0
1002
}
  0
TEXT
  5
3BB
100
AcDbEntity
  8
0
100
AcDbText
 62
2
  6
CONTINUOUS
 10
2340.3997777485
 20
697.928055145
  7
STANDARD
 40
16.002
  1
5
 41
1.0
 72
0
100
AcDbText
  0
TEXT
  5
3BC
100
AcDbEntity
  8
0
100
AcDbText
 62
2
  6
CONTINUOUS
 10
2360.7740714288
 20
697.928055145
  7
STANDARD
 40
16.002
  1
 4X
 41
1.0
 72
0
100
AcDbText
  0
LEADER
  5
3BD
100
AcDbEntity
  8
0
100
AcDbLeader
 62
2
  6
CONTINUOUS
  3
STANDARD
 71
1
 72
0
 73
3
 75
0
 76
3
 10
2228.0604695041
 20
612.9800402443
 30
0.0
 10
2314.8987777485
 20
705.929055145
 30
0.0
 10
2332.3987777485
 20
705.929055145
 30
0.0
1001
ACAD
1000
DSTYLE
1002
{
1070
77
1070
0
1002
}
  0
INSERT
  5
3BE
100
AcDbEntity
  8
0
100
AcDbBlockReference
 62
2
  6
CONTINUOUS
  2
CG_3D_BL0
 10
236.5307364298
 20
1777.867409211
  0
INSERT
  5
3BF
100
AcDbEntity
  8
0
100
AcDbBlockReference
 62
2
  6
CONTINUOUS
  2
CG_3D_BL1
 10
1009.479700854
 20
562.3060535436
  0
INSERT
  5
3C0
100
AcDbEntity
  8
0
100
AcDbBlockReference
 62
2
  6
CONTINUOUS
  2
CG_3D_BL2
 10
605.6066851444
 20
562.3294008079
  0
LINE
  5
3C1
100
AcDbEntity
  8
0
100
AcDbLine
 62
7
  6
CONTINUOUS
 10
87.8333773781
 20
69.7251711387
 11
96.2231666812
 21
65.0712788149
  0
LINE
  5
3C2
100
AcDbEntity
  8
0
100
AcDbLine
 62
7
  6
CONTINUOUS
 10
92.0282720297
 20
73.957396606
 11
100.2535556601
 21
69.3947570729
  0
LINE
  5
3C3
100
AcDbEntity
  8
0
100
AcDbLine
 62
7
  6
CONTINUOUS
 10
52.5880370216
 20
65.6173988324
 11
71.7940742987
 21
54.5287880404
  0
LINE
  5
3C4
100
AcDbEntity
  8
0
100
AcDbLine
 62
7
  6
CONTINUOUS
 10
59.5795281075
 20
71.0785990084
 11
73.0278668433
 21
63.3141970191
  0
LINE
  5
3C5
100
AcDbEntity
  8
0
100
AcDbLine
 62
7
  6
CONTINUOUS
 10
66.6532720297
 20
76.1124009097
 11
73.8503952063
 21
71.9571399063
  0
LINE
  5
3C6
100
AcDbEntity
  8
0
100
AcDbLine
 62
7
  6
CONTINUOUS
 10
83.1038392906
 20
87.9845752052
 11
75.9067161139
 21
92.1398362087
  0
LINE
  5
3C7
100
AcDbEntity
  8
0
100
AcDbLine
 62
7
  6
CONTINUOUS
 10
90.1775832128
 20
93.0183771065
 11
76.729244477
 21
100.7827790958
  0
LINE
  5
3C8
100
AcDbEntity
  8
0
100
AcDbLine
 62
7
  6
CONTINUOUS
 10
97.1690742987
 20
98.4795772825
 11
77.9630370216
 21
109.5681880745
  0
LINE
  5
3C9
100
AcDbEntity
  8
0
100
AcDbLine
 62
7
  6
CONTINUOUS
 10
49.5035556601
 20
93.1370988495
 11
49.5035556601
 21
70.9598772654
  0
LINE
  5
3CA
100
AcDbEntity
  8
0
100
AcDbLine
 62
7
  6
CONTINUOUS
 10
57.7288392906
 20
89.8128900467
 11
57.7288392906
 21
74.2840860682
  0
LINE
  5
3CB
100
AcDbEntity
  8
0
100
AcDbLine
 62
7
  6
CONTINUOUS
 10
65.6251115759
 20
86.2037490609
 11
65.6251115759
 21
77.893227054
  0
LINE
  5
3CC
100
AcDbEntity
  8
0
100
AcDbLine
 62
7
  6
CONTINUOUS
 10
84.1319997444
 20
77.893227054
 11
84.1319997444
 21
86.2037490609
  0
LINE
  5
3CD
100
AcDbEntity
  8
0
100
AcDbLine
 62
7
  6
CONTINUOUS
 10
92.0282720297
 20
73.957396606
 11
92.0282720297
 21
89.8128900467
  0
LINE
  5
3CE
100
AcDbEntity
  8
0
100
AcDbLine
 62
7
  6
CONTINUOUS
 10
100.2535556601
 20
69.3947570729
 11
100.2535556601
 21
93.1370988495
  0
LINE
  5
3CF
100
AcDbEntity
  8
0
100
AcDbLine
 62
7
  6
CONTINUOUS
 10
71.7940742987
 20
109.5681880745
 11
52.5880370216
 21
98.4795772825
  0
LINE
  5
3D0
100
AcDbEntity
  8
0
100
AcDbLine
 62
7
  6
CONTINUOUS
 10
73.0278668433
 20
100.7827790958
 11
59.5795281075
 21
93.0183771065
  0
LINE
  5
3D1
100
AcDbEntity
  8
0
100
AcDbLine
 62
7
  6
CONTINUOUS
 10
73.8503952063
 20
92.1398362087
 11
66.6532720297
 21
87.9845752052
  0
LINE
  5
3D2
100
AcDbEntity
  8
0
100
AcDbLine
 62
7
  6
CONTINUOUS
 10
75.9067161139
 20
71.9571399063
 11
83.1038392906
 21
76.1124009097
  0
LINE
  5
3D3
100
AcDbEntity
  8
0
100
AcDbLine
 62
7
  6
CONTINUOUS
 10
76.729244477
 20
63.3141970191
 11
87.8333773781
 21
69.7251711387
  0
LINE
  5
3D4
100
AcDbEntity
  8
0
100
AcDbLine
 62
7
  6
CONTINUOUS
 10
77.9630370216
 20
54.5287880404
 11
96.2231666812
 21
65.0712788149
  0
ARC
  5
3D5
100
AcDbEntity
  8
0
100
AcDbCircle
 62
7
  6
CONTINUOUS
 10
94.0845929373
 20
93.1370988495
 40
6.1689627229
100
AcDbArc
 50
0.0
 51
60.0
  0
ARC
  5
3D6
100
AcDbEntity
  8
0
100
AcDbCircle
 62
7
  6
CONTINUOUS
 10
74.8785556601
 20
104.2257096415
 40
6.1689627229
100
AcDbArc
 50
60.0
 51
120.0
  0
ARC
  5
3D7
100
AcDbEntity
  8
0
100
AcDbCircle
 62
7
  6
CONTINUOUS
 10
55.672518383
 20
93.1370988495
 40
6.1689627229
100
AcDbArc
 50
120.0
 51
180.0
  0
ARC
  5
3D8
100
AcDbEntity
  8
0
100
AcDbCircle
 62
7
  6
CONTINUOUS
 10
55.672518383
 20
70.9598772654
 40
6.1689627229
100
AcDbArc
 50
180.0
 51
240.0
  0
ARC
  5
3D9
100
AcDbEntity
  8
0
100
AcDbCircle
 62
7
  6
CONTINUOUS
 10
74.8785556601
 20
59.8712664734
 40
6.1689627229
100
AcDbArc
 50
240.0
 51
300.0
  0
ARC
  5
3DA
100
AcDbEntity
  8
0
100
AcDbCircle
 62
7
  6
CONTINUOUS
 10
88.326894396
 20
89.8128900467
 40
3.7013776337
100
AcDbArc
 50
0.0
 51
60.0
  0
ARC
  5
3DB
100
AcDbEntity
  8
0
100
AcDbCircle
 62
7
  6
CONTINUOUS
 10
74.8785556601
 20
97.577292036
 40
3.7013776337
100
AcDbArc
 50
60.0
 51
120.0
  0
ARC
  5
3DC
100
AcDbEntity
  8
0
100
AcDbCircle
 62
7
  6
CONTINUOUS
 10
61.4302169243
 20
89.8128900467
 40
3.7013776337
100
AcDbArc
 50
120.0
 51
180.0
  0
ARC
  5
3DD
100
AcDbEntity
  8
0
100
AcDbCircle
 62
7
  6
CONTINUOUS
 10
61.4302169243
 20
74.2840860682
 40
3.7013776337
100
AcDbArc
 50
180.0
 51
240.0
  0
ARC
  5
3DE
100
AcDbEntity
  8
0
100
AcDbCircle
 62
7
  6
CONTINUOUS
 10
74.8785556601
 20
66.5196840789
 40
3.7013776337
100
AcDbArc
 50
240.0
 51
300.0
  0
ARC
  5
3DF
100
AcDbEntity
  8
0
100
AcDbCircle
 62
7
  6
CONTINUOUS
 10
74.8785556601
 20
73.7379660506
 40
2.0563209076
100
AcDbArc
 50
240.0
 51
300.0
  0
ARC
  5
3E0
100
AcDbEntity
  8
0
100
AcDbCircle
 62
7
  6
CONTINUOUS
 10
82.0756788368
 20
77.893227054
 40
2.0563209076
100
AcDbArc
 50
300.0
 51
360.0
  0
ARC
  5
3E1
100
AcDbEntity
  8
0
100
AcDbCircle
 62
7
  6
CONTINUOUS
 10
82.0756788368
 20
86.2037490609
 40
2.0563209076
100
AcDbArc
 50
0.0
 51
60.0
  0
ARC
  5
3E2
100
AcDbEntity
  8
0
100
AcDbCircle
 62
7
  6
CONTINUOUS
 10
74.8785556601
 20
90.3590100643
 40
2.0563209076
100
AcDbArc
 50
60.0
 51
120.0
  0
ARC
  5
3E3
100
AcDbEntity
  8
0
100
AcDbCircle
 62
7
  6
CONTINUOUS
 10
67.6814324835
 20
86.2037490609
 40
2.0563209076
100
AcDbArc
 50
120.0
 51
180.0
  0
ARC
  5
3E4
100
AcDbEntity
  8
0
100
AcDbCircle
 62
7
  6
CONTINUOUS
 10
67.6814324835
 20
77.893227054
 40
2.0563209076
100
AcDbArc
 50
180.0
 51
240.0
  0
HATCH
  5
3E5
100
AcDbEntity
  8
0
100
AcDbHatch
 62
7
  6
CONTINUOUS
 10
0.0
 20
0.0
 30
0.0
210
0.0
220
0.0
230
1.0
  2
XSEC0001
 70
1
 71
1
 91
2
 92
1
 93
24
 72
1
 10
96.2231666812
 20
65.0712788149
 11
77.9630370216
 21
54.5287880404
 72
2
 10
74.8785556601
 20
59.8712664734
 40
6.1689627229
 50
-300.0
 51
-240.0
 73
0
 72
1
 10
71.7940742987
 20
54.5287880404
 11
52.5880370216
 21
65.6173988324
 72
2
 10
55.672518383
 20
70.9598772654
 40
6.1689627229
 50
-240.0
 51
-180.0
 73
0
 72
1
 10
49.5035556601
 20
70.9598772654
 11
49.5035556601
 21
93.1370988495
 72
2
 10
55.672518383
 20
93.1370988495
 40
6.1689627229
 50
-180.0
 51
-120.0
 73
0
 72
1
 10
52.5880370216
 20
98.4795772825
 11
71.7940742987
 21
109.5681880745
 72
2
 10
74.8785556601
 20
104.2257096415
 40
6.1689627229
 50
-120.0
 51
-60.0
 73
0
 72
1
 10
77.9630370216
 20
109.5681880745
 11
97.1690742987
 21
98.4795772825
 72
2
 10
94.0845929373
 20
93.1370988495
 40
6.1689627229
 50
-60.0
 51
0.0
 73
0
 72
1
 10
100.2535556601
 20
93.1370988495
 11
100.2535556601
 21
69.3947570729
 72
1
 10
100.2535556601
 20
69.3947570729
 11
92.0282720297
 21
73.957396606
 72
1
 10
92.0282720297
 20
73.957396606
 11
92.0282720297
 21
89.8128900467
 72
2
 10
88.326894396
 20
89.8128900467
 40
3.7013776337
 50
0.0
 51
60.0
 73
1
 72
1
 10
90.1775832128
 20
93.0183771065
 11
76.729244477
 21
100.7827790958
 72
2
 10
74.8785556601
 20
97.577292036
 40
3.7013776337
 50
60.0
 51
120.0
 73
1
 72
1
 10
73.0278668433
 20
100.7827790958
 11
59.5795281075
 21
93.0183771065
 72
2
 10
61.4302169243
 20
89.8128900467
 40
3.7013776337
 50
120.0
 51
180.0
 73
1
 72
1
 10
57.7288392906
 20
89.8128900467
 11
57.7288392906
 21
74.2840860682
 72
2
 10
61.4302169243
 20
74.2840860682
 40
3.7013776337
 50
180.0
 51
240.0
 73
1
 72
1
 10
59.5795281075
 20
71.0785990084
 11
73.0278668433
 21
63.3141970191
 72
2
 10
74.8785556601
 20
66.5196840789
 40
3.7013776337
 50
240.0
 51
300.0
 73
1
 72
1
 10
76.729244477
 20
63.3141970191
 11
87.8333773781
 21
69.7251711387
 72
1
 10
87.8333773781
 20
69.7251711387
 11
96.2231666812
 21
65.0712788149
 97
36
330
3C1
330
3C2
330
3C3
330
3C4
330
3C5
330
3C6
330
3C7
330
3C8
330
3C9
330
3CA
330
3CB
330
3CC
330
3CD
330
3CE
330
3CF
330
3D0
330
3D1
330
3D2
330
3D3
330
3D4
330
3D5
330
3D6
330
3D7
330
3D8
330
3D9
330
3DA
330
3DB
330
3DC
330
3DD
330
3DE
330
3DF
330
3E0
330
3E1
330
3E2
330
3E3
330
3E4
 92
1
 93
12
 72
2
 10
74.8785556601
 20
73.7379660506
 40
2.0563209076
 50
240.0
 51
300.0
 73
1
 72
1
 10
75.9067161139
 20
71.9571399063
 11
83.1038392906
 21
76.1124009097
 72
2
 10
82.0756788368
 20
77.893227054
 40
2.0563209076
 50
-60.0
 51
0.0
 73
1
 72
1
 10
84.1319997444
 20
77.893227054
 11
84.1319997444
 21
86.2037490609
 72
2
 10
82.0756788368
 20
86.2037490609
 40
2.0563209076
 50
0.0
 51
60.0
 73
1
 72
1
 10
83.1038392906
 20
87.9845752052
 11
75.9067161139
 21
92.1398362087
 72
2
 10
74.8785556601
 20
90.3590100643
 40
2.0563209076
 50
60.0
 51
120.0
 73
1
 72
1
 10
73.8503952063
 20
92.1398362087
 11
66.6532720297
 21
87.9845752052
 72
2
 10
67.6814324835
 20
86.2037490609
 40
2.0563209076
 50
120.0
 51
180.0
 73
1
 72
1
 10
65.6251115759
 20
86.2037490609
 11
65.6251115759
 21
77.893227054
 72
2
 10
67.6814324835
 20
77.893227054
 40
2.0563209076
 50
180.0
 51
240.0
 73
1
 72
1
 10
66.6532720297
 20
76.1124009097
 11
73.8503952063
 21
71.9571399063
 97
36
330
3C1
330
3C2
330
3C3
330
3C4
330
3C5
330
3C6
330
3C7
330
3C8
330
3C9
330
3CA
330
3CB
330
3CC
330
3CD
330
3CE
330
3CF
330
3D0
330
3D1
330
3D2
330
3D3
330
3D4
330
3D5
330
3D6
330
3D7
330
3D8
330
3D9
330
3DA
330
3DB
330
3DC
330
3DD
330
3DE
330
3DF
330
3E0
330
3E1
330
3E2
330
3E3
330
3E4
 75
0
 76
1
 98
1
 10
0.0
 20
0.0
  0
LINE
  5
3E6
100
AcDbEntity
  8
0
100
AcDbLine
 62
7
  6
CONTINUOUS
 10
238.7673319973
 20
79.1170686279
 11
221.9055005548
 21
94.3678970663
  0
LINE
  5
3E7
100
AcDbEntity
  8
0
100
AcDbLine
 62
7
  6
CONTINUOUS
 10
241.399422759
 20
82.687994311
 11
228.4857274592
 21
94.3678970663
  0
LINE
  5
3E8
100
AcDbEntity
  8
0
100
AcDbLine
 62
7
  6
CONTINUOUS
 10
238.7673319973
 20
79.1170686279
 11
238.7673319973
 21
69.198529157
  0
LINE
  5
3E9
100
AcDbEntity
  8
0
100
AcDbLine
 62
7
  6
CONTINUOUS
 10
244.0315135208
 20
79.1170686279
 11
244.0315135208
 21
69.198529157
  0
LINE
  5
3EA
100
AcDbEntity
  8
0
100
AcDbLine
 62
7
  6
CONTINUOUS
 10
244.0315135208
 20
69.198529157
 11
238.7673319973
 21
69.198529157
  0
LINE
  5
3EB
100
AcDbEntity
  8
0
100
AcDbLine
 62
7
  6
CONTINUOUS
 10
228.4857274592
 20
94.3678970663
 11
221.9055005548
 21
94.3678970663
  0
LINE
  5
3EC
100
AcDbEntity
  8
0
100
AcDbLine
 62
7
  6
CONTINUOUS
 10
254.3131180588
 20
94.3678970663
 11
260.8933449632
 21
94.3678970663
  0
LINE
  5
3ED
100
AcDbEntity
  8
0
100
AcDbLine
 62
7
  6
CONTINUOUS
 10
241.399422759
 20
82.687994311
 11
254.3131180588
 21
94.3678970663
  0
LINE
  5
3EE
100
AcDbEntity
  8
0
100
AcDbLine
 62
7
  6
CONTINUOUS
 10
244.0315135208
 20
79.1170686279
 11
260.8933449632
 21
94.3678970663
  0
HATCH
  5
3EF
100
AcDbEntity
  8
0
100
AcDbHatch
 62
7
  6
CONTINUOUS
 10
0.0
 20
0.0
 30
0.0
210
0.0
220
0.0
230
1.0
  2
XSEC0005
 70
1
 71
1
 91
1
 92
1
 93
9
 72
1
 10
221.9055005548
 20
94.3678970663
 11
228.4857274592
 21
94.3678970663
 72
1
 10
228.4857274592
 20
94.3678970663
 11
241.399422759
 21
82.687994311
 72
1
 10
241.399422759
 20
82.687994311
 11
254.3131180588
 21
94.3678970663
 72
1
 10
254.3131180588
 20
94.3678970663
 11
260.8933449632
 21
94.3678970663
 72
1
 10
260.8933449632
 20
94.3678970663
 11
244.0315135208
 21
79.1170686279
 72
1
 10
244.0315135208
 20
79.1170686279
 11
244.0315135208
 21
69.198529157
 72
1
 10
244.0315135208
 20
69.198529157
 11
238.7673319973
 21
69.198529157
 72
1
 10
238.7673319973
 20
69.198529157
 11
238.7673319973
 21
79.1170686279
 72
1
 10
238.7673319973
 20
79.1170686279
 11
221.9055005548
 21
94.3678970663
 97
9
330
3E6
330
3E7
330
3E8
330
3E9
330
3EA
330
3EB
330
3EC
330
3ED
330
3EE
 75
0
 76
1
 98
1
 10
0.0
 20
0.0
  0
LINE
  5
3F0
100
AcDbEntity
  8
0
100
AcDbLine
 62
7
  6
CONTINUOUS
 10
123.6133611707
 20
75.7787560614
 11
123.6133611707
 21
87.7876701619
  0
LINE
  5
3F1
100
AcDbEntity
  8
0
100
AcDbLine
 62
7
  6
CONTINUOUS
 10
128.1372671674
 20
75.8198824796
 11
128.1372671674
 21
87.7465437437
  0
LINE
  5
3F2
100
AcDbEntity
  8
0
100
AcDbLine
 62
7
  6
CONTINUOUS
 10
143.1895362112
 20
69.198529157
 11
143.1895362112
 21
72.982159627
  0
LINE
  5
3F3
100
AcDbEntity
  8
0
100
AcDbLine
 62
7
  6
CONTINUOUS
 10
145.2458571188
 20
66.0729213775
 11
145.2458571188
 21
75.4497447162
  0
LINE
  5
3F4
100
AcDbEntity
  8
0
100
AcDbLine
 62
7
  6
CONTINUOUS
 10
150.0165216245
 20
66.0729213775
 11
150.0165216245
 21
75.4497447162
  0
LINE
  5
3F5
100
AcDbEntity
  8
0
100
AcDbLine
 62
7
  6
CONTINUOUS
 10
152.2373482047
 20
69.198529157
 11
152.2373482047
 21
72.982159627
  0
LINE
  5
3F6
100
AcDbEntity
  8
0
100
AcDbLine
 62
7
  6
CONTINUOUS
 10
156.9257598741
 20
75.8198824796
 11
156.9257598741
 21
87.7465437437
  0
LINE
  5
3F7
100
AcDbEntity
  8
0
100
AcDbLine
 62
7
  6
CONTINUOUS
 10
161.4496658708
 20
75.7787560614
 11
161.4496658708
 21
87.7876701619
  0
LINE
  5
3F8
100
AcDbEntity
  8
0
100
AcDbLine
 62
7
  6
CONTINUOUS
 10
145.2458571188
 20
66.0729213775
 11
150.0165216245
 21
66.0729213775
  0
LINE
  5
3F9
100
AcDbEntity
  8
0
100
AcDbLine
 62
7
  6
CONTINUOUS
 10
152.791199459
 20
69.198529157
 11
152.2373482047
 21
69.198529157
  0
LINE
  5
3FA
100
AcDbEntity
  8
0
100
AcDbLine
 62
7
  6
CONTINUOUS
 10
132.2718275825
 20
69.198529157
 11
143.1895362112
 21
69.198529157
  0
LINE
  5
3FB
100
AcDbEntity
  8
0
100
AcDbLine
 62
7
  6
CONTINUOUS
 10
152.3508673786
 20
72.982159627
 11
152.2373482047
 21
72.982159627
  0
LINE
  5
3FC
100
AcDbEntity
  8
0
100
AcDbLine
 62
7
  6
CONTINUOUS
 10
132.7121596629
 20
72.982159627
 11
143.1895362112
 21
72.982159627
  0
LINE
  5
3FD
100
AcDbEntity
  8
0
100
AcDbLine
 62
7
  6
CONTINUOUS
 10
145.2458571188
 20
75.4497447162
 11
150.0165216245
 21
75.4497447162
  0
LINE
  5
3FE
100
AcDbEntity
  8
0
100
AcDbLine
 62
7
  6
CONTINUOUS
 10
132.7121596629
 20
90.5842665963
 11
152.3508673786
 21
90.5842665963
  0
LINE
  5
3FF
100
AcDbEntity
  8
0
100
AcDbLine
 62
7
  6
CONTINUOUS
 10
132.2718275825
 20
94.3678970663
 11
152.791199459
 21
94.3678970663
  0
ELLIPSE
  5
400
100
AcDbEntity
  8
0
100
AcDbEllipse
 62
7
  6
CONTINUOUS
 10
152.3508673786
 20
75.8198824796
 30
0.0
 11
4.5748924954
 21
0.0
 31
0.0
 40
0.6202818657
 41
-1.5707963268
 42
0.0
  0
ELLIPSE
  5
401
100
AcDbEntity
  8
0
100
AcDbEllipse
 62
7
  6
CONTINUOUS
 10
152.791199459
 20
75.7787560614
 30
0.0
 11
8.6584664118
 21
0.0
 31
0.0
 40
0.7599760271
 41
4.7123889804
 42
6.2831853072
  0
ELLIPSE
  5
402
100
AcDbEntity
  8
0
100
AcDbEllipse
 62
7
  6
CONTINUOUS
 10
132.7121596629
 20
75.8198824796
 30
0.0
 11
4.5748924954
 21
0.0
 31
0.0
 40
0.6202818657
 41
9.4247779608
 42
10.9955742876
  0
ELLIPSE
  5
403
100
AcDbEntity
  8
0
100
AcDbEllipse
 62
7
  6
CONTINUOUS
 10
132.7121596629
 20
87.7465437437
 30
0.0
 11
4.5748924954
 21
0.0
 31
0.0
 40
0.6202818657
 41
1.5707963268
 42
3.1415926536
  0
ELLIPSE
  5
404
100
AcDbEntity
  8
0
100
AcDbEllipse
 62
7
  6
CONTINUOUS
 10
132.2718275825
 20
75.7787560614
 30
0.0
 11
8.6584664118
 21
0.0
 31
0.0
 40
0.7599760271
 41
3.1415926536
 42
4.7123889804
  0
ELLIPSE
  5
405
100
AcDbEntity
  8
0
100
AcDbEllipse
 62
7
  6
CONTINUOUS
 10
132.2718275825
 20
87.7876701619
 30
0.0
 11
8.6584664118
 21
0.0
 31
0.0
 40
0.7599760271
 41
7.853981634
 42
9.4247779608
  0
ELLIPSE
  5
406
100
AcDbEntity
  8
0
100
AcDbEllipse
 62
7
  6
CONTINUOUS
 10
152.3508673786
 20
87.7465437437
 30
0.0
 11
-4.5748924954
 21
0.0
 31
0.0
 40
0.6202818657
 41
3.1415926536
 42
4.7123889804
  0
ELLIPSE
  5
407
100
AcDbEntity
  8
0
100
AcDbEllipse
 62
7
  6
CONTINUOUS
 10
152.791199459
 20
87.7876701619
 30
0.0
 11
8.6584664118
 21
0.0
 31
0.0
 40
0.7599760271
 41
0.0
 42
1.5707963268
  0
HATCH
  5
408
100
AcDbEntity
  8
0
100
AcDbHatch
 62
7
  6
CONTINUOUS
 10
0.0
 20
0.0
 30
0.0
210
0.0
220
0.0
230
1.0
  2
XSEC0002
 70
1
 71
1
 91
2
 92
1
 93
20
 72
3
 10
132.2718275825
 20
87.7876701619
 11
8.6584664118
 21
0.0
 40
0.7599760271
 50
-180.0
 51
-90.0
 73
0
 72
1
 10
132.2718275825
 20
94.3678970663
 11
152.791199459
 21
94.3678970663
 72
3
 10
152.791199459
 20
87.7876701619
 11
8.6584664118
 21
0.0
 40
0.7599760271
 50
-90.0
 51
0.0
 73
0
 72
1
 10
161.4496658708
 20
87.7876701619
 11
161.4496658708
 21
75.7787560614
 72
3
 10
152.791199459
 20
75.7787560614
 11
8.6584664118
 21
0.0
 40
0.7599760271
 50
0.0
 51
90.0
 73
0
 72
1
 10
152.791199459
 20
69.198529157
 11
152.2373482047
 21
69.198529157
 72
1
 10
152.2373482047
 20
69.198529157
 11
152.2373482047
 21
72.982159627
 72
1
 10
152.2373482047
 20
72.982159627
 11
152.3508673786
 21
72.982159627
 72
3
 10
152.3508673786
 20
75.8198824796
 11
4.5748924954
 21
0.0
 40
0.6202818657
 50
-90.0
 51
0.0
 73
1
 72
1
 10
156.9257598741
 20
75.8198824796
 11
156.9257598741
 21
87.7465437437
 72
3
 10
152.3508673786
 20
87.7465437437
 11
-4.5748924954
 21
0.0
 40
0.6202818657
 50
180.0
 51
-90.0
 73
1
 72
1
 10
152.3508673786
 20
90.5842665963
 11
132.7121596629
 21
90.5842665963
 72
3
 10
132.7121596629
 20
87.7465437437
 11
4.5748924954
 21
0.0
 40
0.6202818657
 50
90.0
 51
180.0
 73
1
 72
1
 10
128.1372671674
 20
87.7465437437
 11
128.1372671674
 21
75.8198824796
 72
3
 10
132.7121596629
 20
75.8198824796
 11
4.5748924954
 21
0.0
 40
0.6202818657
 50
180.0
 51
-90.0
 73
1
 72
1
 10
132.7121596629
 20
72.982159627
 11
143.1895362112
 21
72.982159627
 72
1
 10
143.1895362112
 20
72.982159627
 11
143.1895362112
 21
69.198529157
 72
1
 10
143.1895362112
 20
69.198529157
 11
132.2718275825
 21
69.198529157
 72
3
 10
132.2718275825
 20
75.7787560614
 11
8.6584664118
 21
0.0
 40
0.7599760271
 50
-270.0
 51
-180.0
 73
0
 72
1
 10
123.6133611707
 20
75.7787560614
 11
123.6133611707
 21
87.7876701619
 97
24
330
3F0
330
3F1
330
3F2
330
3F3
330
3F4
330
3F5
330
3F6
330
3F7
330
3F8
330
3F9
330
3FA
330
3FB
330
3FC
330
3FD
330
3FE
330
3FF
330
400
330
401
330
402
330
403
330
404
330
405
330
406
330
407
 92
1
 93
4
 72
1
 10
145.2458571188
 20
75.4497447162
 11
150.0165216245
 21
75.4497447162
 72
1
 10
150.0165216245
 20
75.4497447162
 11
150.0165216245
 21
66.0729213775
 72
1
 10
150.0165216245
 20
66.0729213775
 11
145.2458571188
 21
66.0729213775
 72
1
 10
145.2458571188
 20
66.0729213775
 11
145.2458571188
 21
75.4497447162
 97
24
330
3F0
330
3F1
330
3F2
330
3F3
330
3F4
330
3F5
330
3F6
330
3F7
330
3F8
330
3F9
330
3FA
330
3FB
330
3FC
330
3FD
330
3FE
330
3FF
330
400
330
401
330
402
330
403
330
404
330
405
330
406
330
407
 75
0
 76
1
 98
1
 10
0.0
 20
0.0
  0
LINE
  5
409
100
AcDbEntity
  8
0
100
AcDbLine
 62
7
  6
CONTINUOUS
 10
168.6056626293
 20
76.9302957697
 11
168.6056626293
 21
80.0559035493
  0
LINE
  5
40A
100
AcDbEntity
  8
0
100
AcDbLine
 62
7
  6
CONTINUOUS
 10
178.8872671674
 20
76.9302957697
 11
178.8872671674
 21
80.0559035493
  0
LINE
  5
40B
100
AcDbEntity
  8
0
100
AcDbLine
 62
7
  6
CONTINUOUS
 10
168.6056626293
 20
76.9302957697
 11
178.8872671674
 21
76.9302957697
  0
LINE
  5
40C
100
AcDbEntity
  8
0
100
AcDbLine
 62
7
  6
CONTINUOUS
 10
168.6056626293
 20
80.0559035493
 11
178.8872671674
 21
80.0559035493
  0
HATCH
  5
40D
100
AcDbEntity
  8
0
100
AcDbHatch
 62
7
  6
CONTINUOUS
 10
0.0
 20
0.0
 30
0.0
210
0.0
220
0.0
230
1.0
  2
XSEC0003
 70
1
 71
1
 91
1
 92
1
 93
4
 72
1
 10
168.6056626293
 20
80.0559035493
 11
178.8872671674
 21
80.0559035493
 72
1
 10
178.8872671674
 20
80.0559035493
 11
178.8872671674
 21
76.9302957697
 72
1
 10
178.8872671674
 20
76.9302957697
 11
168.6056626293
 21
76.9302957697
 72
1
 10
168.6056626293
 20
76.9302957697
 11
168.6056626293
 21
80.0559035493
 97
4
330
409
330
40A
330
40B
330
40C
 75
0
 76
1
 98
1
 10
0.0
 20
0.0
  0
LINE
  5
40E
100
AcDbEntity
  8
0
100
AcDbLine
 62
7
  6
CONTINUOUS
 10
184.2337015272
 20
75.7787560614
 11
184.2337015272
 21
77.4238127875
  0
LINE
  5
40F
100
AcDbEntity
  8
0
100
AcDbLine
 62
7
  6
CONTINUOUS
 10
184.2337015272
 20
86.471624781
 11
184.2337015272
 21
87.7876701619
  0
LINE
  5
410
100
AcDbEntity
  8
0
100
AcDbLine
 62
7
  6
CONTINUOUS
 10
188.757607524
 20
75.8198824796
 11
188.757607524
 21
77.4238127875
  0
LINE
  5
411
100
AcDbEntity
  8
0
100
AcDbLine
 62
7
  6
CONTINUOUS
 10
188.757607524
 20
86.5127511992
 11
188.757607524
 21
87.7465437437
  0
LINE
  5
412
100
AcDbEntity
  8
0
100
AcDbLine
 62
7
  6
CONTINUOUS
 10
214.2559867785
 20
77.0536750241
 11
214.2559867785
 21
75.8198824796
  0
LINE
  5
413
100
AcDbEntity
  8
0
100
AcDbLine
 62
7
  6
CONTINUOUS
 10
214.2559867785
 20
86.1426134358
 11
214.2559867785
 21
87.7465437437
  0
LINE
  5
414
100
AcDbEntity
  8
0
100
AcDbLine
 62
7
  6
CONTINUOUS
 10
218.7798927752
 20
75.7787560614
 11
218.7798927752
 21
77.0948014423
  0
LINE
  5
415
100
AcDbEntity
  8
0
100
AcDbLine
 62
7
  6
CONTINUOUS
 10
218.7798927752
 20
86.1426134358
 11
218.7798927752
 21
87.7876701619
  0
LINE
  5
416
100
AcDbEntity
  8
0
100
AcDbLine
 62
7
  6
CONTINUOUS
 10
192.8921679391
 20
69.198529157
 11
210.1214263634
 21
69.198529157
  0
LINE
  5
417
100
AcDbEntity
  8
0
100
AcDbLine
 62
7
  6
CONTINUOUS
 10
193.3325000194
 20
72.982159627
 11
209.681094283
 21
72.982159627
  0
LINE
  5
418
100
AcDbEntity
  8
0
100
AcDbLine
 62
7
  6
CONTINUOUS
 10
184.2337015272
 20
77.4238127875
 11
188.757607524
 21
77.4238127875
  0
LINE
  5
419
100
AcDbEntity
  8
0
100
AcDbLine
 62
7
  6
CONTINUOUS
 10
192.8921679391
 20
79.8913978766
 11
209.681094283
 21
79.8913978766
  0
LINE
  5
41A
100
AcDbEntity
  8
0
100
AcDbLine
 62
7
  6
CONTINUOUS
 10
193.3325000194
 20
83.6750283467
 11
210.1214263634
 21
83.6750283467
  0
LINE
  5
41B
100
AcDbEntity
  8
0
100
AcDbLine
 62
7
  6
CONTINUOUS
 10
214.2559867785
 20
86.1426134358
 11
218.7798927752
 21
86.1426134358
  0
LINE
  5
41C
100
AcDbEntity
  8
0
100
AcDbLine
 62
7
  6
CONTINUOUS
 10
193.3325000194
 20
90.5842665963
 11
209.681094283
 21
90.5842665963
  0
LINE
  5
41D
100
AcDbEntity
  8
0
100
AcDbLine
 62
7
  6
CONTINUOUS
 10
192.8921679391
 20
94.3678970663
 11
210.1214263634
 21
94.3678970663
  0
ELLIPSE
  5
41E
100
AcDbEntity
  8
0
100
AcDbEllipse
 62
7
  6
CONTINUOUS
 10
193.3325000194
 20
75.8198824796
 30
0.0
 11
4.5748924954
 21
0.0
 31
0.0
 40
0.6202818657
 41
9.4247779608
 42
10.9955742876
  0
ELLIPSE
  5
41F
100
AcDbEntity
  8
0
100
AcDbEllipse
 62
7
  6
CONTINUOUS
 10
193.3325000194
 20
87.7465437437
 30
0.0
 11
4.5748924954
 21
0.0
 31
0.0
 40
0.6202818657
 41
1.5707963268
 42
3.1415926536
  0
ELLIPSE
  5
420
100
AcDbEntity
  8
0
100
AcDbEllipse
 62
7
  6
CONTINUOUS
 10
209.681094283
 20
75.8198824796
 30
0.0
 11
4.5748924954
 21
-0.0
 31
0.0
 40
0.6202818657
 41
-1.5707963268
 42
0.0
  0
ELLIPSE
  5
421
100
AcDbEntity
  8
0
100
AcDbEllipse
 62
7
  6
CONTINUOUS
 10
209.681094283
 20
87.7465437437
 30
0.0
 11
-4.5748924954
 21
0.0
 31
0.0
 40
0.6202818657
 41
3.1415926536
 42
4.7123889804
  0
ELLIPSE
  5
422
100
AcDbEntity
  8
0
100
AcDbEllipse
 62
7
  6
CONTINUOUS
 10
209.681094283
 20
77.0536750241
 30
0.0
 11
4.5748924954
 21
0.0
 31
0.0
 40
0.6202818657
 41
0.0
 42
1.5707963268
  0
ELLIPSE
  5
423
100
AcDbEntity
  8
0
100
AcDbEllipse
 62
7
  6
CONTINUOUS
 10
193.3325000194
 20
86.5127511992
 30
0.0
 11
4.5748924954
 21
0.0
 31
0.0
 40
0.6202818657
 41
3.1415926536
 42
4.7123889804
  0
ELLIPSE
  5
424
100
AcDbEntity
  8
0
100
AcDbEllipse
 62
7
  6
CONTINUOUS
 10
210.1214263634
 20
75.7787560614
 30
0.0
 11
8.6584664118
 21
0.0
 31
0.0
 40
0.7599760271
 41
4.7123889804
 42
6.2831853072
  0
ELLIPSE
  5
425
100
AcDbEntity
  8
0
100
AcDbEllipse
 62
7
  6
CONTINUOUS
 10
192.8921679391
 20
75.7787560614
 30
0.0
 11
8.6584664118
 21
0.0
 31
0.0
 40
0.7599760271
 41
3.1415926536
 42
4.7123889804
  0
ELLIPSE
  5
426
100
AcDbEntity
  8
0
100
AcDbEllipse
 62
7
  6
CONTINUOUS
 10
210.1214263634
 20
87.7876701619
 30
0.0
 11
8.6584664118
 21
0.0
 31
0.0
 40
0.7599760271
 41
0.0
 42
1.5707963268
  0
ELLIPSE
  5
427
100
AcDbEntity
  8
0
100
AcDbEllipse
 62
7
  6
CONTINUOUS
 10
192.8921679391
 20
86.471624781
 30
0.0
 11
8.6584664118
 21
0.0
 31
0.0
 40
0.7599760271
 41
9.4247779608
 42
10.9955742876
  0
ELLIPSE
  5
428
100
AcDbEntity
  8
0
100
AcDbEllipse
 62
7
  6
CONTINUOUS
 10
210.1214263634
 20
77.0948014423
 30
0.0
 11
8.6584664118
 21
0.0
 31
0.0
 40
0.7599760271
 41
6.2831853072
 42
7.853981634
  0
ELLIPSE
  5
429
100
AcDbEntity
  8
0
100
AcDbEllipse
 62
7
  6
CONTINUOUS
 10
192.8921679391
 20
87.7876701619
 30
0.0
 11
8.6584664118
 21
0.0
 31
0.0
 40
0.7599760271
 41
7.853981634
 42
9.4247779608
  0
HATCH
  5
42A
100
AcDbEntity
  8
0
100
AcDbHatch
 62
7
  6
CONTINUOUS
 10
0.0
 20
0.0
 30
0.0
210
0.0
220
0.0
230
1.0
  2
XSEC0004
 70
1
 71
1
 91
1
 92
1
 93
28
 72
1
 10
184.2337015272
 20
77.4238127875
 11
188.757607524
 21
77.4238127875
 72
1
 10
188.757607524
 20
77.4238127875
 11
188.757607524
 21
75.8198824796
 72
3
 10
193.3325000194
 20
75.8198824796
 11
4.5748924954
 21
0.0
 40
0.6202818657
 50
180.0
 51
-90.0
 73
1
 72
1
 10
193.3325000194
 20
72.982159627
 11
209.681094283
 21
72.982159627
 72
3
 10
209.681094283
 20
75.8198824796
 11
4.5748924954
 21
-0.0
 40
0.6202818657
 50
-90.0
 51
0.0
 73
1
 72
1
 10
214.2559867785
 20
75.8198824796
 11
214.2559867785
 21
77.0536750241
 72
3
 10
209.681094283
 20
77.0536750241
 11
4.5748924954
 21
0.0
 40
0.6202818657
 50
0.0
 51
90.0
 73
1
 72
1
 10
209.681094283
 20
79.8913978766
 11
192.8921679391
 21
79.8913978766
 72
3
 10
192.8921679391
 20
86.471624781
 11
8.6584664118
 21
0.0
 40
0.7599760271
 50
-270.0
 51
-180.0
 73
0
 72
1
 10
184.2337015272
 20
86.471624781
 11
184.2337015272
 21
87.7876701619
 72
3
 10
192.8921679391
 20
87.7876701619
 11
8.6584664118
 21
0.0
 40
0.7599760271
 50
-180.0
 51
-90.0
 73
0
 72
1
 10
192.8921679391
 20
94.3678970663
 11
210.1214263634
 21
94.3678970663
 72
3
 10
210.1214263634
 20
87.7876701619
 11
8.6584664118
 21
0.0
 40
0.7599760271
 50
-90.0
 51
0.0
 73
0
 72
1
 10
218.7798927752
 20
87.7876701619
 11
218.7798927752
 21
86.1426134358
 72
1
 10
218.7798927752
 20
86.1426134358
 11
214.2559867785
 21
86.1426134358
 72
1
 10
214.2559867785
 20
86.1426134358
 11
214.2559867785
 21
87.7465437437
 72
3
 10
209.681094283
 20
87.7465437437
 11
-4.5748924954
 21
0.0
 40
0.6202818657
 50
180.0
 51
-90.0
 73
1
 72
1
 10
209.681094283
 20
90.5842665963
 11
193.3325000194
 21
90.5842665963
 72
3
 10
193.3325000194
 20
87.7465437437
 11
4.5748924954
 21
0.0
 40
0.6202818657
 50
90.0
 51
180.0
 73
1
 72
1
 10
188.757607524
 20
87.7465437437
 11
188.757607524
 21
86.5127511992
 72
3
 10
193.3325000194
 20
86.5127511992
 11
4.5748924954
 21
0.0
 40
0.6202818657
 50
180.0
 51
-90.0
 73
1
 72
1
 10
193.3325000194
 20
83.6750283467
 11
210.1214263634
 21
83.6750283467
 72
3
 10
210.1214263634
 20
77.0948014423
 11
8.6584664118
 21
0.0
 40
0.7599760271
 50
-90.0
 51
0.0
 73
0
 72
1
 10
218.7798927752
 20
77.0948014423
 11
218.7798927752
 21
75.7787560614
 72
3
 10
210.1214263634
 20
75.7787560614
 11
8.6584664118
 21
0.0
 40
0.7599760271
 50
0.0
 51
90.0
 73
0
 72
1
 10
210.1214263634
 20
69.198529157
 11
192.8921679391
 21
69.198529157
 72
3
 10
192.8921679391
 20
75.7787560614
 11
8.6584664118
 21
0.0
 40
0.7599760271
 50
-270.0
 51
-180.0
 73
0
 72
1
 10
184.2337015272
 20
75.7787560614
 11
184.2337015272
 21
77.4238127875
 97
28
330
40E
330
40F
330
410
330
411
330
412
330
413
330
414
330
415
330
416
330
417
330
418
330
419
330
41A
330
41B
330
41C
330
41D
330
41E
330
41F
330
420
330
421
330
422
330
423
330
424
330
425
330
426
330
427
330
428
330
429
 75
0
 76
1
 98
1
 10
0.0
 20
0.0
  0
LINE
  5
42B
100
AcDbEntity
  8
0
100
AcDbLine
 62
7
  6
CONTINUOUS
 10
263.0319187071
 20
75.7787560614
 11
263.0319187071
 21
77.4238127875
  0
LINE
  5
42C
100
AcDbEntity
  8
0
100
AcDbLine
 62
7
  6
CONTINUOUS
 10
263.0319187071
 20
86.471624781
 11
263.0319187071
 21
87.7876701619
  0
LINE
  5
42D
100
AcDbEntity
  8
0
100
AcDbLine
 62
7
  6
CONTINUOUS
 10
267.5558247039
 20
75.8198824796
 11
267.5558247039
 21
77.4238127875
  0
LINE
  5
42E
100
AcDbEntity
  8
0
100
AcDbLine
 62
7
  6
CONTINUOUS
 10
267.5558247039
 20
86.5127511992
 11
267.5558247039
 21
87.7465437437
  0
LINE
  5
42F
100
AcDbEntity
  8
0
100
AcDbLine
 62
7
  6
CONTINUOUS
 10
293.0542039584
 20
77.0536750241
 11
293.0542039584
 21
75.8198824796
  0
LINE
  5
430
100
AcDbEntity
  8
0
100
AcDbLine
 62
7
  6
CONTINUOUS
 10
293.0542039584
 20
86.1426134358
 11
293.0542039584
 21
87.7465437437
  0
LINE
  5
431
100
AcDbEntity
  8
0
100
AcDbLine
 62
7
  6
CONTINUOUS
 10
297.5781099551
 20
75.7787560614
 11
297.5781099551
 21
77.0948014423
  0
LINE
  5
432
100
AcDbEntity
  8
0
100
AcDbLine
 62
7
  6
CONTINUOUS
 10
297.5781099551
 20
86.1426134358
 11
297.5781099551
 21
87.7876701619
  0
LINE
  5
433
100
AcDbEntity
  8
0
100
AcDbLine
 62
7
  6
CONTINUOUS
 10
271.690385119
 20
69.198529157
 11
288.9196435433
 21
69.198529157
  0
LINE
  5
434
100
AcDbEntity
  8
0
100
AcDbLine
 62
7
  6
CONTINUOUS
 10
272.1307171993
 20
72.982159627
 11
288.4793114629
 21
72.982159627
  0
LINE
  5
435
100
AcDbEntity
  8
0
100
AcDbLine
 62
7
  6
CONTINUOUS
 10
263.0319187071
 20
77.4238127875
 11
267.5558247039
 21
77.4238127875
  0
LINE
  5
436
100
AcDbEntity
  8
0
100
AcDbLine
 62
7
  6
CONTINUOUS
 10
271.690385119
 20
79.8913978766
 11
288.4793114629
 21
79.8913978766
  0
LINE
  5
437
100
AcDbEntity
  8
0
100
AcDbLine
 62
7
  6
CONTINUOUS
 10
272.1307171993
 20
83.6750283467
 11
288.9196435433
 21
83.6750283467
  0
LINE
  5
438
100
AcDbEntity
  8
0
100
AcDbLine
 62
7
  6
CONTINUOUS
 10
293.0542039584
 20
86.1426134358
 11
297.5781099551
 21
86.1426134358
  0
LINE
  5
439
100
AcDbEntity
  8
0
100
AcDbLine
 62
7
  6
CONTINUOUS
 10
272.1307171993
 20
90.5842665963
 11
288.4793114629
 21
90.5842665963
  0
LINE
  5
43A
100
AcDbEntity
  8
0
100
AcDbLine
 62
7
  6
CONTINUOUS
 10
271.690385119
 20
94.3678970663
 11
288.9196435433
 21
94.3678970663
  0
ELLIPSE
  5
43B
100
AcDbEntity
  8
0
100
AcDbEllipse
 62
7
  6
CONTINUOUS
 10
272.1307171993
 20
75.8198824796
 30
0.0
 11
4.5748924954
 21
0.0
 31
0.0
 40
0.6202818657
 41
9.4247779608
 42
10.9955742876
  0
ELLIPSE
  5
43C
100
AcDbEntity
  8
0
100
AcDbEllipse
 62
7
  6
CONTINUOUS
 10
272.1307171993
 20
87.7465437437
 30
0.0
 11
4.5748924954
 21
0.0
 31
0.0
 40
0.6202818657
 41
1.5707963268
 42
3.1415926536
  0
ELLIPSE
  5
43D
100
AcDbEntity
  8
0
100
AcDbEllipse
 62
7
  6
CONTINUOUS
 10
288.4793114629
 20
75.8198824796
 30
0.0
 11
4.5748924954
 21
-0.0
 31
0.0
 40
0.6202818657
 41
-1.5707963268
 42
0.0
  0
ELLIPSE
  5
43E
100
AcDbEntity
  8
0
100
AcDbEllipse
 62
7
  6
CONTINUOUS
 10
288.4793114629
 20
87.7465437437
 30
0.0
 11
-4.5748924954
 21
0.0
 31
0.0
 40
0.6202818657
 41
3.1415926536
 42
4.7123889804
  0
ELLIPSE
  5
43F
100
AcDbEntity
  8
0
100
AcDbEllipse
 62
7
  6
CONTINUOUS
 10
288.4793114629
 20
77.0536750241
 30
0.0
 11
4.5748924954
 21
0.0
 31
0.0
 40
0.6202818657
 41
0.0
 42
1.5707963268
  0
ELLIPSE
  5
440
100
AcDbEntity
  8
0
100
AcDbEllipse
 62
7
  6
CONTINUOUS
 10
272.1307171993
 20
86.5127511992
 30
0.0
 11
4.5748924954
 21
0.0
 31
0.0
 40
0.6202818657
 41
3.1415926536
 42
4.7123889804
  0
ELLIPSE
  5
441
100
AcDbEntity
  8
0
100
AcDbEllipse
 62
7
  6
CONTINUOUS
 10
288.9196435433
 20
75.7787560614
 30
0.0
 11
8.6584664118
 21
0.0
 31
0.0
 40
0.7599760271
 41
4.7123889804
 42
6.2831853072
  0
ELLIPSE
  5
442
100
AcDbEntity
  8
0
100
AcDbEllipse
 62
7
  6
CONTINUOUS
 10
271.690385119
 20
75.7787560614
 30
0.0
 11
8.6584664118
 21
0.0
 31
0.0
 40
0.7599760271
 41
3.1415926536
 42
4.7123889804
  0
ELLIPSE
  5
443
100
AcDbEntity
  8
0
100
AcDbEllipse
 62
7
  6
CONTINUOUS
 10
288.9196435433
 20
87.7876701619
 30
0.0
 11
8.6584664118
 21
0.0
 31
0.0
 40
0.7599760271
 41
0.0
 42
1.5707963268
  0
ELLIPSE
  5
444
100
AcDbEntity
  8
0
100
AcDbEllipse
 62
7
  6
CONTINUOUS
 10
271.690385119
 20
87.7876701619
 30
0.0
 11
8.6584664118
 21
0.0
 31
0.0
 40
0.7599760271
 41
7.853981634
 42
9.4247779608
  0
ELLIPSE
  5
445
100
AcDbEntity
  8
0
100
AcDbEllipse
 62
7
  6
CONTINUOUS
 10
271.690385119
 20
86.471624781
 30
0.0
 11
8.6584664118
 21
0.0
 31
0.0
 40
0.7599760271
 41
9.4247779608
 42
10.9955742876
  0
ELLIPSE
  5
446
100
AcDbEntity
  8
0
100
AcDbEllipse
 62
7
  6
CONTINUOUS
 10
288.9196435433
 20
77.0948014423
 30
0.0
 11
8.6584664118
 21
0.0
 31
0.0
 40
0.7599760271
 41
6.2831853072
 42
7.853981634
  0
HATCH
  5
447
100
AcDbEntity
  8
0
100
AcDbHatch
 62
7
  6
CONTINUOUS
 10
0.0
 20
0.0
 30
0.0
210
0.0
220
0.0
230
1.0
  2
XSEC0006
 70
1
 71
1
 91
1
 92
1
 93
28
 72
1
 10
263.0319187071
 20
77.4238127875
 11
267.5558247039
 21
77.4238127875
 72
1
 10
267.5558247039
 20
77.4238127875
 11
267.5558247039
 21
75.8198824796
 72
3
 10
272.1307171993
 20
75.8198824796
 11
4.5748924954
 21
0.0
 40
0.6202818657
 50
180.0
 51
-90.0
 73
1
 72
1
 10
272.1307171993
 20
72.982159627
 11
288.4793114629
 21
72.982159627
 72
3
 10
288.4793114629
 20
75.8198824796
 11
4.5748924954
 21
-0.0
 40
0.6202818657
 50
-90.0
 51
0.0
 73
1
 72
1
 10
293.0542039584
 20
75.8198824796
 11
293.0542039584
 21
77.0536750241
 72
3
 10
288.4793114629
 20
77.0536750241
 11
4.5748924954
 21
0.0
 40
0.6202818657
 50
0.0
 51
90.0
 73
1
 72
1
 10
288.4793114629
 20
79.8913978766
 11
271.690385119
 21
79.8913978766
 72
3
 10
271.690385119
 20
86.471624781
 11
8.6584664118
 21
0.0
 40
0.7599760271
 50
-270.0
 51
-180.0
 73
0
 72
1
 10
263.0319187071
 20
86.471624781
 11
263.0319187071
 21
87.7876701619
 72
3
 10
271.690385119
 20
87.7876701619
 11
8.6584664118
 21
0.0
 40
0.7599760271
 50
-180.0
 51
-90.0
 73
0
 72
1
 10
271.690385119
 20
94.3678970663
 11
288.9196435433
 21
94.3678970663
 72
3
 10
288.9196435433
 20
87.7876701619
 11
8.6584664118
 21
0.0
 40
0.7599760271
 50
-90.0
 51
0.0
 73
0
 72
1
 10
297.5781099551
 20
87.7876701619
 11
297.5781099551
 21
86.1426134358
 72
1
 10
297.5781099551
 20
86.1426134358
 11
293.0542039584
 21
86.1426134358
 72
1
 10
293.0542039584
 20
86.1426134358
 11
293.0542039584
 21
87.7465437437
 72
3
 10
288.4793114629
 20
87.7465437437
 11
-4.5748924954
 21
0.0
 40
0.6202818657
 50
180.0
 51
-90.0
 73
1
 72
1
 10
288.4793114629
 20
90.5842665963
 11
272.1307171993
 21
90.5842665963
 72
3
 10
272.1307171993
 20
87.7465437437
 11
4.5748924954
 21
0.0
 40
0.6202818657
 50
90.0
 51
180.0
 73
1
 72
1
 10
267.5558247039
 20
87.7465437437
 11
267.5558247039
 21
86.5127511992
 72
3
 10
272.1307171993
 20
86.5127511992
 11
4.5748924954
 21
0.0
 40
0.6202818657
 50
180.0
 51
-90.0
 73
1
 72
1
 10
272.1307171993
 20
83.6750283467
 11
288.9196435433
 21
83.6750283467
 72
3
 10
288.9196435433
 20
77.0948014423
 11
8.6584664118
 21
0.0
 40
0.7599760271
 50
-90.0
 51
0.0
 73
0
 72
1
 10
297.5781099551
 20
77.0948014423
 11
297.5781099551
 21
75.7787560614
 72
3
 10
288.9196435433
 20
75.7787560614
 11
8.6584664118
 21
0.0
 40
0.7599760271
 50
0.0
 51
90.0
 73
0
 72
1
 10
288.9196435433
 20
69.198529157
 11
271.690385119
 21
69.198529157
 72
3
 10
271.690385119
 20
75.7787560614
 11
8.6584664118
 21
0.0
 40
0.7599760271
 50
-270.0
 51
-180.0
 73
0
 72
1
 10
263.0319187071
 20
75.7787560614
 11
263.0319187071
 21
77.4238127875
 97
28
330
42B
330
42C
330
42D
330
42E
330
42F
330
430
330
431
330
432
330
433
330
434
330
435
330
436
330
437
330
438
330
439
330
43A
330
43B
330
43C
330
43D
330
43E
330
43F
330
440
330
441
330
442
330
443
330
444
330
445
330
446
 75
0
 76
1
 98
1
 10
0.0
 20
0.0
  0
LWPOLYLINE
  5
448
100
AcDbEntity
  8
0
100
AcDbPolyline
 62
7
  6
CONTINUOUS
 90
2
 70
0
 43
1.7499999922
 10
1289.6868601808
 20
61.3877443338
 10
1316.3568601815
 20
56.9427443338
  0
LWPOLYLINE
  5
449
100
AcDbEntity
  8
0
100
AcDbPolyline
 62
7
  6
CONTINUOUS
 90
2
 70
0
 43
1.7499999922
 10
1289.6868601808
 20
70.2777443338
 10
1316.3568601815
 20
74.7227443338
  0
LWPOLYLINE
  5
44A
100
AcDbEntity
  8
0
100
AcDbPolyline
 62
7
  6
CONTINUOUS
 90
2
 70
0
 43
0.6999999788
 10
1260.3854201808
 20
65.8327443338
 10
1283.4283001815
 20
65.8327443338
  0
LWPOLYLINE
  5
44B
100
AcDbEntity
  8
0
100
AcDbPolyline
 62
7
  6
CONTINUOUS
 90
2
 70
0
 43
0.6999999788
 10
1286.3766547382
 20
65.8327443338
 10
1319.077259734
 20
65.8327443338
  0
LWPOLYLINE
  5
44C
100
AcDbEntity
  8
0
100
AcDbPolyline
 62
7
  6
CONTINUOUS
 90
2
 70
0
 43
1.7499999922
 10
2977.1
 20
126.0
 10
45.5
 20
126.0
  0
LWPOLYLINE
  5
44D
100
AcDbEntity
  8
0
100
AcDbPolyline
 62
7
  6
CONTINUOUS
 90
2
 70
0
 43
0.6999999788
 10
1271.9068601808
 20
54.3113043338
 10
1271.9068601808
 20
77.3541843338
  0
LWPOLYLINE
  5
44E
100
AcDbEntity
  8
0
100
AcDbPolyline
 62
7
  6
CONTINUOUS
 90
2
 70
0
 43
1.7499999922
 10
1289.6868601808
 20
70.2777443338
 10
1289.6868601808
 20
61.3877443338
  0
LWPOLYLINE
  5
44F
100
AcDbEntity
  8
0
100
AcDbPolyline
 62
7
  6
CONTINUOUS
 90
2
 70
0
 43
1.7499999922
 10
1316.3568601815
 20
74.7227443338
 10
1316.3568601815
 20
56.9427443338
  0
LWPOLYLINE
  5
450
100
AcDbEntity
  8
0
100
AcDbPolyline
 62
2
  6
CONTINUOUS
 90
5
 70
0
 10
73.0714106731
 20
1597.4560408737
 10
101.4467043534
 20
1597.4560408737
 10
101.4467043534
 20
1629.4600408737
 10
73.0714106731
 20
1629.4600408737
 10
73.0714106731
 20
1597.4560408737
  0
LWPOLYLINE
  5
451
100
AcDbEntity
  8
0
100
AcDbPolyline
 62
2
  6
CONTINUOUS
 90
5
 70
0
 10
73.0714106731
 20
1653.4630408737
 10
101.4467043534
 20
1653.4630408737
 10
101.4467043534
 20
1685.4670408737
 10
73.0714106731
 20
1685.4670408737
 10
73.0714106731
 20
1653.4630408737
  0
LWPOLYLINE
  5
452
100
AcDbEntity
  8
0
100
AcDbPolyline
 62
2
  6
CONTINUOUS
 90
5
 70
0
 10
73.0714106731
 20
1709.4700408737
 10
101.4467043534
 20
1709.4700408737
 10
101.4467043534
 20
1741.4740408737
 10
73.0714106731
 20
1741.4740408737
 10
73.0714106731
 20
1709.4700408737
  0
LWPOLYLINE
  5
453
100
AcDbEntity
  8
0
100
AcDbPolyline
 62
7
  6
CONTINUOUS
 90
2
 70
0
 43
1.7499999922
 10
45.5
 20
1910.3
 10
2977.1
 20
1910.3
  0
LINE
  5
454
100
AcDbEntity
  8
0
100
AcDbLine
 62
7
  6
CONTINUOUS
 10
891.6507201087
 20
313.0655434783
 11
1133.6507201087
 21
313.0655434783
  0
LINE
  5
455
100
AcDbEntity
  8
0
100
AcDbLine
 62
7
  6
CONTINUOUS
 10
891.6507201087
 20
327.9655434783
 11
1133.6507201087
 21
327.9655434783
  0
LINE
  5
456
100
AcDbEntity
  8
0
100
AcDbLine
 62
7
  6
CONTINUOUS
 10
896.6507201087
 20
342.8655434783
 11
1128.6507201087
 21
342.8655434783
  0
LINE
  5
457
100
AcDbEntity
  8
0
100
AcDbLine
 62
7
  6
CONTINUOUS
 10
1094.8507201087
 20
757.8655434783
 11
1022.1007201087
 21
722.8155434783
  0
LINE
  5
458
100
AcDbEntity
  8
0
100
AcDbLine
 62
7
  6
CONTINUOUS
 10
891.6507201087
 20
313.0655434783
 11
891.6507201087
 21
813.0655434783
  0
LINE
  5
459
100
AcDbEntity
  8
0
100
AcDbLine
 62
7
  6
CONTINUOUS
 10
895.0507201087
 20
327.9655434783
 11
895.0507201087
 21
798.1655434783
  0
LINE
  5
45A
100
AcDbEntity
  8
0
100
AcDbLine
 62
7
  6
CONTINUOUS
 10
896.6507201087
 20
327.9655434783
 11
896.6507201087
 21
342.8655434783
  0
LINE
  5
45B
100
AcDbEntity
  8
0
100
AcDbLine
 62
7
  6
CONTINUOUS
 10
896.6507201087
 20
783.2655434783
 11
896.6507201087
 21
798.1655434783
  0
LINE
  5
45C
100
AcDbEntity
  8
0
100
AcDbLine
 62
7
  6
CONTINUOUS
 10
907.5007201087
 20
780.8155434783
 11
907.5007201087
 21
570.5155434783
  0
LINE
  5
45D
100
AcDbEntity
  8
0
100
AcDbLine
 62
7
  6
CONTINUOUS
 10
911.8173901087
 20
813.0655434783
 11
911.8173901087
 21
798.1655434783
  0
LINE
  5
45E
100
AcDbEntity
  8
0
100
AcDbLine
 62
7
  6
CONTINUOUS
 10
911.8173901087
 20
327.9655434783
 11
911.8173901087
 21
313.0655434783
  0
LINE
  5
45F
100
AcDbEntity
  8
0
100
AcDbLine
 62
7
  6
CONTINUOUS
 10
913.1173806207
 20
327.9655434783
 11
913.1173806207
 21
342.8655434783
  0
LINE
  5
460
100
AcDbEntity
  8
0
100
AcDbLine
 62
7
  6
CONTINUOUS
 10
913.1173806207
 20
783.2655434783
 11
913.1173806207
 21
798.1655434783
  0
LINE
  5
461
100
AcDbEntity
  8
0
100
AcDbLine
 62
7
  6
CONTINUOUS
 10
930.4507201087
 20
757.8655434783
 11
930.4507201087
 21
593.4655434783
  0
LINE
  5
462
100
AcDbEntity
  8
0
100
AcDbLine
 62
7
  6
CONTINUOUS
 10
930.4507201087
 20
593.4655434783
 11
1003.2007201087
 21
628.5155434783
  0
LINE
  5
463
100
AcDbEntity
  8
0
100
AcDbLine
 62
7
  6
CONTINUOUS
 10
1003.2007201087
 20
628.5155434783
 11
1003.2007201087
 21
722.8155434783
  0
LINE
  5
464
100
AcDbEntity
  8
3_ALL_AXES
100
AcDbLine
 62
7
  6
CENTER
 10
1009.4757201087
 20
562.3055434783
 11
1009.4757201087
 21
544.5254434783
  0
LINE
  5
465
100
AcDbEntity
  8
3_ALL_AXES
100
AcDbLine
 62
7
  6
CENTER
 10
1009.4757201087
 20
562.3055434783
 11
1009.4757201087
 21
580.0856434783
  0
LINE
  5
466
100
AcDbEntity
  8
3_AXES_OTHER
100
AcDbLine
 62
7
  6
CENTER
 10
1012.6507201087
 20
830.8455434783
 11
1012.6507201087
 21
295.2855434783
  0
LINE
  5
467
100
AcDbEntity
  8
3_ALL_AXES
100
AcDbLine
 62
7
  6
CENTER
 10
1009.4757201087
 20
562.3055434783
 11
991.6956201087
 21
562.3055434783
  0
LINE
  5
468
100
AcDbEntity
  8
3_ALL_AXES
100
AcDbLine
 62
7
  6
CENTER
 10
1009.4757201087
 20
562.3055434783
 11
1027.2558201087
 21
562.3055434783
  0
LINE
  5
469
100
AcDbEntity
  8
0
100
AcDbLine
 62
7
  6
CONTINUOUS
 10
1022.1007201087
 20
722.8155434783
 11
1022.1007201087
 21
628.5155434783
  0
LINE
  5
46A
100
AcDbEntity
  8
0
100
AcDbLine
 62
7
  6
CONTINUOUS
 10
907.5007201087
 20
570.5155434783
 11
1117.8007201087
 21
570.5155434783
  0
LINE
  5
46B
100
AcDbEntity
  8
0
100
AcDbLine
 62
7
  6
CONTINUOUS
 10
930.4507201087
 20
593.4655434783
 11
1094.8507201087
 21
593.4655434783
  0
LINE
  5
46C
100
AcDbEntity
  8
0
100
AcDbLine
 62
7
  6
CONTINUOUS
 10
1022.1007201087
 20
628.5155434783
 11
1003.2007201087
 21
628.5155434783
  0
LINE
  5
46D
100
AcDbEntity
  8
0
100
AcDbLine
 62
7
  6
CONTINUOUS
 10
1094.8507201087
 20
593.4655434783
 11
1022.1007201087
 21
628.5155434783
  0
LINE
  5
46E
100
AcDbEntity
  8
0
100
AcDbLine
 62
7
  6
CONTINUOUS
 10
1094.8507201087
 20
593.4655434783
 11
1094.8507201087
 21
757.8655434783
  0
LINE
  5
46F
100
AcDbEntity
  8
0
100
AcDbLine
 62
7
  6
CONTINUOUS
 10
1112.1840595967
 20
327.9655434783
 11
1112.1840595967
 21
342.8655434783
  0
LINE
  5
470
100
AcDbEntity
  8
0
100
AcDbLine
 62
7
  6
CONTINUOUS
 10
1112.1840595967
 20
783.2655434783
 11
1112.1840595967
 21
798.1655434783
  0
LINE
  5
471
100
AcDbEntity
  8
0
100
AcDbLine
 62
7
  6
CONTINUOUS
 10
1113.4840501087
 20
813.0655434783
 11
1113.4840501087
 21
798.1655434783
  0
LINE
  5
472
100
AcDbEntity
  8
0
100
AcDbLine
 62
7
  6
CONTINUOUS
 10
1113.4840501087
 20
327.9655434783
 11
1113.4840501087
 21
313.0655434783
  0
LINE
  5
473
100
AcDbEntity
  8
0
100
AcDbLine
 62
7
  6
CONTINUOUS
 10
1117.8007201087
 20
570.5155434783
 11
1117.8007201087
 21
780.8155434783
  0
LINE
  5
474
100
AcDbEntity
  8
0
100
AcDbLine
 62
7
  6
CONTINUOUS
 10
1128.6507201087
 20
327.9655434783
 11
1128.6507201087
 21
342.8655434783
  0
LINE
  5
475
100
AcDbEntity
  8
0
100
AcDbLine
 62
7
  6
CONTINUOUS
 10
1128.6507201087
 20
783.2655434783
 11
1128.6507201087
 21
798.1655434783
  0
LINE
  5
476
100
AcDbEntity
  8
0
100
AcDbLine
 62
7
  6
CONTINUOUS
 10
1130.2507201087
 20
327.9655434783
 11
1130.2507201087
 21
798.1655434783
  0
LINE
  5
477
100
AcDbEntity
  8
0
100
AcDbLine
 62
7
  6
CONTINUOUS
 10
1133.6507201087
 20
313.0655434783
 11
1133.6507201087
 21
813.0655434783
  0
LINE
  5
478
100
AcDbEntity
  8
0
100
AcDbLine
 62
7
  6
CONTINUOUS
 10
930.4507201087
 20
757.8655434783
 11
1003.2007201087
 21
722.8155434783
  0
LINE
  5
479
100
AcDbEntity
  8
0
100
AcDbLine
 62
7
  6
CONTINUOUS
 10
1003.2007201087
 20
722.8155434783
 11
1022.1007201087
 21
722.8155434783
  0
LINE
  5
47A
100
AcDbEntity
  8
0
100
AcDbLine
 62
7
  6
CONTINUOUS
 10
1094.8507201087
 20
757.8655434783
 11
930.4507201087
 21
757.8655434783
  0
LINE
  5
47B
100
AcDbEntity
  8
0
100
AcDbLine
 62
7
  6
CONTINUOUS
 10
1117.8007201087
 20
780.8155434783
 11
907.5007201087
 21
780.8155434783
  0
LINE
  5
47C
100
AcDbEntity
  8
0
100
AcDbLine
 62
7
  6
CONTINUOUS
 10
896.6507201087
 20
783.2655434783
 11
1128.6507201087
 21
783.2655434783
  0
LINE
  5
47D
100
AcDbEntity
  8
0
100
AcDbLine
 62
7
  6
CONTINUOUS
 10
891.6507201087
 20
798.1655434783
 11
1133.6507201087
 21
798.1655434783
  0
LINE
  5
47E
100
AcDbEntity
  8
0
100
AcDbLine
 62
7
  6
CONTINUOUS
 10
891.6507201087
 20
813.0655434783
 11
1133.6507201087
 21
813.0655434783
  0
LINE
  5
47F
100
AcDbEntity
  8
0
100
AcDbLine
 62
7
  6
CONTINUOUS
 10
891.6507201087
 20
1213.6516327633
 11
891.6507201087
 21
1196.1516327633
  0
LINE
  5
480
100
AcDbEntity
  8
0
100
AcDbLine
 62
7
  6
CONTINUOUS
 10
913.7972011941
 20
1443.6516327633
 11
891.6507201087
 21
1213.6516327633
  0
LWPOLYLINE
  5
481
100
AcDbEntity
  8
0
100
AcDbPolyline
 62
2
  6
CONTINUOUS
 90
5
 70
0
 10
827.2647187605
 20
1202.1154970346
 10
855.6400124408
 20
1202.1154970346
 10
855.6400124408
 20
1234.1194970346
 10
827.2647187605
 20
1234.1194970346
 10
827.2647187605
 20
1202.1154970346
  0
LINE
  5
482
100
AcDbEntity
  8
3_AXES_OTHER
100
AcDbLine
 62
7
  6
CENTER
 10
934.944044806
 20
1242.8027505216
 11
934.944044806
 21
1215.0227505216
  0
LINE
  5
483
100
AcDbEntity
  8
3_AXES_OTHER
100
AcDbLine
 62
7
  6
CENTER
 10
934.944044806
 20
1242.8027505216
 11
934.944044806
 21
1270.5827505216
  0
LINE
  5
484
100
AcDbEntity
  8
3_AXES_OTHER
100
AcDbLine
 62
7
  6
CENTER
 10
1090.3573954114
 20
1242.8027505216
 11
1062.5773954114
 21
1242.8027505216
  0
LINE
  5
485
100
AcDbEntity
  8
3_AXES_OTHER
100
AcDbLine
 62
7
  6
CENTER
 10
934.944044806
 20
1242.8027505216
 11
907.164044806
 21
1242.8027505216
  0
LINE
  5
486
100
AcDbEntity
  8
3_AXES_OTHER
100
AcDbLine
 62
7
  6
CENTER
 10
934.944044806
 20
1242.8027505216
 11
962.724044806
 21
1242.8027505216
  0
LINE
  5
487
100
AcDbEntity
  8
3_AXES_OTHER
100
AcDbLine
 62
7
  6
CENTER
 10
1090.3573954114
 20
1242.8027505216
 11
1118.1373954114
 21
1242.8027505216
  0
LINE
  5
488
100
AcDbEntity
  8
3_AXES_OTHER
100
AcDbLine
 62
7
  6
CENTER
 10
1038.0507201087
 20
1243.7016327633
 11
1014.2707201087
 21
1243.7016327633
  0
LINE
  5
489
100
AcDbEntity
  8
3_AXES_OTHER
100
AcDbLine
 62
7
  6
CENTER
 10
987.2507201087
 20
1243.7016327633
 11
973.1660311837
 21
1243.7016327633
  0
LINE
  5
48A
100
AcDbEntity
  8
3_AXES_OTHER
100
AcDbLine
 62
7
  6
CENTER
 10
987.2507201087
 20
1243.7016327633
 11
1014.2707201087
 21
1243.7016327633
  0
LINE
  5
48B
100
AcDbEntity
  8
3_AXES_OTHER
100
AcDbLine
 62
7
  6
CENTER
 10
1038.0507201087
 20
1243.7016327633
 11
1061.8307201087
 21
1243.7016327633
  0
LWPOLYLINE
  5
48C
100
AcDbEntity
  8
0
100
AcDbPolyline
 62
2
  6
CONTINUOUS
 90
5
 70
0
 10
1151.3536469047
 20
1253.8946143831
 10
1179.728940585
 20
1253.8946143831
 10
1179.728940585
 20
1285.8986143831
 10
1151.3536469047
 20
1285.8986143831
 10
1151.3536469047
 20
1253.8946143831
  0
LINE
  5
48D
100
AcDbEntity
  8
3_AXES_OTHER
100
AcDbLine
 62
7
  6
CENTER
 10
987.2507201087
 20
1351.6016327633
 11
987.2507201087
 21
1327.8216327633
  0
LINE
  5
48E
100
AcDbEntity
  8
3_AXES_OTHER
100
AcDbLine
 62
7
  6
CENTER
 10
987.2507201087
 20
1243.7016327633
 11
987.2507201087
 21
1219.9216327633
  0
LINE
  5
48F
100
AcDbEntity
  8
3_AXES_OTHER
100
AcDbLine
 62
7
  6
CENTER
 10
987.2507201087
 20
1243.7016327633
 11
987.2507201087
 21
1327.8216327633
  0
LINE
  5
490
100
AcDbEntity
  8
3_AXES_OTHER
100
AcDbLine
 62
7
  6
CENTER
 10
987.2507201087
 20
1351.6016327633
 11
987.2507201087
 21
1375.3816327633
  0
LINE
  5
491
100
AcDbEntity
  8
3_AXES_OTHER
100
AcDbLine
 62
7
  6
CENTER
 10
1012.6507201087
 20
1403.3516327633
 11
1012.6507201087
 21
1316.034254779
  0
LINE
  5
492
100
AcDbEntity
  8
3_AXES_OTHER
100
AcDbLine
 62
7
  6
CENTER
 10
1012.6507201087
 20
1297.6516327633
 11
1012.6507201087
 21
1251.0882392229
  0
LINE
  5
493
100
AcDbEntity
  8
3_AXES_OTHER
100
AcDbLine
 62
7
  6
CENTER
 10
1012.6507201087
 20
1297.6516327633
 11
1012.6507201087
 21
1316.034254779
  0
LINE
  5
494
100
AcDbEntity
  8
3_AXES_OTHER
100
AcDbLine
 62
7
  6
CENTER
 10
1012.6507201087
 20
1403.3516327633
 11
1012.6507201087
 21
1529.3510902802
  0
LINE
  5
495
100
AcDbEntity
  8
3_AXES_OTHER
100
AcDbLine
 62
7
  6
CENTER
 10
1012.6507201087
 20
1297.6516327633
 11
986.8707201087
 21
1297.6516327633
  0
LINE
  5
496
100
AcDbEntity
  8
3_AXES_OTHER
100
AcDbLine
 62
7
  6
CENTER
 10
1012.6507201087
 20
1297.6516327633
 11
1038.4307201087
 21
1297.6516327633
  0
LWPOLYLINE
  5
497
100
AcDbEntity
  8
0
100
AcDbPolyline
 62
2
  6
CONTINUOUS
 90
5
 70
0
 10
839.9120300701
 20
1299.1788743556
 10
868.2873237504
 20
1299.1788743556
 10
868.2873237504
 20
1331.1828743556
 10
839.9120300701
 20
1331.1828743556
 10
839.9120300701
 20
1299.1788743556
  0
LINE
  5
498
100
AcDbEntity
  8
3_AXES_OTHER
100
AcDbLine
 62
7
  6
CENTER
 10
1038.0507201087
 20
1351.6016327633
 11
1038.0507201087
 21
1327.8216327633
  0
LINE
  5
499
100
AcDbEntity
  8
3_AXES_OTHER
100
AcDbLine
 62
7
  6
CENTER
 10
1038.0507201087
 20
1243.7016327633
 11
1038.0507201087
 21
1219.9216327633
  0
LINE
  5
49A
100
AcDbEntity
  8
3_AXES_OTHER
100
AcDbLine
 62
7
  6
CENTER
 10
1038.0507201087
 20
1243.7016327633
 11
1038.0507201087
 21
1327.8216327633
  0
LINE
  5
49B
100
AcDbEntity
  8
3_AXES_OTHER
100
AcDbLine
 62
7
  6
CENTER
 10
1038.0507201087
 20
1351.6016327633
 11
1038.0507201087
 21
1375.3816327633
  0
LINE
  5
49C
100
AcDbEntity
  8
3_AXES_OTHER
100
AcDbLine
 62
7
  6
CENTER
 10
1038.0507201087
 20
1351.6016327633
 11
1014.2707201087
 21
1351.6016327633
  0
LINE
  5
49D
100
AcDbEntity
  8
3_AXES_OTHER
100
AcDbLine
 62
7
  6
CENTER
 10
987.2507201087
 20
1351.6016327633
 11
963.4707201087
 21
1351.6016327633
  0
LINE
  5
49E
100
AcDbEntity
  8
3_AXES_OTHER
100
AcDbLine
 62
7
  6
CENTER
 10
987.2507201087
 20
1351.6016327633
 11
1014.2707201087
 21
1351.6016327633
  0
LINE
  5
49F
100
AcDbEntity
  8
3_AXES_OTHER
100
AcDbLine
 62
7
  6
CENTER
 10
1038.0507201087
 20
1351.6016327633
 11
1061.8307201087
 21
1351.6016327633
  0
LINE
  5
4A0
100
AcDbEntity
  8
3_AXES_OTHER
100
AcDbLine
 62
7
  6
CENTER
 10
1090.3573954114
 20
1242.8027505216
 11
1090.3573954114
 21
1215.0227505216
  0
LINE
  5
4A1
100
AcDbEntity
  8
3_AXES_OTHER
100
AcDbLine
 62
7
  6
CENTER
 10
1090.3573954114
 20
1242.8027505216
 11
1090.3573954114
 21
1270.5827505216
  0
LINE
  5
4A2
100
AcDbEntity
  8
3_AXES_OTHER
100
AcDbLine
 62
7
  6
CENTER
 10
1012.6507201087
 20
1403.3516327633
 11
984.8707201087
 21
1403.3516327633
  0
LINE
  5
4A3
100
AcDbEntity
  8
3_AXES_OTHER
100
AcDbLine
 62
7
  6
CENTER
 10
1012.6507201087
 20
1403.3516327633
 11
1040.4307201087
 21
1403.3516327633
  0
LINE
  5
4A4
100
AcDbEntity
  8
0
100
AcDbLine
 62
7
  6
CONTINUOUS
 10
1133.6507201087
 20
1213.6516327633
 11
1111.5042390233
 21
1443.6516327633
  0
LINE
  5
4A5
100
AcDbEntity
  8
0
100
AcDbLine
 62
7
  6
CONTINUOUS
 10
1133.6507201087
 20
1196.1516327633
 11
1133.6507201087
 21
1213.6516327633
  0
LINE
  5
4A6
100
AcDbEntity
  8
0
100
AcDbLine
 62
7
  6
CONTINUOUS
 10
1111.5042390233
 20
1443.6516327633
 11
913.7972011941
 21
1443.6516327633
  0
LINE
  5
4A7
100
AcDbEntity
  8
DEFAULT_3
100
AcDbLine
 62
7
  6
PHANTOM
 10
1402.4452355375
 20
1522.2285997073
 11
1437.1082398464
 21
1162.2395359693
  0
LINE
  5
4A8
100
AcDbEntity
  8
0
100
AcDbLine
 62
7
  6
CONTINUOUS
 10
1412.4083474864
 20
313.0655434783
 11
1689.1483474864
 21
313.0655434783
  0
LINE
  5
4A9
100
AcDbEntity
  8
0
100
AcDbLine
 62
7
  6
CONTINUOUS
 10
1412.4083474864
 20
327.9655434783
 11
1459.1483474864
 21
327.9655434783
  0
LINE
  5
4AA
100
AcDbEntity
  8
0
100
AcDbLine
 62
7
  6
CONTINUOUS
 10
1415.8083474864
 20
342.8655434783
 11
1444.1483474864
 21
342.8655434783
  0
LINE
  5
4AB
100
AcDbEntity
  8
0
100
AcDbLine
 62
7
  6
CONTINUOUS
 10
1412.4083474864
 20
313.0655434783
 11
1412.4083474864
 21
327.9655434783
  0
LINE
  5
4AC
100
AcDbEntity
  8
0
100
AcDbLine
 62
7
  6
CONTINUOUS
 10
1412.4083474864
 20
798.1655434783
 11
1412.4083474864
 21
813.0655434783
  0
LINE
  5
4AD
100
AcDbEntity
  8
0
100
AcDbLine
 62
7
  6
CONTINUOUS
 10
1415.8083474864
 20
327.9655434783
 11
1415.8083474864
 21
342.8655434783
  0
LINE
  5
4AE
100
AcDbEntity
  8
0
100
AcDbLine
 62
7
  6
CONTINUOUS
 10
1415.8083474864
 20
783.2655434783
 11
1415.8083474864
 21
798.1655434783
  0
LINE
  5
4AF
100
AcDbEntity
  8
0
100
AcDbLine
 62
7
  6
CONTINUOUS
 10
1419.0338717602
 20
813.0655434783
 11
1419.0338717602
 21
798.1655434783
  0
LINE
  5
4B0
100
AcDbEntity
  8
0
100
AcDbLine
 62
7
  6
CONTINUOUS
 10
1419.0338717602
 20
327.9655434783
 11
1419.0338717602
 21
313.0655434783
  0
LINE
  5
4B1
100
AcDbEntity
  8
0
100
AcDbLine
 62
7
  6
CONTINUOUS
 10
1422.2922675128
 20
327.9655434783
 11
1422.2922675128
 21
342.8655434783
  0
LINE
  5
4B2
100
AcDbEntity
  8
0
100
AcDbLine
 62
7
  6
CONTINUOUS
 10
1422.2922675128
 20
783.2655434783
 11
1422.2922675128
 21
798.1655434783
  0
LINE
  5
4B3
100
AcDbEntity
  8
0
100
AcDbLine
 62
7
  6
CONTINUOUS
 10
1435.8483474864
 20
342.8655434783
 11
1435.8483474864
 21
545.2655434783
  0
LINE
  5
4B4
100
AcDbEntity
  8
0
100
AcDbLine
 62
7
  6
CONTINUOUS
 10
1438.6483474864
 20
570.5155434783
 11
1438.6483474864
 21
780.8155434783
  0
LINE
  5
4B5
100
AcDbEntity
  8
0
100
AcDbLine
 62
7
  6
CONTINUOUS
 10
1439.9011793454
 20
327.9655434783
 11
1439.9011793454
 21
342.8655434783
  0
LINE
  5
4B6
100
AcDbEntity
  8
0
100
AcDbLine
 62
7
  6
CONTINUOUS
 10
1439.9011793454
 20
783.2655434783
 11
1439.9011793454
 21
798.1655434783
  0
LINE
  5
4B7
100
AcDbEntity
  8
0
100
AcDbLine
 62
7
  6
CONTINUOUS
 10
1441.6483474864
 20
813.0655434783
 11
1441.6483474864
 21
798.1655434783
  0
LINE
  5
4B8
100
AcDbEntity
  8
0
100
AcDbLine
 62
7
  6
CONTINUOUS
 10
1441.6483474864
 20
327.9655434783
 11
1441.6483474864
 21
313.0655434783
  0
LINE
  5
4B9
100
AcDbEntity
  8
0
100
AcDbLine
 62
7
  6
CONTINUOUS
 10
1444.1483474864
 20
327.9655434783
 11
1444.1483474864
 21
798.1655434783
  0
LINE
  5
4BA
100
AcDbEntity
  8
0
100
AcDbLine
 62
7
  6
CONTINUOUS
 10
1459.1483474864
 20
313.0655434783
 11
1459.1483474864
 21
813.0655434783
  0
LINE
  5
4BB
100
AcDbEntity
  8
0
100
AcDbLine
 62
7
  6
CONTINUOUS
 10
1444.1483474864
 20
545.2655434783
 11
1435.8483474864
 21
545.2655434783
  0
LINE
  5
4BC
100
AcDbEntity
  8
0
100
AcDbLine
 62
7
  6
CONTINUOUS
 10
1444.1483474864
 20
570.5155434783
 11
1438.6483474864
 21
570.5155434783
  0
LINE
  5
4BD
100
AcDbEntity
  8
0
100
AcDbLine
 62
7
  6
CONTINUOUS
 10
1689.1483474864
 20
813.0655434783
 11
1689.1483474864
 21
313.0655434783
  0
LINE
  5
4BE
100
AcDbEntity
  8
0
100
AcDbLine
 62
7
  6
CONTINUOUS
 10
1444.1483474864
 20
780.8155434783
 11
1438.6483474864
 21
780.8155434783
  0
LINE
  5
4BF
100
AcDbEntity
  8
0
100
AcDbLine
 62
7
  6
CONTINUOUS
 10
1415.8083474864
 20
783.2655434783
 11
1444.1483474864
 21
783.2655434783
  0
LINE
  5
4C0
100
AcDbEntity
  8
0
100
AcDbLine
 62
7
  6
CONTINUOUS
 10
1412.4083474864
 20
798.1655434783
 11
1459.1483474864
 21
798.1655434783
  0
LINE
  5
4C1
100
AcDbEntity
  8
0
100
AcDbLine
 62
7
  6
CONTINUOUS
 10
1412.4083474864
 20
813.0655434783
 11
1689.1483474864
 21
813.0655434783
  0
LINE
  5
4C2
100
AcDbEntity
  8
0
100
AcDbLine
 62
7
  6
CONTINUOUS
 10
2589.9602002169
 20
1730.3562482565
 11
2577.5858315461
 21
1723.2100322555
  0
LINE
  5
4C3
100
AcDbEntity
  8
0
100
AcDbLine
 62
7
  6
CONTINUOUS
 10
2768.2546868447
 20
1815.2343135551
 11
2589.9602002169
 21
1730.3562482565
  0
LINE
  5
4C4
100
AcDbEntity
  8
0
100
AcDbLine
 62
7
  6
CONTINUOUS
 10
2748.0692764902
 20
1230.7667501446
 11
2746.9379056403
 21
1231.4201184647
  0
LINE
  5
4C5
100
AcDbEntity
  8
0
100
AcDbLine
 62
7
  6
CONTINUOUS
 10
2634.6093122569
 20
1301.6755548578
 11
2683.4797532207
 21
1273.4528037436
  0
LINE
  5
4C6
100
AcDbEntity
  8
0
100
AcDbLine
 62
7
  6
CONTINUOUS
 10
2582.889132405
 20
1338.3227306676
 11
2622.1525290774
 21
1315.648061679
  0
LINE
  5
4C7
100
AcDbEntity
  8
0
100
AcDbLine
 62
7
  6
CONTINUOUS
 10
2695.9365364002
 20
1273.0376895642
 11
2746.9379056403
 21
1243.5843242547
  0
LINE
  5
4C8
100
AcDbEntity
  8
0
100
AcDbLine
 62
7
  6
CONTINUOUS
 10
2761.080041264
 20
1235.5036704652
 11
2758.675878208
 21
1236.8920781454
  0
LINE
  5
4C9
100
AcDbEntity
  8
0
100
AcDbLine
 62
7
  6
CONTINUOUS
 10
2705.3593240913
 20
1287.8048940142
 11
2705.4665809539
 21
1287.8296620555
  0
LINE
  5
4CA
100
AcDbEntity
  8
0
100
AcDbLine
 62
7
  6
CONTINUOUS
 10
2574.9343579473
 20
1304.0484099674
 11
2574.9343579473
 21
1316.2126157574
  0
LINE
  5
4CB
100
AcDbEntity
  8
0
100
AcDbLine
 62
7
  6
CONTINUOUS
 10
2574.9343579473
 20
1700.0790293451
 11
2574.9343579473
 21
1712.2432351351
  0
LINE
  5
4CC
100
AcDbEntity
  8
0
100
AcDbLine
 62
7
  6
CONTINUOUS
 10
2575.8549715181
 20
1705.7401289339
 11
2575.8549715181
 21
1693.5759231439
  0
LINE
  5
4CD
100
AcDbEntity
  8
0
100
AcDbLine
 62
7
  6
CONTINUOUS
 10
2575.8549715181
 20
1309.7095095561
 11
2575.8549715181
 21
1297.5453037661
  0
LINE
  5
4CE
100
AcDbEntity
  8
0
100
AcDbLine
 62
7
  6
CONTINUOUS
 10
2578.3343579473
 20
1316.2126157574
 11
2578.3343579473
 21
1328.3768215474
  0
LINE
  5
4CF
100
AcDbEntity
  8
0
100
AcDbLine
 62
7
  6
CONTINUOUS
 10
2578.3343579473
 20
1687.9148235551
 11
2578.3343579473
 21
1691.8303368553
  0
LINE
  5
4D0
100
AcDbEntity
  8
0
100
AcDbLine
 62
7
  6
CONTINUOUS
 10
2579.0782373571
 20
1310.5092345199
 11
2579.0782373571
 21
1322.6734403099
  0
LINE
  5
4D1
100
AcDbEntity
  8
0
100
AcDbLine
 62
7
  6
CONTINUOUS
 10
2579.0782373571
 20
1682.2114423177
 11
2579.0782373571
 21
1691.3066162756
  0
LINE
  5
4D2
100
AcDbEntity
  8
0
100
AcDbLine
 62
7
  6
CONTINUOUS
 10
2581.7577615551
 20
1337.6693623475
 11
2581.7577615551
 21
1680.3281914779
  0
LINE
  5
4D3
100
AcDbEntity
  8
0
100
AcDbLine
 62
7
  6
CONTINUOUS
 10
2586.6721536844
 20
1676.8742077031
 11
2586.6721536844
 21
1517.4972270456
  0
LINE
  5
4D4
100
AcDbEntity
  8
0
100
AcDbLine
 62
7
  6
CONTINUOUS
 10
2602.9002543126
 20
1661.0760761946
 11
2602.9002543126
 21
1526.8616176795
  0
LINE
  5
4D5
100
AcDbEntity
  8
0
100
AcDbLine
 62
7
  6
CONTINUOUS
 10
2748.7056725933
 20
1624.388073842
 11
2761.080041264
 21
1631.534289843
  0
LINE
  5
4D6
100
AcDbEntity
  8
0
100
AcDbLine
 62
7
  6
CONTINUOUS
 10
2761.080041264
 20
1631.534289843
 11
2908.054673982
 21
1734.49961657
  0
LINE
  5
4D7
100
AcDbEntity
  8
0
100
AcDbLine
 62
7
  6
CONTINUOUS
 10
2748.7056725933
 20
1612.223868052
 11
2761.080041264
 21
1619.370084053
  0
LINE
  5
4D8
100
AcDbEntity
  8
0
100
AcDbLine
 62
7
  6
CONTINUOUS
 10
2746.9379056403
 20
1603.1223262624
 11
2743.9347042469
 21
1601.3879730665
  0
LINE
  5
4D9
100
AcDbEntity
  8
0
100
AcDbLine
 62
7
  6
CONTINUOUS
 10
2586.6721536844
 20
1517.4972270456
 11
2735.3767097679
 21
1431.6201284739
  0
LINE
  5
4DA
100
AcDbEntity
  8
0
100
AcDbLine
 62
7
  6
CONTINUOUS
 10
2679.9961066654
 20
1540.5833607777
 11
2679.9961066654
 21
1616.5531087326
  0
LINE
  5
4DB
100
AcDbEntity
  8
0
100
AcDbLine
 62
7
  6
CONTINUOUS
 10
2693.3604248298
 20
1608.8351954515
 11
2693.3604248298
 21
1532.8654474967
  0
LINE
  5
4DC
100
AcDbEntity
  8
0
100
AcDbLine
 62
7
  6
CONTINUOUS
 10
2613.019712971
 20
1447.9523316569
 11
2612.9350623856
 21
1447.8616399113
  0
LINE
  5
4DD
100
AcDbEntity
  8
0
100
AcDbLine
 62
7
  6
CONTINUOUS
 10
2679.9961066654
 20
1540.5833607777
 11
2693.3604248298
 21
1554.5776245551
  0
LINE
  5
4DE
100
AcDbEntity
  8
0
100
AcDbLine
 62
7
  6
CONTINUOUS
 10
2602.9002543126
 20
1526.8616176795
 11
2719.1486091397
 21
1459.7280227903
  0
LINE
  5
4DF
100
AcDbEntity
  8
0
100
AcDbLine
 62
7
  6
CONTINUOUS
 10
2718.4548343434
 20
1623.388499645
 11
2718.4548343434
 21
1611.224293855
  0
LINE
  5
4E0
100
AcDbEntity
  8
0
100
AcDbLine
 62
7
  6
CONTINUOUS
 10
2718.4548343434
 20
1227.3578802673
 11
2718.4548343434
 21
1215.1936744773
  0
LINE
  5
4E1
100
AcDbEntity
  8
0
100
AcDbLine
 62
7
  6
CONTINUOUS
 10
2719.1486091397
 20
1459.7280227903
 11
2719.1486091397
 21
1593.9424813055
  0
LINE
  5
4E2
100
AcDbEntity
  8
0
100
AcDbLine
 62
7
  6
CONTINUOUS
 10
2719.8396359693
 20
1229.2193210023
 11
2719.8396359693
 21
1241.3835267923
  0
LINE
  5
4E3
100
AcDbEntity
  8
0
100
AcDbLine
 62
7
  6
CONTINUOUS
 10
2719.8396359693
 20
1600.9215288
 11
2719.8396359693
 21
1611.1523557836
  0
LINE
  5
4E4
100
AcDbEntity
  8
0
100
AcDbLine
 62
7
  6
CONTINUOUS
 10
2613.019712971
 20
1447.9523316569
 11
2612.9253169888
 21
1447.876666089
  0
LINE
  5
4E5
100
AcDbEntity
  8
0
100
AcDbLine
 62
7
  6
CONTINUOUS
 10
2719.1486091397
 20
1459.7280227903
 11
2693.3604248298
 21
1532.8654474967
  0
LINE
  5
4E6
100
AcDbEntity
  8
0
100
AcDbLine
 62
7
  6
CONTINUOUS
 10
2735.3767097679
 20
1431.6201284739
 11
2735.3767097679
 21
1600.6516725707
  0
LINE
  5
4E7
100
AcDbEntity
  8
0
100
AcDbLine
 62
7
  6
CONTINUOUS
 10
2739.2657970644
 20
1433.8660820742
 11
2739.2657970644
 21
1600.9636613975
  0
LINE
  5
4E8
100
AcDbEntity
  8
0
100
AcDbLine
 62
7
  6
CONTINUOUS
 10
2743.9347042469
 20
1229.6857652688
 11
2743.9347042469
 21
1241.8499710588
  0
LINE
  5
4E9
100
AcDbEntity
  8
0
100
AcDbLine
 62
7
  6
CONTINUOUS
 10
2743.9347042469
 20
1601.3879730665
 11
2743.9347042469
 21
1611.6538086505
  0
LINE
  5
4EA
100
AcDbEntity
  8
0
100
AcDbLine
 62
7
  6
CONTINUOUS
 10
2612.8282922126
 20
1461.3544511862
 11
2606.9593059288
 21
1457.9651030257
  0
LINE
  5
4EB
100
AcDbEntity
  8
0
100
AcDbLine
 62
7
  6
CONTINUOUS
 10
2693.3604248298
 20
1532.8654474967
 11
2679.9961066654
 21
1540.5833607777
  0
LINE
  5
4EC
100
AcDbEntity
  8
0
100
AcDbLine
 62
7
  6
CONTINUOUS
 10
2775.2857974296
 20
1264.6333576372
 11
2775.179601124
 21
1266.1176298772
  0
LINE
  5
4ED
100
AcDbEntity
  8
0
100
AcDbLine
 62
7
  6
CONTINUOUS
 10
2746.9379056403
 20
1231.4201184647
 11
2746.9379056403
 21
1243.5843242547
  0
LINE
  5
4EE
100
AcDbEntity
  8
0
100
AcDbLine
 62
7
  6
CONTINUOUS
 10
2746.9379056403
 20
1603.1223262624
 11
2746.9379056403
 21
1612.0126463255
  0
LINE
  5
4EF
100
AcDbEntity
  8
0
100
AcDbLine
 62
7
  6
CONTINUOUS
 10
2748.0692764902
 20
1230.7667501446
 11
2748.0692764902
 21
1612.1478282305
  0
LINE
  5
4F0
100
AcDbEntity
  8
0
100
AcDbLine
 62
7
  6
CONTINUOUS
 10
2748.7056725933
 20
1624.388073842
 11
2748.7056725933
 21
1612.223868052
  0
LINE
  5
4F1
100
AcDbEntity
  8
0
100
AcDbLine
 62
7
  6
CONTINUOUS
 10
2748.7056725933
 20
1228.3574544643
 11
2748.7056725933
 21
1216.1932486743
  0
LINE
  5
4F2
100
AcDbEntity
  8
0
100
AcDbLine
 62
7
  6
CONTINUOUS
 10
2758.675878208
 20
1236.8920781454
 11
2758.675878208
 21
1617.9816763728
  0
LINE
  5
4F3
100
AcDbEntity
  8
0
100
AcDbLine
 62
7
  6
CONTINUOUS
 10
2761.080041264
 20
1223.3394646752
 11
2761.080041264
 21
1631.534289843
  0
LINE
  5
4F4
100
AcDbEntity
  8
0
100
AcDbLine
 62
7
  6
CONTINUOUS
 10
2775.2857974296
 20
1607.0271769879
 11
2775.179601124
 21
1608.5114492279
  0
LINE
  5
4F5
100
AcDbEntity
  8
0
100
AcDbLine
 62
7
  6
CONTINUOUS
 10
2602.9002543126
 20
1526.8616176795
 11
2679.9961066654
 21
1540.5833607777
  0
LINE
  5
4F6
100
AcDbEntity
  8
0
100
AcDbLine
 62
7
  6
CONTINUOUS
 10
2739.2657970644
 20
1433.8660820742
 11
2735.3767097679
 21
1431.6201284739
  0
LINE
  5
4F7
100
AcDbEntity
  8
0
100
AcDbLine
 62
7
  6
CONTINUOUS
 10
2719.1486091397
 20
1593.9424813055
 11
2602.9002543126
 21
1661.0760761946
  0
LINE
  5
4F8
100
AcDbEntity
  8
0
100
AcDbLine
 62
7
  6
CONTINUOUS
 10
2579.8859310117
 20
1336.5883774717
 11
2582.889132405
 21
1338.3227306676
  0
LINE
  5
4F9
100
AcDbEntity
  8
0
100
AcDbLine
 62
7
  6
CONTINUOUS
 10
2578.3343579473
 20
1327.6116879689
 11
2577.5858315461
 21
1327.1794128778
  0
LINE
  5
4FA
100
AcDbEntity
  8
0
100
AcDbLine
 62
7
  6
CONTINUOUS
 10
2908.054673982
 20
1734.49961657
 11
2908.054673982
 21
1326.3047914022
  0
LINE
  5
4FB
100
AcDbEntity
  8
0
100
AcDbLine
 62
7
  6
CONTINUOUS
 10
2716.9987458327
 20
1280.9731700271
 11
2711.1297595489
 21
1277.5838218666
  0
LINE
  5
4FC
100
AcDbEntity
  8
0
100
AcDbLine
 62
7
  6
CONTINUOUS
 10
2705.3665590958
 20
1287.7907205675
 11
2705.4665809539
 21
1287.8296620555
  0
LINE
  5
4FD
100
AcDbEntity
  8
0
100
AcDbLine
 62
7
  6
CONTINUOUS
 10
2761.080041264
 20
1223.3394646752
 11
2908.054673982
 21
1326.3047914022
  0
LINE
  5
4FE
100
AcDbEntity
  8
0
100
AcDbLine
 62
7
  6
CONTINUOUS
 10
2746.9379056403
 20
1243.5843242547
 11
2743.9347042469
 21
1241.8499710588
  0
LINE
  5
4FF
100
AcDbEntity
  8
0
100
AcDbLine
 62
7
  6
CONTINUOUS
 10
2746.9379056403
 20
1231.4201184647
 11
2743.9347042469
 21
1229.6857652688
  0
LINE
  5
500
100
AcDbEntity
  8
0
100
AcDbLine
 62
7
  6
CONTINUOUS
 10
2758.675878208
 20
1236.8920781454
 11
2748.0692764902
 21
1230.7667501446
  0
LINE
  5
501
100
AcDbEntity
  8
0
100
AcDbLine
 62
7
  6
CONTINUOUS
 10
2748.7056725933
 20
1228.3574544643
 11
2761.080041264
 21
1235.5036704652
  0
LINE
  5
502
100
AcDbEntity
  8
0
100
AcDbLine
 62
7
  6
CONTINUOUS
 10
2748.7056725933
 20
1216.1932486743
 11
2761.080041264
 21
1223.3394646752
  0
LINE
  5
503
100
AcDbEntity
  8
0
100
AcDbLine
 62
7
  6
CONTINUOUS
 10
2908.054673982
 20
1734.49961657
 11
2768.2546868447
 21
1815.2343135551
  0
LINE
  5
504
100
AcDbEntity
  8
0
100
AcDbLine
 62
7
  6
CONTINUOUS
 10
1665.7076639862
 20
1226.2297664834
 11
1638.0572835489
 21
1513.3899467407
  0
LINE
  5
505
100
AcDbEntity
  8
0
100
AcDbLine
 62
7
  6
CONTINUOUS
 10
1680.5390673418
 20
1227.6578681959
 11
1676.8513855586
 21
1265.9559078197
  0
LINE
  5
506
100
AcDbEntity
  8
0
100
AcDbLine
 62
7
  6
CONTINUOUS
 10
1695.0445951393
 20
1232.4703169793
 11
1693.0826225915
 21
1252.8461809486
  0
LINE
  5
507
100
AcDbEntity
  8
0
100
AcDbLine
 62
7
  6
CONTINUOUS
 10
1695.5213432775
 20
1253.0810030422
 11
1695.9316972317
 21
1248.819314284
  0
LINE
  5
508
100
AcDbEntity
  8
3_AXES_OTHER
100
AcDbLine
 62
7
  6
CENTER
 10
1698.9555910941
 20
1301.4040915186
 11
1701.7140318516
 21
1272.7565889296
  0
LINE
  5
509
100
AcDbEntity
  8
3_AXES_OTHER
100
AcDbLine
 62
7
  6
CENTER
 10
1698.9555910941
 20
1301.4040915186
 11
1696.1971503365
 21
1330.0515941076
  0
LINE
  5
50A
100
AcDbEntity
  8
0
100
AcDbLine
 62
7
  6
CONTINUOUS
 10
2163.4057631806
 20
1274.152642631
 11
2148.5743598249
 21
1272.7245409185
  0
LINE
  5
50B
100
AcDbEntity
  8
0
100
AcDbLine
 62
7
  6
CONTINUOUS
 10
1680.5390673526
 20
1227.6578680835
 11
1665.707663997
 21
1226.2297663709
  0
LINE
  5
50C
100
AcDbEntity
  8
0
100
AcDbLine
 62
7
  6
CONTINUOUS
 10
1665.6618243454
 20
1226.7058293542
 11
1680.4932277011
 21
1228.1339310667
  0
LINE
  5
50D
100
AcDbEntity
  8
0
100
AcDbLine
 62
7
  6
CONTINUOUS
 10
2148.5285201734
 20
1273.2006039018
 11
2163.359923529
 21
1274.6287056143
  0
LINE
  5
50E
100
AcDbEntity
  8
0
100
AcDbLine
 62
7
  6
CONTINUOUS
 10
2148.2484842663
 20
1276.1088879929
 11
2133.4170809107
 21
1274.6807862804
  0
LINE
  5
50F
100
AcDbEntity
  8
0
100
AcDbLine
 62
7
  6
CONTINUOUS
 10
1695.0445951498
 20
1232.4703168705
 11
1680.2131917941
 21
1231.0422151579
  0
LINE
  5
510
100
AcDbEntity
  8
0
100
AcDbLine
 62
7
  6
CONTINUOUS
 10
2148.2057123197
 20
1276.5530916425
 11
2133.374308964
 21
1275.1249899299
  0
LINE
  5
511
100
AcDbEntity
  8
0
100
AcDbLine
 62
7
  6
CONTINUOUS
 10
1695.0018232031
 20
1232.91452052
 11
1680.1704198475
 21
1231.4864188074
  0
LINE
  5
512
100
AcDbEntity
  8
0
100
AcDbLine
 62
7
  6
CONTINUOUS
 10
1905.2635177483
 20
1268.975676039
 11
1695.9316972317
 21
1248.819314284
  0
LINE
  5
513
100
AcDbEntity
  8
0
100
AcDbLine
 62
7
  6
CONTINUOUS
 10
2146.6770123979
 20
1292.4292473468
 11
2131.8456090422
 21
1291.0011456343
  0
LINE
  5
514
100
AcDbEntity
  8
0
100
AcDbLine
 62
7
  6
CONTINUOUS
 10
1693.4731232813
 20
1248.7906762244
 11
1678.6417199257
 21
1247.3625745118
  0
LINE
  5
515
100
AcDbEntity
  8
0
100
AcDbLine
 62
7
  6
CONTINUOUS
 10
1663.6895609125
 20
1247.188568252
 11
1678.5209642682
 21
1248.6166699646
  0
LINE
  5
516
100
AcDbEntity
  8
0
100
AcDbLine
 62
7
  6
CONTINUOUS
 10
2146.5562567404
 20
1293.6833427996
 11
2161.3876600961
 21
1295.1114445121
  0
LINE
  5
517
100
AcDbEntity
  8
0
100
AcDbLine
 62
7
  6
CONTINUOUS
 10
2146.286511708
 20
1296.484752071
 11
1678.2512192358
 21
1251.418079236
  0
LINE
  5
518
100
AcDbEntity
  8
0
100
AcDbLine
 62
7
  6
CONTINUOUS
 10
1662.0199822029
 20
1264.5278061072
 11
2159.7180813865
 21
1312.4506823673
  0
LINE
  5
519
100
AcDbEntity
  8
3_AXES_OTHER
100
AcDbLine
 62
7
  6
CENTER
 10
2116.4247566893
 20
1341.6018001256
 11
2087.7772541002
 21
1338.843359368
  0
LINE
  5
51A
100
AcDbEntity
  8
3_AXES_OTHER
100
AcDbLine
 62
7
  6
CENTER
 10
1698.9555910941
 20
1301.4040915186
 11
1670.3080885051
 21
1298.645650761
  0
LINE
  5
51B
100
AcDbEntity
  8
3_AXES_OTHER
100
AcDbLine
 62
7
  6
CENTER
 10
1698.9555910941
 20
1301.4040915186
 11
2087.7772541002
 21
1338.843359368
  0
LINE
  5
51C
100
AcDbEntity
  8
3_AXES_OTHER
100
AcDbLine
 62
7
  6
CENTER
 10
2116.4247566893
 20
1341.6018001256
 11
2145.0722592783
 21
1344.3602408831
  0
LINE
  5
51D
100
AcDbEntity
  8
0
100
AcDbLine
 62
7
  6
CONTINUOUS
 10
1904.8531637941
 20
1273.2373647973
 11
1905.2635177483
 21
1268.975676039
  0
LWPOLYLINE
  5
51E
100
AcDbEntity
  8
0
100
AcDbPolyline
 62
2
  6
CONTINUOUS
 90
5
 70
0
 10
2202.4239392941
 20
1378.3651737924
 10
2230.7992329744
 20
1378.3651737924
 10
2230.7992329744
 20
1410.3691737924
 10
2202.4239392941
 20
1410.3691737924
 10
2202.4239392941
 20
1378.3651737924
  0
LINE
  5
51F
100
AcDbEntity
  8
0
100
AcDbLine
 62
7
  6
CONTINUOUS
 10
1919.7100911623
 20
1535.7578241465
 11
1920.6195455816
 21
1526.3127788753
  0
LINE
  5
520
100
AcDbEntity
  8
0
100
AcDbLine
 62
9
  6
CONTINUOUS
 10
1930.5583988533
 20
1537.8615768988
 11
1930.815990997
 21
1535.1863802011
  0
LINE
  5
521
100
AcDbEntity
  8
0
100
AcDbLine
 62
7
  6
CONTINUOUS
 10
1931.7063023217
 20
1532.1053765882
 11
1932.2136169924
 21
1526.836712289
  0
LINE
  5
522
100
AcDbEntity
  8
0
100
AcDbLine
 62
9
  6
CONTINUOUS
 10
1934.5104816874
 20
1532.6447453959
 11
1935.0691921099
 21
1526.8423158054
  0
LINE
  5
523
100
AcDbEntity
  8
0
100
AcDbLine
 62
7
  6
CONTINUOUS
 10
1938.6096629632
 20
1533.4396771161
 11
1939.2253870378
 21
1527.0451381099
  0
LINE
  5
524
100
AcDbEntity
  8
0
100
AcDbLine
 62
9
  6
CONTINUOUS
 10
1941.368047428
 20
1533.979025784
 11
1942.0098881455
 21
1527.3132550713
  0
LINE
  5
525
100
AcDbEntity
  8
0
100
AcDbLine
 62
7
  6
CONTINUOUS
 10
1938.6107837032
 20
1533.4336086228
 11
1938.609662576
 21
1533.4396768033
  0
LINE
  5
526
100
AcDbEntity
  8
0
100
AcDbLine
 62
9
  6
CONTINUOUS
 10
1990.3659125446
 20
1538.6969836143
 11
1991.0077532654
 21
1532.0312128674
  0
LINE
  5
527
100
AcDbEntity
  8
0
100
AcDbLine
 62
7
  6
CONTINUOUS
 10
1993.7917234041
 20
1532.2992787022
 11
1993.1766067616
 21
1538.687509285
  0
LINE
  5
528
100
AcDbEntity
  8
0
100
AcDbLine
 62
7
  6
CONTINUOUS
 10
1993.1765332346
 20
1538.6938680146
 11
1993.1765855219
 21
1538.6877371365
  0
LINE
  5
529
100
AcDbEntity
  8
0
100
AcDbLine
 62
7
  6
CONTINUOUS
 10
2001.3196234547
 20
1539.4779595236
 11
2001.9353475292
 21
1533.0834205181
  0
LINE
  5
52A
100
AcDbEntity
  8
0
100
AcDbLine
 62
9
  6
CONTINUOUS
 10
2004.0780089061
 20
1540.0173083218
 11
2004.7198496269
 21
1533.3515375748
  0
LINE
  5
52B
100
AcDbEntity
  8
0
100
AcDbLine
 62
7
  6
CONTINUOUS
 10
1639.8735011175
 20
1494.5278061072
 11
2137.5716003011
 21
1542.4506823673
  0
LINE
  5
52C
100
AcDbEntity
  8
0
100
AcDbLine
 62
7
  6
CONTINUOUS
 10
2001.3207402191
 20
1539.4719300396
 11
2001.3196217208
 21
1539.4779582555
  0
LINE
  5
52D
100
AcDbEntity
  8
0
100
AcDbLine
 62
7
  6
CONTINUOUS
 10
1931.6699542547
 20
1526.3176326785
 11
2064.0576486375
 21
1539.0651177637
  0
LINE
  5
52E
100
AcDbEntity
  8
0
100
AcDbLine
 62
7
  6
CONTINUOUS
 10
2053.0758740293
 20
1544.7352660836
 11
2004.0780089061
 21
1540.0173083218
  0
LINE
  5
52F
100
AcDbEntity
  8
0
100
AcDbLine
 62
7
  6
CONTINUOUS
 10
1990.3659125446
 20
1538.6969836143
 11
1941.368047428
 21
1533.979025784
  0
LINE
  5
530
100
AcDbEntity
  8
0
100
AcDbLine
 62
7
  6
CONTINUOUS
 10
2063.2036853799
 20
1547.9338652863
 11
1930.815990997
 21
1535.1863802011
  0
LINE
  5
531
100
AcDbEntity
  8
0
100
AcDbLine
 62
7
  6
CONTINUOUS
 10
2062.9460932361
 20
1550.609061984
 11
1930.5583988533
 21
1537.8615768988
  0
LINE
  5
532
100
AcDbEntity
  8
0
100
AcDbLine
 62
7
  6
CONTINUOUS
 10
1638.0572835489
 20
1513.3899467407
 11
2135.7553827325
 21
1561.3128230008
  0
LINE
  5
533
100
AcDbEntity
  8
0
100
AcDbLine
 62
9
  6
CONTINUOUS
 10
2053.0758740293
 20
1544.7352660836
 11
2053.7177147468
 21
1538.0694953709
  0
LINE
  5
534
100
AcDbEntity
  8
0
100
AcDbLine
 62
7
  6
CONTINUOUS
 10
2055.8864922195
 20
1544.7321511053
 11
2055.8865495542
 21
1544.7259804932
  0
LINE
  5
535
100
AcDbEntity
  8
0
100
AcDbLine
 62
7
  6
CONTINUOUS
 10
2056.5016838954
 20
1538.3375611105
 11
2055.8865672529
 21
1544.7257916932
  0
LINE
  5
536
100
AcDbEntity
  8
0
100
AcDbLine
 62
9
  6
CONTINUOUS
 10
2060.062039673
 20
1544.7339854141
 11
2060.6207500955
 21
1538.9315558235
  0
LINE
  5
537
100
AcDbEntity
  8
0
100
AcDbLine
 62
7
  6
CONTINUOUS
 10
2063.4249294566
 20
1539.4709246789
 11
2062.9176147859
 21
1544.7395889782
  0
LINE
  5
538
100
AcDbEntity
  8
0
100
AcDbLine
 62
9
  6
CONTINUOUS
 10
2062.9460932361
 20
1550.609061984
 11
2063.2036853799
 21
1547.9338652863
  0
LINE
  5
539
100
AcDbEntity
  8
0
100
AcDbLine
 62
7
  6
CONTINUOUS
 10
2074.9059563285
 20
1541.168870516
 11
2073.9965019092
 21
1550.6139157871
  0
LINE
  5
53A
100
AcDbEntity
  8
3_AXES_OTHER
100
AcDbLine
 62
7
  6
CENTER
 10
2116.4247566893
 20
1341.6018001256
 11
2119.1831974468
 21
1312.9542975366
  0
LINE
  5
53B
100
AcDbEntity
  8
3_AXES_OTHER
100
AcDbLine
 62
7
  6
CENTER
 10
2116.4247566893
 20
1341.6018001256
 11
2113.6663159317
 21
1370.2493027146
  0
LINE
  5
53C
100
AcDbEntity
  8
0
100
AcDbLine
 62
7
  6
CONTINUOUS
 10
2133.4170809002
 20
1274.6807863892
 11
2131.4551083524
 21
1295.0566503585
  0
LINE
  5
53D
100
AcDbEntity
  8
0
100
AcDbLine
 62
7
  6
CONTINUOUS
 10
2148.5743598141
 20
1272.7245410309
 11
2144.8866780309
 21
1311.0225806547
  0
LINE
  5
53E
100
AcDbEntity
  8
0
100
AcDbLine
 62
7
  6
CONTINUOUS
 10
2163.4057631697
 20
1274.1526427435
 11
2135.7553827325
 21
1561.3128230008
  0
LWPOLYLINE
  5
53F
100
AcDbEntity
  8
0
100
AcDbPolyline
 62
2
  6
CONTINUOUS
 90
5
 70
0
 10
2222.3904455604
 20
263.8063785215
 10
2250.7657392407
 20
263.8063785215
 10
2250.7657392407
 20
295.8103785215
 10
2222.3904455604
 20
295.8103785215
 10
2222.3904455604
 20
263.8063785215
  0
LINE
  5
540
100
AcDbEntity
  8
0
100
AcDbLine
 62
7
  6
CONTINUOUS
 10
2047.4473505435
 20
313.0655434783
 11
2289.4473505435
 21
313.0655434783
  0
LINE
  5
541
100
AcDbEntity
  8
3_AXES_OTHER
100
AcDbLine
 62
7
  6
CENTER
 10
2168.4473505435
 20
353.3655434783
 11
2140.6673505435
 21
353.3655434783
  0
LINE
  5
542
100
AcDbEntity
  8
3_AXES_OTHER
100
AcDbLine
 62
7
  6
CENTER
 10
2168.4473505435
 20
353.3655434783
 11
2196.2273505435
 21
353.3655434783
  0
LINE
  5
543
100
AcDbEntity
  8
0
100
AcDbLine
 62
7
  6
CONTINUOUS
 10
2118.9473505435
 20
375.5655434783
 11
2217.9473505435
 21
375.5655434783
  0
LINE
  5
544
100
AcDbEntity
  8
0
100
AcDbLine
 62
7
  6
CONTINUOUS
 10
2140.8351077932
 20
387.1564548764
 11
2196.0595932937
 21
387.1564548764
  0
LINE
  5
545
100
AcDbEntity
  8
0
100
AcDbLine
 62
7
  6
CONTINUOUS
 10
2143.9822580146
 20
390.8803767188
 11
2192.9124430723
 21
390.8803767188
  0
LINE
  5
546
100
AcDbEntity
  8
0
100
AcDbLine
 62
7
  6
CONTINUOUS
 10
2192.9124430723
 20
410.3306360071
 11
2143.9822580146
 21
410.3306360071
  0
LINE
  5
547
100
AcDbEntity
  8
0
100
AcDbLine
 62
7
  6
CONTINUOUS
 10
2047.4473505435
 20
313.0655434783
 11
2047.4473505435
 21
813.0655434783
  0
LINE
  5
548
100
AcDbEntity
  8
0
100
AcDbLine
 62
7
  6
CONTINUOUS
 10
2069.5938316289
 20
813.0655434783
 11
2069.5938316289
 21
313.0655434783
  0
LINE
  5
549
100
AcDbEntity
  8
0
100
AcDbLine
 62
7
  6
CONTINUOUS
 10
2107.9473505435
 20
519.5655434783
 11
2107.9473505435
 21
386.5655434783
  0
LINE
  5
54A
100
AcDbEntity
  8
3_AXES_OTHER
100
AcDbLine
 62
7
  6
CENTER
 10
2114.4973505435
 20
608.8655434783
 11
2114.4973505435
 21
585.0855434783
  0
LINE
  5
54B
100
AcDbEntity
  8
3_AXES_OTHER
100
AcDbLine
 62
7
  6
CENTER
 10
2114.4973505435
 20
558.0655434783
 11
2114.4973505435
 21
534.2855434783
  0
LINE
  5
54C
100
AcDbEntity
  8
3_AXES_OTHER
100
AcDbLine
 62
7
  6
CENTER
 10
2114.4973505435
 20
558.0655434783
 11
2114.4973505435
 21
585.0855434783
  0
LINE
  5
54D
100
AcDbEntity
  8
3_AXES_OTHER
100
AcDbLine
 62
7
  6
CENTER
 10
2114.4973505435
 20
608.8655434783
 11
2114.4973505435
 21
632.6455434783
  0
LINE
  5
54E
100
AcDbEntity
  8
0
100
AcDbLine
 62
7
  6
CONTINUOUS
 10
2131.0382616541
 20
446.1777854257
 11
2131.0382620133
 21
396.953300542
  0
LINE
  5
54F
100
AcDbEntity
  8
0
100
AcDbLine
 62
7
  6
CONTINUOUS
 10
2131.0382620133
 20
509.1777864146
 11
2131.0382616541
 21
459.9533015308
  0
LINE
  5
550
100
AcDbEntity
  8
0
100
AcDbLine
 62
7
  6
CONTINUOUS
 10
2196.0595932937
 20
518.9746320801
 11
2140.8351077932
 21
518.9746320801
  0
LINE
  5
551
100
AcDbEntity
  8
0
100
AcDbLine
 62
7
  6
CONTINUOUS
 10
2143.9822580146
 20
410.3306360071
 11
2143.9822580146
 21
390.8803767188
  0
LINE
  5
552
100
AcDbEntity
  8
0
100
AcDbLine
 62
7
  6
CONTINUOUS
 10
2217.9473505435
 20
530.5655434783
 11
2118.9473505435
 21
530.5655434783
  0
LINE
  5
553
100
AcDbEntity
  8
3_AXES_OTHER
100
AcDbLine
 62
7
  6
CENTER
 10
2168.4473505435
 20
772.7655434783
 11
2168.4473505435
 21
744.9855434783
  0
LINE
  5
554
100
AcDbEntity
  8
3_AXES_OTHER
100
AcDbLine
 62
7
  6
CENTER
 10
2168.4473505435
 20
353.3655434783
 11
2168.4473505435
 21
325.5855434783
  0
LINE
  5
555
100
AcDbEntity
  8
3_AXES_OTHER
100
AcDbLine
 62
7
  6
CENTER
 10
2168.4473505435
 20
353.3655434783
 11
2168.4473505435
 21
744.9855434783
  0
LINE
  5
556
100
AcDbEntity
  8
3_AXES_OTHER
100
AcDbLine
 62
7
  6
CENTER
 10
2168.4473505435
 20
772.7655434783
 11
2168.4473505435
 21
900.048897964
  0
LINE
  5
557
100
AcDbEntity
  8
3_AXES_OTHER
100
AcDbLine
 62
7
  6
CENTER
 10
2222.3973505435
 20
558.0655434783
 11
2198.6173505435
 21
558.0655434783
  0
LINE
  5
558
100
AcDbEntity
  8
3_AXES_OTHER
100
AcDbLine
 62
7
  6
CENTER
 10
2114.4973505435
 20
558.0655434783
 11
2090.7173505435
 21
558.0655434783
  0
LINE
  5
559
100
AcDbEntity
  8
3_AXES_OTHER
100
AcDbLine
 62
7
  6
CENTER
 10
2114.4973505435
 20
558.0655434783
 11
2198.6173505435
 21
558.0655434783
  0
LINE
  5
55A
100
AcDbEntity
  8
3_AXES_OTHER
100
AcDbLine
 62
7
  6
CENTER
 10
2222.3973505435
 20
558.0655434783
 11
2246.1773505435
 21
558.0655434783
  0
LINE
  5
55B
100
AcDbEntity
  8
0
100
AcDbLine
 62
7
  6
CONTINUOUS
 10
2192.9124430723
 20
390.8803767188
 11
2192.9124430723
 21
410.3306360071
  0
LINE
  5
55C
100
AcDbEntity
  8
0
100
AcDbLine
 62
7
  6
CONTINUOUS
 10
2205.8564394329
 20
459.9533015308
 11
2205.8564390737
 21
509.1777864146
  0
LINE
  5
55D
100
AcDbEntity
  8
0
100
AcDbLine
 62
7
  6
CONTINUOUS
 10
2205.8564390737
 20
396.953300542
 11
2205.8564394329
 21
446.1777854257
  0
LINE
  5
55E
100
AcDbEntity
  8
3_AXES_OTHER
100
AcDbLine
 62
7
  6
CENTER
 10
2222.3973505435
 20
608.8655434783
 11
2222.3973505435
 21
585.0855434783
  0
LINE
  5
55F
100
AcDbEntity
  8
3_AXES_OTHER
100
AcDbLine
 62
7
  6
CENTER
 10
2222.3973505435
 20
558.0655434783
 11
2222.3973505435
 21
534.2855434783
  0
LINE
  5
560
100
AcDbEntity
  8
3_AXES_OTHER
100
AcDbLine
 62
7
  6
CENTER
 10
2222.3973505435
 20
558.0655434783
 11
2222.3973505435
 21
585.0855434783
  0
LINE
  5
561
100
AcDbEntity
  8
3_AXES_OTHER
100
AcDbLine
 62
7
  6
CENTER
 10
2222.3973505435
 20
608.8655434783
 11
2222.3973505435
 21
632.6455434783
  0
LINE
  5
562
100
AcDbEntity
  8
3_AXES_OTHER
100
AcDbLine
 62
7
  6
CENTER
 10
2222.3973505435
 20
608.8655434783
 11
2198.6173505435
 21
608.8655434783
  0
LINE
  5
563
100
AcDbEntity
  8
3_AXES_OTHER
100
AcDbLine
 62
7
  6
CENTER
 10
2114.4973505435
 20
608.8655434783
 11
2090.7173505435
 21
608.8655434783
  0
LINE
  5
564
100
AcDbEntity
  8
3_AXES_OTHER
100
AcDbLine
 62
7
  6
CENTER
 10
2114.4973505435
 20
608.8655434783
 11
2198.6173505435
 21
608.8655434783
  0
LINE
  5
565
100
AcDbEntity
  8
3_AXES_OTHER
100
AcDbLine
 62
7
  6
CENTER
 10
2222.3973505435
 20
608.8655434783
 11
2246.1773505435
 21
608.8655434783
  0
LINE
  5
566
100
AcDbEntity
  8
0
100
AcDbLine
 62
7
  6
CONTINUOUS
 10
2228.9473505435
 20
386.5655434783
 11
2228.9473505435
 21
519.5655434783
  0
LINE
  5
567
100
AcDbEntity
  8
0
100
AcDbLine
 62
7
  6
CONTINUOUS
 10
2267.300869458
 20
813.0655434783
 11
2267.300869458
 21
313.0655434783
  0
LINE
  5
568
100
AcDbEntity
  8
0
100
AcDbLine
 62
7
  6
CONTINUOUS
 10
2289.4473505435
 20
313.0655434783
 11
2289.4473505435
 21
813.0655434783
  0
LWPOLYLINE
  5
569
100
AcDbEntity
  8
0
100
AcDbPolyline
 62
2
  6
CONTINUOUS
 90
5
 70
0
 10
2332.3987777485
 20
689.927055145
 10
2360.7740714288
 20
689.927055145
 10
2360.7740714288
 20
721.931055145
 10
2332.3987777485
 20
721.931055145
 10
2332.3987777485
 20
689.927055145
  0
LINE
  5
56A
100
AcDbEntity
  8
3_AXES_OTHER
100
AcDbLine
 62
7
  6
CENTER
 10
2168.4473505435
 20
772.7655434783
 11
2140.6673505435
 21
772.7655434783
  0
LINE
  5
56B
100
AcDbEntity
  8
3_AXES_OTHER
100
AcDbLine
 62
7
  6
CENTER
 10
2168.4473505435
 20
772.7655434783
 11
2196.2273505435
 21
772.7655434783
  0
LINE
  5
56C
100
AcDbEntity
  8
0
100
AcDbLine
 62
7
  6
CONTINUOUS
 10
2047.4473505435
 20
813.0655434783
 11
2289.4473505435
 21
813.0655434783
  0
LINE
  5
56D
100
AcDbEntity
  8
0
100
AcDbLine
 62
7
  6
CONTINUOUS
 10
459.5604080217
 20
313.0655434783
 11
736.3004080217
 21
313.0655434783
  0
LINE
  5
56E
100
AcDbEntity
  8
0
100
AcDbLine
 62
7
  6
CONTINUOUS
 10
689.5604080217
 20
327.9655434783
 11
736.3004080217
 21
327.9655434783
  0
LINE
  5
56F
100
AcDbEntity
  8
0
100
AcDbLine
 62
7
  6
CONTINUOUS
 10
704.5604080217
 20
342.8655434783
 11
732.9004080217
 21
342.8655434783
  0
LINE
  5
570
100
AcDbEntity
  8
0
100
AcDbLine
 62
7
  6
CONTINUOUS
 10
459.5604080217
 20
813.0655434783
 11
459.5604080217
 21
313.0655434783
  0
LINE
  5
571
100
AcDbEntity
  8
0
100
AcDbLine
 62
7
  6
CONTINUOUS
 10
704.5604080217
 20
545.2655434783
 11
712.8604080217
 21
545.2655434783
  0
LINE
  5
572
100
AcDbEntity
  8
3_ALL_AXES
100
AcDbLine
 62
7
  6
CENTER
 10
598.5244678911
 20
562.3055434783
 11
613.3166434632
 21
562.3055434783
  0
LINE
  5
573
100
AcDbEntity
  8
3_ALL_AXES
100
AcDbLine
 62
7
  6
CENTER
 10
605.6104080217
 20
553.5958023968
 11
605.6104080217
 21
570.1801837021
  0
LINE
  5
574
100
AcDbEntity
  8
0
100
AcDbLine
 62
7
  6
CONTINUOUS
 10
704.5604080217
 20
570.5155434783
 11
710.0604080217
 21
570.5155434783
  0
LINE
  5
575
100
AcDbEntity
  8
0
100
AcDbLine
 62
7
  6
CONTINUOUS
 10
689.5604080217
 20
313.0655434783
 11
689.5604080217
 21
813.0655434783
  0
LINE
  5
576
100
AcDbEntity
  8
0
100
AcDbLine
 62
7
  6
CONTINUOUS
 10
704.5604080217
 20
327.9655434783
 11
704.5604080217
 21
798.1655434783
  0
LINE
  5
577
100
AcDbEntity
  8
0
100
AcDbLine
 62
7
  6
CONTINUOUS
 10
707.0604080217
 20
813.0655434783
 11
707.0604080217
 21
798.1655434783
  0
LINE
  5
578
100
AcDbEntity
  8
0
100
AcDbLine
 62
7
  6
CONTINUOUS
 10
707.0604080217
 20
327.9655434783
 11
707.0604080217
 21
313.0655434783
  0
LINE
  5
579
100
AcDbEntity
  8
0
100
AcDbLine
 62
7
  6
CONTINUOUS
 10
708.8075761628
 20
327.9655434783
 11
708.8075761628
 21
342.8655434783
  0
LINE
  5
57A
100
AcDbEntity
  8
0
100
AcDbLine
 62
7
  6
CONTINUOUS
 10
708.8075761628
 20
783.2655434783
 11
708.8075761628
 21
798.1655434783
  0
LINE
  5
57B
100
AcDbEntity
  8
0
100
AcDbLine
 62
7
  6
CONTINUOUS
 10
710.0604080217
 20
780.8155434783
 11
710.0604080217
 21
570.5155434783
  0
LINE
  5
57C
100
AcDbEntity
  8
0
100
AcDbLine
 62
7
  6
CONTINUOUS
 10
712.8604080217
 20
545.2655434783
 11
712.8604080217
 21
342.8655434783
  0
LINE
  5
57D
100
AcDbEntity
  8
0
100
AcDbLine
 62
7
  6
CONTINUOUS
 10
726.4164879953
 20
327.9655434783
 11
726.4164879953
 21
342.8655434783
  0
LINE
  5
57E
100
AcDbEntity
  8
0
100
AcDbLine
 62
7
  6
CONTINUOUS
 10
726.4164879953
 20
783.2655434783
 11
726.4164879953
 21
798.1655434783
  0
LINE
  5
57F
100
AcDbEntity
  8
0
100
AcDbLine
 62
7
  6
CONTINUOUS
 10
729.6748837479
 20
813.0655434783
 11
729.6748837479
 21
798.1655434783
  0
LINE
  5
580
100
AcDbEntity
  8
0
100
AcDbLine
 62
7
  6
CONTINUOUS
 10
729.6748837479
 20
327.9655434783
 11
729.6748837479
 21
313.0655434783
  0
LINE
  5
581
100
AcDbEntity
  8
0
100
AcDbLine
 62
7
  6
CONTINUOUS
 10
732.9004080217
 20
327.9655434783
 11
732.9004080217
 21
342.8655434783
  0
LINE
  5
582
100
AcDbEntity
  8
0
100
AcDbLine
 62
7
  6
CONTINUOUS
 10
732.9004080217
 20
783.2655434783
 11
732.9004080217
 21
798.1655434783
  0
LINE
  5
583
100
AcDbEntity
  8
0
100
AcDbLine
 62
7
  6
CONTINUOUS
 10
736.3004080217
 20
313.0655434783
 11
736.3004080217
 21
327.9655434783
  0
LINE
  5
584
100
AcDbEntity
  8
0
100
AcDbLine
 62
7
  6
CONTINUOUS
 10
736.3004080217
 20
798.1655434783
 11
736.3004080217
 21
813.0655434783
  0
LINE
  5
585
100
AcDbEntity
  8
0
100
AcDbLine
 62
7
  6
CONTINUOUS
 10
704.5604080217
 20
780.8155434783
 11
710.0604080217
 21
780.8155434783
  0
LINE
  5
586
100
AcDbEntity
  8
0
100
AcDbLine
 62
7
  6
CONTINUOUS
 10
704.5604080217
 20
783.2655434783
 11
732.9004080217
 21
783.2655434783
  0
LINE
  5
587
100
AcDbEntity
  8
0
100
AcDbLine
 62
7
  6
CONTINUOUS
 10
689.5604080217
 20
798.1655434783
 11
736.3004080217
 21
798.1655434783
  0
LINE
  5
588
100
AcDbEntity
  8
0
100
AcDbLine
 62
7
  6
CONTINUOUS
 10
459.5604080217
 20
813.0655434783
 11
736.3004080217
 21
813.0655434783
  0
LWPOLYLINE
  5
589
100
AcDbEntity
  8
0
100
AcDbPolyline
 62
7
  6
CONTINUOUS
 90
2
 70
1
 43
1.75
 10
1263.0168601808
 20
65.8327443338
 42
1.0
 10
1280.7968601808
 20
65.8327443338
 42
1.0
  0
LWPOLYLINE
  5
58A
100
AcDbEntity
  8
0
100
AcDbPolyline
 62
7
  6
CONTINUOUS
 90
2
 70
1
 43
1.75
 10
1267.4618601808
 20
65.8327443338
 42
1.0
 10
1276.3518601808
 20
65.8327443338
 42
1.0
  0
ARC
  5
58B
100
AcDbEntity
  8
0
100
AcDbCircle
 62
7
  6
CONTINUOUS
 10
1012.6507201087
 20
441.1155434783
 40
104.15
100
AcDbArc
 50
289.3778606418
 51
250.6221393582
  0
CIRCLE
  5
58C
100
AcDbEntity
  8
0
100
AcDbCircle
 62
7
  6
CONTINUOUS
 10
1012.6507201087
 20
441.1155434783
 40
92.8
  0
CIRCLE
  5
58D
100
AcDbEntity
  8
0
100
AcDbCircle
 62
7
  6
CONTINUOUS
 10
1012.6507201087
 20
441.1155434783
 40
77.65
  0
CIRCLE
  5
58E
100
AcDbEntity
  8
0
100
AcDbCircle
 62
7
  6
CONTINUOUS
 10
1012.6507201087
 20
441.1155434783
 40
51.65
  0
ARC
  5
58F
100
AcDbEntity
  8
0
100
AcDbCircle
 62
7
  6
CONTINUOUS
 10
1012.6507201087
 20
675.6655434783
 40
13.4185915099
100
AcDbArc
 50
45.0
 51
135.0
  0
ARC
  5
590
100
AcDbEntity
  8
0
100
AcDbCircle
 62
7
  6
CONTINUOUS
 10
1012.6507201087
 20
675.6655434783
 40
13.4185915099
100
AcDbArc
 50
225.0
 51
315.0
  0
ARC
  5
591
100
AcDbEntity
  8
0
100
AcDbCircle
 62
7
  6
CONTINUOUS
 10
1012.6507201087
 20
1937.5116327633
 40
770.6
100
AcDbArc
 50
262.4812626876
 51
277.5187373124
  0
ARC
  5
592
100
AcDbEntity
  8
0
100
AcDbCircle
 62
7
  6
CONTINUOUS
 10
1073.0738698486
 20
1229.8724588588
 40
69.33
100
AcDbArc
 50
305.6524571755
 51
330.8969788819
  0
ARC
  5
593
100
AcDbEntity
  8
0
100
AcDbCircle
 62
7
  6
CONTINUOUS
 10
952.2275703688
 20
1229.8724588588
 40
69.33
100
AcDbArc
 50
209.1030211181
 51
234.3475428245
  0
CIRCLE
  5
594
100
AcDbEntity
  8
0
100
AcDbCircle
 62
7
  6
CONTINUOUS
 10
1090.3573954114
 20
1242.8027505216
 40
11.0
  0
CIRCLE
  5
595
100
AcDbEntity
  8
0
100
AcDbCircle
 62
7
  6
CONTINUOUS
 10
1012.6507201087
 20
1403.3516327633
 40
11.0
  0
CIRCLE
  5
596
100
AcDbEntity
  8
0
100
AcDbCircle
 62
7
  6
CONTINUOUS
 10
934.944044806
 20
1242.8027505216
 40
11.0
  0
CIRCLE
  5
597
100
AcDbEntity
  8
0
100
AcDbCircle
 62
7
  6
CONTINUOUS
 10
934.944044806
 20
1242.8027505216
 40
10.0
  0
CIRCLE
  5
598
100
AcDbEntity
  8
0
100
AcDbCircle
 62
7
  6
CONTINUOUS
 10
1090.3573954114
 20
1242.8027505216
 40
10.0
  0
CIRCLE
  5
599
100
AcDbEntity
  8
0
100
AcDbCircle
 62
7
  6
CONTINUOUS
 10
1012.6507201087
 20
1403.3516327633
 40
10.0
  0
CIRCLE
  5
59A
100
AcDbEntity
  8
0
100
AcDbCircle
 62
7
  6
CONTINUOUS
 10
1012.6507201087
 20
1297.6516327633
 40
9.0
  0
CIRCLE
  5
59B
100
AcDbEntity
  8
0
100
AcDbCircle
 62
7
  6
CONTINUOUS
 10
1012.6507201087
 20
1297.6516327633
 40
8.0
  0
CIRCLE
  5
59C
100
AcDbEntity
  8
0
100
AcDbCircle
 62
7
  6
CONTINUOUS
 10
987.2507201087
 20
1243.7016327633
 40
7.0
  0
CIRCLE
  5
59D
100
AcDbEntity
  8
0
100
AcDbCircle
 62
7
  6
CONTINUOUS
 10
1038.0507201087
 20
1243.7016327633
 40
7.0
  0
CIRCLE
  5
59E
100
AcDbEntity
  8
0
100
AcDbCircle
 62
7
  6
CONTINUOUS
 10
1038.0507201087
 20
1351.6016327633
 40
7.0
  0
CIRCLE
  5
59F
100
AcDbEntity
  8
0
100
AcDbCircle
 62
7
  6
CONTINUOUS
 10
987.2507201087
 20
1351.6016327633
 40
7.0
  0
CIRCLE
  5
5A0
100
AcDbEntity
  8
0
100
AcDbCircle
 62
7
  6
CONTINUOUS
 10
1038.0507201087
 20
1243.7016327633
 40
6.0
  0
CIRCLE
  5
5A1
100
AcDbEntity
  8
0
100
AcDbCircle
 62
7
  6
CONTINUOUS
 10
987.2507201087
 20
1243.7016327633
 40
6.0
  0
CIRCLE
  5
5A2
100
AcDbEntity
  8
0
100
AcDbCircle
 62
7
  6
CONTINUOUS
 10
1038.0507201087
 20
1351.6016327633
 40
6.0
  0
CIRCLE
  5
5A3
100
AcDbEntity
  8
0
100
AcDbCircle
 62
7
  6
CONTINUOUS
 10
987.2507201087
 20
1351.6016327633
 40
6.0
  0
ARC
  5
5A4
100
AcDbEntity
  8
0
100
AcDbCircle
 62
7
  6
CONTINUOUS
 10
2729.7122730815
 20
1713.5032052249
 40
113.0137285032
100
AcDbArc
 50
264.9883753792
 51
277.2296677361
  0
ARC
  5
5A5
100
AcDbEntity
  8
0
100
AcDbCircle
 62
7
  6
CONTINUOUS
 10
2729.7122730815
 20
1341.8009974272
 40
113.0137285032
100
AcDbArc
 50
264.9883753792
 51
277.2296677361
  0
ARC
  5
5A6
100
AcDbEntity
  8
0
100
AcDbCircle
 62
7
  6
CONTINUOUS
 10
2729.7122730815
 20
1353.9652032172
 40
113.0137285032
100
AcDbArc
 50
264.9883753792
 51
277.2296677361
  0
ARC
  5
5A7
100
AcDbEntity
  8
0
100
AcDbCircle
 62
7
  6
CONTINUOUS
 10
2632.5879193272
 20
1423.4465291386
 40
31.3599913436
100
AcDbArc
 50
125.3374785309
 51
128.6078264371
  0
ARC
  5
5A8
100
AcDbEntity
  8
0
100
AcDbCircle
 62
7
  6
CONTINUOUS
 10
2694.0575887267
 20
1316.9939279905
 40
31.316441547
100
AcDbArc
 50
291.3653203928
 51
295.8094825127
  0
ARC
  5
5A9
100
AcDbEntity
  8
0
100
AcDbCircle
 62
7
  6
CONTINUOUS
 10
1687.2498734915
 20
1431.1203651056
 40
77.0813311719
100
AcDbArc
 50
92.7515855871
 51
93.1065158008
  0
CIRCLE
  5
5AA
100
AcDbEntity
  8
0
100
AcDbCircle
 62
7
  6
CONTINUOUS
 10
1698.9555910941
 20
1301.4040915186
 40
11.0
  0
CIRCLE
  5
5AB
100
AcDbEntity
  8
0
100
AcDbCircle
 62
7
  6
CONTINUOUS
 10
2116.4247566893
 20
1341.6018001256
 40
11.0
  0
CIRCLE
  5
5AC
100
AcDbEntity
  8
0
100
AcDbCircle
 62
7
  6
CONTINUOUS
 10
2116.4247566893
 20
1341.6018001256
 40
10.0
  0
CIRCLE
  5
5AD
100
AcDbEntity
  8
0
100
AcDbCircle
 62
7
  6
CONTINUOUS
 10
1698.9555910941
 20
1301.4040915186
 40
10.0
  0
ARC
  5
5AE
100
AcDbEntity
  8
0
100
AcDbCircle
 62
7
  6
CONTINUOUS
 10
2118.9473505435
 20
386.5655434783
 40
11.0
100
AcDbArc
 50
180.0
 51
270.0
  0
ARC
  5
5AF
100
AcDbEntity
  8
0
100
AcDbCircle
 62
7
  6
CONTINUOUS
 10
2118.9473505435
 20
519.5655434783
 40
11.0
100
AcDbArc
 50
90.0
 51
180.0
  0
CIRCLE
  5
5B0
100
AcDbEntity
  8
0
100
AcDbCircle
 62
7
  6
CONTINUOUS
 10
2114.4973505435
 20
558.0655434783
 40
7.0
  0
CIRCLE
  5
5B1
100
AcDbEntity
  8
0
100
AcDbCircle
 62
7
  6
CONTINUOUS
 10
2114.4973505435
 20
558.0655434783
 40
6.0
  0
ARC
  5
5B2
100
AcDbEntity
  8
0
100
AcDbCircle
 62
7
  6
CONTINUOUS
 10
2133.9473505435
 20
516.0655434783
 40
4.0909117943
100
AcDbArc
 50
269.0739068428
 51
0.9260850142
  0
ARC
  5
5B3
100
AcDbEntity
  8
0
100
AcDbCircle
 62
7
  6
CONTINUOUS
 10
2133.9473505435
 20
390.0655434783
 40
4.0909117943
100
AcDbArc
 50
359.073915015
 51
90.9260931489
  0
ARC
  5
5B4
100
AcDbEntity
  8
0
100
AcDbCircle
 62
7
  6
CONTINUOUS
 10
2133.9473505435
 20
453.0655434783
 40
4.0909117884
100
AcDbArc
 50
269.0740268797
 51
90.9259732893
  0
CIRCLE
  5
5B5
100
AcDbEntity
  8
0
100
AcDbCircle
 62
7
  6
CONTINUOUS
 10
2156.4473505435
 20
498.5655434783
 40
2.8681748742
  0
ARC
  5
5B6
100
AcDbEntity
  8
0
100
AcDbCircle
 62
7
  6
CONTINUOUS
 10
2133.8351085389
 20
446.1787009251
 40
2.7968198717
100
AcDbArc
 50
89.0549339939
 51
180.0187547807
  0
ARC
  5
5B7
100
AcDbEntity
  8
0
100
AcDbCircle
 62
7
  6
CONTINUOUS
 10
2133.8350970735
 20
396.9523684816
 40
2.7967992267
100
AcDbArc
 50
179.980905873
 51
270.9451312123
  0
ARC
  5
5B8
100
AcDbEntity
  8
0
100
AcDbCircle
 62
7
  6
CONTINUOUS
 10
2133.835088792
 20
509.178726617
 40
2.7967890831
100
AcDbArc
 50
89.0546964155
 51
180.0192609812
  0
ARC
  5
5B9
100
AcDbEntity
  8
0
100
AcDbCircle
 62
7
  6
CONTINUOUS
 10
2133.8350815446
 20
459.9523604054
 40
2.7967869528
100
AcDbArc
 50
179.980720063
 51
270.9456273482
  0
ARC
  5
5BA
100
AcDbEntity
  8
0
100
AcDbCircle
 62
7
  6
CONTINUOUS
 10
2140.8341670884
 20
516.1778124609
 40
2.796786671
100
AcDbArc
 50
89.9807286768
 51
180.945463721
  0
ARC
  5
5BB
100
AcDbEntity
  8
0
100
AcDbCircle
 62
7
  6
CONTINUOUS
 10
2140.8341670884
 20
389.9532744956
 40
2.796786671
100
AcDbArc
 50
179.0545362363
 51
270.0192713231
  0
CIRCLE
  5
5BC
100
AcDbEntity
  8
0
100
AcDbCircle
 62
7
  6
CONTINUOUS
 10
2114.4973505435
 20
608.8655434783
 40
7.0
  0
CIRCLE
  5
5BD
100
AcDbEntity
  8
0
100
AcDbCircle
 62
7
  6
CONTINUOUS
 10
2114.4973505435
 20
608.8655434783
 40
6.0
  0
CIRCLE
  5
5BE
100
AcDbEntity
  8
0
100
AcDbCircle
 62
7
  6
CONTINUOUS
 10
2170.4473505435
 20
475.0655434783
 40
12.5650898701
  0
CIRCLE
  5
5BF
100
AcDbEntity
  8
0
100
AcDbCircle
 62
7
  6
CONTINUOUS
 10
2170.4473505435
 20
435.0655434783
 40
12.5650898701
  0
ARC
  5
5C0
100
AcDbEntity
  8
0
100
AcDbCircle
 62
7
  6
CONTINUOUS
 10
2217.9473505435
 20
386.5655434783
 40
11.0
100
AcDbArc
 50
270.0
 51
360.0
  0
ARC
  5
5C1
100
AcDbEntity
  8
0
100
AcDbCircle
 62
7
  6
CONTINUOUS
 10
2217.9473505435
 20
519.5655434783
 40
11.0
100
AcDbArc
 50
0.0
 51
90.0
  0
CIRCLE
  5
5C2
100
AcDbEntity
  8
0
100
AcDbCircle
 62
7
  6
CONTINUOUS
 10
2168.4473505435
 20
353.3655434783
 40
11.0
  0
CIRCLE
  5
5C3
100
AcDbEntity
  8
0
100
AcDbCircle
 62
7
  6
CONTINUOUS
 10
2168.4473505435
 20
353.3655434783
 40
10.0
  0
CIRCLE
  5
5C4
100
AcDbEntity
  8
0
100
AcDbCircle
 62
7
  6
CONTINUOUS
 10
2222.3973505435
 20
558.0655434783
 40
7.0
  0
CIRCLE
  5
5C5
100
AcDbEntity
  8
0
100
AcDbCircle
 62
7
  6
CONTINUOUS
 10
2222.3973505435
 20
558.0655434783
 40
6.0
  0
ARC
  5
5C6
100
AcDbEntity
  8
0
100
AcDbCircle
 62
7
  6
CONTINUOUS
 10
2202.9473505435
 20
516.0655434783
 40
4.0909117943
100
AcDbArc
 50
179.073915015
 51
270.9260931489
  0
ARC
  5
5C7
100
AcDbEntity
  8
0
100
AcDbCircle
 62
7
  6
CONTINUOUS
 10
2202.9473505435
 20
390.0655434783
 40
4.0909117943
100
AcDbArc
 50
89.0739068428
 51
180.9260850142
  0
ARC
  5
5C8
100
AcDbEntity
  8
0
100
AcDbCircle
 62
7
  6
CONTINUOUS
 10
2202.9473505435
 20
453.0655434783
 40
4.0909117884
100
AcDbArc
 50
89.0740268797
 51
270.9259732893
  0
CIRCLE
  5
5C9
100
AcDbEntity
  8
0
100
AcDbCircle
 62
7
  6
CONTINUOUS
 10
2185.4473505435
 20
498.5655434783
 40
2.8681748742
  0
ARC
  5
5CA
100
AcDbEntity
  8
0
100
AcDbCircle
 62
7
  6
CONTINUOUS
 10
2203.0595720403
 20
509.1786860536
 40
2.7968393908
100
AcDbArc
 50
359.9815702652
 51
90.9444653512
  0
ARC
  5
5CB
100
AcDbEntity
  8
0
100
AcDbCircle
 62
7
  6
CONTINUOUS
 10
2203.0595928507
 20
446.1787009582
 40
2.7968197483
100
AcDbArc
 50
359.9812445403
 51
90.9450719698
  0
ARC
  5
5CC
100
AcDbEntity
  8
0
100
AcDbCircle
 62
7
  6
CONTINUOUS
 10
2196.060508358
 20
516.1777852326
 40
2.796819674
100
AcDbArc
 50
359.0551026239
 51
90.0187458671
  0
ARC
  5
5CD
100
AcDbEntity
  8
0
100
AcDbCircle
 62
7
  6
CONTINUOUS
 10
2196.0605083202
 20
389.9533011535
 40
2.7968195467
100
AcDbArc
 50
269.9812549043
 51
0.9449090051
  0
ARC
  5
5CE
100
AcDbEntity
  8
0
100
AcDbCircle
 62
7
  6
CONTINUOUS
 10
2203.0596118835
 20
396.9523601403
 40
2.7967890831
100
AcDbArc
 50
269.0547047775
 51
0.0192650595
  0
ARC
  5
5CF
100
AcDbEntity
  8
0
100
AcDbCircle
 62
7
  6
CONTINUOUS
 10
2203.0596195423
 20
459.9523604054
 40
2.7967869528
100
AcDbArc
 50
269.0543724049
 51
0.0192799369
  0
CIRCLE
  5
5D0
100
AcDbEntity
  8
0
100
AcDbCircle
 62
7
  6
CONTINUOUS
 10
2168.4473505435
 20
772.7655434783
 40
11.0
  0
CIRCLE
  5
5D1
100
AcDbEntity
  8
0
100
AcDbCircle
 62
7
  6
CONTINUOUS
 10
2168.4473505435
 20
772.7655434783
 40
10.0
  0
CIRCLE
  5
5D2
100
AcDbEntity
  8
0
100
AcDbCircle
 62
7
  6
CONTINUOUS
 10
2222.3973505435
 20
608.8655434783
 40
7.0
  0
CIRCLE
  5
5D3
100
AcDbEntity
  8
0
100
AcDbCircle
 62
7
  6
CONTINUOUS
 10
2222.3973505435
 20
608.8655434783
 40
6.0
  0
SPLINE
  5
5D4
100
AcDbEntity
  8
0
100
AcDbSpline
 62
7
  6
CONTINUOUS
 70
0
 71
3
 72
15
 73
11
 74
0
 42
0.0000001
 43
0.0000001
 44
0.0000000001
 40
0.0
 40
0.0
 40
0.0
 40
0.0
 40
0.1252795721
 40
0.2503768515
 40
0.3752666715
 40
0.5
 40
0.6247333285
 40
0.7496231485
 40
0.8747204279
 40
1.0
 40
1.0
 40
1.0
 40
1.0
 10
1481.2126908892
 20
772.7655434783
 30
0.0
 10
1481.2126908892
 20
774.1960978347
 30
0.0
 10
1481.7818751706
 20
777.0862874616
 30
0.0
 10
1484.215556362
 20
780.7420919765
 30
0.0
 10
1487.8600590281
 20
783.1922583723
 30
0.0
 10
1492.1620490712
 20
784.0517215717
 30
0.0
 10
1496.4640391144
 20
783.1922583723
 30
0.0
 10
1500.1085417805
 20
780.7420919765
 30
0.0
 10
1502.5422229719
 20
777.0862874616
 30
0.0
 10
1503.1114072533
 20
774.1960978347
 30
0.0
 10
1503.1114072533
 20
772.7655434783
 30
0.0
  0
SPLINE
  5
5D5
100
AcDbEntity
  8
0
100
AcDbSpline
 62
7
  6
CONTINUOUS
 70
0
 71
3
 72
15
 73
11
 74
0
 42
0.0000001
 43
0.0000001
 44
0.0000000001
 40
0.0
 40
0.0
 40
0.0
 40
0.0
 40
0.1252795721
 40
0.2503768515
 40
0.3752666715
 40
0.5
 40
0.6247333285
 40
0.7496231485
 40
0.8747204279
 40
1.0
 40
1.0
 40
1.0
 40
1.0
 10
1502.0201653024
 20
353.3655434783
 30
0.0
 10
1502.0201653024
 20
354.6660474387
 30
0.0
 10
1501.5027250466
 20
357.293492554
 30
0.0
 10
1499.2902875999
 20
360.616951204
 30
0.0
 10
1495.9771033579
 20
362.8443752001
 30
0.0
 10
1492.0662033187
 20
363.6257053814
 30
0.0
 10
1488.1553032795
 20
362.8443752001
 30
0.0
 10
1484.8421190376
 20
360.616951204
 30
0.0
 10
1482.6296815909
 20
357.293492554
 30
0.0
 10
1482.112241335
 20
354.6660474387
 30
0.0
 10
1482.112241335
 20
353.3655434783
 30
0.0
  0
SPLINE
  5
5D6
100
AcDbEntity
  8
0
100
AcDbSpline
 62
7
  6
CONTINUOUS
 70
0
 71
3
 72
15
 73
11
 74
0
 42
0.0000001
 43
0.0000001
 44
0.0000000001
 40
0.0
 40
0.0
 40
0.0
 40
0.0
 40
0.1252795721
 40
0.2503768515
 40
0.3752666715
 40
0.5
 40
0.6247333285
 40
0.7496231485
 40
0.8747204279
 40
1.0
 40
1.0
 40
1.0
 40
1.0
 10
1503.1114072533
 20
772.7655434783
 30
0.0
 10
1503.1114072533
 20
771.3349891218
 30
0.0
 10
1502.5422229719
 20
768.4447994949
 30
0.0
 10
1500.1085417805
 20
764.78899498
 30
0.0
 10
1496.4640391144
 20
762.3388285842
 30
0.0
 10
1492.1620490712
 20
761.4793653848
 30
0.0
 10
1487.8600590281
 20
762.3388285842
 30
0.0
 10
1484.215556362
 20
764.78899498
 30
0.0
 10
1481.7818751706
 20
768.4447994949
 30
0.0
 10
1481.2126908892
 20
771.3349891218
 30
0.0
 10
1481.2126908892
 20
772.7655434783
 30
0.0
  0
SPLINE
  5
5D7
100
AcDbEntity
  8
0
100
AcDbSpline
 62
7
  6
CONTINUOUS
 70
0
 71
3
 72
15
 73
11
 74
0
 42
0.0000001
 43
0.0000001
 44
0.0000000001
 40
0.0
 40
0.0
 40
0.0
 40
0.0
 40
0.1252795721
 40
0.2503768515
 40
0.3752666715
 40
0.5
 40
0.6247333285
 40
0.7496231485
 40
0.8747204279
 40
1.0
 40
1.0
 40
1.0
 40
1.0
 10
1503.1114072533
 20
353.3655434783
 30
0.0
 10
1503.1114072533
 20
351.9349891218
 30
0.0
 10
1502.5422229719
 20
349.0447994949
 30
0.0
 10
1500.1085417805
 20
345.38899498
 30
0.0
 10
1496.4640391144
 20
342.9388285842
 30
0.0
 10
1492.1620490712
 20
342.0793653848
 30
0.0
 10
1487.8600590281
 20
342.9388285842
 30
0.0
 10
1484.215556362
 20
345.38899498
 30
0.0
 10
1481.7818751706
 20
349.0447994949
 30
0.0
 10
1481.2126908892
 20
351.9349891218
 30
0.0
 10
1481.2126908892
 20
353.3655434783
 30
0.0
  0
SPLINE
  5
5D8
100
AcDbEntity
  8
0
100
AcDbSpline
 62
7
  6
CONTINUOUS
 70
0
 71
3
 72
15
 73
11
 74
0
 42
0.0000001
 43
0.0000001
 44
0.0000000001
 40
0.0
 40
0.0
 40
0.0
 40
0.0
 40
0.1252795721
 40
0.2503768515
 40
0.3752666715
 40
0.5
 40
0.6247333285
 40
0.7496231485
 40
0.8747204279
 40
1.0
 40
1.0
 40
1.0
 40
1.0
 10
1481.2126908892
 20
353.3655434783
 30
0.0
 10
1481.2126908892
 20
354.7960978347
 30
0.0
 10
1481.7818751706
 20
357.6862874616
 30
0.0
 10
1484.215556362
 20
361.3420919765
 30
0.0
 10
1487.8600590281
 20
363.7922583723
 30
0.0
 10
1492.1620490712
 20
364.6517215717
 30
0.0
 10
1496.4640391144
 20
363.7922583723
 30
0.0
 10
1500.1085417805
 20
361.3420919765
 30
0.0
 10
1502.5422229719
 20
357.6862874616
 30
0.0
 10
1503.1114072533
 20
354.7960978347
 30
0.0
 10
1503.1114072533
 20
353.3655434783
 30
0.0
  0
SPLINE
  5
5D9
100
AcDbEntity
  8
0
100
AcDbSpline
 62
7
  6
CONTINUOUS
 70
0
 71
3
 72
15
 73
11
 74
0
 42
0.0000001
 43
0.0000001
 44
0.0000000001
 40
0.0
 40
0.0
 40
0.0
 40
0.0
 40
0.1252795721
 40
0.2503768515
 40
0.3752666715
 40
0.5
 40
0.6247333285
 40
0.7496231485
 40
0.8747204279
 40
1.0
 40
1.0
 40
1.0
 40
1.0
 10
1502.0201653024
 20
772.7655434783
 30
0.0
 10
1502.0201653024
 20
774.0660474387
 30
0.0
 10
1501.5027250466
 20
776.693492554
 30
0.0
 10
1499.2902875999
 20
780.016951204
 30
0.0
 10
1495.9771033579
 20
782.2443752001
 30
0.0
 10
1492.0662033187
 20
783.0257053814
 30
0.0
 10
1488.1553032795
 20
782.2443752001
 30
0.0
 10
1484.8421190376
 20
780.016951204
 30
0.0
 10
1482.6296815909
 20
776.693492554
 30
0.0
 10
1482.112241335
 20
774.0660474387
 30
0.0
 10
1482.112241335
 20
772.7655434783
 30
0.0
  0
SPLINE
  5
5DA
100
AcDbEntity
  8
0
100
AcDbSpline
 62
7
  6
CONTINUOUS
 70
0
 71
3
 72
15
 73
11
 74
0
 42
0.0000001
 43
0.0000001
 44
0.0000000001
 40
0.0
 40
0.0
 40
0.0
 40
0.0
 40
0.1252795721
 40
0.2503768515
 40
0.3752666715
 40
0.5
 40
0.6247333285
 40
0.7496231485
 40
0.8747204279
 40
1.0
 40
1.0
 40
1.0
 40
1.0
 10
1502.0201653024
 20
353.3655434783
 30
0.0
 10
1502.0201653024
 20
352.0650395179
 30
0.0
 10
1501.5027250466
 20
349.4375944025
 30
0.0
 10
1499.2902875999
 20
346.1141357526
 30
0.0
 10
1495.9771033579
 20
343.8867117564
 30
0.0
 10
1492.0662033187
 20
343.1053815751
 30
0.0
 10
1488.1553032795
 20
343.8867117564
 30
0.0
 10
1484.8421190376
 20
346.1141357526
 30
0.0
 10
1482.6296815909
 20
349.4375944025
 30
0.0
 10
1482.112241335
 20
352.0650395179
 30
0.0
 10
1482.112241335
 20
353.3655434783
 30
0.0
  0
SPLINE
  5
5DB
100
AcDbEntity
  8
0
100
AcDbSpline
 62
7
  6
CONTINUOUS
 70
0
 71
3
 72
15
 73
11
 74
0
 42
0.0000001
 43
0.0000001
 44
0.0000000001
 40
0.0
 40
0.0
 40
0.0
 40
0.0
 40
0.1252795721
 40
0.2503768515
 40
0.3752666715
 40
0.5
 40
0.6247333285
 40
0.7496231485
 40
0.8747204279
 40
1.0
 40
1.0
 40
1.0
 40
1.0
 10
1502.0201653024
 20
772.7655434783
 30
0.0
 10
1502.0201653024
 20
771.4650395179
 30
0.0
 10
1501.5027250466
 20
768.8375944025
 30
0.0
 10
1499.2902875999
 20
765.5141357526
 30
0.0
 10
1495.9771033579
 20
763.2867117564
 30
0.0
 10
1492.0662033187
 20
762.5053815751
 30
0.0
 10
1488.1553032795
 20
763.2867117564
 30
0.0
 10
1484.8421190376
 20
765.5141357526
 30
0.0
 10
1482.6296815909
 20
768.8375944025
 30
0.0
 10
1482.112241335
 20
771.4650395179
 30
0.0
 10
1482.112241335
 20
772.7655434783
 30
0.0
  0
SPLINE
  5
5DC
100
AcDbEntity
  8
0
100
AcDbSpline
 62
7
  6
CONTINUOUS
 70
0
 71
3
 72
9
 73
5
 74
0
 42
0.0000001
 43
0.0000001
 44
0.0000000001
 40
0.0
 40
0.0
 40
0.0
 40
0.0
 40
0.2585666848
 40
1.0
 40
1.0
 40
1.0
 40
1.0
 10
2577.5858315461
 20
1723.2100322555
 30
0.0
 10
2577.1536638759
 20
1722.3337083983
 30
0.0
 10
2575.6549352995
 20
1718.8634987365
 30
0.0
 10
2574.934373184
 20
1715.0466508502
 30
0.0
 10
2574.9343134597
 20
1712.2448593692
 30
0.0
  0
SPLINE
  5
5DD
100
AcDbEntity
  8
0
100
AcDbSpline
 62
7
  6
CONTINUOUS
 70
0
 71
3
 72
9
 73
5
 74
0
 42
0.0000001
 43
0.0000001
 44
0.0000000001
 40
0.0
 40
0.0
 40
0.0
 40
0.0
 40
0.4999763304
 40
1.0
 40
1.0
 40
1.0
 40
1.0
 10
2728.5531293295
 20
1711.5719090539
 30
0.0
 10
2730.4414481553
 20
1710.4814021709
 30
0.0
 10
2734.9155252861
 20
1709.6183487929
 30
0.0
 10
2739.3895924419
 20
1710.480564406
 30
0.0
 10
2741.2784572913
 20
1711.5705383966
 30
0.0
  0
SPLINE
  5
5DE
100
AcDbEntity
  8
0
100
AcDbSpline
 62
7
  6
CONTINUOUS
 70
0
 71
3
 72
9
 73
5
 74
0
 42
0.0000001
 43
0.0000001
 44
0.0000000001
 40
0.0
 40
0.0
 40
0.0
 40
0.0
 40
0.4999670668
 40
1.0
 40
1.0
 40
1.0
 40
1.0
 10
2673.8584198047
 20
1700.7300784924
 30
0.0
 10
2675.3270820712
 20
1699.8819238861
 30
0.0
 10
2678.8069193075
 20
1699.2108489721
 30
0.0
 10
2682.2867854324
 20
1699.8811829476
 30
0.0
 10
2683.7559370194
 20
1700.7289368152
 30
0.0
  0
SPLINE
  5
5DF
100
AcDbEntity
  8
0
100
AcDbSpline
 62
7
  6
CONTINUOUS
 70
0
 71
3
 72
9
 73
5
 74
0
 42
0.0000001
 43
0.0000001
 44
0.0000000001
 40
0.0
 40
0.0
 40
0.0
 40
0.0
 40
0.4999670668
 40
1.0
 40
1.0
 40
1.0
 40
1.0
 10
2709.779444289
 20
1679.9856343296
 30
0.0
 10
2711.2481065555
 20
1679.1374797232
 30
0.0
 10
2714.7279437917
 20
1678.4664048092
 30
0.0
 10
2718.2078099167
 20
1679.1367387848
 30
0.0
 10
2719.6769615037
 20
1679.9844926523
 30
0.0
  0
SPLINE
  5
5E0
100
AcDbEntity
  8
0
100
AcDbSpline
 62
7
  6
CONTINUOUS
 70
0
 71
3
 72
9
 73
5
 74
0
 42
0.0000001
 43
0.0000001
 44
0.0000000001
 40
0.0
 40
0.0
 40
0.0
 40
0.0
 40
0.4999670668
 40
1.0
 40
1.0
 40
1.0
 40
1.0
 10
2786.076265979
 20
1724.0471604156
 30
0.0
 10
2787.5449282455
 20
1723.1990058093
 30
0.0
 10
2791.0247654818
 20
1722.5279308953
 30
0.0
 10
2794.5046316067
 20
1723.1982648708
 30
0.0
 10
2795.9737831937
 20
1724.0460187383
 30
0.0
  0
SPLINE
  5
5E1
100
AcDbEntity
  8
0
100
AcDbSpline
 62
7
  6
CONTINUOUS
 70
0
 71
3
 72
9
 73
5
 74
0
 42
0.0000001
 43
0.0000001
 44
0.0000000001
 40
0.0
 40
0.0
 40
0.0
 40
0.0
 40
0.4999670668
 40
1.0
 40
1.0
 40
1.0
 40
1.0
 10
2750.1552414947
 20
1744.7916045784
 30
0.0
 10
2751.6239037612
 20
1743.9434499721
 30
0.0
 10
2755.1037409975
 20
1743.2723750581
 30
0.0
 10
2758.5836071224
 20
1743.9427090337
 30
0.0
 10
2760.0527587094
 20
1744.7904629012
 30
0.0
  0
SPLINE
  5
5E2
100
AcDbEntity
  8
0
100
AcDbSpline
 62
7
  6
CONTINUOUS
 70
0
 71
3
 72
9
 73
5
 74
0
 42
0.0000001
 43
0.0000001
 44
0.0000000001
 40
0.0
 40
0.0
 40
0.0
 40
0.0
 40
0.2378089864
 40
1.0
 40
1.0
 40
1.0
 40
1.0
 10
2575.8549715181
 20
1297.5453037661
 30
0.0
 10
2586.2951356908
 20
1289.6825614691
 30
0.0
 10
2631.2937424143
 20
1258.0812290373
 30
0.0
 10
2680.1528969822
 20
1232.1550162087
 30
0.0
 10
2718.4548343434
 20
1215.1936744773
 30
0.0
  0
SPLINE
  5
5E3
100
AcDbEntity
  8
0
100
AcDbSpline
 62
7
  6
CONTINUOUS
 70
0
 71
3
 72
9
 73
5
 74
0
 42
0.0000001
 43
0.0000001
 44
0.0000000001
 40
0.0
 40
0.0
 40
0.0
 40
0.0
 40
0.2507950215
 40
1.0
 40
1.0
 40
1.0
 40
1.0
 10
2718.4548343434
 20
1215.1936744773
 30
0.0
 10
2720.9776323074
 20
1214.9538532489
 30
0.0
 10
2731.0646800485
 20
1214.3253465085
 30
0.0
 10
2741.2356547898
 20
1214.9646346938
 30
0.0
 10
2748.7056725933
 20
1216.1932486743
 30
0.0
  0
SPLINE
  5
5E4
100
AcDbEntity
  8
0
100
AcDbSpline
 62
7
  6
CONTINUOUS
 70
0
 71
3
 72
9
 73
5
 74
0
 42
0.0000001
 43
0.0000001
 44
0.0000000001
 40
0.0
 40
0.0
 40
0.0
 40
0.0
 40
0.2585666848
 40
1.0
 40
1.0
 40
1.0
 40
1.0
 10
2577.5858315461
 20
1327.1794128778
 30
0.0
 10
2577.1536638759
 20
1326.3030890206
 30
0.0
 10
2575.6549352995
 20
1322.8328793587
 30
0.0
 10
2574.934373184
 20
1319.0160314725
 30
0.0
 10
2574.9343134597
 20
1316.2142399914
 30
0.0
  0
SPLINE
  5
5E5
100
AcDbEntity
  8
0
100
AcDbSpline
 62
7
  6
CONTINUOUS
 70
0
 71
3
 72
9
 73
5
 74
0
 42
0.0000001
 43
0.0000001
 44
0.0000000001
 40
0.0
 40
0.0
 40
0.0
 40
0.0
 40
0.2378089834
 40
1.0
 40
1.0
 40
1.0
 40
1.0
 10
2575.8549715181
 20
1693.5759231439
 30
0.0
 10
2586.2951355599
 20
1685.7131809454
 30
0.0
 10
2631.2937422633
 20
1654.1118484873
 30
0.0
 10
2680.1528968327
 20
1628.1856356526
 30
0.0
 10
2718.4548343434
 20
1611.224293855
 30
0.0
  0
SPLINE
  5
5E6
100
AcDbEntity
  8
0
100
AcDbSpline
 62
7
  6
CONTINUOUS
 70
0
 71
3
 72
9
 73
5
 74
0
 42
0.0000001
 43
0.0000001
 44
0.0000000001
 40
0.0
 40
0.0
 40
0.0
 40
0.0
 40
0.2507950215
 40
1.0
 40
1.0
 40
1.0
 40
1.0
 10
2718.4548343434
 20
1611.224293855
 30
0.0
 10
2720.9776323074
 20
1610.9844726266
 30
0.0
 10
2731.0646800485
 20
1610.3559658862
 30
0.0
 10
2741.2356547898
 20
1610.9952540715
 30
0.0
 10
2748.7056725933
 20
1612.223868052
 30
0.0
  0
SPLINE
  5
5E7
100
AcDbEntity
  8
0
100
AcDbSpline
 62
7
  6
CONTINUOUS
 70
0
 71
3
 72
10
 73
6
 74
0
 42
0.0000001
 43
0.0000001
 44
0.0000000001
 40
0.0
 40
0.0
 40
0.0
 40
0.0
 40
0.511241654
 40
0.7743779598
 40
1.0
 40
1.0
 40
1.0
 40
1.0
 10
2775.179601124
 20
1608.5114492279
 30
0.0
 10
2775.179601124
 20
1611.3534061026
 30
0.0
 10
2776.5702861514
 20
1615.667294221
 30
0.0
 10
2779.6605537192
 20
1620.2878268727
 30
0.0
 10
2781.7134224166
 20
1622.1568522711
 30
0.0
 10
2782.7951179725
 20
1622.7916716691
 30
0.0
  0
SPLINE
  5
5E8
100
AcDbEntity
  8
0
100
AcDbSpline
 62
7
  6
CONTINUOUS
 70
0
 71
3
 72
10
 73
6
 74
0
 42
0.0000001
 43
0.0000001
 44
0.0000000001
 40
0.0
 40
0.0
 40
0.0
 40
0.0
 40
0.511241654
 40
0.7743779598
 40
1.0
 40
1.0
 40
1.0
 40
1.0
 10
2775.179601124
 20
1266.1176298772
 30
0.0
 10
2775.179601124
 20
1268.9595867519
 30
0.0
 10
2776.5702861514
 20
1273.2734748704
 30
0.0
 10
2779.6605537192
 20
1277.894007522
 30
0.0
 10
2781.7134224166
 20
1279.7630329204
 30
0.0
 10
2782.7951179725
 20
1280.3978523184
 30
0.0
  0
SPLINE
  5
5E9
100
AcDbEntity
  8
0
100
AcDbSpline
 62
7
  6
CONTINUOUS
 70
0
 71
3
 72
9
 73
5
 74
0
 42
0.0000001
 43
0.0000001
 44
0.0000000001
 40
0.0
 40
0.0
 40
0.0
 40
0.0
 40
0.5000236696
 40
1.0
 40
1.0
 40
1.0
 40
1.0
 10
2801.8832731045
 20
1753.9166680518
 30
0.0
 10
2804.1918856983
 20
1752.584477619
 30
0.0
 10
2809.6601899998
 20
1751.5306585362
 30
0.0
 10
2815.1285064931
 20
1752.5855015538
 30
0.0
 10
2817.4364517246
 20
1753.9183432997
 30
0.0
  0
SPLINE
  5
5EA
100
AcDbEntity
  8
0
100
AcDbSpline
 62
7
  6
CONTINUOUS
 70
0
 71
3
 72
9
 73
5
 74
0
 42
0.0000001
 43
0.0000001
 44
0.0000000001
 40
0.0
 40
0.0
 40
0.0
 40
0.0
 40
0.5000236696
 40
1.0
 40
1.0
 40
1.0
 40
1.0
 10
2743.3049868095
 20
1656.6237721864
 30
0.0
 10
2745.6135994032
 20
1655.2915817535
 30
0.0
 10
2751.0819037048
 20
1654.2377626707
 30
0.0
 10
2756.550220198
 20
1655.2926056884
 30
0.0
 10
2758.8581654296
 20
1656.6254474342
 30
0.0
  0
SPLINE
  5
5EB
100
AcDbEntity
  8
0
100
AcDbSpline
 62
7
  6
CONTINUOUS
 70
0
 71
3
 72
9
 73
5
 74
0
 42
0.0000001
 43
0.0000001
 44
0.0000000001
 40
0.0
 40
0.0
 40
0.0
 40
0.0
 40
0.5000236696
 40
1.0
 40
1.0
 40
1.0
 40
1.0
 10
2633.4111527095
 20
1720.0876220642
 30
0.0
 10
2635.7197653032
 20
1718.7554316313
 30
0.0
 10
2641.1880696048
 20
1717.7016125486
 30
0.0
 10
2646.656386098
 20
1718.7564555662
 30
0.0
 10
2648.9643313295
 20
1720.089297312
 30
0.0
  0
SPLINE
  5
5EC
100
AcDbEntity
  8
0
100
AcDbSpline
 62
7
  6
CONTINUOUS
 70
0
 71
3
 72
11
 73
7
 74
0
 42
0.0000001
 43
0.0000001
 44
0.0000000001
 40
0.0
 40
0.0
 40
0.0
 40
0.0
 40
0.2371986512
 40
0.4999753094
 40
0.7627665494
 40
1.0
 40
1.0
 40
1.0
 40
1.0
 10
2718.1940149851
 20
1338.5158123622
 30
0.0
 10
2718.1940149851
 20
1347.5153075857
 30
0.0
 10
2714.8178584649
 20
1366.4969373126
 30
0.0
 10
2703.0505082928
 20
1393.1708846403
 30
0.0
 10
2685.8328661157
 20
1416.6995794155
 30
0.0
 10
2671.0815979954
 20
1429.1159584093
 30
0.0
 10
2663.2871734259
 20
1433.617249995
 30
0.0
  0
SPLINE
  5
5ED
100
AcDbEntity
  8
0
100
AcDbSpline
 62
7
  6
CONTINUOUS
 70
0
 71
3
 72
16
 73
12
 74
0
 42
0.0000001
 43
0.0000001
 44
0.0000000001
 40
0.0
 40
0.0
 40
0.0
 40
0.0
 40
0.0428741525
 40
0.0875180563
 40
0.1869154163
 40
0.3042243757
 40
0.437950541
 40
0.5823615403
 40
0.729587072
 40
0.8712502764
 40
1.0
 40
1.0
 40
1.0
 40
1.0
 10
2705.4503058749
 20
1287.4107623176
 30
0.0
 10
2707.7378392695
 20
1288.7312462575
 30
0.0
 10
2712.0737757244
 20
1292.0504085268
 30
0.0
 10
2719.2788113534
 20
1301.1612840405
 30
0.0
 10
2724.6467801551
 20
1316.7970393849
 30
0.0
 10
2725.1219043262
 20
1338.5920041362
 30
0.0
 10
2720.2326272079
 20
1362.6290481149
 30
0.0
 10
2710.3603605095
 20
1387.0417386594
 30
0.0
 10
2696.3130086312
 20
1409.891289773
 30
0.0
 10
2679.2463299642
 20
1429.3069266628
 30
0.0
 10
2665.9131820657
 20
1439.5687669678
 30
0.0
 10
2659.0445327388
 20
1443.5354219973
 30
0.0
  0
SPLINE
  5
5EE
100
AcDbEntity
  8
0
100
AcDbSpline
 62
7
  6
CONTINUOUS
 70
0
 71
3
 72
15
 73
11
 74
0
 42
0.0000001
 43
0.0000001
 44
0.0000000001
 40
0.0
 40
0.0
 40
0.0
 40
0.0
 40
0.0870367036
 40
0.1837175129
 40
0.295296731
 40
0.422223679
 40
0.561568962
 40
0.7083534406
 40
0.8565596281
 40
1.0
 40
1.0
 40
1.0
 40
1.0
 10
2606.9630673234
 20
1457.9671533486
 30
0.0
 10
2602.5282290027
 20
1455.4071241905
 30
0.0
 10
2594.358025667
 20
1447.7485113975
 30
0.0
 10
2587.1670350876
 20
1431.5745282513
 30
0.0
 10
2584.6364283398
 20
1411.8110087969
 30
0.0
 10
2586.6860014847
 20
1389.5360751044
 30
0.0
 10
2593.1254743389
 20
1365.9938362609
 30
0.0
 10
2603.5645312398
 20
1342.567774779
 30
0.0
 10
2617.3651064337
 20
1320.6777893609
 30
0.0
 10
2628.5927525483
 20
1307.5933291391
 30
0.0
 10
2634.6093122569
 20
1301.6755548578
 30
0.0
  0
SPLINE
  5
5EF
100
AcDbEntity
  8
0
100
AcDbSpline
 62
7
  6
CONTINUOUS
 70
0
 71
3
 72
8
 73
4
 74
0
 42
0.0000001
 43
0.0000001
 44
0.0000000001
 40
0.0
 40
0.0
 40
0.0
 40
0.0
 40
1.0
 40
1.0
 40
1.0
 40
1.0
 10
2578.3343263676
 20
1687.9159443348
 30
0.0
 10
2578.3342542188
 20
1685.9983432068
 30
0.0
 10
2578.5916327733
 20
1684.0662765611
 30
0.0
 10
2579.0782373571
 20
1682.2114423177
 30
0.0
  0
SPLINE
  5
5F0
100
AcDbEntity
  8
0
100
AcDbSpline
 62
7
  6
CONTINUOUS
 70
0
 71
3
 72
9
 73
5
 74
0
 42
0.0000001
 43
0.0000001
 44
0.0000000001
 40
0.0
 40
0.0
 40
0.0
 40
0.0
 40
0.7469959179
 40
1.0
 40
1.0
 40
1.0
 40
1.0
 10
2574.9343134597
 20
1700.0806535792
 30
0.0
 10
2574.934278527
 20
1698.4418872771
 30
0.0
 10
2575.1718411069
 20
1696.2388100877
 30
0.0
 10
2575.7028245877
 20
1694.1097055067
 30
0.0
 10
2575.8549715181
 20
1693.5759231439
 30
0.0
  0
SPLINE
  5
5F1
100
AcDbEntity
  8
0
100
AcDbSpline
 62
7
  6
CONTINUOUS
 70
0
 71
3
 72
9
 73
5
 74
0
 42
0.0000001
 43
0.0000001
 44
0.0000000001
 40
0.0
 40
0.0
 40
0.0
 40
0.0
 40
0.2379121569
 40
1.0
 40
1.0
 40
1.0
 40
1.0
 10
2579.0782373571
 20
1682.2114423177
 30
0.0
 10
2589.396722737
 20
1674.458404162
 30
0.0
 10
2633.8382552743
 20
1643.3004627315
 30
0.0
 10
2682.0518970729
 20
1617.6941567666
 30
0.0
 10
2719.8396359693
 20
1600.9215288
 30
0.0
  0
SPLINE
  5
5F2
100
AcDbEntity
  8
0
100
AcDbSpline
 62
7
  6
CONTINUOUS
 70
0
 71
3
 72
9
 73
5
 74
0
 42
0.0000001
 43
0.0000001
 44
0.0000000001
 40
0.0
 40
0.0
 40
0.0
 40
0.0
 40
0.2554004308
 40
1.0
 40
1.0
 40
1.0
 40
1.0
 10
2579.8859310117
 20
1336.5883774717
 30
0.0
 10
2579.6310264242
 20
1335.9218796515
 30
0.0
 10
2578.7435996549
 20
1333.2716732257
 30
0.0
 10
2578.3344046412
 20
1330.4583263781
 30
0.0
 10
2578.3343263676
 20
1328.3779423271
 30
0.0
  0
SPLINE
  5
5F3
100
AcDbEntity
  8
0
100
AcDbSpline
 62
7
  6
CONTINUOUS
 70
0
 71
3
 72
9
 73
5
 74
0
 42
0.0000001
 43
0.0000001
 44
0.0000000001
 40
0.0
 40
0.0
 40
0.0
 40
0.0
 40
0.7469959179
 40
1.0
 40
1.0
 40
1.0
 40
1.0
 10
2574.9343134597
 20
1304.0500342014
 30
0.0
 10
2574.934278527
 20
1302.4112678993
 30
0.0
 10
2575.1718411069
 20
1300.20819071
 30
0.0
 10
2575.7028245877
 20
1298.079086129
 30
0.0
 10
2575.8549715181
 20
1297.5453037661
 30
0.0
  0
SPLINE
  5
5F4
100
AcDbEntity
  8
0
100
AcDbSpline
 62
7
  6
CONTINUOUS
 70
0
 71
3
 72
9
 73
5
 74
0
 42
0.0000001
 43
0.0000001
 44
0.0000000001
 40
0.0
 40
0.0
 40
0.0
 40
0.0
 40
0.5214706725
 40
1.0
 40
1.0
 40
1.0
 40
1.0
 10
2683.4797532207
 20
1273.4528037436
 30
0.0
 10
2688.3434842443
 20
1272.6190539891
 30
0.0
 10
2697.9782867783
 20
1272.2337861214
 30
0.0
 10
2707.2044542414
 20
1275.3181662115
 30
0.0
 10
2711.1262670496
 20
1277.5820297178
 30
0.0
  0
SPLINE
  5
5F5
100
AcDbEntity
  8
0
100
AcDbSpline
 62
7
  6
CONTINUOUS
 70
0
 71
3
 72
11
 73
7
 74
0
 42
0.0000001
 43
0.0000001
 44
0.0000000001
 40
0.0
 40
0.0
 40
0.0
 40
0.0
 40
0.2898296195
 40
0.549073273
 40
0.7822488371
 40
1.0
 40
1.0
 40
1.0
 40
1.0
 10
2659.0445327388
 20
1443.5354219973
 30
0.0
 10
2654.9703998618
 20
1445.8882396909
 30
0.0
 10
2646.8701991474
 20
1449.7459904678
 30
0.0
 10
2634.4167815591
 20
1452.7504793491
 30
0.0
 10
2622.7343885046
 20
1452.4598417688
 30
0.0
 10
2615.7000163875
 20
1449.90528013
 30
0.0
 10
2612.6387596027
 20
1448.1381625747
 30
0.0
  0
SPLINE
  5
5F6
100
AcDbEntity
  8
0
100
AcDbSpline
 62
7
  6
CONTINUOUS
 70
0
 71
3
 72
8
 73
4
 74
0
 42
0.0000001
 43
0.0000001
 44
0.0000000001
 40
0.0
 40
0.0
 40
0.0
 40
0.0
 40
1.0
 40
1.0
 40
1.0
 40
1.0
 10
2579.0782373571
 20
1310.5092345199
 30
0.0
 10
2578.5916327733
 20
1312.3640687634
 30
0.0
 10
2578.3342542188
 20
1314.296135409
 30
0.0
 10
2578.3343263676
 20
1316.2137365371
 30
0.0
  0
SPLINE
  5
5F7
100
AcDbEntity
  8
0
100
AcDbSpline
 62
7
  6
CONTINUOUS
 70
0
 71
3
 72
9
 73
5
 74
0
 42
0.0000001
 43
0.0000001
 44
0.0000000001
 40
0.0
 40
0.0
 40
0.0
 40
0.0
 40
0.2622255613
 40
1.0
 40
1.0
 40
1.0
 40
1.0
 10
2719.8396359693
 20
1229.2193210023
 30
0.0
 10
2706.838324715
 20
1234.9901388156
 30
0.0
 10
2657.8190374451
 20
1258.2082408328
 30
0.0
 10
2611.0737581177
 20
1286.4686428888
 30
0.0
 10
2579.0782373571
 20
1310.5092345199
 30
0.0
  0
SPLINE
  5
5F8
100
AcDbEntity
  8
0
100
AcDbSpline
 62
7
  6
CONTINUOUS
 70
0
 71
3
 72
9
 73
5
 74
0
 42
0.0000001
 43
0.0000001
 44
0.0000000001
 40
0.0
 40
0.0
 40
0.0
 40
0.0
 40
0.2507950215
 40
1.0
 40
1.0
 40
1.0
 40
1.0
 10
2718.4548343434
 20
1623.388499645
 30
0.0
 10
2720.9776323074
 20
1623.1486784166
 30
0.0
 10
2731.0646800485
 20
1622.5201716762
 30
0.0
 10
2741.2356547898
 20
1623.1594598615
 30
0.0
 10
2748.7056725933
 20
1624.388073842
 30
0.0
  0
SPLINE
  5
5F9
100
AcDbEntity
  8
0
100
AcDbSpline
 62
7
  6
CONTINUOUS
 70
0
 71
3
 72
9
 73
5
 74
0
 42
0.0000001
 43
0.0000001
 44
0.0000000001
 40
0.0
 40
0.0
 40
0.0
 40
0.0
 40
0.2507950215
 40
1.0
 40
1.0
 40
1.0
 40
1.0
 10
2718.4548343434
 20
1227.3578802673
 30
0.0
 10
2720.9776323074
 20
1227.1180590389
 30
0.0
 10
2731.0646800485
 20
1226.4895522985
 30
0.0
 10
2741.2356547898
 20
1227.1288404838
 30
0.0
 10
2748.7056725933
 20
1228.3574544643
 30
0.0
  0
SPLINE
  5
5FA
100
AcDbEntity
  8
0
100
AcDbSpline
 62
7
  6
CONTINUOUS
 70
0
 71
3
 72
14
 73
10
 74
0
 42
0.0000001
 43
0.0000001
 44
0.0000000001
 40
0.0
 40
0.0
 40
0.0
 40
0.0
 40
0.2907608064
 40
0.444814042
 40
0.583882488
 40
0.698463901
 40
0.791941707
 40
0.8854020413
 40
1.0
 40
1.0
 40
1.0
 40
1.0
 10
2683.7579147413
 20
1706.4470512932
 30
0.0
 10
2682.288859904
 20
1707.2954326098
 30
0.0
 10
2679.5892448373
 20
1707.8123918953
 30
0.0
 10
2676.1951728485
 20
1707.4454132243
 30
0.0
 10
2673.9326242383
 20
1706.6217033003
 30
0.0
 10
2672.2870770292
 20
1705.3504777191
 30
0.0
 10
2671.5939069154
 20
1703.5886149059
 30
0.0
 10
2672.2847656136
 20
1701.8267245898
 30
0.0
 10
2673.2794191902
 20
1701.0644521939
 30
0.0
 10
2673.8584198047
 20
1700.7300784924
 30
0.0
  0
SPLINE
  5
5FB
100
AcDbEntity
  8
0
100
AcDbSpline
 62
7
  6
CONTINUOUS
 70
0
 71
3
 72
9
 73
5
 74
0
 42
0.0000001
 43
0.0000001
 44
0.0000000001
 40
0.0
 40
0.0
 40
0.0
 40
0.0
 40
0.2378089834
 40
1.0
 40
1.0
 40
1.0
 40
1.0
 10
2575.8549715181
 20
1705.7401289339
 30
0.0
 10
2586.2951355599
 20
1697.8773867354
 30
0.0
 10
2631.2937422633
 20
1666.2760542773
 30
0.0
 10
2680.1528968327
 20
1640.3498414426
 30
0.0
 10
2718.4548343434
 20
1623.388499645
 30
0.0
  0
SPLINE
  5
5FC
100
AcDbEntity
  8
0
100
AcDbSpline
 62
7
  6
CONTINUOUS
 70
0
 71
3
 72
8
 73
4
 74
0
 42
0.0000001
 43
0.0000001
 44
0.0000000001
 40
0.0
 40
0.0
 40
0.0
 40
0.0
 40
1.0
 40
1.0
 40
1.0
 40
1.0
 10
2578.3343263676
 20
1328.3779423271
 30
0.0
 10
2578.3342542188
 20
1326.460341199
 30
0.0
 10
2578.5916327733
 20
1324.5282745534
 30
0.0
 10
2579.0782373571
 20
1322.6734403099
 30
0.0
  0
SPLINE
  5
5FD
100
AcDbEntity
  8
0
100
AcDbSpline
 62
7
  6
CONTINUOUS
 70
0
 71
3
 72
9
 73
5
 74
0
 42
0.0000001
 43
0.0000001
 44
0.0000000001
 40
0.0
 40
0.0
 40
0.0
 40
0.0
 40
0.7469959179
 40
1.0
 40
1.0
 40
1.0
 40
1.0
 10
2574.9343134597
 20
1712.2448593692
 30
0.0
 10
2574.934278527
 20
1710.6060930671
 30
0.0
 10
2575.1718411069
 20
1708.4030158777
 30
0.0
 10
2575.7028245877
 20
1706.2739112967
 30
0.0
 10
2575.8549715181
 20
1705.7401289339
 30
0.0
  0
SPLINE
  5
5FE
100
AcDbEntity
  8
0
100
AcDbSpline
 62
7
  6
CONTINUOUS
 70
0
 71
3
 72
14
 73
10
 74
0
 42
0.0000001
 43
0.0000001
 44
0.0000000001
 40
0.0
 40
0.0
 40
0.0
 40
0.0
 40
0.2907608064
 40
0.444814042
 40
0.583882488
 40
0.698463901
 40
0.791941707
 40
0.8854020413
 40
1.0
 40
1.0
 40
1.0
 40
1.0
 10
2719.6789392256
 20
1685.7026071304
 30
0.0
 10
2718.2098843883
 20
1686.5509884469
 30
0.0
 10
2715.5102693215
 20
1687.0679477325
 30
0.0
 10
2712.1161973328
 20
1686.7009690615
 30
0.0
 10
2709.8536487226
 20
1685.8772591375
 30
0.0
 10
2708.2081015134
 20
1684.6060335563
 30
0.0
 10
2707.5149313997
 20
1682.844170743
 30
0.0
 10
2708.2057900978
 20
1681.0822804269
 30
0.0
 10
2709.2004436745
 20
1680.3200080311
 30
0.0
 10
2709.779444289
 20
1679.9856343296
 30
0.0
  0
SPLINE
  5
5FF
100
AcDbEntity
  8
0
100
AcDbSpline
 62
7
  6
CONTINUOUS
 70
0
 71
3
 72
14
 73
10
 74
0
 42
0.0000001
 43
0.0000001
 44
0.0000000001
 40
0.0
 40
0.0
 40
0.0
 40
0.0
 40
0.3017785941
 40
0.4612428491
 40
0.6053507858
 40
0.8092540105
 40
0.851363136
 40
0.8954629125
 40
1.0
 40
1.0
 40
1.0
 40
1.0
 10
2789.1733219701
 20
1618.3149643815
 30
0.0
 10
2789.1733219701
 20
1615.7880173256
 30
0.0
 10
2788.0607716499
 20
1611.9296551397
 30
0.0
 10
2785.4280540808
 20
1607.5440071561
 30
0.0
 10
2782.6751764986
 20
1604.4393207411
 30
0.0
 10
2779.1655991438
 20
1602.6366903328
 30
0.0
 10
2776.9113145933
 20
1603.7261980606
 30
0.0
 10
2775.8004426602
 20
1604.9095314461
 30
0.0
 10
2775.4174127971
 20
1606.1619875569
 30
0.0
 10
2775.2860581155
 20
1607.0274185295
 30
0.0
  0
SPLINE
  5
600
100
AcDbEntity
  8
0
100
AcDbSpline
 62
7
  6
CONTINUOUS
 70
0
 71
3
 72
14
 73
10
 74
0
 42
0.0000001
 43
0.0000001
 44
0.0000000001
 40
0.0
 40
0.0
 40
0.0
 40
0.0
 40
0.3017785941
 40
0.4612428491
 40
0.6053507858
 40
0.8092540105
 40
0.851363136
 40
0.8954629125
 40
1.0
 40
1.0
 40
1.0
 40
1.0
 10
2789.1733219701
 20
1275.9211450308
 30
0.0
 10
2789.1733219701
 20
1273.3941979749
 30
0.0
 10
2788.0607716499
 20
1269.535835789
 30
0.0
 10
2785.4280540808
 20
1265.1501878054
 30
0.0
 10
2782.6751764986
 20
1262.0455013904
 30
0.0
 10
2779.1655991438
 20
1260.2428709821
 30
0.0
 10
2776.9113145933
 20
1261.3323787099
 30
0.0
 10
2775.8004426602
 20
1262.5157120954
 30
0.0
 10
2775.4174127971
 20
1263.7681682062
 30
0.0
 10
2775.2860581155
 20
1264.6335991788
 30
0.0
  0
SPLINE
  5
601
100
AcDbEntity
  8
0
100
AcDbSpline
 62
7
  6
CONTINUOUS
 70
0
 71
3
 72
9
 73
5
 74
0
 42
0.0000001
 43
0.0000001
 44
0.0000000001
 40
0.0
 40
0.0
 40
0.0
 40
0.0
 40
0.2379121569
 40
1.0
 40
1.0
 40
1.0
 40
1.0
 10
2579.0782373571
 20
1322.6734403099
 30
0.0
 10
2589.396722737
 20
1314.9204021542
 30
0.0
 10
2633.8382552743
 20
1283.7624607238
 30
0.0
 10
2682.0518970729
 20
1258.1561547589
 30
0.0
 10
2719.8396359693
 20
1241.3835267923
 30
0.0
  0
SPLINE
  5
602
100
AcDbEntity
  8
0
100
AcDbSpline
 62
7
  6
CONTINUOUS
 70
0
 71
3
 72
14
 73
10
 74
0
 42
0.0000001
 43
0.0000001
 44
0.0000000001
 40
0.0
 40
0.0
 40
0.0
 40
0.0
 40
0.2907608064
 40
0.444814042
 40
0.583882488
 40
0.698463901
 40
0.791941707
 40
0.8854020413
 40
1.0
 40
1.0
 40
1.0
 40
1.0
 10
2795.9757609156
 20
1729.7641332164
 30
0.0
 10
2794.5067060783
 20
1730.6125145329
 30
0.0
 10
2791.8070910116
 20
1731.1294738185
 30
0.0
 10
2788.4130190228
 20
1730.7624951475
 30
0.0
 10
2786.1504704126
 20
1729.9387852235
 30
0.0
 10
2784.5049232035
 20
1728.6675596423
 30
0.0
 10
2783.8117530897
 20
1726.905696829
 30
0.0
 10
2784.5026117879
 20
1725.1438065129
 30
0.0
 10
2785.4972653645
 20
1724.3815341171
 30
0.0
 10
2786.076265979
 20
1724.0471604156
 30
0.0
  0
SPLINE
  5
603
100
AcDbEntity
  8
0
100
AcDbSpline
 62
7
  6
CONTINUOUS
 70
0
 71
3
 72
9
 73
5
 74
0
 42
0.0000001
 43
0.0000001
 44
0.0000000001
 40
0.0
 40
0.0
 40
0.0
 40
0.0
 40
0.7469959179
 40
1.0
 40
1.0
 40
1.0
 40
1.0
 10
2574.9343134597
 20
1316.2142399914
 30
0.0
 10
2574.934278527
 20
1314.5754736893
 30
0.0
 10
2575.1718411069
 20
1312.3723965
 30
0.0
 10
2575.7028245877
 20
1310.243291919
 30
0.0
 10
2575.8549715181
 20
1309.7095095561
 30
0.0
  0
SPLINE
  5
604
100
AcDbEntity
  8
0
100
AcDbSpline
 62
7
  6
CONTINUOUS
 70
0
 71
3
 72
14
 73
10
 74
0
 42
0.0000001
 43
0.0000001
 44
0.0000000001
 40
0.0
 40
0.0
 40
0.0
 40
0.0
 40
0.1145945508
 40
0.2080605524
 40
0.3015374022
 40
0.4161229999
 40
0.5551880645
 40
0.7092371129
 40
1.0
 40
1.0
 40
1.0
 40
1.0
 10
2648.9643313295
 20
1720.089297312
 30
0.0
 10
2649.874168937
 20
1720.6147298607
 30
0.0
 10
2651.4370495377
 20
1721.8126838016
 30
0.0
 10
2652.5232376731
 20
1724.5812437701
 30
0.0
 10
2651.4336247284
 20
1727.3500060995
 30
0.0
 10
2648.8475976653
 20
1729.3473411768
 30
0.0
 10
2645.2923230295
 20
1730.6420871003
 30
0.0
 10
2639.958745017
 20
1731.2188276375
 30
0.0
 10
2635.7165300438
 20
1730.4063015013
 30
0.0
 10
2633.4079821434
 20
1729.0731117133
 30
0.0
  0
SPLINE
  5
605
100
AcDbEntity
  8
0
100
AcDbSpline
 62
7
  6
CONTINUOUS
 70
0
 71
3
 72
14
 73
10
 74
0
 42
0.0000001
 43
0.0000001
 44
0.0000000001
 40
0.0
 40
0.0
 40
0.0
 40
0.0
 40
0.2907608064
 40
0.444814042
 40
0.583882488
 40
0.698463901
 40
0.791941707
 40
0.8854020413
 40
1.0
 40
1.0
 40
1.0
 40
1.0
 10
2760.0547364313
 20
1750.5085773792
 30
0.0
 10
2758.585681594
 20
1751.3569586958
 30
0.0
 10
2755.8860665273
 20
1751.8739179813
 30
0.0
 10
2752.4919945386
 20
1751.5069393104
 30
0.0
 10
2750.2294459284
 20
1750.6832293863
 30
0.0
 10
2748.5838987192
 20
1749.4120038052
 30
0.0
 10
2747.8907286055
 20
1747.6501409919
 30
0.0
 10
2748.5815873036
 20
1745.8882506758
 30
0.0
 10
2749.5762408802
 20
1745.1259782799
 30
0.0
 10
2750.1552414947
 20
1744.7916045784
 30
0.0
  0
SPLINE
  5
606
100
AcDbEntity
  8
0
100
AcDbSpline
 62
7
  6
CONTINUOUS
 70
0
 71
3
 72
11
 73
7
 74
0
 42
0.0000001
 43
0.0000001
 44
0.0000000001
 40
0.0
 40
0.0
 40
0.0
 40
0.0
 40
0.2647322549
 40
0.3765049821
 40
0.4832354466
 40
1.0
 40
1.0
 40
1.0
 40
1.0
 10
2782.7951179725
 20
1280.3978523184
 30
0.0
 10
2783.5487612768
 20
1280.8401462579
 30
0.0
 10
2784.7609986911
 20
1281.3306073771
 30
0.0
 10
2786.378037159
 20
1281.2126116938
 30
0.0
 10
2788.6399813026
 20
1280.1575816547
 30
0.0
 10
2789.1733219701
 20
1277.6269109432
 30
0.0
 10
2789.1733219701
 20
1275.9211450308
 30
0.0
  0
SPLINE
  5
607
100
AcDbEntity
  8
0
100
AcDbSpline
 62
7
  6
CONTINUOUS
 70
0
 71
3
 72
11
 73
7
 74
0
 42
0.0000001
 43
0.0000001
 44
0.0000000001
 40
0.0
 40
0.0
 40
0.0
 40
0.0
 40
0.2753637398
 40
0.4999514785
 40
0.7245964182
 40
1.0
 40
1.0
 40
1.0
 40
1.0
 10
2633.4079821434
 20
1729.0731117133
 30
0.0
 10
2632.4979467735
 20
1728.5475649565
 30
0.0
 10
2630.9343946961
 20
1727.3493296665
 30
0.0
 10
2629.8497714565
 20
1724.5796346735
 30
0.0
 10
2630.9365136652
 20
1721.8106118137
 30
0.0
 10
2632.5008086794
 20
1720.6129382696
 30
0.0
 10
2633.4111527095
 20
1720.0876220642
 30
0.0
  0
SPLINE
  5
608
100
AcDbEntity
  8
0
100
AcDbSpline
 62
7
  6
CONTINUOUS
 70
0
 71
3
 72
11
 73
7
 74
0
 42
0.0000001
 43
0.0000001
 44
0.0000000001
 40
0.0
 40
0.0
 40
0.0
 40
0.0
 40
0.2997783333
 40
0.5357259671
 40
0.7483344209
 40
1.0
 40
1.0
 40
1.0
 40
1.0
 10
2787.7656191664
 20
1275.8428668079
 30
0.0
 10
2787.7656191664
 20
1276.697942967
 30
0.0
 10
2787.5979635725
 20
1278.2380555046
 30
0.0
 10
2786.470280284
 20
1280.1977214022
 30
0.0
 10
2784.4348433145
 20
1280.9148082916
 30
0.0
 10
2783.1063521271
 20
1280.4898115532
 30
0.0
 10
2782.4603201848
 20
1280.1768599443
 30
0.0
  0
SPLINE
  5
609
100
AcDbEntity
  8
0
100
AcDbSpline
 62
7
  6
CONTINUOUS
 70
0
 71
3
 72
11
 73
7
 74
0
 42
0.0000001
 43
0.0000001
 44
0.0000000001
 40
0.0
 40
0.0
 40
0.0
 40
0.0
 40
0.2997783333
 40
0.5357259671
 40
0.7483344209
 40
1.0
 40
1.0
 40
1.0
 40
1.0
 10
2787.7656191664
 20
1618.2366861586
 30
0.0
 10
2787.7656191664
 20
1619.0917623177
 30
0.0
 10
2787.5979635725
 20
1620.6318748553
 30
0.0
 10
2786.470280284
 20
1622.5915407529
 30
0.0
 10
2784.4348433145
 20
1623.3086276422
 30
0.0
 10
2783.1063521271
 20
1622.8836309039
 30
0.0
 10
2782.4603201848
 20
1622.570679295
 30
0.0
  0
SPLINE
  5
60A
100
AcDbEntity
  8
0
100
AcDbSpline
 62
7
  6
CONTINUOUS
 70
0
 71
3
 72
14
 73
10
 74
0
 42
0.0000001
 43
0.0000001
 44
0.0000000001
 40
0.0
 40
0.0
 40
0.0
 40
0.0
 40
0.2985998304
 40
0.4574691665
 40
0.6031859557
 40
0.7248927357
 40
0.8203599706
 40
0.9035511853
 40
1.0
 40
1.0
 40
1.0
 40
1.0
 10
2787.7656191664
 20
1275.8428668079
 30
0.0
 10
2787.7656191664
 20
1273.6363895041
 30
0.0
 10
2786.8101712459
 20
1270.2523523183
 30
0.0
 10
2784.6020546219
 20
1266.3772945674
 30
0.0
 10
2782.523404014
 20
1263.9692956263
 30
0.0
 10
2780.3139693821
 20
1262.4058599587
 30
0.0
 10
2778.0385252823
 20
1261.8580717145
 30
0.0
 10
2776.0648278231
 20
1262.8345252682
 30
0.0
 10
2775.4888559444
 20
1264.1233594898
 30
0.0
 10
2775.3017111334
 20
1264.8110499812
 30
0.0
  0
SPLINE
  5
60B
100
AcDbEntity
  8
0
100
AcDbSpline
 62
7
  6
CONTINUOUS
 70
0
 71
3
 72
14
 73
10
 74
0
 42
0.0000001
 43
0.0000001
 44
0.0000000001
 40
0.0
 40
0.0
 40
0.0
 40
0.0
 40
0.2985998304
 40
0.4574691665
 40
0.6031859557
 40
0.7248927357
 40
0.8203599706
 40
0.9035511853
 40
1.0
 40
1.0
 40
1.0
 40
1.0
 10
2787.7656191664
 20
1618.2366861586
 30
0.0
 10
2787.7656191664
 20
1616.0302088548
 30
0.0
 10
2786.8101712459
 20
1612.646171669
 30
0.0
 10
2784.6020546219
 20
1608.771113918
 30
0.0
 10
2782.523404014
 20
1606.363114977
 30
0.0
 10
2780.3139693821
 20
1604.7996793094
 30
0.0
 10
2778.0385252823
 20
1604.2518910652
 30
0.0
 10
2776.0648278231
 20
1605.2283446189
 30
0.0
 10
2775.4888559444
 20
1606.5171788405
 30
0.0
 10
2775.3017111334
 20
1607.2048693319
 30
0.0
  0
SPLINE
  5
60C
100
AcDbEntity
  8
0
100
AcDbSpline
 62
7
  6
CONTINUOUS
 70
0
 71
3
 72
14
 73
10
 74
0
 42
0.0000001
 43
0.0000001
 44
0.0000000001
 40
0.0
 40
0.0
 40
0.0
 40
0.0
 40
0.1145945508
 40
0.2080605524
 40
0.3015374022
 40
0.4161229999
 40
0.5551880645
 40
0.7092371129
 40
1.0
 40
1.0
 40
1.0
 40
1.0
 10
2758.8581654296
 20
1656.6254474342
 30
0.0
 10
2759.768003037
 20
1657.1508799829
 30
0.0
 10
2761.3308836377
 20
1658.3488339237
 30
0.0
 10
2762.4170717731
 20
1661.1173938922
 30
0.0
 10
2761.3274588284
 20
1663.8861562217
 30
0.0
 10
2758.7414317654
 20
1665.883491299
 30
0.0
 10
2755.1861571296
 20
1667.1782372225
 30
0.0
 10
2749.8525791171
 20
1667.7549777596
 30
0.0
 10
2745.6103641439
 20
1666.9424516235
 30
0.0
 10
2743.3018162435
 20
1665.6092618354
 30
0.0
  0
SPLINE
  5
60D
100
AcDbEntity
  8
0
100
AcDbSpline
 62
7
  6
CONTINUOUS
 70
0
 71
3
 72
11
 73
7
 74
0
 42
0.0000001
 43
0.0000001
 44
0.0000000001
 40
0.0
 40
0.0
 40
0.0
 40
0.0
 40
0.2753637398
 40
0.4999514785
 40
0.7245964182
 40
1.0
 40
1.0
 40
1.0
 40
1.0
 10
2743.3018162435
 20
1665.6092618354
 30
0.0
 10
2742.3917808736
 20
1665.0837150787
 30
0.0
 10
2740.8282287961
 20
1663.8854797887
 30
0.0
 10
2739.7436055565
 20
1661.1157847957
 30
0.0
 10
2740.8303477652
 20
1658.3467619358
 30
0.0
 10
2742.3946427794
 20
1657.1490883918
 30
0.0
 10
2743.3049868095
 20
1656.6237721864
 30
0.0
  0
SPLINE
  5
60E
100
AcDbEntity
  8
0
100
AcDbSpline
 62
7
  6
CONTINUOUS
 70
0
 71
3
 72
10
 73
6
 74
0
 42
0.0000001
 43
0.0000001
 44
0.0000000001
 40
0.0
 40
0.0
 40
0.0
 40
0.0
 40
0.2643115307
 40
0.4902046863
 40
1.0
 40
1.0
 40
1.0
 40
1.0
 10
2743.0745784273
 20
1656.8401276979
 30
0.0
 10
2742.4340973839
 20
1657.3342338428
 30
0.0
 10
2741.3495724338
 20
1658.4544736967
 30
0.0
 10
2740.6849238986
 20
1661.6637584011
 30
0.0
 10
2742.6578175534
 20
1663.6042515999
 30
0.0
 10
2744.0089230246
 20
1664.3845169851
 30
0.0
  0
SPLINE
  5
60F
100
AcDbEntity
  8
0
100
AcDbSpline
 62
7
  6
CONTINUOUS
 70
0
 71
3
 72
14
 73
10
 74
0
 42
0.0000001
 43
0.0000001
 44
0.0000000001
 40
0.0
 40
0.0
 40
0.0
 40
0.0
 40
0.1145945508
 40
0.2080605524
 40
0.3015374022
 40
0.4161229999
 40
0.5551880645
 40
0.7092371129
 40
1.0
 40
1.0
 40
1.0
 40
1.0
 10
2817.4364517246
 20
1753.9183432997
 30
0.0
 10
2818.346289332
 20
1754.4437758483
 30
0.0
 10
2819.9091699327
 20
1755.6417297892
 30
0.0
 10
2820.9953580681
 20
1758.4102897577
 30
0.0
 10
2819.9057451235
 20
1761.1790520872
 30
0.0
 10
2817.3197180604
 20
1763.1763871644
 30
0.0
 10
2813.7644434246
 20
1764.471133088
 30
0.0
 10
2808.4308654121
 20
1765.0478736251
 30
0.0
 10
2804.1886504389
 20
1764.2353474889
 30
0.0
 10
2801.8801025385
 20
1762.9021577009
 30
0.0
  0
SPLINE
  5
610
100
AcDbEntity
  8
0
100
AcDbSpline
 62
7
  6
CONTINUOUS
 70
0
 71
3
 72
11
 73
7
 74
0
 42
0.0000001
 43
0.0000001
 44
0.0000000001
 40
0.0
 40
0.0
 40
0.0
 40
0.0
 40
0.2753637398
 40
0.4999514785
 40
0.7245964182
 40
1.0
 40
1.0
 40
1.0
 40
1.0
 10
2801.8801025385
 20
1762.9021577009
 30
0.0
 10
2800.9700671686
 20
1762.3766109442
 30
0.0
 10
2799.4065150912
 20
1761.1783756542
 30
0.0
 10
2798.3218918515
 20
1758.4086806612
 30
0.0
 10
2799.4086340603
 20
1755.6396578013
 30
0.0
 10
2800.9729290744
 20
1754.4419842573
 30
0.0
 10
2801.8832731045
 20
1753.9166680518
 30
0.0
  0
SPLINE
  5
611
100
AcDbEntity
  8
0
100
AcDbSpline
 62
7
  6
CONTINUOUS
 70
0
 71
3
 72
10
 73
6
 74
0
 42
0.0000001
 43
0.0000001
 44
0.0000000001
 40
0.0
 40
0.0
 40
0.0
 40
0.0
 40
0.2643115307
 40
0.4902046863
 40
1.0
 40
1.0
 40
1.0
 40
1.0
 10
2633.1807443272
 20
1720.3039775757
 30
0.0
 10
2632.5402632839
 20
1720.7980837206
 30
0.0
 10
2631.4557383338
 20
1721.9183235745
 30
0.0
 10
2630.7910897986
 20
1725.1276082789
 30
0.0
 10
2632.7639834534
 20
1727.0681014777
 30
0.0
 10
2634.1150889246
 20
1727.8483668629
 30
0.0
  0
SPLINE
  5
612
100
AcDbEntity
  8
0
100
AcDbSpline
 62
7
  6
CONTINUOUS
 70
0
 71
3
 72
16
 73
12
 74
0
 42
0.0000001
 43
0.0000001
 44
0.0000000001
 40
0.0
 40
0.0
 40
0.0
 40
0.0
 40
0.0428741525
 40
0.0875180563
 40
0.1869154163
 40
0.3042243757
 40
0.437950541
 40
0.5823615403
 40
0.729587072
 40
0.8712502764
 40
1.0
 40
1.0
 40
1.0
 40
1.0
 10
2612.6387596027
 20
1448.1381625747
 30
0.0
 10
2610.3512262081
 20
1446.8176786349
 30
0.0
 10
2606.0152897532
 20
1443.4985163655
 30
0.0
 10
2598.8102541243
 20
1434.3876408518
 30
0.0
 10
2593.4422853225
 20
1418.7518855074
 30
0.0
 10
2592.9671611515
 20
1396.9569207561
 30
0.0
 10
2597.8564382698
 20
1372.9198767774
 30
0.0
 10
2607.7287049682
 20
1348.507186233
 30
0.0
 10
2621.7760568465
 20
1325.6576351193
 30
0.0
 10
2638.8427355134
 20
1306.2419982295
 30
0.0
 10
2652.1758834119
 20
1295.9801579245
 30
0.0
 10
2659.0445327388
 20
1292.013502895
 30
0.0
  0
SPLINE
  5
613
100
AcDbEntity
  8
0
100
AcDbSpline
 62
7
  6
CONTINUOUS
 70
0
 71
3
 72
15
 73
11
 74
0
 42
0.0000001
 43
0.0000001
 44
0.0000000001
 40
0.0
 40
0.0
 40
0.0
 40
0.0
 40
0.0883481177
 40
0.1907450279
 40
0.3103486353
 40
0.4447764356
 40
0.5883211069
 40
0.7336339599
 40
0.8730700979
 40
1.0
 40
1.0
 40
1.0
 40
1.0
 10
2612.9253169888
 20
1447.876666089
 30
0.0
 10
2608.795911013
 20
1444.5536197709
 30
0.0
 10
2601.7386502545
 20
1434.9798887604
 30
0.0
 10
2597.1947672213
 20
1416.6106084052
 30
0.0
 10
2597.7731196321
 20
1395.0417204679
 30
0.0
 10
2603.3348697565
 20
1371.7037567029
 30
0.0
 10
2613.420955964
 20
1348.2739870583
 30
0.0
 10
2627.2852495642
 20
1326.5031181571
 30
0.0
 10
2643.8614359977
 20
1308.0449378728
 30
0.0
 10
2656.6926942091
 20
1298.2719554854
 30
0.0
 10
2663.2871734259
 20
1294.4636340954
 30
0.0
  0
SPLINE
  5
614
100
AcDbEntity
  8
0
100
AcDbSpline
 62
7
  6
CONTINUOUS
 70
0
 71
3
 72
10
 73
6
 74
0
 42
0.0000001
 43
0.0000001
 44
0.0000000001
 40
0.0
 40
0.0
 40
0.0
 40
0.0
 40
0.514247147
 40
0.7397794854
 40
1.0
 40
1.0
 40
1.0
 40
1.0
 10
2759.3476296501
 20
1749.2838325288
 30
0.0
 10
2760.1423411865
 20
1748.8248854546
 30
0.0
 10
2761.2961359831
 20
1747.7134218241
 30
0.0
 10
2760.993369386
 20
1745.8331748692
 30
0.0
 10
2760.3940631324
 20
1745.1582619345
 30
0.0
 10
2760.0373732102
 20
1744.8608993386
 30
0.0
  0
SPLINE
  5
615
100
AcDbEntity
  8
0
100
AcDbSpline
 62
7
  6
CONTINUOUS
 70
0
 71
3
 72
10
 73
6
 74
0
 42
0.0000001
 43
0.0000001
 44
0.0000000001
 40
0.0
 40
0.0
 40
0.0
 40
0.0
 40
0.514247147
 40
0.7397794854
 40
1.0
 40
1.0
 40
1.0
 40
1.0
 10
2795.2686541344
 20
1728.539388366
 30
0.0
 10
2796.0633656708
 20
1728.0804412917
 30
0.0
 10
2797.2171604674
 20
1726.9689776613
 30
0.0
 10
2796.9143938703
 20
1725.0887307064
 30
0.0
 10
2796.3150876167
 20
1724.4138177716
 30
0.0
 10
2795.9583976945
 20
1724.1164551757
 30
0.0
  0
SPLINE
  5
616
100
AcDbEntity
  8
0
100
AcDbSpline
 62
7
  6
CONTINUOUS
 70
0
 71
3
 72
10
 73
6
 74
0
 42
0.0000001
 43
0.0000001
 44
0.0000000001
 40
0.0
 40
0.0
 40
0.0
 40
0.0
 40
0.514247147
 40
0.7397794854
 40
1.0
 40
1.0
 40
1.0
 40
1.0
 10
2718.9718324444
 20
1684.47786228
 30
0.0
 10
2719.7665439808
 20
1684.0189152057
 30
0.0
 10
2720.9203387773
 20
1682.9074515753
 30
0.0
 10
2720.6175721803
 20
1681.0272046204
 30
0.0
 10
2720.0182659267
 20
1680.3522916856
 30
0.0
 10
2719.6615760045
 20
1680.0549290897
 30
0.0
  0
SPLINE
  5
617
100
AcDbEntity
  8
0
100
AcDbSpline
 62
7
  6
CONTINUOUS
 70
0
 71
3
 72
10
 73
6
 74
0
 42
0.0000001
 43
0.0000001
 44
0.0000000001
 40
0.0
 40
0.0
 40
0.0
 40
0.0
 40
0.514247147
 40
0.7397794854
 40
1.0
 40
1.0
 40
1.0
 40
1.0
 10
2683.0508079601
 20
1705.2223064428
 30
0.0
 10
2683.8455194965
 20
1704.7633593685
 30
0.0
 10
2684.9993142931
 20
1703.6518957381
 30
0.0
 10
2684.696547696
 20
1701.7716487832
 30
0.0
 10
2684.0972414424
 20
1701.0967358485
 30
0.0
 10
2683.7405515202
 20
1700.7993732526
 30
0.0
  0
SPLINE
  5
618
100
AcDbEntity
  8
0
100
AcDbSpline
 62
7
  6
CONTINUOUS
 70
0
 71
3
 72
13
 73
9
 74
0
 42
0.0000001
 43
0.0000001
 44
0.0000000001
 40
0.0
 40
0.0
 40
0.0
 40
0.0
 40
0.2905496186
 40
0.446068526
 40
0.5896250432
 40
0.8049742328
 40
0.8955906314
 40
1.0
 40
1.0
 40
1.0
 40
1.0
 10
2718.9718324444
 20
1684.47786228
 30
0.0
 10
2717.7886678309
 20
1685.1611415742
 30
0.0
 10
2715.6312764623
 20
1685.6173825417
 30
0.0
 10
2712.846430535
 20
1685.3905070125
 30
0.0
 10
2710.5631058232
 20
1684.7172903617
 30
0.0
 10
2708.5998934483
 20
1683.1678707245
 30
0.0
 10
2708.7810251528
 20
1681.0954381796
 30
0.0
 10
2709.4183410252
 20
1680.3709513552
 30
0.0
 10
2709.7953040679
 20
1680.0563748555
 30
0.0
  0
SPLINE
  5
619
100
AcDbEntity
  8
0
100
AcDbSpline
 62
7
  6
CONTINUOUS
 70
0
 71
3
 72
13
 73
9
 74
0
 42
0.0000001
 43
0.0000001
 44
0.0000000001
 40
0.0
 40
0.0
 40
0.0
 40
0.0
 40
0.2905496186
 40
0.446068526
 40
0.5896250432
 40
0.8049742328
 40
0.8955906314
 40
1.0
 40
1.0
 40
1.0
 40
1.0
 10
2683.0508079601
 20
1705.2223064428
 30
0.0
 10
2681.8676433467
 20
1705.9055857371
 30
0.0
 10
2679.7102519781
 20
1706.3618267045
 30
0.0
 10
2676.9254060507
 20
1706.1349511753
 30
0.0
 10
2674.6420813389
 20
1705.4617345245
 30
0.0
 10
2672.6788689641
 20
1703.9123148873
 30
0.0
 10
2672.8600006686
 20
1701.8398823424
 30
0.0
 10
2673.4973165409
 20
1701.1153955181
 30
0.0
 10
2673.8742795836
 20
1700.8008190184
 30
0.0
  0
SPLINE
  5
61A
100
AcDbEntity
  8
0
100
AcDbSpline
 62
7
  6
CONTINUOUS
 70
0
 71
3
 72
13
 73
9
 74
0
 42
0.0000001
 43
0.0000001
 44
0.0000000001
 40
0.0
 40
0.0
 40
0.0
 40
0.0
 40
0.2905496186
 40
0.446068526
 40
0.5896250432
 40
0.8049742328
 40
0.8955906314
 40
1.0
 40
1.0
 40
1.0
 40
1.0
 10
2795.2686541344
 20
1728.539388366
 30
0.0
 10
2794.085489521
 20
1729.2226676603
 30
0.0
 10
2791.9280981524
 20
1729.6789086277
 30
0.0
 10
2789.143252225
 20
1729.4520330985
 30
0.0
 10
2786.8599275132
 20
1728.7788164477
 30
0.0
 10
2784.8967151384
 20
1727.2293968105
 30
0.0
 10
2785.0778468429
 20
1725.1569642656
 30
0.0
 10
2785.7151627152
 20
1724.4324774413
 30
0.0
 10
2786.0921257579
 20
1724.1179009416
 30
0.0
  0
SPLINE
  5
61B
100
AcDbEntity
  8
0
100
AcDbSpline
 62
7
  6
CONTINUOUS
 70
0
 71
3
 72
13
 73
9
 74
0
 42
0.0000001
 43
0.0000001
 44
0.0000000001
 40
0.0
 40
0.0
 40
0.0
 40
0.0
 40
0.2905496186
 40
0.446068526
 40
0.5896250432
 40
0.8049742328
 40
0.8955906314
 40
1.0
 40
1.0
 40
1.0
 40
1.0
 10
2759.3476296501
 20
1749.2838325288
 30
0.0
 10
2758.1644650367
 20
1749.9671118231
 30
0.0
 10
2756.0070736681
 20
1750.4233527905
 30
0.0
 10
2753.2222277408
 20
1750.1964772613
 30
0.0
 10
2750.9389030289
 20
1749.5232606105
 30
0.0
 10
2748.9756906541
 20
1747.9738409734
 30
0.0
 10
2749.1568223586
 20
1745.9014084284
 30
0.0
 10
2749.794138231
 20
1745.1769216041
 30
0.0
 10
2750.1711012736
 20
1744.8623451044
 30
0.0
  0
SPLINE
  5
61C
100
AcDbEntity
  8
0
100
AcDbSpline
 62
7
  6
CONTINUOUS
 70
0
 71
3
 72
13
 73
9
 74
0
 42
0.0000001
 43
0.0000001
 44
0.0000000001
 40
0.0
 40
0.0
 40
0.0
 40
0.0
 40
0.1071201098
 40
0.1983186664
 40
0.4103886306
 40
0.5531835403
 40
0.7087191108
 40
1.0
 40
1.0
 40
1.0
 40
1.0
 10
2728.5516679673
 20
1711.6326921565
 30
0.0
 10
2728.0094345175
 20
1712.0443163109
 30
0.0
 10
2727.0839223694
 20
1712.9845061332
 30
0.0
 10
2726.637287473
 20
1715.7691111956
 30
0.0
 10
2729.231337128
 20
1717.9623293656
 30
0.0
 10
2732.2822820778
 20
1718.891108645
 30
0.0
 10
2736.0439540337
 20
1719.2310604972
 30
0.0
 10
2738.9709009409
 20
1718.6233178672
 30
0.0
 10
2740.5739446096
 20
1717.6975578045
 30
0.0
  0
SPLINE
  5
61D
100
AcDbEntity
  8
0
100
AcDbSpline
 62
7
  6
CONTINUOUS
 70
0
 71
3
 72
13
 73
9
 74
0
 42
0.0000001
 43
0.0000001
 44
0.0000000001
 40
0.0
 40
0.0
 40
0.0
 40
0.0
 40
0.2916818978
 40
0.4471902685
 40
0.5894761699
 40
0.799540788
 40
0.891207359
 40
1.0
 40
1.0
 40
1.0
 40
1.0
 10
2802.5872093197
 20
1761.6774128505
 30
0.0
 10
2804.6105888567
 20
1762.8459174917
 30
0.0
 10
2808.3080681652
 20
1763.6051135565
 30
0.0
 10
2813.0465416379
 20
1763.150822063
 30
0.0
 10
2816.8655703999
 20
1761.966153242
 30
0.0
 10
2820.0837959178
 20
1759.1222509723
 30
0.0
 10
2819.3652535887
 20
1755.6332332732
 30
0.0
 10
2818.1523181937
 20
1754.4778600627
 30
0.0
 10
2817.4440494741
 20
1753.9700608874
 30
0.0
  0
SPLINE
  5
61E
100
AcDbEntity
  8
0
100
AcDbSpline
 62
7
  6
CONTINUOUS
 70
0
 71
3
 72
13
 73
9
 74
0
 42
0.0000001
 43
0.0000001
 44
0.0000000001
 40
0.0
 40
0.0
 40
0.0
 40
0.0
 40
0.108792641
 40
0.200459212
 40
0.4105238301
 40
0.5528097315
 40
0.7083181022
 40
1.0
 40
1.0
 40
1.0
 40
1.0
 10
2648.971929079
 20
1720.1410148998
 30
0.0
 10
2649.6801977986
 20
1720.648814075
 30
0.0
 10
2650.8931331936
 20
1721.8041872856
 30
0.0
 10
2651.6116755227
 20
1725.2932049847
 30
0.0
 10
2648.3934500049
 20
1728.1371072544
 30
0.0
 10
2644.5744212428
 20
1729.3217760753
 30
0.0
 10
2639.8359477702
 20
1729.7760675688
 30
0.0
 10
2636.1384684616
 20
1729.0168715041
 30
0.0
 10
2634.1150889246
 20
1727.8483668629
 30
0.0
  0
SPLINE
  5
61F
100
AcDbEntity
  8
0
100
AcDbSpline
 62
7
  6
CONTINUOUS
 70
0
 71
3
 72
13
 73
9
 74
0
 42
0.0000001
 43
0.0000001
 44
0.0000000001
 40
0.0
 40
0.0
 40
0.0
 40
0.0
 40
0.108792641
 40
0.200459212
 40
0.4105238301
 40
0.5528097315
 40
0.7083181022
 40
1.0
 40
1.0
 40
1.0
 40
1.0
 10
2758.865763179
 20
1656.6771650219
 30
0.0
 10
2759.5740318986
 20
1657.1849641972
 30
0.0
 10
2760.7869672936
 20
1658.3403374078
 30
0.0
 10
2761.5055096228
 20
1661.8293551069
 30
0.0
 10
2758.2872841049
 20
1664.6732573765
 30
0.0
 10
2754.4682553428
 20
1665.8579261975
 30
0.0
 10
2749.7297818702
 20
1666.312217691
 30
0.0
 10
2746.0323025617
 20
1665.5530216262
 30
0.0
 10
2744.0089230246
 20
1664.3845169851
 30
0.0
  0
SPLINE
  5
620
100
AcDbEntity
  8
0
100
AcDbSpline
 62
7
  6
CONTINUOUS
 70
0
 71
3
 72
10
 73
6
 74
0
 42
0.0000001
 43
0.0000001
 44
0.0000000001
 40
0.0
 40
0.0
 40
0.0
 40
0.0
 40
0.5097953137
 40
0.7356884693
 40
1.0
 40
1.0
 40
1.0
 40
1.0
 10
2802.5872093197
 20
1761.6774128505
 30
0.0
 10
2801.2361038485
 20
1760.8971474653
 30
0.0
 10
2799.2632101937
 20
1758.9566542665
 30
0.0
 10
2799.9278587289
 20
1755.7473695621
 30
0.0
 10
2801.0123836789
 20
1754.6271297082
 30
0.0
 10
2801.6528647223
 20
1754.1330235633
 30
0.0
  0
SPLINE
  5
621
100
AcDbEntity
  8
0
100
AcDbSpline
 62
7
  6
CONTINUOUS
 70
0
 71
3
 72
11
 73
7
 74
0
 42
0.0000001
 43
0.0000001
 44
0.0000000001
 40
0.0
 40
0.0
 40
0.0
 40
0.0
 40
0.2647322549
 40
0.3765049821
 40
0.4832354466
 40
1.0
 40
1.0
 40
1.0
 40
1.0
 10
2782.7951179725
 20
1622.7916716691
 30
0.0
 10
2783.5487612768
 20
1623.2339656086
 30
0.0
 10
2784.7609986911
 20
1623.7244267278
 30
0.0
 10
2786.378037159
 20
1623.6064310445
 30
0.0
 10
2788.6399813026
 20
1622.5514010054
 30
0.0
 10
2789.1733219701
 20
1620.0207302938
 30
0.0
 10
2789.1733219701
 20
1618.3149643815
 30
0.0
  0
SPLINE
  5
622
100
AcDbEntity
  8
0
100
AcDbSpline
 62
7
  6
CONTINUOUS
 70
0
 71
3
 72
11
 73
7
 74
0
 42
0.0000001
 43
0.0000001
 44
0.0000000001
 40
0.0
 40
0.0
 40
0.0
 40
0.0
 40
0.2753981107
 40
0.5000484574
 40
0.7246249601
 40
1.0
 40
1.0
 40
1.0
 40
1.0
 10
2760.0527587094
 20
1744.7904629012
 30
0.0
 10
2760.6320533441
 20
1745.124736962
 30
0.0
 10
2761.6274402373
 20
1745.8870133514
 30
0.0
 10
2762.3188093212
 20
1747.6490434793
 30
0.0
 10
2761.6289521733
 20
1749.4116737773
 30
0.0
 10
2760.6338658969
 20
1750.1741292661
 30
0.0
 10
2760.0547364313
 20
1750.5085773792
 30
0.0
  0
SPLINE
  5
623
100
AcDbEntity
  8
0
100
AcDbSpline
 62
7
  6
CONTINUOUS
 70
0
 71
3
 72
19
 73
15
 74
0
 42
0.0000001
 43
0.0000001
 44
0.0000000001
 40
0.0
 40
0.0
 40
0.0
 40
0.0
 40
0.0454249553
 40
0.0940657337
 40
0.1481467206
 40
0.208602147
 40
0.346857702
 40
0.5000113092
 40
0.6531622266
 40
0.7914101032
 40
0.8518612857
 40
0.9059383798
 40
0.9545760495
 40
1.0
 40
1.0
 40
1.0
 40
1.0
 10
2612.8320536168
 20
1461.356501516
 30
0.0
 10
2616.2671621168
 20
1463.3394324092
 30
0.0
 10
2624.1605485364
 20
1466.2059872466
 30
0.0
 10
2637.2683914645
 20
1466.5334927061
 30
0.0
 10
2651.2467821715
 20
1463.1628559298
 30
0.0
 10
2671.2805834068
 20
1453.6132946336
 30
0.0
 10
2695.1344079939
 20
1433.5085108965
 30
0.0
 10
2718.2449268172
 20
1401.9548431585
 30
0.0
 10
2734.0212759136
 20
1366.1667325171
 30
0.0
 10
2739.5091518949
 20
1335.4581630049
 30
0.0
 10
2737.7648576734
 20
1313.3348163097
 30
0.0
 10
2733.6961672819
 20
1299.5443572259
 30
0.0
 10
2726.8591272899
 20
1288.3569616229
 30
0.0
 10
2720.4302932357
 20
1282.9542520856
 30
0.0
 10
2716.9952533214
 20
1280.9713778703
 30
0.0
  0
SPLINE
  5
624
100
AcDbEntity
  8
0
100
AcDbSpline
 62
7
  6
CONTINUOUS
 70
0
 71
3
 72
11
 73
7
 74
0
 42
0.0000001
 43
0.0000001
 44
0.0000000001
 40
0.0
 40
0.0
 40
0.0
 40
0.0
 40
0.2753981107
 40
0.5000484574
 40
0.7246249601
 40
1.0
 40
1.0
 40
1.0
 40
1.0
 10
2795.9737831937
 20
1724.0460187383
 30
0.0
 10
2796.5530778284
 20
1724.3802927992
 30
0.0
 10
2797.5484647216
 20
1725.1425691886
 30
0.0
 10
2798.2398338055
 20
1726.9045993164
 30
0.0
 10
2797.5499766576
 20
1728.6672296145
 30
0.0
 10
2796.5548903812
 20
1729.4296851032
 30
0.0
 10
2795.9757609156
 20
1729.7641332164
 30
0.0
  0
SPLINE
  5
625
100
AcDbEntity
  8
0
100
AcDbSpline
 62
7
  6
CONTINUOUS
 70
0
 71
3
 72
11
 73
7
 74
0
 42
0.0000001
 43
0.0000001
 44
0.0000000001
 40
0.0
 40
0.0
 40
0.0
 40
0.0
 40
0.2753981107
 40
0.5000484574
 40
0.7246249601
 40
1.0
 40
1.0
 40
1.0
 40
1.0
 10
2719.6769615037
 20
1679.9844926523
 30
0.0
 10
2720.2562561383
 20
1680.3187667132
 30
0.0
 10
2721.2516430316
 20
1681.0810431026
 30
0.0
 10
2721.9430121154
 20
1682.8430732304
 30
0.0
 10
2721.2531549675
 20
1684.6057035284
 30
0.0
 10
2720.2580686911
 20
1685.3681590172
 30
0.0
 10
2719.6789392256
 20
1685.7026071304
 30
0.0
  0
SPLINE
  5
626
100
AcDbEntity
  8
0
100
AcDbSpline
 62
7
  6
CONTINUOUS
 70
0
 71
3
 72
19
 73
15
 74
0
 42
0.0000001
 43
0.0000001
 44
0.0000000001
 40
0.0
 40
0.0
 40
0.0
 40
0.0
 40
0.0454239505
 40
0.0940616202
 40
0.1481387142
 40
0.2085898967
 40
0.3468377731
 40
0.4999886903
 40
0.6531422976
 40
0.7913978528
 40
0.8518532794
 40
0.9059342663
 40
0.9545750447
 40
1.0
 40
1.0
 40
1.0
 40
1.0
 10
2711.1262670496
 20
1277.5820297178
 30
0.0
 10
2714.5613069622
 20
1279.5649039347
 30
0.0
 10
2720.9901410125
 20
1284.9676134711
 30
0.0
 10
2727.8271809987
 20
1296.1550090684
 30
0.0
 10
2731.895871387
 20
1309.945468139
 30
0.0
 10
2733.6401656113
 20
1332.0688148071
 30
0.0
 10
2728.1522896495
 20
1362.7773842881
 30
0.0
 10
2712.3759405787
 20
1398.5654949151
 30
0.0
 10
2689.2654217675
 20
1430.1191626778
 30
0.0
 10
2665.4115971618
 20
1450.2239464505
 30
0.0
 10
2645.377795897
 20
1459.7735077688
 30
0.0
 10
2631.399405173
 20
1463.1441445473
 30
0.0
 10
2618.2915622408
 20
1462.8166390838
 30
0.0
 10
2610.3981758218
 20
1459.9500842429
 30
0.0
 10
2606.9630673234
 20
1457.9671533486
 30
0.0
  0
SPLINE
  5
627
100
AcDbEntity
  8
0
100
AcDbSpline
 62
7
  6
CONTINUOUS
 70
0
 71
3
 72
14
 73
10
 74
0
 42
0.0000001
 43
0.0000001
 44
0.0000000001
 40
0.0
 40
0.0
 40
0.0
 40
0.0
 40
0.2907628871
 40
0.4448119355
 40
0.5838770001
 40
0.6984625978
 40
0.7919394476
 40
0.8854054492
 40
1.0
 40
1.0
 40
1.0
 40
1.0
 10
2741.2810513908
 20
1718.9223026549
 30
0.0
 10
2739.3922394723
 20
1720.0130942996
 30
0.0
 10
2735.9213363124
 20
1720.6778884111
 30
0.0
 10
2731.5574997567
 20
1720.2060097898
 30
0.0
 10
2728.6486386911
 20
1719.146672216
 30
0.0
 10
2726.5327983667
 20
1717.5124889709
 30
0.0
 10
2725.6412968666
 20
1715.2471379741
 30
0.0
 10
2726.5299962501
 20
1712.9819525453
 30
0.0
 10
2727.8087167416
 20
1712.0018084119
 30
0.0
 10
2728.5531293295
 20
1711.5719090539
 30
0.0
  0
SPLINE
  5
628
100
AcDbEntity
  8
0
100
AcDbSpline
 62
7
  6
CONTINUOUS
 70
0
 71
3
 72
11
 73
7
 74
0
 42
0.0000001
 43
0.0000001
 44
0.0000000001
 40
0.0
 40
0.0
 40
0.0
 40
0.0
 40
0.2753981107
 40
0.5000484574
 40
0.7246249601
 40
1.0
 40
1.0
 40
1.0
 40
1.0
 10
2683.7559370194
 20
1700.7289368152
 30
0.0
 10
2684.3352316541
 20
1701.063210876
 30
0.0
 10
2685.3306185473
 20
1701.8254872654
 30
0.0
 10
2686.0219876311
 20
1703.5875173933
 30
0.0
 10
2685.3321304833
 20
1705.3501476913
 30
0.0
 10
2684.3370442069
 20
1706.11260318
 30
0.0
 10
2683.7579147413
 20
1706.4470512932
 30
0.0
  0
SPLINE
  5
629
100
AcDbEntity
  8
0
100
AcDbSpline
 62
7
  6
CONTINUOUS
 70
0
 71
3
 72
11
 73
7
 74
0
 42
0.0000001
 43
0.0000001
 44
0.0000000001
 40
0.0
 40
0.0
 40
0.0
 40
0.0
 40
0.2754035818
 40
0.5000485215
 40
0.7246362602
 40
1.0
 40
1.0
 40
1.0
 40
1.0
 10
2741.2784572913
 20
1711.5705383966
 30
0.0
 10
2742.0232842251
 20
1712.0003425646
 30
0.0
 10
2743.3031619639
 20
1712.9802572825
 30
0.0
 10
2744.1923146801
 20
1715.2458214406
 30
0.0
 10
2743.3048956659
 20
1717.5119355258
 30
0.0
 10
2742.0256257844
 20
1718.4923098539
 30
0.0
 10
2741.2810513908
 20
1718.9223026549
 30
0.0
  0
SPLINE
  5
62A
100
AcDbEntity
  8
0
100
AcDbSpline
 62
7
  6
CONTINUOUS
 70
0
 71
3
 72
10
 73
6
 74
0
 42
0.0000001
 43
0.0000001
 44
0.0000000001
 40
0.0
 40
0.0
 40
0.0
 40
0.0
 40
0.2652560216
 40
0.4912528209
 40
1.0
 40
1.0
 40
1.0
 40
1.0
 10
2741.2804810333
 20
1711.6309363994
 30
0.0
 10
2741.801389841
 20
1712.0258687084
 30
0.0
 10
2742.684886619
 20
1712.9208299531
 30
0.0
 10
2743.2470276364
 20
1715.5014989172
 30
0.0
 10
2741.6596557814
 20
1717.0705580153
 30
0.0
 10
2740.5739446096
 20
1717.6975578045
 30
0.0
  0
SPLINE
  5
62B
100
AcDbEntity
  8
0
100
AcDbSpline
 62
7
  6
CONTINUOUS
 70
0
 71
3
 72
9
 73
5
 74
0
 42
0.0000001
 43
0.0000001
 44
0.0000000001
 40
0.0
 40
0.0
 40
0.0
 40
0.0
 40
0.2378089834
 40
1.0
 40
1.0
 40
1.0
 40
1.0
 10
2575.8549715181
 20
1309.7095095561
 30
0.0
 10
2586.2951355599
 20
1301.8467673577
 30
0.0
 10
2631.2937422633
 20
1270.2454348996
 30
0.0
 10
2680.1528968327
 20
1244.3192220649
 30
0.0
 10
2718.4548343434
 20
1227.3578802673
 30
0.0
  0
SPLINE
  5
62C
100
AcDbEntity
  8
0
100
AcDbSpline
 62
7
  6
CONTINUOUS
 70
0
 71
3
 72
17
 73
13
 74
0
 42
0.0000001
 43
0.0000001
 44
0.0000000001
 40
0.0
 40
0.0
 40
0.0
 40
0.0
 40
0.137337548
 40
0.2893749026
 40
0.4435105044
 40
0.5865544601
 40
0.6507664749
 40
0.7090671718
 40
0.8085775737
 40
0.8537641933
 40
0.8991539295
 40
1.0
 40
1.0
 40
1.0
 40
1.0
 10
2681.6719497368
 20
1338.6753034081
 30
0.0
 10
2676.8832961736
 20
1341.4407578427
 30
0.0
 10
2667.7468406256
 20
1348.9386892156
 30
0.0
 10
2656.7712240947
 20
1363.1727951545
 30
0.0
 10
2648.7855626027
 20
1379.5383987171
 30
0.0
 10
2645.2928249502
 20
1393.8284724942
 30
0.0
 10
2645.0203896386
 20
1404.5689575635
 30
0.0
 10
2646.2608054861
 20
1413.428452442
 30
0.0
 10
2649.8975511335
 20
1421.2271209308
 30
0.0
 10
2656.0340814514
 20
1426.0188495266
 30
0.0
 10
2663.412721969
 20
1428.6314168948
 30
0.0
 10
2669.5960071386
 20
1427.8747950692
 30
0.0
 10
2673.4727663946
 20
1426.667109643
 30
0.0
  0
SPLINE
  5
62D
100
AcDbEntity
  8
0
100
AcDbSpline
 62
7
  6
CONTINUOUS
 70
0
 71
3
 72
12
 73
8
 74
0
 42
0.0000001
 43
0.0000001
 44
0.0000000001
 40
0.0
 40
0.0
 40
0.0
 40
0.0
 40
0.2862005657
 40
0.5240706806
 40
0.6352630478
 40
0.7484697969
 40
1.0
 40
1.0
 40
1.0
 40
1.0
 10
2681.6719497368
 20
1338.6753034081
 30
0.0
 10
2685.3941377002
 20
1336.5257344167
 30
0.0
 10
2692.7837918844
 20
1333.3711850981
 30
0.0
 10
2702.774550118
 20
1333.602746777
 30
0.0
 10
2709.0494183738
 20
1336.8139553849
 30
0.0
 10
2714.2599488459
 20
1341.8352130624
 30
0.0
 10
2716.4336553381
 20
1347.1467313077
 30
0.0
 10
2717.2638950385
 20
1350.8319653304
 30
0.0
  0
SPLINE
  5
62E
100
AcDbEntity
  8
0
100
AcDbSpline
 62
7
  6
CONTINUOUS
 70
0
 71
3
 72
19
 73
15
 74
0
 42
0.0000001
 43
0.0000001
 44
0.0000000001
 40
0.0
 40
0.0
 40
0.0
 40
0.0
 40
0.0604616213
 40
0.1145440514
 40
0.1631885818
 40
0.2086144218
 40
0.2540370568
 40
0.3026716359
 40
0.3567444073
 40
0.4171912233
 40
0.555432679
 40
0.7085812218
 40
0.8617382629
 40
1.0
 40
1.0
 40
1.0
 40
1.0
 10
2663.2871734259
 20
1433.617249995
 30
0.0
 10
2659.8786848855
 20
1435.5856571109
 30
0.0
 10
2653.1013771911
 20
1438.8129205926
 30
0.0
 10
2642.6846792761
 20
1441.328355751
 30
0.0
 10
2632.9042981358
 20
1441.0823980293
 30
0.0
 10
2624.1990239067
 20
1437.9279999628
 30
0.0
 10
2617.1122193557
 20
1431.9696891573
 30
0.0
 10
2612.006900858
 20
1423.6264463271
 30
0.0
 10
2608.9738982334
 20
1413.3472561837
 30
0.0
 10
2607.6706534755
 20
1396.8536006599
 30
0.0
 10
2611.7601505115
 20
1373.9592789275
 30
0.0
 10
2623.522806709
 20
1347.2763221576
 30
0.0
 10
2640.7417449554
 20
1323.7501150101
 30
0.0
 10
2655.4927488565
 20
1311.3332288837
 30
0.0
 10
2663.2871734259
 20
1306.8319372979
 30
0.0
  0
SPLINE
  5
62F
100
AcDbEntity
  8
0
100
AcDbSpline
 62
7
  6
CONTINUOUS
 70
0
 71
3
 72
15
 73
11
 74
0
 42
0.0000001
 43
0.0000001
 44
0.0000000001
 40
0.0
 40
0.0
 40
0.0
 40
0.0
 40
0.1449254393
 40
0.27456007
 40
0.3911601507
 40
0.5000450877
 40
0.6089223422
 40
0.7254985701
 40
0.8551100489
 40
1.0
 40
1.0
 40
1.0
 40
1.0
 10
2663.2871734259
 20
1306.8319372979
 30
0.0
 10
2666.6956619663
 20
1304.863530182
 30
0.0
 10
2673.4729691196
 20
1301.6362656617
 30
0.0
 10
2683.8896691847
 20
1299.1208346301
 30
0.0
 10
2693.6700435323
 20
1299.3667793141
 30
0.0
 10
2702.3753409305
 20
1302.5212218506
 30
0.0
 10
2709.4620581991
 20
1308.4793651295
 30
0.0
 10
2714.5677383869
 20
1316.8233021744
 30
0.0
 10
2717.5991619981
 20
1327.0994616174
 30
0.0
 10
2718.1940149851
 20
1334.5807349397
 30
0.0
 10
2718.1940149851
 20
1338.5158123622
 30
0.0
  0
SPLINE
  5
630
100
AcDbEntity
  8
0
100
AcDbSpline
 62
7
  6
CONTINUOUS
 70
0
 71
3
 72
11
 73
7
 74
0
 42
0.0000001
 43
0.0000001
 44
0.0000000001
 40
0.0
 40
0.0
 40
0.0
 40
0.0
 40
0.2864466997
 40
0.5461158057
 40
0.7816753885
 40
1.0
 40
1.0
 40
1.0
 40
1.0
 10
2663.2871734259
 20
1294.4636340954
 30
0.0
 10
2666.9207689452
 20
1292.36522737
 30
0.0
 10
2674.151243775
 20
1288.8479528306
 30
0.0
 10
2685.2495346728
 20
1285.742107816
 30
0.0
 10
2695.7853211773
 20
1285.1864808395
 30
0.0
 10
2702.3843833612
 20
1286.6355024675
 30
0.0
 10
2705.3665590958
 20
1287.7907205675
 30
0.0
  0
SPLINE
  5
631
100
AcDbEntity
  8
0
100
AcDbSpline
 62
7
  6
CONTINUOUS
 70
0
 71
3
 72
11
 73
7
 74
0
 42
0.0000001
 43
0.0000001
 44
0.0000000001
 40
0.0
 40
0.0
 40
0.0
 40
0.0
 40
0.2898296195
 40
0.549073273
 40
0.7822488371
 40
1.0
 40
1.0
 40
1.0
 40
1.0
 10
2659.0445327388
 20
1292.013502895
 30
0.0
 10
2663.1186656158
 20
1289.6606852014
 30
0.0
 10
2671.2188663302
 20
1285.8029344245
 30
0.0
 10
2683.6722839186
 20
1282.7984455432
 30
0.0
 10
2695.354676973
 20
1283.0890831235
 30
0.0
 10
2702.3890490901
 20
1285.6436447623
 30
0.0
 10
2705.4503058749
 20
1287.4107623176
 30
0.0
  0
SPLINE
  5
632
100
AcDbEntity
  8
0
100
AcDbSpline
 62
7
  6
CONTINUOUS
 70
0
 71
3
 72
12
 73
8
 74
0
 42
0.0000001
 43
0.0000001
 44
0.0000000001
 40
0.0
 40
0.0
 40
0.0
 40
0.0
 40
0.0385036572
 40
0.1073249617
 40
0.3298854208
 40
0.6410440428
 40
1.0
 40
1.0
 40
1.0
 40
1.0
 10
1835.7921445712
 20
1517.6511576844
 30
0.0
 10
1835.862184548
 20
1517.5943571546
 30
0.0
 10
1836.1180169358
 20
1517.5322454885
 30
0.0
 10
1836.8744083286
 20
1517.4335741577
 30
0.0
 10
1838.2980438818
 20
1517.427998202
 30
0.0
 10
1840.3819786818
 20
1517.5091349422
 30
0.0
 10
1841.9483893876
 20
1517.635098523
 30
0.0
 10
1842.7852076242
 20
1517.7156749545
 30
0.0
  0
SPLINE
  5
633
100
AcDbEntity
  8
0
100
AcDbSpline
 62
7
  6
CONTINUOUS
 70
0
 71
3
 72
12
 73
8
 74
0
 42
0.0000001
 43
0.0000001
 44
0.0000000001
 40
0.0
 40
0.0
 40
0.0
 40
0.0
 40
0.0385036572
 40
0.1073249617
 40
0.3298854208
 40
0.6410440428
 40
1.0
 40
1.0
 40
1.0
 40
1.0
 10
1886.3582714483
 20
1522.5201219124
 30
0.0
 10
1886.428311425
 20
1522.4633213826
 30
0.0
 10
1886.6841438128
 20
1522.4012097166
 30
0.0
 10
1887.4405352056
 20
1522.3025383857
 30
0.0
 10
1888.8641707588
 20
1522.2969624301
 30
0.0
 10
1890.9481055589
 20
1522.3780991702
 30
0.0
 10
1892.5145162646
 20
1522.504062751
 30
0.0
 10
1893.3513345013
 20
1522.5846391825
 30
0.0
  0
SPLINE
  5
634
100
AcDbEntity
  8
0
100
AcDbSpline
 62
7
  6
CONTINUOUS
 70
0
 71
3
 72
12
 73
8
 74
0
 42
0.0000001
 43
0.0000001
 44
0.0000000001
 40
0.0
 40
0.0
 40
0.0
 40
0.0
 40
0.0385036572
 40
0.1073249617
 40
0.3298854208
 40
0.6410440428
 40
1.0
 40
1.0
 40
1.0
 40
1.0
 10
1885.3670579953
 20
1532.814267213
 30
0.0
 10
1885.437097972
 20
1532.7574666832
 30
0.0
 10
1885.6929303598
 20
1532.6953550171
 30
0.0
 10
1886.4493217526
 20
1532.5966836863
 30
0.0
 10
1887.8729573058
 20
1532.5911077306
 30
0.0
 10
1889.9568921059
 20
1532.6722444708
 30
0.0
 10
1891.5233028116
 20
1532.7982080516
 30
0.0
 10
1892.3601210483
 20
1532.8787844831
 30
0.0
  0
SPLINE
  5
635
100
AcDbEntity
  8
0
100
AcDbSpline
 62
7
  6
CONTINUOUS
 70
0
 71
3
 72
12
 73
8
 74
0
 42
0.0000001
 43
0.0000001
 44
0.0000000001
 40
0.0
 40
0.0
 40
0.0
 40
0.0
 40
0.0385036572
 40
0.1073249617
 40
0.3298854208
 40
0.6410440428
 40
1.0
 40
1.0
 40
1.0
 40
1.0
 10
1834.8009311182
 20
1527.9453029849
 30
0.0
 10
1834.870971095
 20
1527.8885024551
 30
0.0
 10
1835.1268034828
 20
1527.8263907891
 30
0.0
 10
1835.8831948756
 20
1527.7277194582
 30
0.0
 10
1837.3068304288
 20
1527.7221435026
 30
0.0
 10
1839.3907652288
 20
1527.8032802428
 30
0.0
 10
1840.9571759346
 20
1527.9292438235
 30
0.0
 10
1841.7939941712
 20
1528.009820255
 30
0.0
  0
SPLINE
  5
636
100
AcDbEntity
  8
0
100
AcDbSpline
 62
7
  6
CONTINUOUS
 70
0
 71
3
 72
13
 73
9
 74
0
 42
0.0000001
 43
0.0000001
 44
0.0000000001
 40
0.0
 40
0.0
 40
0.0
 40
0.0
 40
0.0384232198
 40
0.1071343891
 40
0.2052007296
 40
0.3297027332
 40
0.6409264295
 40
1.0
 40
1.0
 40
1.0
 40
1.0
 10
2085.6599156535
 20
1546.8690577693
 30
0.0
 10
2085.7692155001
 20
1546.7792932371
 30
0.0
 10
2086.1714349449
 20
1546.6824610573
 30
0.0
 10
2086.9088949715
 20
1546.5832278043
 30
0.0
 10
2087.9863674246
 20
1546.5340085423
 30
0.0
 10
2089.948596549
 20
1546.5235577259
 30
0.0
 10
2092.8749057685
 20
1546.6486055598
 30
0.0
 10
2095.3344097592
 20
1546.8430352086
 30
0.0
 10
2096.6500752137
 20
1546.9697193829
 30
0.0
  0
SPLINE
  5
637
100
AcDbEntity
  8
0
100
AcDbSpline
 62
7
  6
CONTINUOUS
 70
0
 71
3
 72
13
 73
9
 74
0
 42
0.0000001
 43
0.0000001
 44
0.0000000001
 40
0.0
 40
0.0
 40
0.0
 40
0.0
 40
0.0389610075
 40
0.1132839377
 40
0.220125345
 40
0.3539292214
 40
0.6723376649
 40
1.0
 40
1.0
 40
1.0
 40
1.0
 10
1668.1915728075
 20
1506.6707653056
 30
0.0
 10
1668.3471658937
 20
1506.5442634673
 30
0.0
 10
1668.9592081509
 20
1506.4473573041
 30
0.0
 10
1670.0623859712
 20
1506.3381222517
 30
0.0
 10
1671.6966115526
 20
1506.3250165359
 30
0.0
 10
1674.567346249
 20
1506.3968364619
 30
0.0
 10
1678.5767020092
 20
1506.6824116328
 30
0.0
 10
1681.8817519288
 20
1507.0496882914
 30
0.0
 10
1683.5522167051
 20
1507.2813452306
 30
0.0
  0
SPLINE
  5
638
100
AcDbEntity
  8
0
100
AcDbSpline
 62
7
  6
CONTINUOUS
 70
0
 71
3
 72
13
 73
9
 74
0
 42
0.0000001
 43
0.0000001
 44
0.0000000001
 40
0.0
 40
0.0
 40
0.0
 40
0.0
 40
0.3777113143
 40
0.6984684849
 40
0.8220148733
 40
0.9146471295
 40
0.973543028
 40
1.0
 40
1.0
 40
1.0
 40
1.0
 10
2064.0576486375
 20
1539.0651177637
 30
0.0
 10
2065.4547125027
 20
1539.1996397135
 30
0.0
 10
2068.0305991783
 20
1539.4931466277
 30
0.0
 10
2071.0610857078
 20
1539.9650497424
 30
0.0
 10
2072.9995026065
 20
1540.3654282473
 30
0.0
 10
2074.0145525312
 20
1540.6471934709
 30
0.0
 10
2074.5832777631
 20
1540.8459094761
 30
0.0
 10
2074.9153789837
 20
1541.0710125009
 30
0.0
 10
2074.9059563285
 20
1541.168870516
 30
0.0
  0
SPLINE
  5
639
100
AcDbEntity
  8
0
100
AcDbSpline
 62
7
  6
CONTINUOUS
 70
0
 71
3
 72
13
 73
9
 74
0
 42
0.0000001
 43
0.0000001
 44
0.0000000001
 40
0.0
 40
0.0
 40
0.0
 40
0.0
 40
0.026456972
 40
0.0853528705
 40
0.1779851267
 40
0.3015315151
 40
0.6222886857
 40
1.0
 40
1.0
 40
1.0
 40
1.0
 10
1920.6195455816
 20
1526.3127788753
 30
0.0
 10
1920.6289682368
 20
1526.2149208602
 30
0.0
 10
1920.9979195046
 20
1526.0573215123
 30
0.0
 10
1921.5941124534
 20
1525.9707743699
 30
0.0
 10
1922.6442763913
 20
1525.8878666235
 30
0.0
 10
1924.6234749322
 20
1525.8647115805
 30
0.0
 10
1927.6883262479
 20
1525.9797227453
 30
0.0
 10
1930.2728903895
 20
1526.1831107286
 30
0.0
 10
1931.6699542547
 20
1526.3176326785
 30
0.0
  0
SPLINE
  5
63A
100
AcDbEntity
  8
0
100
AcDbSpline
 62
7
  6
CONTINUOUS
 70
0
 71
3
 72
11
 73
7
 74
0
 42
0.0000001
 43
0.0000001
 44
0.0000000001
 40
0.0
 40
0.0
 40
0.0
 40
0.0
 40
0.3760562607
 40
0.6802693276
 40
0.892053223
 40
1.0
 40
1.0
 40
1.0
 40
1.0
 10
1683.5522167051
 20
1507.2813452306
 30
0.0
 10
1684.3764155128
 20
1507.3956435838
 30
0.0
 10
1685.8586723974
 20
1507.6259353977
 30
0.0
 10
1687.8184377198
 20
1507.9874423058
 30
0.0
 10
1689.1127592131
 20
1508.3555565839
 30
0.0
 10
1689.8344329782
 20
1508.586208275
 30
0.0
 10
1689.9876319714
 20
1508.769455106
 30
0.0
  0
SPLINE
  5
63B
100
AcDbEntity
  8
0
100
AcDbSpline
 62
7
  6
CONTINUOUS
 70
0
 71
3
 72
13
 73
9
 74
0
 42
0.0000001
 43
0.0000001
 44
0.0000000001
 40
0.0
 40
0.0
 40
0.0
 40
0.0
 40
0.3590735705
 40
0.6702972668
 40
0.7947992704
 40
0.8928656109
 40
0.9615767802
 40
1.0
 40
1.0
 40
1.0
 40
1.0
 10
2096.6500752137
 20
1546.9697193829
 30
0.0
 10
2097.9657406681
 20
1547.0964035573
 30
0.0
 10
2100.4171555691
 20
1547.3748416143
 30
0.0
 10
2103.3135604977
 20
1547.8104573837
 30
0.0
 10
2105.2377438366
 20
1548.1951271572
 30
0.0
 10
2106.286028608
 20
1548.449033559
 30
0.0
 10
2106.9910048196
 20
1548.6871576245
 30
0.0
 10
2107.3673579093
 20
1548.8589578125
 30
0.0
 10
2107.4575217297
 20
1548.9679285113
 30
0.0
  0
SPLINE
  5
63C
100
AcDbEntity
  8
0
100
AcDbSpline
 62
7
  6
CONTINUOUS
 70
0
 71
3
 72
12
 73
8
 74
0
 42
0.0000001
 43
0.0000001
 44
0.0000000001
 40
0.0
 40
0.0
 40
0.0
 40
0.0
 40
0.3589559572
 40
0.6701145792
 40
0.8926750383
 40
0.9614963428
 40
1.0
 40
1.0
 40
1.0
 40
1.0
 10
1841.7939941712
 20
1528.009820255
 30
0.0
 10
1842.6308124079
 20
1528.0903966866
 30
0.0
 10
1844.1924787214
 20
1528.2656326647
 30
0.0
 10
1846.2536073896
 20
1528.5836201406
 30
0.0
 10
1847.6500228054
 20
1528.8607361199
 30
0.0
 10
1848.3736897804
 20
1529.1019208623
 30
0.0
 10
1848.6129703421
 20
1529.211706483
 30
0.0
 10
1848.6708854351
 20
1529.2808276846
 30
0.0
  0
SPLINE
  5
63D
100
AcDbEntity
  8
0
100
AcDbSpline
 62
7
  6
CONTINUOUS
 70
0
 71
3
 72
12
 73
8
 74
0
 42
0.0000001
 43
0.0000001
 44
0.0000000001
 40
0.0
 40
0.0
 40
0.0
 40
0.0
 40
0.3589559572
 40
0.6701145792
 40
0.8926750383
 40
0.9614963428
 40
1.0
 40
1.0
 40
1.0
 40
1.0
 10
1892.3601210483
 20
1532.8787844831
 30
0.0
 10
1893.1969392849
 20
1532.9593609146
 30
0.0
 10
1894.7586055984
 20
1533.1345968927
 30
0.0
 10
1896.8197342666
 20
1533.4525843686
 30
0.0
 10
1898.2161496825
 20
1533.7297003479
 30
0.0
 10
1898.9398166574
 20
1533.9708850903
 30
0.0
 10
1899.1790972191
 20
1534.080670711
 30
0.0
 10
1899.2370123122
 20
1534.1497919127
 30
0.0
  0
SPLINE
  5
63E
100
AcDbEntity
  8
0
100
AcDbSpline
 62
7
  6
CONTINUOUS
 70
0
 71
3
 72
12
 73
8
 74
0
 42
0.0000001
 43
0.0000001
 44
0.0000000001
 40
0.0
 40
0.0
 40
0.0
 40
0.0
 40
0.3589559572
 40
0.6701145792
 40
0.8926750383
 40
0.9614963428
 40
1.0
 40
1.0
 40
1.0
 40
1.0
 10
1893.3513345013
 20
1522.5846391825
 30
0.0
 10
1894.1881527379
 20
1522.665215614
 30
0.0
 10
1895.7498190514
 20
1522.8404515922
 30
0.0
 10
1897.8109477196
 20
1523.158439068
 30
0.0
 10
1899.2073631355
 20
1523.4355550474
 30
0.0
 10
1899.9310301104
 20
1523.6767397897
 30
0.0
 10
1900.1703106721
 20
1523.7865254104
 30
0.0
 10
1900.2282257652
 20
1523.8556466121
 30
0.0
  0
SPLINE
  5
63F
100
AcDbEntity
  8
0
100
AcDbSpline
 62
7
  6
CONTINUOUS
 70
0
 71
3
 72
12
 73
8
 74
0
 42
0.0000001
 43
0.0000001
 44
0.0000000001
 40
0.0
 40
0.0
 40
0.0
 40
0.0
 40
0.3589559572
 40
0.6701145792
 40
0.8926750383
 40
0.9614963428
 40
1.0
 40
1.0
 40
1.0
 40
1.0
 10
1842.7852076242
 20
1517.7156749545
 30
0.0
 10
1843.6220258609
 20
1517.796251386
 30
0.0
 10
1845.1836921744
 20
1517.9714873641
 30
0.0
 10
1847.2448208426
 20
1518.28947484
 30
0.0
 10
1848.6412362584
 20
1518.5665908193
 30
0.0
 10
1849.3649032334
 20
1518.8077755617
 30
0.0
 10
1849.6041837951
 20
1518.9175611824
 30
0.0
 10
1849.6620988881
 20
1518.9866823841
 30
0.0
  0
SPLINE
  5
640
100
AcDbEntity
  8
0
100
AcDbSpline
 62
7
  6
CONTINUOUS
 70
0
 71
3
 72
9
 73
5
 74
0
 42
0.0000001
 43
0.0000001
 44
0.0000000001
 40
0.0
 40
0.0
 40
0.0
 40
0.0
 40
0.5
 40
1.0
 40
1.0
 40
1.0
 40
1.0
 10
2001.3744207779
 20
1533.0324696277
 30
0.0
 10
2000.1994781163
 20
1533.1097827482
 30
0.0
 10
1997.8445957548
 20
1532.8908339517
 30
0.0
 10
1995.491201815
 20
1532.6564273045
 30
0.0
 10
1994.3525981984
 20
1532.3563450149
 30
0.0
  0
SPLINE
  5
641
100
AcDbEntity
  8
0
100
AcDbSpline
 62
7
  6
CONTINUOUS
 70
0
 71
3
 72
9
 73
5
 74
0
 42
0.0000001
 43
0.0000001
 44
0.0000000001
 40
0.0
 40
0.0
 40
0.0
 40
0.0
 40
0.1851249393
 40
1.0
 40
1.0
 40
1.0
 40
1.0
 10
1938.6701011618
 20
1526.9938184092
 30
0.0
 10
1938.4480746256
 20
1527.0086524831
 30
0.0
 10
1937.2452148471
 20
1527.0264503864
 30
0.0
 10
1936.0440253412
 20
1526.9377061946
 30
0.0
 10
1935.0691955354
 20
1526.8423161352
 30
0.0
  0
SPLINE
  5
642
100
AcDbEntity
  8
0
100
AcDbSpline
 62
7
  6
CONTINUOUS
 70
0
 71
3
 72
9
 73
5
 74
0
 42
0.0000001
 43
0.0000001
 44
0.0000000001
 40
0.0
 40
0.0
 40
0.0
 40
0.0
 40
0.2972832659
 40
1.0
 40
1.0
 40
1.0
 40
1.0
 10
2060.6207466679
 20
1538.9315554935
 30
0.0
 10
2060.2650554403
 20
1538.8978624557
 30
0.0
 10
2059.0715710722
 20
1538.7651152009
 30
0.0
 10
2057.8735332773
 20
1538.6092433132
 30
0.0
 10
2057.0570918254
 20
1538.3931890592
 30
0.0
  0
SPLINE
  5
643
100
AcDbEntity
  8
0
100
AcDbSpline
 62
7
  6
CONTINUOUS
 70
0
 71
3
 72
9
 73
5
 74
0
 42
0.0000001
 43
0.0000001
 44
0.0000000001
 40
0.0
 40
0.0
 40
0.0
 40
0.0
 40
0.2782356008
 40
1.0
 40
1.0
 40
1.0
 40
1.0
 10
2063.4249294566
 20
1539.4709246789
 30
0.0
 10
2063.4325305483
 20
1539.3910044084
 30
0.0
 10
2063.0185172638
 20
1539.3102911631
 30
0.0
 10
2062.8156380244
 20
1539.2397588216
 30
0.0
 10
2062.6111283383
 20
1539.2004413112
 30
0.0
  0
SPLINE
  5
644
100
AcDbEntity
  8
0
100
AcDbSpline
 62
7
  6
CONTINUOUS
 70
0
 71
3
 72
9
 73
5
 74
0
 42
0.0000001
 43
0.0000001
 44
0.0000000001
 40
0.0
 40
0.0
 40
0.0
 40
0.0
 40
0.2153693984
 40
1.0
 40
1.0
 40
1.0
 40
1.0
 10
2062.6111283383
 20
1539.2004413112
 30
0.0
 10
2062.4695051502
 20
1539.1732138909
 30
0.0
 10
2061.8094510347
 20
1539.0598000113
 30
0.0
 10
2061.1438127069
 20
1538.9811104367
 30
0.0
 10
2060.6207466726
 20
1538.9315555602
 30
0.0
  0
SPLINE
  5
645
100
AcDbEntity
  8
0
100
AcDbSpline
 62
7
  6
CONTINUOUS
 70
0
 71
3
 72
9
 73
5
 74
0
 42
0.0000001
 43
0.0000001
 44
0.0000000001
 40
0.0
 40
0.0
 40
0.0
 40
0.0
 40
0.274704427
 40
1.0
 40
1.0
 40
1.0
 40
1.0
 10
1935.0691955182
 20
1526.8423161998
 30
0.0
 10
1934.8861073212
 20
1526.8244029753
 30
0.0
 10
1934.2190675916
 20
1526.7659649212
 30
0.0
 10
1933.5495766543
 20
1526.7274652485
 30
0.0
 10
1933.0638660524
 20
1526.7264786059
 30
0.0
  0
SPLINE
  5
646
100
AcDbEntity
  8
0
100
AcDbSpline
 62
7
  6
CONTINUOUS
 70
0
 71
3
 72
9
 73
5
 74
0
 42
0.0000001
 43
0.0000001
 44
0.0000000001
 40
0.0
 40
0.0
 40
0.0
 40
0.0
 40
0.7217628435
 40
1.0
 40
1.0
 40
1.0
 40
1.0
 10
1933.0638660524
 20
1526.7264786059
 30
0.0
 10
1932.8556624865
 20
1526.726055674
 30
0.0
 10
1932.6430989335
 20
1526.7565706789
 30
0.0
 10
1932.2214032196
 20
1526.7568289112
 30
0.0
 10
1932.2136169924
 20
1526.836712289
 30
0.0
  0
SPLINE
  5
647
100
AcDbEntity
  8
0
100
AcDbSpline
 62
7
  6
CONTINUOUS
 70
0
 71
3
 72
17
 73
13
 74
0
 42
0.0000001
 43
0.0000001
 44
0.0000000001
 40
0.0
 40
0.0
 40
0.0
 40
0.0
 40
0.0338624102
 40
0.0786774335
 40
0.1969678129
 40
0.3439153885
 40
0.5055327497
 40
0.6663604592
 40
0.8110178687
 40
0.9257500675
 40
0.9684257159
 40
1.0
 40
1.0
 40
1.0
 40
1.0
 10
2131.4840952918
 20
1294.7556094828
 30
0.0
 10
2129.3904346164
 20
1293.9626742788
 30
0.0
 10
2124.4061968047
 20
1292.4447860449
 30
0.0
 10
2111.7501634537
 20
1289.3718024451
 30
0.0
 10
2091.5640804424
 20
1285.7165699871
 30
0.0
 10
2063.6185046892
 20
1281.7666820582
 30
0.0
 10
2032.7631670235
 20
1278.3976243313
 30
0.0
 10
2001.9749021666
 20
1275.919700269
 30
0.0
 10
1974.2232011536
 20
1274.5867476284
 30
0.0
 10
1954.2351820348
 20
1274.4252700585
 30
0.0
 10
1941.7595204142
 20
1275.1235770594
 30
0.0
 10
1936.8746001397
 20
1275.7083403125
 30
0.0
 10
1934.8278124828
 20
1276.1186453845
 30
0.0
  0
SPLINE
  5
648
100
AcDbEntity
  8
0
100
AcDbSpline
 62
7
  6
CONTINUOUS
 70
0
 71
3
 72
13
 73
9
 74
0
 42
0.0000001
 43
0.0000001
 44
0.0000000001
 40
0.0
 40
0.0
 40
0.0
 40
0.0
 40
0.3995837609
 40
0.5778203509
 40
0.7313654863
 40
0.8537906041
 40
0.9401836594
 40
1.0
 40
1.0
 40
1.0
 40
1.0
 10
1841.6653844554
 20
1529.3454832227
 30
0.0
 10
1840.7245668707
 20
1529.2548927929
 30
0.0
 10
1839.3702573979
 20
1529.1019945221
 30
0.0
 10
1837.6496137985
 20
1528.8373425072
 30
0.0
 10
1836.6146541558
 20
1528.6631510803
 30
0.0
 10
1835.7176650773
 20
1528.4326874244
 30
0.0
 10
1835.2465438258
 20
1528.3563583377
 30
0.0
 10
1834.6910377521
 20
1528.0344235373
 30
0.0
 10
1834.8009311182
 20
1527.9453029849
 30
0.0
  0
SPLINE
  5
649
100
AcDbEntity
  8
0
100
AcDbSpline
 62
7
  6
CONTINUOUS
 70
0
 71
3
 72
9
 73
5
 74
0
 42
0.0000001
 43
0.0000001
 44
0.0000000001
 40
0.0
 40
0.0
 40
0.0
 40
0.0
 40
0.2226136814
 40
1.0
 40
1.0
 40
1.0
 40
1.0
 10
1888.5223092273
 20
1532.6268254548
 30
0.0
 10
1888.8033838866
 20
1532.6767721619
 30
0.0
 10
1890.0693151988
 20
1532.8822959605
 30
0.0
 10
1891.3437781605
 20
1533.0326794203
 30
0.0
 10
1892.3361022384
 20
1533.1282293613
 30
0.0
  0
SPLINE
  5
64A
100
AcDbEntity
  8
0
100
AcDbSpline
 62
7
  6
CONTINUOUS
 70
0
 71
3
 72
13
 73
9
 74
0
 42
0.0000001
 43
0.0000001
 44
0.0000000001
 40
0.0
 40
0.0
 40
0.0
 40
0.0
 40
0.3995837609
 40
0.5778203509
 40
0.7313654863
 40
0.8537906041
 40
0.9401836594
 40
1.0
 40
1.0
 40
1.0
 40
1.0
 10
1892.2315113324
 20
1534.2144474507
 30
0.0
 10
1891.2906937477
 20
1534.1238570209
 30
0.0
 10
1889.9363842749
 20
1533.9709587501
 30
0.0
 10
1888.2157406756
 20
1533.7063067353
 30
0.0
 10
1887.1807810328
 20
1533.5321153084
 30
0.0
 10
1886.2837919544
 20
1533.3016516525
 30
0.0
 10
1885.8126707028
 20
1533.2253225657
 30
0.0
 10
1885.2571646291
 20
1532.9033877654
 30
0.0
 10
1885.3670579953
 20
1532.814267213
 30
0.0
  0
SPLINE
  5
64B
100
AcDbEntity
  8
0
100
AcDbSpline
 62
7
  6
CONTINUOUS
 70
0
 71
3
 72
13
 73
9
 74
0
 42
0.0000001
 43
0.0000001
 44
0.0000000001
 40
0.0
 40
0.0
 40
0.0
 40
0.0
 40
0.0598163406
 40
0.1462093959
 40
0.2686345137
 40
0.4221796491
 40
0.6004162391
 40
1.0
 40
1.0
 40
1.0
 40
1.0
 10
1849.6620988881
 20
1518.9866823841
 30
0.0
 10
1849.7529682005
 20
1519.0951341837
 30
0.0
 10
1849.1462402822
 20
1519.3051585792
 30
0.0
 10
1848.6692105786
 20
1519.2901911129
 30
0.0
 10
1847.7447271773
 20
1519.3452669174
 30
0.0
 10
1846.695545367
 20
1519.3187783475
 30
0.0
 10
1844.9560168518
 20
1519.2502536828
 30
0.0
 10
1843.5974154931
 20
1519.1419283519
 30
0.0
 10
1842.6565979084
 20
1519.0513379221
 30
0.0
  0
SPLINE
  5
64C
100
AcDbEntity
  8
0
100
AcDbSpline
 62
7
  6
CONTINUOUS
 70
0
 71
3
 72
13
 73
9
 74
0
 42
0.0000001
 43
0.0000001
 44
0.0000000001
 40
0.0
 40
0.0
 40
0.0
 40
0.0
 40
0.3995837609
 40
0.5778203509
 40
0.7313654863
 40
0.8537906041
 40
0.9401836594
 40
1.0
 40
1.0
 40
1.0
 40
1.0
 10
1893.2227247854
 20
1523.9203021501
 30
0.0
 10
1892.2819072007
 20
1523.8297117204
 30
0.0
 10
1890.9275977279
 20
1523.6768134495
 30
0.0
 10
1889.2069541286
 20
1523.4121614347
 30
0.0
 10
1888.1719944858
 20
1523.2379700078
 30
0.0
 10
1887.2750054074
 20
1523.0075063519
 30
0.0
 10
1886.8038841558
 20
1522.9311772652
 30
0.0
 10
1886.2483780821
 20
1522.6092424648
 30
0.0
 10
1886.3582714483
 20
1522.5201219124
 30
0.0
  0
SPLINE
  5
64D
100
AcDbEntity
  8
0
100
AcDbSpline
 62
7
  6
CONTINUOUS
 70
0
 71
3
 72
13
 73
9
 74
0
 42
0.0000001
 43
0.0000001
 44
0.0000000001
 40
0.0
 40
0.0
 40
0.0
 40
0.0
 40
0.0245411191
 40
0.0667441653
 40
0.1436245802
 40
0.2557831621
 40
0.5764992246
 40
1.0
 40
1.0
 40
1.0
 40
1.0
 10
1689.9876319714
 20
1508.769455106
 30
0.0
 10
1690.0236156165
 20
1508.8124964393
 30
0.0
 10
1690.0292565328
 20
1509.0104930268
 30
0.0
 10
1689.6500477295
 20
1509.10137045
 30
0.0
 10
1689.168318346
 20
1509.212980252
 30
0.0
 10
1687.9811249406
 20
1509.3036890472
 30
0.0
 10
1686.0404588996
 20
1509.3244679112
 30
0.0
 10
1684.3336986661
 20
1509.2574523351
 30
0.0
 10
1683.3669880954
 20
1509.2050178927
 30
0.0
  0
SPLINE
  5
64E
100
AcDbEntity
  8
0
100
AcDbSpline
 62
7
  6
CONTINUOUS
 70
0
 71
3
 72
9
 73
5
 74
0
 42
0.0000001
 43
0.0000001
 44
0.0000000001
 40
0.0
 40
0.0
 40
0.0
 40
0.0
 40
0.2695097196
 40
1.0
 40
1.0
 40
1.0
 40
1.0
 10
1842.7611888143
 20
1517.9651198327
 30
0.0
 10
1843.1052083915
 20
1517.9982451504
 30
0.0
 10
1844.3826229111
 20
1518.1099889535
 30
0.0
 10
1845.6639483098
 20
1518.1855315621
 30
0.0
 10
1846.6005840818
 20
1518.2006341413
 30
0.0
  0
SPLINE
  5
64F
100
AcDbEntity
  8
0
100
AcDbSpline
 62
7
  6
CONTINUOUS
 70
0
 71
3
 72
13
 73
9
 74
0
 42
0.0000001
 43
0.0000001
 44
0.0000000001
 40
0.0
 40
0.0
 40
0.0
 40
0.0
 40
0.3777316009
 40
0.6984416546
 40
0.8220218183
 40
0.9146551563
 40
0.9735377067
 40
1.0
 40
1.0
 40
1.0
 40
1.0
 10
1930.815990997
 20
1535.1863802011
 30
0.0
 10
1929.4188626615
 20
1535.0518520435
 30
0.0
 10
1926.8430991878
 20
1534.7584272059
 30
0.0
 10
1923.8125922312
 20
1534.2863389696
 30
0.0
 10
1921.8742923661
 20
1533.8860737874
 30
0.0
 10
1920.8589816637
 20
1533.6045223002
 30
0.0
 10
1920.2906610606
 20
1533.4052924358
 30
0.0
 10
1919.958258827
 20
1533.1805044061
 30
0.0
 10
1919.967683306
 20
1533.0826274488
 30
0.0
  0
SPLINE
  5
650
100
AcDbEntity
  8
0
100
AcDbSpline
 62
7
  6
CONTINUOUS
 70
0
 71
3
 72
13
 73
9
 74
0
 42
0.0000001
 43
0.0000001
 44
0.0000000001
 40
0.0
 40
0.0
 40
0.0
 40
0.0
 40
0.0264622933
 40
0.0853448437
 40
0.1779781817
 40
0.3015583454
 40
0.6222683991
 40
1.0
 40
1.0
 40
1.0
 40
1.0
 10
2074.254094053
 20
1547.9387190895
 30
0.0
 10
2074.2446695739
 20
1548.0365960467
 30
0.0
 10
2073.8754829274
 20
1548.193828751
 30
0.0
 10
2073.2795891243
 20
1548.2809575182
 30
0.0
 10
2072.2292099827
 20
1548.3636056966
 30
0.0
 10
2070.2501479481
 20
1548.38667183
 30
0.0
 10
2067.1852412578
 20
1548.2718384878
 30
0.0
 10
2064.6008137154
 20
1548.0683934439
 30
0.0
 10
2063.2036853799
 20
1547.9338652863
 30
0.0
  0
SPLINE
  5
651
100
AcDbEntity
  8
0
100
AcDbSpline
 62
7
  6
CONTINUOUS
 70
0
 71
3
 72
13
 73
9
 74
0
 42
0.0000001
 43
0.0000001
 44
0.0000000001
 40
0.0
 40
0.0
 40
0.0
 40
0.0
 40
0.3995837609
 40
0.5778203509
 40
0.7313654863
 40
0.8537906041
 40
0.9401836594
 40
1.0
 40
1.0
 40
1.0
 40
1.0
 10
1842.6565979084
 20
1519.0513379221
 30
0.0
 10
1841.7157803237
 20
1518.9607474924
 30
0.0
 10
1840.3614708509
 20
1518.8078492215
 30
0.0
 10
1838.6408272515
 20
1518.5431972067
 30
0.0
 10
1837.6058676087
 20
1518.3690057798
 30
0.0
 10
1836.7088785303
 20
1518.1385421239
 30
0.0
 10
1836.2377572788
 20
1518.0622130371
 30
0.0
 10
1835.6822512051
 20
1517.7402782368
 30
0.0
 10
1835.7921445712
 20
1517.6511576844
 30
0.0
  0
SPLINE
  5
652
100
AcDbEntity
  8
0
100
AcDbSpline
 62
7
  6
CONTINUOUS
 70
0
 71
3
 72
11
 73
7
 74
0
 42
0.0000001
 43
0.0000001
 44
0.0000000001
 40
0.0
 40
0.0
 40
0.0
 40
0.0
 40
0.3774884648
 40
0.6992138533
 40
0.9163084046
 40
1.0
 40
1.0
 40
1.0
 40
1.0
 10
2060.0620362602
 20
1544.7339850674
 30
0.0
 10
2060.4220240306
 20
1544.7692060255
 30
0.0
 10
2061.0742944581
 20
1544.8174246762
 30
0.0
 10
2062.0078296202
 20
1544.8700225321
 30
0.0
 10
2062.4920324358
 20
1544.820839069
 30
0.0
 10
2062.9098352789
 20
1544.8194034101
 30
0.0
 10
2062.917614786
 20
1544.7395889782
 30
0.0
  0
SPLINE
  5
653
100
AcDbEntity
  8
0
100
AcDbSpline
 62
7
  6
CONTINUOUS
 70
0
 71
3
 72
13
 73
9
 74
0
 42
0.0000001
 43
0.0000001
 44
0.0000000001
 40
0.0
 40
0.0
 40
0.0
 40
0.0
 40
0.0598163406
 40
0.1462093959
 40
0.2686345137
 40
0.4221796491
 40
0.6004162391
 40
1.0
 40
1.0
 40
1.0
 40
1.0
 10
1848.6708854351
 20
1529.2808276846
 30
0.0
 10
1848.7617547475
 20
1529.3892794843
 30
0.0
 10
1848.1550268292
 20
1529.5993038798
 30
0.0
 10
1847.6779971256
 20
1529.5843364135
 30
0.0
 10
1846.7535137243
 20
1529.639412218
 30
0.0
 10
1845.704331914
 20
1529.6129236481
 30
0.0
 10
1843.9648033988
 20
1529.5443989834
 30
0.0
 10
1842.6062020401
 20
1529.4360736524
 30
0.0
 10
1841.6653844554
 20
1529.3454832227
 30
0.0
  0
SPLINE
  5
654
100
AcDbEntity
  8
0
100
AcDbSpline
 62
7
  6
CONTINUOUS
 70
0
 71
3
 72
11
 73
7
 74
0
 42
0.0000001
 43
0.0000001
 44
0.0000000001
 40
0.0
 40
0.0
 40
0.0
 40
0.0
 40
0.381798148
 40
0.7049549765
 40
0.9204328611
 40
1.0
 40
1.0
 40
1.0
 40
1.0
 10
2053.0758740293
 20
1544.7352660836
 30
0.0
 10
2053.4345554337
 20
1544.7698015137
 30
0.0
 10
2054.079225249
 20
1544.818302705
 30
0.0
 10
2055.0137997172
 20
1544.8630326253
 30
0.0
 10
2055.4664967383
 20
1544.8244725918
 30
0.0
 10
2055.8917517135
 20
1544.8070618795
 30
0.0
 10
2055.8864916499
 20
1544.7321510514
 30
0.0
  0
SPLINE
  5
655
100
AcDbEntity
  8
0
100
AcDbSpline
 62
7
  6
CONTINUOUS
 70
0
 71
3
 72
11
 73
7
 74
0
 42
0.0000001
 43
0.0000001
 44
0.0000000001
 40
0.0
 40
0.0
 40
0.0
 40
0.0
 40
0.0795400315
 40
0.2948928301
 40
0.618066579
 40
1.0
 40
1.0
 40
1.0
 40
1.0
 10
2001.3196239935
 20
1539.4779584778
 30
0.0
 10
2001.3002037375
 20
1539.550472789
 30
0.0
 10
2001.7140216702
 20
1539.6486721927
 30
0.0
 10
2002.1510412118
 20
1539.7729009087
 30
0.0
 10
2003.0769766661
 20
1539.9073392309
 30
0.0
 10
2003.719200534
 20
1539.9827551152
 30
0.0
 10
2004.0780089061
 20
1540.0173083218
 30
0.0
  0
SPLINE
  5
656
100
AcDbEntity
  8
0
100
AcDbSpline
 62
7
  6
CONTINUOUS
 70
0
 71
3
 72
11
 73
7
 74
0
 42
0.0000001
 43
0.0000001
 44
0.0000000001
 40
0.0
 40
0.0
 40
0.0
 40
0.0
 40
0.381933422
 40
0.7051071713
 40
0.9204599695
 40
1.0
 40
1.0
 40
1.0
 40
1.0
 10
1990.3659125446
 20
1538.6969836143
 30
0.0
 10
1990.72472166
 20
1538.7315291126
 30
0.0
 10
1991.3695360961
 20
1538.7800409221
 30
0.0
 10
1992.3041115536
 20
1538.8247494225
 30
0.0
 10
1992.7568057657
 20
1538.786190401
 30
0.0
 10
1993.1817580306
 20
1538.7687553763
 30
0.0
 10
1993.1765309591
 20
1538.693867799
 30
0.0
  0
SPLINE
  5
657
100
AcDbEntity
  8
0
100
AcDbSpline
 62
7
  6
CONTINUOUS
 70
0
 71
3
 72
11
 73
7
 74
0
 42
0.0000001
 43
0.0000001
 44
0.0000000001
 40
0.0
 40
0.0
 40
0.0
 40
0.0
 40
0.0795671388
 40
0.2950450234
 40
0.618201852
 40
1.0
 40
1.0
 40
1.0
 40
1.0
 10
1938.6096631456
 20
1533.439676859
 30
0.0
 10
1938.5902060642
 20
1533.5122076967
 30
0.0
 10
1939.0043257873
 20
1533.610441
 30
0.0
 10
1939.4413478876
 20
1533.7346712407
 30
0.0
 10
1940.3672864619
 20
1533.8690883506
 30
0.0
 10
1941.0093663406
 20
1533.9444870625
 30
0.0
 10
1941.368047428
 20
1533.979025784
 30
0.0
  0
SPLINE
  5
658
100
AcDbEntity
  8
0
100
AcDbSpline
 62
7
  6
CONTINUOUS
 70
0
 71
3
 72
12
 73
8
 74
0
 42
0.0000001
 43
0.0000001
 44
0.0000000001
 40
0.0
 40
0.0
 40
0.0
 40
0.0
 40
0.3767166414
 40
0.6977821394
 40
0.9145471679
 40
0.9735883483
 40
1.0
 40
1.0
 40
1.0
 40
1.0
 10
1934.5104851104
 20
1532.6447457737
 30
0.0
 10
1935.0369782501
 20
1532.694618112
 30
0.0
 10
1936.0152796156
 20
1532.8060271926
 30
0.0
 10
1937.2682389621
 20
1532.9959638594
 30
0.0
 10
1938.1198126121
 20
1533.1841370079
 30
0.0
 10
1938.4882360899
 20
1533.312102969
 30
0.0
 10
1938.6144244146
 20
1533.3967100817
 30
0.0
 10
1938.6107753505
 20
1533.4336078184
 30
0.0
  0
SPLINE
  5
659
100
AcDbEntity
  8
0
100
AcDbSpline
 62
7
  6
CONTINUOUS
 70
0
 71
3
 72
11
 73
7
 74
0
 42
0.0000001
 43
0.0000001
 44
0.0000000001
 40
0.0
 40
0.0
 40
0.0
 40
0.0
 40
0.0836915954
 40
0.3007861468
 40
0.6225115353
 40
1.0
 40
1.0
 40
1.0
 40
1.0
 10
1931.7063023217
 20
1532.1053765882
 30
0.0
 10
1931.6987095858
 20
1532.1852090043
 30
0.0
 10
1932.1085622776
 20
1532.2663388268
 30
0.0
 10
1932.5744842769
 20
1532.407008904
 30
0.0
 10
1933.5009039135
 20
1532.5335043254
 30
0.0
 10
1934.1503908487
 20
1532.6106306521
 30
0.0
 10
1934.5104851058
 20
1532.644745707
 30
0.0
  0
SPLINE
  5
65A
100
AcDbEntity
  8
0
100
AcDbSpline
 62
7
  6
CONTINUOUS
 70
0
 71
3
 72
9
 73
5
 74
0
 42
0.0000001
 43
0.0000001
 44
0.0000000001
 40
0.0
 40
0.0
 40
0.0
 40
0.0
 40
0.1817448702
 40
1.0
 40
1.0
 40
1.0
 40
1.0
 10
1688.184689328
 20
1508.0995163495
 30
0.0
 10
1687.9054320903
 20
1508.1303658516
 30
0.0
 10
1686.3612596172
 20
1508.2257644014
 30
0.0
 10
1684.8129938678
 20
1508.1735093217
 30
0.0
 10
1683.5495248091
 20
1508.1128260018
 30
0.0
  0
SPLINE
  5
65B
100
AcDbEntity
  8
0
100
AcDbSpline
 62
7
  6
CONTINUOUS
 70
0
 71
3
 72
13
 73
9
 74
0
 42
0.0000001
 43
0.0000001
 44
0.0000000001
 40
0.0
 40
0.0
 40
0.0
 40
0.0
 40
0.0598163406
 40
0.1462093959
 40
0.2686345137
 40
0.4221796491
 40
0.6004162391
 40
1.0
 40
1.0
 40
1.0
 40
1.0
 10
1900.2282257652
 20
1523.8556466121
 30
0.0
 10
1900.3190950776
 20
1523.9640984117
 30
0.0
 10
1899.7123671592
 20
1524.1741228072
 30
0.0
 10
1899.2353374557
 20
1524.1591553409
 30
0.0
 10
1898.3108540544
 20
1524.2142311455
 30
0.0
 10
1897.2616722441
 20
1524.1877425755
 30
0.0
 10
1895.5221437289
 20
1524.1192179109
 30
0.0
 10
1894.1635423701
 20
1524.0108925799
 30
0.0
 10
1893.2227247854
 20
1523.9203021501
 30
0.0
  0
SPLINE
  5
65C
100
AcDbEntity
  8
0
100
AcDbSpline
 62
7
  6
CONTINUOUS
 70
0
 71
3
 72
9
 73
5
 74
0
 42
0.0000001
 43
0.0000001
 44
0.0000000001
 40
0.0
 40
0.0
 40
0.0
 40
0.0
 40
0.2226136814
 40
1.0
 40
1.0
 40
1.0
 40
1.0
 10
1845.6093706288
 20
1528.4947794418
 30
0.0
 10
1845.3239298216
 20
1528.4901769138
 30
0.0
 10
1844.0420414436
 20
1528.4503735795
 30
0.0
 10
1842.7622994392
 20
1528.3548150742
 30
0.0
 10
1841.7699753613
 20
1528.2592651333
 30
0.0
  0
SPLINE
  5
65D
100
AcDbEntity
  8
0
100
AcDbSpline
 62
7
  6
CONTINUOUS
 70
0
 71
3
 72
9
 73
5
 74
0
 42
0.0000001
 43
0.0000001
 44
0.0000000001
 40
0.0
 40
0.0
 40
0.0
 40
0.0
 40
0.2695097196
 40
1.0
 40
1.0
 40
1.0
 40
1.0
 10
1842.7611888143
 20
1517.9651198327
 30
0.0
 10
1842.4171692371
 20
1517.9319945151
 30
0.0
 10
1841.1419026974
 20
1517.7979430886
 30
0.0
 10
1839.8697046459
 20
1517.6276093547
 30
0.0
 10
1838.9473958032
 20
1517.4637159262
 30
0.0
  0
SPLINE
  5
65E
100
AcDbEntity
  8
0
100
AcDbSpline
 62
7
  6
CONTINUOUS
 70
0
 71
3
 72
9
 73
5
 74
0
 42
0.0000001
 43
0.0000001
 44
0.0000000001
 40
0.0
 40
0.0
 40
0.0
 40
0.0
 40
0.5902952474
 40
1.0
 40
1.0
 40
1.0
 40
1.0
 10
2096.5525651375
 20
1547.9824002427
 30
0.0
 10
2098.326785728
 20
1548.1532382546
 30
0.0
 10
2101.3360592195
 20
1548.3538252808
 30
0.0
 10
2104.3679922257
 20
1548.4308326718
 30
0.0
 10
2105.5985158736
 20
1548.3032074723
 30
0.0
  0
SPLINE
  5
65F
100
AcDbEntity
  8
0
100
AcDbSpline
 62
7
  6
CONTINUOUS
 70
0
 71
3
 72
9
 73
5
 74
0
 42
0.0000001
 43
0.0000001
 44
0.0000000001
 40
0.0
 40
0.0
 40
0.0
 40
0.0
 40
0.5902952474
 40
1.0
 40
1.0
 40
1.0
 40
1.0
 10
2096.5525651375
 20
1547.9824002427
 30
0.0
 10
2094.7783445471
 20
1547.8115622307
 30
0.0
 10
2091.7860860764
 20
1547.4342674566
 30
0.0
 10
2088.7951645163
 20
1546.9313399139
 30
0.0
 10
2087.6116010897
 20
1546.5712645677
 30
0.0
  0
SPLINE
  5
660
100
AcDbEntity
  8
0
100
AcDbSpline
 62
7
  6
CONTINUOUS
 70
0
 71
3
 72
17
 73
13
 74
0
 42
0.0000001
 43
0.0000001
 44
0.0000000001
 40
0.0
 40
0.0
 40
0.0
 40
0.0
 40
0.0132089631
 40
0.0426171604
 40
0.1506585935
 40
0.3110913069
 40
0.4999999993
 40
0.6889086918
 40
0.8493414055
 40
0.957382839
 40
0.9867910366
 40
1.0
 40
1.0
 40
1.0
 40
1.0
 10
1993.1765968834
 20
1538.6877382301
 30
0.0
 10
1993.1799822184
 20
1538.6513903662
 30
0.0
 10
1993.3168336968
 20
1538.5927150715
 30
0.0
 10
1993.6960876046
 20
1538.5373342538
 30
0.0
 10
1994.5520840754
 20
1538.514157914
 30
0.0
 10
1995.7996782041
 20
1538.56443418
 30
0.0
 10
1997.287205149
 20
1538.6795566681
 30
0.0
 10
1998.7693684411
 20
1538.8503828256
 30
0.0
 10
2000.0036339183
 20
1539.03908246
 30
0.0
 10
2000.8394810706
 20
1539.225164809
 30
0.0
 10
2001.2011998615
 20
1539.3518931858
 30
0.0
 10
2001.3243412202
 20
1539.4356029408
 30
0.0
 10
2001.3207288597
 20
1539.4719289455
 30
0.0
  0
SPLINE
  5
661
100
AcDbEntity
  8
0
100
AcDbSpline
 62
7
  6
CONTINUOUS
 70
0
 71
3
 72
9
 73
5
 74
0
 42
0.0000001
 43
0.0000001
 44
0.0000000001
 40
0.0
 40
0.0
 40
0.0
 40
0.0
 40
0.2226136814
 40
1.0
 40
1.0
 40
1.0
 40
1.0
 10
1896.1754975058
 20
1533.3637436698
 30
0.0
 10
1895.8900566986
 20
1533.3591411418
 30
0.0
 10
1894.6081683206
 20
1533.3193378075
 30
0.0
 10
1893.3284263162
 20
1533.2237793023
 30
0.0
 10
1892.3361022384
 20
1533.1282293613
 30
0.0
  0
SPLINE
  5
662
100
AcDbEntity
  8
0
100
AcDbSpline
 62
7
  6
CONTINUOUS
 70
0
 71
3
 72
12
 73
8
 74
0
 42
0.0000001
 43
0.0000001
 44
0.0000000001
 40
0.0
 40
0.0
 40
0.0
 40
0.0
 40
0.0264116518
 40
0.0854528321
 40
0.3022178607
 40
0.6232833587
 40
1.0
 40
1.0
 40
1.0
 40
1.0
 10
2055.8865579068
 20
1544.7259812973
 30
0.0
 10
2055.8900163064
 20
1544.6890652016
 30
0.0
 10
2056.0300299945
 20
1544.6300904276
 30
0.0
 10
2056.4161015522
 20
1544.574774075
 30
0.0
 10
2057.2879345256
 20
1544.5525461102
 30
0.0
 10
2058.554115105
 20
1544.605175029
 30
0.0
 10
2059.5357001742
 20
1544.6824815478
 30
0.0
 10
2060.0620362429
 20
1544.7339851319
 30
0.0
  0
SPLINE
  5
663
100
AcDbEntity
  8
0
100
AcDbSpline
 62
7
  6
CONTINUOUS
 70
0
 71
3
 72
9
 73
5
 74
0
 42
0.0000001
 43
0.0000001
 44
0.0000000001
 40
0.0
 40
0.0
 40
0.0
 40
0.0
 40
0.2226136814
 40
1.0
 40
1.0
 40
1.0
 40
1.0
 10
1837.9561823502
 20
1527.7578612268
 30
0.0
 10
1838.2372570095
 20
1527.8078079339
 30
0.0
 10
1839.5031883218
 20
1528.0133317325
 30
0.0
 10
1840.7776512835
 20
1528.1637151923
 30
0.0
 10
1841.7699753613
 20
1528.2592651333
 30
0.0
  0
SPLINE
  5
664
100
AcDbEntity
  8
0
100
AcDbSpline
 62
7
  6
CONTINUOUS
 70
0
 71
3
 72
13
 73
9
 74
0
 42
0.0000001
 43
0.0000001
 44
0.0000000001
 40
0.0
 40
0.0
 40
0.0
 40
0.0
 40
0.026456972
 40
0.0853528705
 40
0.1779851267
 40
0.3015315151
 40
0.6222886857
 40
1.0
 40
1.0
 40
1.0
 40
1.0
 10
2073.9965019092
 20
1550.6139157871
 30
0.0
 10
2073.9870792541
 20
1550.7117738022
 30
0.0
 10
2073.6181279862
 20
1550.8693731502
 30
0.0
 10
2073.0219350374
 20
1550.9559202925
 30
0.0
 10
2071.9717710995
 20
1551.038828039
 30
0.0
 10
2069.9925725587
 20
1551.061983082
 30
0.0
 10
2066.927721243
 20
1550.9469719172
 30
0.0
 10
2064.3431571013
 20
1550.7435839338
 30
0.0
 10
2062.9460932361
 20
1550.609061984
 30
0.0
  0
SPLINE
  5
665
100
AcDbEntity
  8
0
100
AcDbSpline
 62
7
  6
CONTINUOUS
 70
0
 71
3
 72
13
 73
9
 74
0
 42
0.0000001
 43
0.0000001
 44
0.0000000001
 40
0.0
 40
0.0
 40
0.0
 40
0.0
 40
0.3777113143
 40
0.6984684849
 40
0.8220148733
 40
0.9146471295
 40
0.973543028
 40
1.0
 40
1.0
 40
1.0
 40
1.0
 10
1930.5583988533
 20
1537.8615768988
 30
0.0
 10
1929.1613349881
 20
1537.7270549489
 30
0.0
 10
1926.5854483125
 20
1537.4335480348
 30
0.0
 10
1923.554961783
 20
1536.9616449201
 30
0.0
 10
1921.6165448843
 20
1536.5612664152
 30
0.0
 10
1920.6014949596
 20
1536.2795011916
 30
0.0
 10
1920.0327697277
 20
1536.0807851864
 30
0.0
 10
1919.7006685071
 20
1535.8556821616
 30
0.0
 10
1919.7100911623
 20
1535.7578241465
 30
0.0
  0
SPLINE
  5
666
100
AcDbEntity
  8
0
100
AcDbSpline
 62
7
  6
CONTINUOUS
 70
0
 71
3
 72
10
 73
6
 74
0
 42
0.0000001
 43
0.0000001
 44
0.0000000001
 40
0.0
 40
0.0
 40
0.0
 40
0.0
 40
0.1735924384
 40
0.4234132834
 40
1.0
 40
1.0
 40
1.0
 40
1.0
 10
1670.0966245706
 20
1506.3594379845
 30
0.0
 10
1670.8209675707
 20
1506.5843628851
 30
0.0
 10
1672.638739225
 20
1506.9558615749
 30
0.0
 10
1676.9556374027
 20
1507.6162618707
 30
0.0
 10
1680.557123492
 20
1507.9519838218
 30
0.0
 10
1683.072653596
 20
1508.0884263335
 30
0.0
  0
SPLINE
  5
667
100
AcDbEntity
  8
0
100
AcDbSpline
 62
7
  6
CONTINUOUS
 70
0
 71
3
 72
17
 73
13
 74
0
 42
0.0000001
 43
0.0000001
 44
0.0000000001
 40
0.0
 40
0.0
 40
0.0
 40
0.0
 40
0.0107039994
 40
0.0221821152
 40
0.0413955158
 40
0.0699560086
 40
0.1080470658
 40
0.1555049618
 40
0.2766280809
 40
0.4285562045
 40
0.6048412286
 40
1.0
 40
1.0
 40
1.0
 40
1.0
 10
2107.4575217297
 20
1548.9679285113
 30
0.0
 10
2107.4831574207
 20
1548.9989114393
 30
0.0
 10
2107.5239381091
 20
1549.0911558067
 30
0.0
 10
2107.3956962076
 20
1549.2150878303
 30
0.0
 10
2107.1904223794
 20
1549.288780281
 30
0.0
 10
2106.8734703553
 20
1549.363269543
 30
0.0
 10
2106.4491169604
 20
1549.4200699413
 30
0.0
 10
2105.6747769929
 20
1549.4850272318
 30
0.0
 10
2104.4705410285
 20
1549.5160478932
 30
0.0
 10
2102.7823111713
 20
1549.4936762563
 30
0.0
 10
2100.0669152806
 20
1549.3775740424
 30
0.0
 10
2097.9257007199
 20
1549.2109072091
 30
0.0
 10
2096.4479742316
 20
1549.0686183321
 30
0.0
  0
SPLINE
  5
668
100
AcDbEntity
  8
0
100
AcDbSpline
 62
7
  6
CONTINUOUS
 70
0
 71
3
 72
9
 73
5
 74
0
 42
0.0000001
 43
0.0000001
 44
0.0000000001
 40
0.0
 40
0.0
 40
0.0
 40
0.0
 40
0.2226136814
 40
1.0
 40
1.0
 40
1.0
 40
1.0
 10
1889.5135226803
 20
1522.3326801543
 30
0.0
 10
1889.7945973396
 20
1522.3826268613
 30
0.0
 10
1891.0605286518
 20
1522.58815066
 30
0.0
 10
1892.3349916135
 20
1522.7385341198
 30
0.0
 10
1893.3273156914
 20
1522.8340840607
 30
0.0
  0
SPLINE
  5
669
100
AcDbEntity
  8
0
100
AcDbSpline
 62
7
  6
CONTINUOUS
 70
0
 71
3
 72
13
 73
9
 74
0
 42
0.0000001
 43
0.0000001
 44
0.0000000001
 40
0.0
 40
0.0
 40
0.0
 40
0.0
 40
0.3600281292
 40
0.5385058007
 40
0.7000454501
 40
0.8339486275
 40
0.9315490157
 40
1.0
 40
1.0
 40
1.0
 40
1.0
 10
1683.3669880954
 20
1509.2050178927
 30
0.0
 10
1681.5067055423
 20
1509.1041160495
 30
0.0
 10
1678.737971218
 20
1508.8760186561
 30
0.0
 10
1675.1150993362
 20
1508.4391462113
 30
0.0
 10
1672.7534503493
 20
1508.1060665376
 30
0.0
 10
1670.5696787761
 20
1507.6723209589
 30
0.0
 10
1669.5014247463
 20
1507.47149334
 30
0.0
 10
1667.9167372288
 20
1506.8942148611
 30
0.0
 10
1668.1915728075
 20
1506.6707653056
 30
0.0
  0
SPLINE
  5
66A
100
AcDbEntity
  8
0
100
AcDbSpline
 62
7
  6
CONTINUOUS
 70
0
 71
3
 72
9
 73
5
 74
0
 42
0.0000001
 43
0.0000001
 44
0.0000000001
 40
0.0
 40
0.0
 40
0.0
 40
0.0
 40
0.2226136814
 40
1.0
 40
1.0
 40
1.0
 40
1.0
 10
1897.1667109588
 20
1523.0695983693
 30
0.0
 10
1896.8812701516
 20
1523.0649958413
 30
0.0
 10
1895.5993817736
 20
1523.025192507
 30
0.0
 10
1894.3196397692
 20
1522.9296340017
 30
0.0
 10
1893.3273156914
 20
1522.8340840607
 30
0.0
  0
SPLINE
  5
66B
100
AcDbEntity
  8
0
100
AcDbSpline
 62
7
  6
CONTINUOUS
 70
0
 71
3
 72
17
 73
13
 74
0
 42
0.0000001
 43
0.0000001
 44
0.0000000001
 40
0.0
 40
0.0
 40
0.0
 40
0.0
 40
0.3951587714
 40
0.5714437955
 40
0.7233719191
 40
0.8444950382
 40
0.8919529342
 40
0.9300439914
 40
0.9586044842
 40
0.9778178848
 40
0.9892960006
 40
1.0
 40
1.0
 40
1.0
 40
1.0
 10
2096.4479742316
 20
1549.0686183321
 30
0.0
 10
2094.9702477432
 20
1548.926329455
 30
0.0
 10
2092.8365717938
 20
1548.68137115
 30
0.0
 10
2090.1489120269
 20
1548.2772182772
 30
0.0
 10
2088.4874309976
 20
1547.9770494411
 30
0.0
 10
2087.311239261
 20
1547.716819662
 30
0.0
 10
2086.563520535
 20
1547.5053047886
 30
0.0
 10
2086.1578017341
 20
1547.3685775287
 30
0.0
 10
2085.8608862326
 20
1547.2349795469
 30
0.0
 10
2085.6734450453
 20
1547.1234729411
 30
0.0
 10
2085.5712066536
 20
1546.9773481895
 30
0.0
 10
2085.628839141
 20
1546.8945799332
 30
0.0
 10
2085.6599156535
 20
1546.8690577693
 30
0.0
  0
SPLINE
  5
66C
100
AcDbEntity
  8
0
100
AcDbSpline
 62
7
  6
CONTINUOUS
 70
0
 71
3
 72
13
 73
9
 74
0
 42
0.0000001
 43
0.0000001
 44
0.0000000001
 40
0.0
 40
0.0
 40
0.0
 40
0.0
 40
0.0598163406
 40
0.1462093959
 40
0.2686345137
 40
0.4221796491
 40
0.6004162391
 40
1.0
 40
1.0
 40
1.0
 40
1.0
 10
1899.2370123122
 20
1534.1497919127
 30
0.0
 10
1899.3278816246
 20
1534.2582437123
 30
0.0
 10
1898.7211537062
 20
1534.4682681078
 30
0.0
 10
1898.2441240027
 20
1534.4533006415
 30
0.0
 10
1897.3196406014
 20
1534.508376446
 30
0.0
 10
1896.2704587911
 20
1534.4818878761
 30
0.0
 10
1894.5309302759
 20
1534.4133632114
 30
0.0
 10
1893.1723289171
 20
1534.3050378805
 30
0.0
 10
1892.2315113324
 20
1534.2144474507
 30
0.0
  0
SPLINE
  5
66D
100
AcDbEntity
  8
0
100
AcDbSpline
 62
7
  6
CONTINUOUS
 70
0
 71
3
 72
13
 73
9
 74
0
 42
0.0000001
 43
0.0000001
 44
0.0000000001
 40
0.0
 40
0.0
 40
0.0
 40
0.0
 40
0.0384232198
 40
0.1071343891
 40
0.2052007296
 40
0.3297027332
 40
0.6409264295
 40
1.0
 40
1.0
 40
1.0
 40
1.0
 10
2050.7273497985
 20
364.314754512
 30
0.0
 10
2050.8271769986
 20
364.2145614093
 30
0.0
 10
2050.9621144076
 20
363.8234746562
 30
0.0
 10
2051.1315732216
 20
363.0989208351
 30
0.0
 10
2051.2838370459
 20
362.0311263087
 30
0.0
 10
2051.482311076
 20
360.0789325643
 30
0.0
 10
2051.6383132467
 20
357.1541101881
 30
0.0
 10
2051.6805117243
 20
354.6872940099
 30
0.0
 10
2051.6805117243
 20
353.3655434783
 30
0.0
  0
SPLINE
  5
66E
100
AcDbEntity
  8
0
100
AcDbSpline
 62
7
  6
CONTINUOUS
 70
0
 71
3
 72
13
 73
9
 74
0
 42
0.0000001
 43
0.0000001
 44
0.0000000001
 40
0.0
 40
0.0
 40
0.0
 40
0.0
 40
0.0384232198
 40
0.1071343891
 40
0.2052007296
 40
0.3297027332
 40
0.6409264295
 40
1.0
 40
1.0
 40
1.0
 40
1.0
 10
2050.7273497985
 20
783.714754512
 30
0.0
 10
2050.8271769986
 20
783.6145614093
 30
0.0
 10
2050.9621144076
 20
783.2234746562
 30
0.0
 10
2051.1315732216
 20
782.4989208351
 30
0.0
 10
2051.2838370459
 20
781.4311263087
 30
0.0
 10
2051.482311076
 20
779.4789325643
 30
0.0
 10
2051.6383132468
 20
776.5541101881
 30
0.0
 10
2051.6805117243
 20
774.0872940099
 30
0.0
 10
2051.6805117243
 20
772.7655434783
 30
0.0
  0
SPLINE
  5
66F
100
AcDbEntity
  8
0
100
AcDbSpline
 62
7
  6
CONTINUOUS
 70
0
 71
3
 72
13
 73
9
 74
0
 42
0.0000001
 43
0.0000001
 44
0.0000000001
 40
0.0
 40
0.0
 40
0.0
 40
0.0
 40
0.0384232198
 40
0.1071343891
 40
0.2052007296
 40
0.3297027332
 40
0.6409264295
 40
1.0
 40
1.0
 40
1.0
 40
1.0
 10
2286.1673512885
 20
364.314754512
 30
0.0
 10
2286.0675240883
 20
364.2145614093
 30
0.0
 10
2285.9325866794
 20
363.8234746562
 30
0.0
 10
2285.7631278654
 20
363.0989208351
 30
0.0
 10
2285.610864041
 20
362.0311263087
 30
0.0
 10
2285.412390011
 20
360.0789325643
 30
0.0
 10
2285.2563878402
 20
357.1541101881
 30
0.0
 10
2285.2141893627
 20
354.6872940099
 30
0.0
 10
2285.2141893627
 20
353.3655434783
 30
0.0
  0
SPLINE
  5
670
100
AcDbEntity
  8
0
100
AcDbSpline
 62
7
  6
CONTINUOUS
 70
0
 71
3
 72
13
 73
9
 74
0
 42
0.0000001
 43
0.0000001
 44
0.0000000001
 40
0.0
 40
0.0
 40
0.0
 40
0.0
 40
0.0384232198
 40
0.1071343891
 40
0.2052007296
 40
0.3297027332
 40
0.6409264295
 40
1.0
 40
1.0
 40
1.0
 40
1.0
 10
2286.1673512885
 20
783.714754512
 30
0.0
 10
2286.0675240883
 20
783.6145614093
 30
0.0
 10
2285.9325866794
 20
783.2234746562
 30
0.0
 10
2285.7631278654
 20
782.4989208351
 30
0.0
 10
2285.610864041
 20
781.4311263087
 30
0.0
 10
2285.412390011
 20
779.4789325643
 30
0.0
 10
2285.2563878402
 20
776.5541101881
 30
0.0
 10
2285.2141893627
 20
774.0872940099
 30
0.0
 10
2285.2141893627
 20
772.7655434783
 30
0.0
  0
SPLINE
  5
671
100
AcDbEntity
  8
0
100
AcDbSpline
 62
7
  6
CONTINUOUS
 70
0
 71
3
 72
13
 73
9
 74
0
 42
0.0000001
 43
0.0000001
 44
0.0000000001
 40
0.0
 40
0.0
 40
0.0
 40
0.0
 40
0.3590735705
 40
0.6702972668
 40
0.7947992704
 40
0.8928656109
 40
0.9615767802
 40
1.0
 40
1.0
 40
1.0
 40
1.0
 10
2051.6805117243
 20
772.7655434783
 30
0.0
 10
2051.6805117243
 20
771.4437929466
 30
0.0
 10
2051.6383132467
 20
768.9769767684
 30
0.0
 10
2051.482311076
 20
766.0521543923
 30
0.0
 10
2051.2838370459
 20
764.0999606479
 30
0.0
 10
2051.1315732216
 20
763.0321661215
 30
0.0
 10
2050.9621144076
 20
762.3076123003
 30
0.0
 10
2050.8271769986
 20
761.9165255472
 30
0.0
 10
2050.7273497985
 20
761.8163324445
 30
0.0
  0
SPLINE
  5
672
100
AcDbEntity
  8
0
100
AcDbSpline
 62
7
  6
CONTINUOUS
 70
0
 71
3
 72
13
 73
9
 74
0
 42
0.0000001
 43
0.0000001
 44
0.0000000001
 40
0.0
 40
0.0
 40
0.0
 40
0.0
 40
0.3590735705
 40
0.6702972668
 40
0.7947992704
 40
0.8928656109
 40
0.9615767802
 40
1.0
 40
1.0
 40
1.0
 40
1.0
 10
2051.6805117243
 20
353.3655434783
 30
0.0
 10
2051.6805117243
 20
352.0437929466
 30
0.0
 10
2051.6383132467
 20
349.5769767684
 30
0.0
 10
2051.482311076
 20
346.6521543923
 30
0.0
 10
2051.2838370459
 20
344.6999606479
 30
0.0
 10
2051.1315732216
 20
343.6321661215
 30
0.0
 10
2050.9621144076
 20
342.9076123003
 30
0.0
 10
2050.8271769986
 20
342.5165255472
 30
0.0
 10
2050.7273497985
 20
342.4163324445
 30
0.0
  0
SPLINE
  5
673
100
AcDbEntity
  8
0
100
AcDbSpline
 62
7
  6
CONTINUOUS
 70
0
 71
3
 72
13
 73
9
 74
0
 42
0.0000001
 43
0.0000001
 44
0.0000000001
 40
0.0
 40
0.0
 40
0.0
 40
0.0
 40
0.3590735705
 40
0.6702972668
 40
0.7947992704
 40
0.8928656109
 40
0.9615767802
 40
1.0
 40
1.0
 40
1.0
 40
1.0
 10
2285.2141893627
 20
772.7655434783
 30
0.0
 10
2285.2141893627
 20
771.4437929466
 30
0.0
 10
2285.2563878402
 20
768.9769767684
 30
0.0
 10
2285.412390011
 20
766.0521543923
 30
0.0
 10
2285.610864041
 20
764.0999606479
 30
0.0
 10
2285.7631278654
 20
763.0321661215
 30
0.0
 10
2285.9325866794
 20
762.3076123003
 30
0.0
 10
2286.0675240883
 20
761.9165255472
 30
0.0
 10
2286.1673512885
 20
761.8163324445
 30
0.0
  0
SPLINE
  5
674
100
AcDbEntity
  8
0
100
AcDbSpline
 62
7
  6
CONTINUOUS
 70
0
 71
3
 72
13
 73
9
 74
0
 42
0.0000001
 43
0.0000001
 44
0.0000000001
 40
0.0
 40
0.0
 40
0.0
 40
0.0
 40
0.3590735705
 40
0.6702972668
 40
0.7947992704
 40
0.8928656109
 40
0.9615767802
 40
1.0
 40
1.0
 40
1.0
 40
1.0
 10
2285.2141893627
 20
353.3655434783
 30
0.0
 10
2285.2141893627
 20
352.0437929466
 30
0.0
 10
2285.2563878402
 20
349.5769767684
 30
0.0
 10
2285.412390011
 20
346.6521543923
 30
0.0
 10
2285.610864041
 20
344.6999606479
 30
0.0
 10
2285.7631278654
 20
343.6321661215
 30
0.0
 10
2285.9325866794
 20
342.9076123003
 30
0.0
 10
2286.0675240883
 20
342.5165255472
 30
0.0
 10
2286.1673512885
 20
342.4163324445
 30
0.0
  0
SPLINE
  5
675
100
AcDbEntity
  8
0
100
AcDbSpline
 62
7
  6
CONTINUOUS
 70
0
 71
3
 72
17
 73
13
 74
0
 42
0.0000001
 43
0.0000001
 44
0.0000000001
 40
0.0
 40
0.0
 40
0.0
 40
0.0
 40
0.0107039994
 40
0.0221821152
 40
0.0413955158
 40
0.0699560086
 40
0.1080470658
 40
0.1555049618
 40
0.2766280809
 40
0.4285562045
 40
0.6048412286
 40
1.0
 40
1.0
 40
1.0
 40
1.0
 10
2050.7273497985
 20
761.8163324445
 30
0.0
 10
2050.6989665818
 20
761.7878451932
 30
0.0
 10
2050.611055545
 20
761.7384110201
 30
0.0
 10
2050.4754026383
 20
761.8541841633
 30
0.0
 10
2050.3823748285
 20
762.0514498431
 30
0.0
 10
2050.277849995
 20
762.3598032036
 30
0.0
 10
2050.180638624
 20
762.7767588828
 30
0.0
 10
2050.0417631871
 20
763.5413080622
 30
0.0
 10
2049.8954644364
 20
764.7370267645
 30
0.0
 10
2049.7559234176
 20
766.4196285726
 30
0.0
 10
2049.6112319574
 20
769.1336512234
 30
0.0
 10
2049.5719051688
 20
771.280982365
 30
0.0
 10
2049.5719051688
 20
772.7655434783
 30
0.0
  0
SPLINE
  5
676
100
AcDbEntity
  8
0
100
AcDbSpline
 62
7
  6
CONTINUOUS
 70
0
 71
3
 72
17
 73
13
 74
0
 42
0.0000001
 43
0.0000001
 44
0.0000000001
 40
0.0
 40
0.0
 40
0.0
 40
0.0
 40
0.3951587714
 40
0.5714437955
 40
0.7233719191
 40
0.8444950382
 40
0.8919529342
 40
0.9300439914
 40
0.9586044842
 40
0.9778178848
 40
0.9892960006
 40
1.0
 40
1.0
 40
1.0
 40
1.0
 10
2287.3227959181
 20
772.7655434783
 30
0.0
 10
2287.3227959181
 20
774.2501045915
 30
0.0
 10
2287.2834691295
 20
776.3974357331
 30
0.0
 10
2287.1387776693
 20
779.1114583839
 30
0.0
 10
2286.9992366505
 20
780.7940601921
 30
0.0
 10
2286.8529378998
 20
781.9897788943
 30
0.0
 10
2286.7140624629
 20
782.7543280738
 30
0.0
 10
2286.616851092
 20
783.1712837529
 30
0.0
 10
2286.5123262584
 20
783.4796371135
 30
0.0
 10
2286.4192984486
 20
783.6769027932
 30
0.0
 10
2286.283645542
 20
783.7926759364
 30
0.0
 10
2286.1957345052
 20
783.7432417634
 30
0.0
 10
2286.1673512885
 20
783.714754512
 30
0.0
  0
SPLINE
  5
677
100
AcDbEntity
  8
0
100
AcDbSpline
 62
7
  6
CONTINUOUS
 70
0
 71
3
 72
17
 73
13
 74
0
 42
0.0000001
 43
0.0000001
 44
0.0000000001
 40
0.0
 40
0.0
 40
0.0
 40
0.0
 40
0.3951587714
 40
0.5714437955
 40
0.7233719191
 40
0.8444950382
 40
0.8919529342
 40
0.9300439914
 40
0.9586044842
 40
0.9778178848
 40
0.9892960006
 40
1.0
 40
1.0
 40
1.0
 40
1.0
 10
2287.3227959181
 20
353.3655434783
 30
0.0
 10
2287.3227959181
 20
354.8501045915
 30
0.0
 10
2287.2834691295
 20
356.9974357331
 30
0.0
 10
2287.1387776693
 20
359.7114583839
 30
0.0
 10
2286.9992366505
 20
361.3940601921
 30
0.0
 10
2286.8529378998
 20
362.5897788943
 30
0.0
 10
2286.7140624629
 20
363.3543280738
 30
0.0
 10
2286.616851092
 20
363.7712837529
 30
0.0
 10
2286.5123262584
 20
364.0796371135
 30
0.0
 10
2286.4192984486
 20
364.2769027932
 30
0.0
 10
2286.283645542
 20
364.3926759364
 30
0.0
 10
2286.1957345052
 20
364.3432417634
 30
0.0
 10
2286.1673512885
 20
364.314754512
 30
0.0
  0
SPLINE
  5
678
100
AcDbEntity
  8
0
100
AcDbSpline
 62
7
  6
CONTINUOUS
 70
0
 71
3
 72
9
 73
5
 74
0
 42
0.0000001
 43
0.0000001
 44
0.0000000001
 40
0.0
 40
0.0
 40
0.0
 40
0.0
 40
0.4097047526
 40
1.0
 40
1.0
 40
1.0
 40
1.0
 10
2285.6838683084
 20
781.8005964619
 30
0.0
 10
2285.9288464118
 20
780.587970234
 30
0.0
 10
2286.1427914482
 20
777.5626148147
 30
0.0
 10
2286.2315539672
 20
774.5479700069
 30
0.0
 10
2286.2315539672
 20
772.7655434783
 30
0.0
  0
SPLINE
  5
679
100
AcDbEntity
  8
0
100
AcDbSpline
 62
7
  6
CONTINUOUS
 70
0
 71
3
 72
9
 73
5
 74
0
 42
0.0000001
 43
0.0000001
 44
0.0000000001
 40
0.0
 40
0.0
 40
0.0
 40
0.0
 40
0.4097047526
 40
1.0
 40
1.0
 40
1.0
 40
1.0
 10
2051.2108327785
 20
362.4005964619
 30
0.0
 10
2050.9658546751
 20
361.187970234
 30
0.0
 10
2050.7519096387
 20
358.1626148147
 30
0.0
 10
2050.6631471197
 20
355.1479700069
 30
0.0
 10
2050.6631471197
 20
353.3655434783
 30
0.0
  0
SPLINE
  5
67A
100
AcDbEntity
  8
0
100
AcDbSpline
 62
7
  6
CONTINUOUS
 70
0
 71
3
 72
9
 73
5
 74
0
 42
0.0000001
 43
0.0000001
 44
0.0000000001
 40
0.0
 40
0.0
 40
0.0
 40
0.0
 40
0.4097047526
 40
1.0
 40
1.0
 40
1.0
 40
1.0
 10
2051.2108327785
 20
781.8005964619
 30
0.0
 10
2050.9658546751
 20
780.587970234
 30
0.0
 10
2050.7519096387
 20
777.5626148147
 30
0.0
 10
2050.6631471197
 20
774.5479700069
 30
0.0
 10
2050.6631471197
 20
772.7655434783
 30
0.0
  0
SPLINE
  5
67B
100
AcDbEntity
  8
0
100
AcDbSpline
 62
7
  6
CONTINUOUS
 70
0
 71
3
 72
17
 73
13
 74
0
 42
0.0000001
 43
0.0000001
 44
0.0000000001
 40
0.0
 40
0.0
 40
0.0
 40
0.0
 40
0.3951587714
 40
0.5714437955
 40
0.7233719191
 40
0.8444950382
 40
0.8919529342
 40
0.9300439914
 40
0.9586044842
 40
0.9778178848
 40
0.9892960006
 40
1.0
 40
1.0
 40
1.0
 40
1.0
 10
2049.5719051688
 20
772.7655434783
 30
0.0
 10
2049.5719051688
 20
774.2501045915
 30
0.0
 10
2049.6112319574
 20
776.3974357331
 30
0.0
 10
2049.7559234176
 20
779.1114583839
 30
0.0
 10
2049.8954644364
 20
780.7940601921
 30
0.0
 10
2050.0417631871
 20
781.9897788943
 30
0.0
 10
2050.180638624
 20
782.7543280738
 30
0.0
 10
2050.277849995
 20
783.1712837529
 30
0.0
 10
2050.3823748285
 20
783.4796371135
 30
0.0
 10
2050.4754026383
 20
783.6769027932
 30
0.0
 10
2050.611055545
 20
783.7926759364
 30
0.0
 10
2050.6989665818
 20
783.7432417634
 30
0.0
 10
2050.7273497985
 20
783.714754512
 30
0.0
  0
SPLINE
  5
67C
100
AcDbEntity
  8
0
100
AcDbSpline
 62
7
  6
CONTINUOUS
 70
0
 71
3
 72
9
 73
5
 74
0
 42
0.0000001
 43
0.0000001
 44
0.0000000001
 40
0.0
 40
0.0
 40
0.0
 40
0.0
 40
0.4097047526
 40
1.0
 40
1.0
 40
1.0
 40
1.0
 10
2285.6838683084
 20
362.4005964619
 30
0.0
 10
2285.9288464118
 20
361.187970234
 30
0.0
 10
2286.1427914482
 20
358.1626148147
 30
0.0
 10
2286.2315539672
 20
355.1479700069
 30
0.0
 10
2286.2315539672
 20
353.3655434783
 30
0.0
  0
SPLINE
  5
67D
100
AcDbEntity
  8
0
100
AcDbSpline
 62
7
  6
CONTINUOUS
 70
0
 71
3
 72
9
 73
5
 74
0
 42
0.0000001
 43
0.0000001
 44
0.0000000001
 40
0.0
 40
0.0
 40
0.0
 40
0.0
 40
0.4097047526
 40
1.0
 40
1.0
 40
1.0
 40
1.0
 10
2051.2108327785
 20
344.3304904947
 30
0.0
 10
2050.9658546751
 20
345.5431167225
 30
0.0
 10
2050.7519096387
 20
348.5684721419
 30
0.0
 10
2050.6631471197
 20
351.5831169496
 30
0.0
 10
2050.6631471197
 20
353.3655434783
 30
0.0
  0
SPLINE
  5
67E
100
AcDbEntity
  8
0
100
AcDbSpline
 62
7
  6
CONTINUOUS
 70
0
 71
3
 72
17
 73
13
 74
0
 42
0.0000001
 43
0.0000001
 44
0.0000000001
 40
0.0
 40
0.0
 40
0.0
 40
0.0
 40
0.3951587714
 40
0.5714437955
 40
0.7233719191
 40
0.8444950382
 40
0.8919529342
 40
0.9300439914
 40
0.9586044842
 40
0.9778178848
 40
0.9892960006
 40
1.0
 40
1.0
 40
1.0
 40
1.0
 10
2049.5719051688
 20
353.3655434783
 30
0.0
 10
2049.5719051688
 20
354.8501045915
 30
0.0
 10
2049.6112319574
 20
356.9974357331
 30
0.0
 10
2049.7559234176
 20
359.7114583839
 30
0.0
 10
2049.8954644364
 20
361.3940601921
 30
0.0
 10
2050.0417631871
 20
362.5897788943
 30
0.0
 10
2050.180638624
 20
363.3543280738
 30
0.0
 10
2050.277849995
 20
363.7712837529
 30
0.0
 10
2050.3823748285
 20
364.0796371135
 30
0.0
 10
2050.4754026383
 20
364.2769027932
 30
0.0
 10
2050.611055545
 20
364.3926759364
 30
0.0
 10
2050.6989665818
 20
364.3432417634
 30
0.0
 10
2050.7273497985
 20
364.314754512
 30
0.0
  0
SPLINE
  5
67F
100
AcDbEntity
  8
0
100
AcDbSpline
 62
7
  6
CONTINUOUS
 70
0
 71
3
 72
17
 73
13
 74
0
 42
0.0000001
 43
0.0000001
 44
0.0000000001
 40
0.0
 40
0.0
 40
0.0
 40
0.0
 40
0.0107039994
 40
0.0221821152
 40
0.0413955158
 40
0.0699560086
 40
0.1080470658
 40
0.1555049618
 40
0.2766280809
 40
0.4285562045
 40
0.6048412286
 40
1.0
 40
1.0
 40
1.0
 40
1.0
 10
2286.1673512885
 20
342.4163324445
 30
0.0
 10
2286.1957345052
 20
342.3878451932
 30
0.0
 10
2286.283645542
 20
342.3384110201
 30
0.0
 10
2286.4192984486
 20
342.4541841633
 30
0.0
 10
2286.5123262584
 20
342.6514498431
 30
0.0
 10
2286.616851092
 20
342.9598032036
 30
0.0
 10
2286.7140624629
 20
343.3767588828
 30
0.0
 10
2286.8529378998
 20
344.1413080622
 30
0.0
 10
2286.9992366505
 20
345.3370267645
 30
0.0
 10
2287.1387776693
 20
347.0196285726
 30
0.0
 10
2287.2834691295
 20
349.7336512234
 30
0.0
 10
2287.3227959181
 20
351.880982365
 30
0.0
 10
2287.3227959181
 20
353.3655434783
 30
0.0
  0
SPLINE
  5
680
100
AcDbEntity
  8
0
100
AcDbSpline
 62
7
  6
CONTINUOUS
 70
0
 71
3
 72
17
 73
13
 74
0
 42
0.0000001
 43
0.0000001
 44
0.0000000001
 40
0.0
 40
0.0
 40
0.0
 40
0.0
 40
0.0107039994
 40
0.0221821152
 40
0.0413955158
 40
0.0699560086
 40
0.1080470658
 40
0.1555049618
 40
0.2766280809
 40
0.4285562045
 40
0.6048412286
 40
1.0
 40
1.0
 40
1.0
 40
1.0
 10
2050.7273497985
 20
342.4163324445
 30
0.0
 10
2050.6989665818
 20
342.3878451932
 30
0.0
 10
2050.611055545
 20
342.3384110201
 30
0.0
 10
2050.4754026383
 20
342.4541841633
 30
0.0
 10
2050.3823748285
 20
342.6514498431
 30
0.0
 10
2050.277849995
 20
342.9598032036
 30
0.0
 10
2050.180638624
 20
343.3767588828
 30
0.0
 10
2050.0417631871
 20
344.1413080622
 30
0.0
 10
2049.8954644364
 20
345.3370267645
 30
0.0
 10
2049.7559234176
 20
347.0196285726
 30
0.0
 10
2049.6112319574
 20
349.7336512234
 30
0.0
 10
2049.5719051688
 20
351.880982365
 30
0.0
 10
2049.5719051688
 20
353.3655434783
 30
0.0
  0
SPLINE
  5
681
100
AcDbEntity
  8
0
100
AcDbSpline
 62
7
  6
CONTINUOUS
 70
0
 71
3
 72
9
 73
5
 74
0
 42
0.0000001
 43
0.0000001
 44
0.0000000001
 40
0.0
 40
0.0
 40
0.0
 40
0.0
 40
0.4097047526
 40
1.0
 40
1.0
 40
1.0
 40
1.0
 10
2285.6838683084
 20
344.3304904947
 30
0.0
 10
2285.9288464118
 20
345.5431167225
 30
0.0
 10
2286.1427914482
 20
348.5684721419
 30
0.0
 10
2286.2315539672
 20
351.5831169496
 30
0.0
 10
2286.2315539672
 20
353.3655434783
 30
0.0
  0
SPLINE
  5
682
100
AcDbEntity
  8
0
100
AcDbSpline
 62
7
  6
CONTINUOUS
 70
0
 71
3
 72
9
 73
5
 74
0
 42
0.0000001
 43
0.0000001
 44
0.0000000001
 40
0.0
 40
0.0
 40
0.0
 40
0.0
 40
0.4097047526
 40
1.0
 40
1.0
 40
1.0
 40
1.0
 10
2051.2108327785
 20
763.7304904947
 30
0.0
 10
2050.9658546751
 20
764.9431167225
 30
0.0
 10
2050.7519096387
 20
767.9684721419
 30
0.0
 10
2050.6631471197
 20
770.9831169496
 30
0.0
 10
2050.6631471197
 20
772.7655434783
 30
0.0
  0
SPLINE
  5
683
100
AcDbEntity
  8
0
100
AcDbSpline
 62
7
  6
CONTINUOUS
 70
0
 71
3
 72
17
 73
13
 74
0
 42
0.0000001
 43
0.0000001
 44
0.0000000001
 40
0.0
 40
0.0
 40
0.0
 40
0.0
 40
0.0107039994
 40
0.0221821152
 40
0.0413955158
 40
0.0699560086
 40
0.1080470658
 40
0.1555049618
 40
0.2766280809
 40
0.4285562045
 40
0.6048412286
 40
1.0
 40
1.0
 40
1.0
 40
1.0
 10
2286.1673512885
 20
761.8163324445
 30
0.0
 10
2286.1957345052
 20
761.7878451932
 30
0.0
 10
2286.283645542
 20
761.7384110201
 30
0.0
 10
2286.4192984486
 20
761.8541841633
 30
0.0
 10
2286.5123262584
 20
762.0514498431
 30
0.0
 10
2286.616851092
 20
762.3598032036
 30
0.0
 10
2286.7140624629
 20
762.7767588828
 30
0.0
 10
2286.8529378998
 20
763.5413080622
 30
0.0
 10
2286.9992366505
 20
764.7370267645
 30
0.0
 10
2287.1387776693
 20
766.4196285726
 30
0.0
 10
2287.2834691295
 20
769.1336512234
 30
0.0
 10
2287.3227959181
 20
771.280982365
 30
0.0
 10
2287.3227959181
 20
772.7655434783
 30
0.0
  0
SPLINE
  5
684
100
AcDbEntity
  8
0
100
AcDbSpline
 62
7
  6
CONTINUOUS
 70
0
 71
3
 72
9
 73
5
 74
0
 42
0.0000001
 43
0.0000001
 44
0.0000000001
 40
0.0
 40
0.0
 40
0.0
 40
0.0
 40
0.4097047526
 40
1.0
 40
1.0
 40
1.0
 40
1.0
 10
2285.6838683084
 20
763.7304904947
 30
0.0
 10
2285.9288464118
 20
764.9431167225
 30
0.0
 10
2286.1427914482
 20
767.9684721419
 30
0.0
 10
2286.2315539672
 20
770.9831169496
 30
0.0
 10
2286.2315539672
 20
772.7655434783
 30
0.0
  0
SPLINE
  5
685
100
AcDbEntity
  8
0
100
AcDbSpline
 62
7
  6
CONTINUOUS
 70
0
 71
3
 72
15
 73
11
 74
0
 42
0.0000001
 43
0.0000001
 44
0.0000000001
 40
0.0
 40
0.0
 40
0.0
 40
0.0
 40
0.1252795721
 40
0.2503768515
 40
0.3752666715
 40
0.5
 40
0.6247333285
 40
0.7496231485
 40
0.8747204279
 40
1.0
 40
1.0
 40
1.0
 40
1.0
 10
646.6885902058
 20
353.3655434783
 30
0.0
 10
646.6885902058
 20
354.6660474387
 30
0.0
 10
647.2060304616
 20
357.293492554
 30
0.0
 10
649.4184679083
 20
360.616951204
 30
0.0
 10
652.7316521502
 20
362.8443752001
 30
0.0
 10
656.6425521894
 20
363.6257053814
 30
0.0
 10
660.5534522286
 20
362.8443752001
 30
0.0
 10
663.8666364706
 20
360.616951204
 30
0.0
 10
666.0790739173
 20
357.293492554
 30
0.0
 10
666.5965141731
 20
354.6660474387
 30
0.0
 10
666.5965141731
 20
353.3655434783
 30
0.0
  0
SPLINE
  5
686
100
AcDbEntity
  8
0
100
AcDbSpline
 62
7
  6
CONTINUOUS
 70
0
 71
3
 72
15
 73
11
 74
0
 42
0.0000001
 43
0.0000001
 44
0.0000000001
 40
0.0
 40
0.0
 40
0.0
 40
0.0
 40
0.1252795721
 40
0.2503768515
 40
0.3752666715
 40
0.5
 40
0.6247333285
 40
0.7496231485
 40
0.8747204279
 40
1.0
 40
1.0
 40
1.0
 40
1.0
 10
646.6885902058
 20
772.7655434783
 30
0.0
 10
646.6885902058
 20
774.0660474387
 30
0.0
 10
647.2060304616
 20
776.693492554
 30
0.0
 10
649.4184679083
 20
780.016951204
 30
0.0
 10
652.7316521502
 20
782.2443752001
 30
0.0
 10
656.6425521894
 20
783.0257053814
 30
0.0
 10
660.5534522286
 20
782.2443752001
 30
0.0
 10
663.8666364706
 20
780.016951204
 30
0.0
 10
666.0790739173
 20
776.693492554
 30
0.0
 10
666.5965141731
 20
774.0660474387
 30
0.0
 10
666.5965141731
 20
772.7655434783
 30
0.0
  0
SPLINE
  5
687
100
AcDbEntity
  8
0
100
AcDbSpline
 62
7
  6
CONTINUOUS
 70
0
 71
3
 72
15
 73
11
 74
0
 42
0.0000001
 43
0.0000001
 44
0.0000000001
 40
0.0
 40
0.0
 40
0.0
 40
0.0
 40
0.1252795721
 40
0.2503768515
 40
0.3752666715
 40
0.5
 40
0.6247333285
 40
0.7496231485
 40
0.8747204279
 40
1.0
 40
1.0
 40
1.0
 40
1.0
 10
646.6885902058
 20
353.3655434783
 30
0.0
 10
646.6885902058
 20
352.0650395179
 30
0.0
 10
647.2060304616
 20
349.4375944025
 30
0.0
 10
649.4184679083
 20
346.1141357526
 30
0.0
 10
652.7316521502
 20
343.8867117564
 30
0.0
 10
656.6425521894
 20
343.1053815751
 30
0.0
 10
660.5534522286
 20
343.8867117564
 30
0.0
 10
663.8666364706
 20
346.1141357526
 30
0.0
 10
666.0790739173
 20
349.4375944025
 30
0.0
 10
666.5965141731
 20
352.0650395179
 30
0.0
 10
666.5965141731
 20
353.3655434783
 30
0.0
  0
SPLINE
  5
688
100
AcDbEntity
  8
0
100
AcDbSpline
 62
7
  6
CONTINUOUS
 70
0
 71
3
 72
15
 73
11
 74
0
 42
0.0000001
 43
0.0000001
 44
0.0000000001
 40
0.0
 40
0.0
 40
0.0
 40
0.0
 40
0.1252795721
 40
0.2503768515
 40
0.3752666715
 40
0.5
 40
0.6247333285
 40
0.7496231485
 40
0.8747204279
 40
1.0
 40
1.0
 40
1.0
 40
1.0
 10
646.6885902058
 20
772.7655434783
 30
0.0
 10
646.6885902058
 20
771.4650395179
 30
0.0
 10
647.2060304616
 20
768.8375944025
 30
0.0
 10
649.4184679083
 20
765.5141357526
 30
0.0
 10
652.7316521502
 20
763.2867117564
 30
0.0
 10
656.6425521894
 20
762.5053815751
 30
0.0
 10
660.5534522286
 20
763.2867117564
 30
0.0
 10
663.8666364706
 20
765.5141357526
 30
0.0
 10
666.0790739173
 20
768.8375944025
 30
0.0
 10
666.5965141731
 20
771.4650395179
 30
0.0
 10
666.5965141731
 20
772.7655434783
 30
0.0
  0
SPLINE
  5
689
100
AcDbEntity
  8
0
100
AcDbSpline
 62
7
  6
CONTINUOUS
 70
0
 71
3
 72
15
 73
11
 74
0
 42
0.0000001
 43
0.0000001
 44
0.0000000001
 40
0.0
 40
0.0
 40
0.0
 40
0.0
 40
0.1252795721
 40
0.2503768515
 40
0.3752666715
 40
0.5
 40
0.6247333285
 40
0.7496231485
 40
0.8747204279
 40
1.0
 40
1.0
 40
1.0
 40
1.0
 10
667.496064619
 20
772.7655434783
 30
0.0
 10
667.496064619
 20
774.1960978347
 30
0.0
 10
666.9268803375
 20
777.0862874616
 30
0.0
 10
664.4931991462
 20
780.7420919765
 30
0.0
 10
660.84869648
 20
783.1922583723
 30
0.0
 10
656.5467064369
 20
784.0517215717
 30
0.0
 10
652.2447163938
 20
783.1922583723
 30
0.0
 10
648.6002137276
 20
780.7420919765
 30
0.0
 10
646.1665325363
 20
777.0862874616
 30
0.0
 10
645.5973482549
 20
774.1960978347
 30
0.0
 10
645.5973482549
 20
772.7655434783
 30
0.0
  0
SPLINE
  5
68A
100
AcDbEntity
  8
0
100
AcDbSpline
 62
7
  6
CONTINUOUS
 70
0
 71
3
 72
15
 73
11
 74
0
 42
0.0000001
 43
0.0000001
 44
0.0000000001
 40
0.0
 40
0.0
 40
0.0
 40
0.0
 40
0.1252795721
 40
0.2503768515
 40
0.3752666715
 40
0.5
 40
0.6247333285
 40
0.7496231485
 40
0.8747204279
 40
1.0
 40
1.0
 40
1.0
 40
1.0
 10
645.5973482549
 20
772.7655434783
 30
0.0
 10
645.5973482549
 20
771.3349891218
 30
0.0
 10
646.1665325363
 20
768.4447994949
 30
0.0
 10
648.6002137276
 20
764.78899498
 30
0.0
 10
652.2447163938
 20
762.3388285842
 30
0.0
 10
656.5467064369
 20
761.4793653848
 30
0.0
 10
660.84869648
 20
762.3388285842
 30
0.0
 10
664.4931991462
 20
764.78899498
 30
0.0
 10
666.9268803375
 20
768.4447994949
 30
0.0
 10
667.496064619
 20
771.3349891218
 30
0.0
 10
667.496064619
 20
772.7655434783
 30
0.0
  0
SPLINE
  5
68B
100
AcDbEntity
  8
0
100
AcDbSpline
 62
7
  6
CONTINUOUS
 70
0
 71
3
 72
15
 73
11
 74
0
 42
0.0000001
 43
0.0000001
 44
0.0000000001
 40
0.0
 40
0.0
 40
0.0
 40
0.0
 40
0.1252795721
 40
0.2503768515
 40
0.3752666715
 40
0.5
 40
0.6247333285
 40
0.7496231485
 40
0.8747204279
 40
1.0
 40
1.0
 40
1.0
 40
1.0
 10
645.5973482549
 20
353.3655434783
 30
0.0
 10
645.5973482549
 20
351.9349891218
 30
0.0
 10
646.1665325363
 20
349.0447994949
 30
0.0
 10
648.6002137276
 20
345.38899498
 30
0.0
 10
652.2447163938
 20
342.9388285842
 30
0.0
 10
656.5467064369
 20
342.0793653848
 30
0.0
 10
660.84869648
 20
342.9388285842
 30
0.0
 10
664.4931991462
 20
345.38899498
 30
0.0
 10
666.9268803375
 20
349.0447994949
 30
0.0
 10
667.496064619
 20
351.9349891218
 30
0.0
 10
667.496064619
 20
353.3655434783
 30
0.0
  0
SPLINE
  5
68C
100
AcDbEntity
  8
0
100
AcDbSpline
 62
7
  6
CONTINUOUS
 70
0
 71
3
 72
15
 73
11
 74
0
 42
0.0000001
 43
0.0000001
 44
0.0000000001
 40
0.0
 40
0.0
 40
0.0
 40
0.0
 40
0.1252795721
 40
0.2503768515
 40
0.3752666715
 40
0.5
 40
0.6247333285
 40
0.7496231485
 40
0.8747204279
 40
1.0
 40
1.0
 40
1.0
 40
1.0
 10
667.496064619
 20
353.3655434783
 30
0.0
 10
667.496064619
 20
354.7960978347
 30
0.0
 10
666.9268803375
 20
357.6862874616
 30
0.0
 10
664.4931991462
 20
361.3420919765
 30
0.0
 10
660.84869648
 20
363.7922583723
 30
0.0
 10
656.5467064369
 20
364.6517215717
 30
0.0
 10
652.2447163938
 20
363.7922583723
 30
0.0
 10
648.6002137276
 20
361.3420919765
 30
0.0
 10
646.1665325363
 20
357.6862874616
 30
0.0
 10
645.5973482549
 20
354.7960978347
 30
0.0
 10
645.5973482549
 20
353.3655434783
 30
0.0
  0
ENDSEC
  0
SECTION
  2
OBJECTS
  0
DICTIONARY
  5
C
100
AcDbDictionary
280
0
281
1
  3
ACAD_GROUP
350
D
  3
ACAD_MLINESTYLE
350
17
  3
ACAD_LAYOUT
350
1A
  3
ACAD_PLOTSETTINGS
350
19
  3
ACAD_PLOTSTYLENAME
350
E
  0
DICTIONARY
  5
D
102
{ACAD_REACTORS
330
C
102
}
100
AcDbDictionary
280
0
281
1
  0
ACDBDICTIONARYWDFLT
  5
E
102
{ACAD_REACTORS
330
C
102
}
100
AcDbDictionary
281
1
  3
Normal
350
F
100
AcDbDictionaryWithDefault
340
F
  0
DICTIONARY
  5
17
102
{ACAD_REACTORS
330
C
102
}
100
AcDbDictionary
280
0
281
1
  3
Standard
350
18
  0
DICTIONARY
  5
19
102
{ACAD_REACTORS
330
C
102
}
100
AcDbDictionary
281
1
  0
DICTIONARY
  5
1A
102
{ACAD_REACTORS
330
C
102
}
100
AcDbDictionary
281
1
  3
Model
350
68D
  3
Layout1
350
68E
  0
ACDBPLACEHOLDER
  5
F
102
{ACAD_REACTORS
330
E
102
}
  0
MLINESTYLE
  5
18
102
{ACAD_REACTORS
330
17
102
}
100
AcDbMlineStyle
  2
STANDARD
 70
0
  3

 62
256
 51
90.0
 52
90.0
 71
2
 49
0.5
 62
256
  6
BYLAYER
 49
-0.5
 62
256
  6
BYLAYER
  0
LAYOUT
  5
68D
102
{ACAD_REACTORS
330
1A
102
}
100
AcDbPlotSettings
  1

  2
none_device
  4

  6

 40
0.0
 41
0.0
 42
0.0
 43
0.0
 44
431.8
 45
279.4
 46
0.0
 47
0.0
 48
0.0
 49
0.0
140
0.0
141
0.0
142
1.0
143
1.0
 70
1024
 72
1
 73
0
 74
0
  7

 75
0
147
1.0
148
0.0
149
0.0
100
AcDbLayout
  1
Model
 70
0
 71
0
 10
0.0
 20
0.0
 11
431.8
 21
279.4
 12
0.0
 22
0.0
 32
0.0
 14
0.0
 24
0.0
 34
0.0
 15
0.0
 25
0.0
 35
0.0
146
0.0
 13
0.0
 23
0.0
 33
0.0
 16
1.0
 26
0.0
 36
0.0
 17
0.0
 27
1.0
 37
0.0
 76
0
330
213
345
0
346
0
  0
LAYOUT
  5
68E
102
{ACAD_REACTORS
330
1A
102
}
100
AcDbPlotSettings
  1

  2
none_device
  4

  6

 40
0.0
 41
0.0
 42
0.0
 43
0.0
 44
431.8
 45
279.4
 46
0.0
 47
0.0
 48
0.0
 49
0.0
140
0.0
141
0.0
142
1.0
143
1.0
 70
0
 72
1
 73
0
 74
0
  7

 75
0
147
1.0
148
0.0
149
0.0
100
AcDbLayout
  1
Layout1
 70
0
 71
1
 10
0.0
 20
0.0
 11
431.8
 21
279.4
 12
0.0
 22
0.0
 32
0.0
 14
0.0
 24
0.0
 34
0.0
 15
0.0
 25
0.0
 35
0.0
146
0.0
 13
0.0
 23
0.0
 33
0.0
 16
1.0
 26
0.0
 36
0.0
 17
0.0
 27
1.0
 37
0.0
 76
0
330
214
345
0
346
0
  0
ENDSEC
  0
EOF
