999
DXF file: D:\Agile attachment\ECO-113190\FG-901545-2D-A.dxf
999
Pro/ENGINEER 2022014 by Parametric Technology Corporation
  0
SECTION
  2
HEADER
  9
$ACADVER
  1
AC1015
  9
$DWGCODEPAGE
  3
ANSI_1252
  9
$EXTMAX
 10
1727.2
 20
1117.6
 30
0.0
  9
$EXTMIN
 10
0.0
 20
0.0
 30
0.0
  9
$LIMMIN
 10
0.0
 20
0.0
  9
$LIMMAX
 10
1727.2
 20
1117.6
  9
$VIEWCTR
 10
863.6
 20
558.8
  9
$VIEWSIZE
 40
1117.6
  9
$CLAYER
  8
0
  9
$LTSCALE
 40
94.996
  9
$CELTYPE
  6
BYLAYER
  9
$DIMSCALE
 40
1.0
  9
$DIMASZ
 40
8.0
  9
$DIMEXO
 40
1.5875
  9
$DIMDLI
 40
65.6336
  9
$DIMEXE
 40
3.175
  9
$DIMCEN
 40
15.5448
  9
$DIMLFAC
 40
1.0
  9
$DIMBLK
  1
_FILLED
  9
$DIMALT
 70
1
  9
$DIMALTD
 70
1
  9
$DIMALTTD
 70
2
  9
$DIMALTF
 40
0.0393700787
  9
$DIMTXT
 40
9.144
  9
$DIMTOL
 70
1
  9
$DIMLIM
 70
0
  9
$DIMTFAC
 40
1.0
  9
$DIMTP
 40
0.02
  9
$DIMTM
 40
0.02
  9
$DIMGAP
 40
0.625
  9
$DIMDSEP
 70
46
  9
$AUNITS
 70
0
  9
$PDMODE
 70
3
  9
$PDSIZE
 40
7.9375
  9
$HANDSEED
  5
73E
  9
$TILEMODE
 70
1
  9
$MEASUREMENT
 70
1
  9
$INSUNITS
 70
4
  0
ENDSEC
  0
SECTION
  2
CLASSES
  0
CLASS
  1
ACDBDICTIONARYWDFLT
  2
AcDbDictionaryWithDefault
  3
AutoCAD 2000
 90
0
280
0
281
0
  0
CLASS
  1
ACDBPLACEHOLDER
  2
AcDbPlaceHolder
  3
AutoCAD 2000
 90
0
280
0
281
0
  0
CLASS
  1
LAYOUT
  2
AcDbLayout
  3
AutoCAD 2000
 90
0
280
0
281
0
  0
ENDSEC
  0
SECTION
  2
TABLES
  0
TABLE
  2
VPORT
  5
8
100
AcDbSymbolTable
 70
2
  0
VPORT
  5
1F4
100
AcDbSymbolTableRecord
100
AcDbViewportTableRecord
  2
*ACTIVE
 70
0
 10
0.0
 20
0.0
 11
1.0
 21
1.0
 12
863.6
 22
558.8
 13
0.0
 23
0.0
 14
1.0
 24
1.0
 15
0.0
 25
0.0
 16
0.0
 26
0.0
 36
1.0
 17
0.0
 27
0.0
 37
0.0
 40
1117.6
 41
1.5454545455
 42
50.0
 43
0.0
 44
0.0
 50
0.0
 51
0.0
 71
0
 72
100
 73
1
 74
1
 75
0
 76
0
 77
0
 78
0
  0
ENDTAB
  0
TABLE
  2
LTYPE
  5
5
100
AcDbSymbolTable
 70
6
  0
LTYPE
  5
14
100
AcDbSymbolTableRecord
100
AcDbLinetypeTableRecord
  2
BYBLOCK
 70
0
  3

 72
65
 73
0
 40
0.0
  0
LTYPE
  5
15
100
AcDbSymbolTableRecord
100
AcDbLinetypeTableRecord
  2
BYLAYER
 70
0
  3

 72
65
 73
0
 40
0.0
  0
LTYPE
  5
16
100
AcDbSymbolTableRecord
100
AcDbLinetypeTableRecord
  2
CONTINUOUS
 70
64
  3
Solid line
 72
65
 73
0
 40
0.0
  0
LTYPE
  5
1F5
100
AcDbSymbolTableRecord
100
AcDbLinetypeTableRecord
  2
CENTER
 70
64
  3
____ _ ____ _ ____ _ ____ _ ____ _ ____ _ ____
 72
65
 73
4
 40
0.6
 49
0.375
 74
0
 49
-0.075
 74
0
 49
0.075
 74
0
 49
-0.075
 74
0
  0
LTYPE
  5
1F6
100
AcDbSymbolTableRecord
100
AcDbLinetypeTableRecord
  2
HIDDEN
 70
64
  3
- - - - - - - - - - - - - - - - - - - -
 72
65
 73
2
 40
0.2
 49
0.1
 74
0
 49
-0.1
 74
0
  0
LTYPE
  5
1F7
100
AcDbSymbolTableRecord
100
AcDbLinetypeTableRecord
  2
PHANTOM
 70
64
  3
_____ _ _ _____ _ _ _____ _ _ _____
 72
65
 73
6
 40
0.8
 49
0.45
 74
0
 49
-0.05
 74
0
 49
0.1
 74
0
 49
-0.05
 74
0
 49
0.1
 74
0
 49
-0.05
 74
0
  0
LTYPE
  5
1F8
100
AcDbSymbolTableRecord
100
AcDbLinetypeTableRecord
  2
DOT
 70
64
  3
. . . . . . . . . . . . . . . . . . . .
 72
65
 73
2
 40
0.2
 49
0.1
 74
0
 49
-0.1
 74
0
  0
LTYPE
  5
1F9
100
AcDbSymbolTableRecord
100
AcDbLinetypeTableRecord
  2
DASHED
 70
64
  3
- - - - - - - - - - - - - - - - - - - -
 72
65
 73
2
 40
0.2
 49
0.1
 74
0
 49
-0.1
 74
0
  0
ENDTAB
  0
TABLE
  2
LAYER
  5
2
100
AcDbSymbolTable
 70
36
  0
LAYER
  5
10
100
AcDbSymbolTableRecord
100
AcDbLayerTableRecord
  2
0
 70
0
 62
7
  6
CONTINUOUS
370
-3
390
F
  0
LAYER
  5
1FA
100
AcDbSymbolTableRecord
100
AcDbLayerTableRecord
  2
DEFAULT_1
 70
0
 62
7
  6
CENTER
370
-3
390
F
  0
LAYER
  5
1FB
100
AcDbSymbolTableRecord
100
AcDbLayerTableRecord
  2
DEFAULT_2
 70
0
 62
8
  6
HIDDEN
370
-3
390
F
  0
LAYER
  5
1FC
100
AcDbSymbolTableRecord
100
AcDbLayerTableRecord
  2
DEFAULT_3
 70
0
 62
7
  6
PHANTOM
370
-3
390
F
  0
LAYER
  5
1FD
100
AcDbSymbolTableRecord
100
AcDbLayerTableRecord
  2
1_ALL_PLANES
 70
0
 62
7
  6
CONTINUOUS
370
-3
390
F
  0
LAYER
  5
1FE
100
AcDbSymbolTableRecord
100
AcDbLayerTableRecord
  2
1_DEF_PLANES
 70
0
 62
7
  6
CONTINUOUS
370
-3
390
F
  0
LAYER
  5
1FF
100
AcDbSymbolTableRecord
100
AcDbLayerTableRecord
  2
2_ALL_CSYS
 70
0
 62
7
  6
CONTINUOUS
370
-3
390
F
  0
LAYER
  5
200
100
AcDbSymbolTableRecord
100
AcDbLayerTableRecord
  2
2_DEF_CSYS
 70
0
 62
7
  6
CONTINUOUS
370
-3
390
F
  0
LAYER
  5
201
100
AcDbSymbolTableRecord
100
AcDbLayerTableRecord
  2
3_ALL_AXES
 70
0
 62
7
  6
CONTINUOUS
370
-3
390
F
  0
LAYER
  5
202
100
AcDbSymbolTableRecord
100
AcDbLayerTableRecord
  2
3_AXES_OTHER
 70
0
 62
7
  6
CONTINUOUS
370
-3
390
F
  0
LAYER
  5
203
100
AcDbSymbolTableRecord
100
AcDbLayerTableRecord
  2
3_HOLES
 70
0
 62
7
  6
CONTINUOUS
370
-3
390
F
  0
LAYER
  5
204
100
AcDbSymbolTableRecord
100
AcDbLayerTableRecord
  2
4_ALL_POINTS
 70
0
 62
7
  6
CONTINUOUS
370
-3
390
F
  0
LAYER
  5
205
100
AcDbSymbolTableRecord
100
AcDbLayerTableRecord
  2
5_ALL_CURVES
 70
0
 62
7
  6
CONTINUOUS
370
-3
390
F
  0
LAYER
  5
206
100
AcDbSymbolTableRecord
100
AcDbLayerTableRecord
  2
6_ALL_SURFS
 70
0
 62
7
  6
CONTINUOUS
370
-3
390
F
  0
LAYER
  5
207
100
AcDbSymbolTableRecord
100
AcDbLayerTableRecord
  2
6_COPYGEOM
 70
0
 62
7
  6
CONTINUOUS
370
-3
390
F
  0
LAYER
  5
208
100
AcDbSymbolTableRecord
100
AcDbLayerTableRecord
  2
7_ALL_ROUNDS
 70
0
 62
7
  6
CONTINUOUS
370
-3
390
F
  0
LAYER
  5
209
100
AcDbSymbolTableRecord
100
AcDbLayerTableRecord
  2
7_MERGES
 70
0
 62
7
  6
CONTINUOUS
370
-3
390
F
  0
LAYER
  5
20A
100
AcDbSymbolTableRecord
100
AcDbLayerTableRecord
  2
8_GDT
 70
0
 62
7
  6
CONTINUOUS
370
-3
390
F
  0
LAYER
  5
20B
100
AcDbSymbolTableRecord
100
AcDbLayerTableRecord
  2
8_SET_DATUMS
 70
0
 62
7
  6
CONTINUOUS
370
-3
390
F
  0
LAYER
  5
20C
100
AcDbSymbolTableRecord
100
AcDbLayerTableRecord
  2
9_COSMETICS
 70
0
 62
7
  6
CONTINUOUS
370
-3
390
F
  0
LAYER
  5
20D
100
AcDbSymbolTableRecord
100
AcDbLayerTableRecord
  2
9_THREADS
 70
0
 62
7
  6
CONTINUOUS
370
-3
390
F
  0
ENDTAB
  0
TABLE
  2
STYLE
  5
3
100
AcDbSymbolTable
 70
1
  0
STYLE
  5
11
100
AcDbSymbolTableRecord
100
AcDbTextStyleTableRecord
  2
STANDARD
 70
0
 40
0.0
 41
1.0
 50
0.0
 71
0
 42
0.2
  3
gothic.ttf
  4

1001
ACAD
1000
Century Gothic
1071
34
  0
STYLE
  5
20E
100
AcDbSymbolTableRecord
100
AcDbTextStyleTableRecord
  2
TEXTSTYLE_1
 70
0
 40
0.0
 41
0.8
 50
0.0
 71
0
 42
0.2
  3
gdt
  4

  0
STYLE
  5
20F
100
AcDbSymbolTableRecord
100
AcDbTextStyleTableRecord
  2
TEXTSTYLE_2
 70
0
 40
0.0
 41
1.0
 50
0.0
 71
0
 42
0.2
  3
gothic.ttf
  4

1001
ACAD
1000
Century Gothic
1071
34
  0
STYLE
  5
210
100
AcDbSymbolTableRecord
100
AcDbTextStyleTableRecord
  2
TEXTSTYLE_3
 70
0
 40
0.0
 41
1.0
 50
0.0
 71
0
 42
0.2
  3
ar_wgl_b.ttf
  4

1001
ACAD
1000
Arial WGL
1071
33554466
  0
STYLE
  5
211
100
AcDbSymbolTableRecord
100
AcDbTextStyleTableRecord
  2
TEXTSTYLE_4
 70
0
 40
0.0
 41
1.0
 50
0.0
 71
0
 42
0.2
  3
gdt
  4

  0
ENDTAB
  0
TABLE
  2
VIEW
  5
6
100
AcDbSymbolTable
 70
0
  0
ENDTAB
  0
TABLE
  2
UCS
  5
7
100
AcDbSymbolTable
 70
0
  0
ENDTAB
  0
TABLE
  2
APPID
  5
9
100
AcDbSymbolTable
 70
1
  0
APPID
  5
212
100
AcDbSymbolTableRecord
100
AcDbRegAppTableRecord
  2
ACAD
 70
0
  0
ENDTAB
  0
TABLE
  2
BLOCK_RECORD
  5
1
100
AcDbSymbolTable
 70
0
  0
BLOCK_RECORD
  5
213
100
AcDbSymbolTableRecord
100
AcDbBlockTableRecord
  2
*Model_Space
  0
BLOCK_RECORD
  5
214
100
AcDbSymbolTableRecord
100
AcDbBlockTableRecord
  2
*Paper_Space
  0
BLOCK_RECORD
  5
215
100
AcDbSymbolTableRecord
100
AcDbBlockTableRecord
  2
_FILLED
  0
BLOCK_RECORD
  5
216
100
AcDbSymbolTableRecord
100
AcDbBlockTableRecord
  2
XSEC_FILLED
  0
BLOCK_RECORD
  5
217
100
AcDbSymbolTableRecord
100
AcDbBlockTableRecord
  2
*D0
  0
BLOCK_RECORD
  5
218
100
AcDbSymbolTableRecord
100
AcDbBlockTableRecord
  2
*D1
  0
BLOCK_RECORD
  5
219
100
AcDbSymbolTableRecord
100
AcDbBlockTableRecord
  2
*D2
  0
BLOCK_RECORD
  5
21A
100
AcDbSymbolTableRecord
100
AcDbBlockTableRecord
  2
*D3
  0
BLOCK_RECORD
  5
21B
100
AcDbSymbolTableRecord
100
AcDbBlockTableRecord
  2
*D4
  0
BLOCK_RECORD
  5
21C
100
AcDbSymbolTableRecord
100
AcDbBlockTableRecord
  2
*D5
  0
BLOCK_RECORD
  5
21D
100
AcDbSymbolTableRecord
100
AcDbBlockTableRecord
  2
*D6
  0
BLOCK_RECORD
  5
21E
100
AcDbSymbolTableRecord
100
AcDbBlockTableRecord
  2
*D7
  0
BLOCK_RECORD
  5
21F
100
AcDbSymbolTableRecord
100
AcDbBlockTableRecord
  2
*D8
  0
BLOCK_RECORD
  5
220
100
AcDbSymbolTableRecord
100
AcDbBlockTableRecord
  2
*D9
  0
BLOCK_RECORD
  5
221
100
AcDbSymbolTableRecord
100
AcDbBlockTableRecord
  2
*D10
  0
BLOCK_RECORD
  5
222
100
AcDbSymbolTableRecord
100
AcDbBlockTableRecord
  2
*D11
  0
BLOCK_RECORD
  5
223
100
AcDbSymbolTableRecord
100
AcDbBlockTableRecord
  2
*D12
  0
BLOCK_RECORD
  5
224
100
AcDbSymbolTableRecord
100
AcDbBlockTableRecord
  2
*D13
  0
BLOCK_RECORD
  5
225
100
AcDbSymbolTableRecord
100
AcDbBlockTableRecord
  2
*D14
  0
BLOCK_RECORD
  5
226
100
AcDbSymbolTableRecord
100
AcDbBlockTableRecord
  2
*D15
  0
BLOCK_RECORD
  5
227
100
AcDbSymbolTableRecord
100
AcDbBlockTableRecord
  2
*D16
  0
BLOCK_RECORD
  5
228
100
AcDbSymbolTableRecord
100
AcDbBlockTableRecord
  2
*D17
  0
BLOCK_RECORD
  5
229
100
AcDbSymbolTableRecord
100
AcDbBlockTableRecord
  2
CG_3D_BL2
  0
BLOCK_RECORD
  5
22A
100
AcDbSymbolTableRecord
100
AcDbBlockTableRecord
  2
CG_3D_BL1
  0
BLOCK_RECORD
  5
22B
100
AcDbSymbolTableRecord
100
AcDbBlockTableRecord
  2
CG_3D_BL0
  0
ENDTAB
  0
TABLE
  2
DIMSTYLE
  5
A
100
AcDbSymbolTable
 70
1
100
AcDbDimStyleTable
 71
0
  0
DIMSTYLE
105
22C
100
AcDbSymbolTableRecord
100
AcDbDimStyleTableRecord
  2
STANDARD
 70
0
  3

  4

 40
1.0
 41
8.0
 42
1.5875
 43
0.38
 44
3.175
 45
0.0
 46
0.0
 47
0.02
 48
0.02
140
9.144
141
0.09
142
0.0
143
0.0393700787
144
1.0
145
0.0
146
1.0
147
0.625
 71
1
 72
0
 73
1
 74
1
 75
0
 76
0
 77
0
 78
4
 79
1
170
1
171
1
172
0
173
0
174
0
175
0
176
0
177
0
178
0
270
2
179
2
271
2
272
2
273
2
274
2
275
0
280
0
281
0
282
0
283
1
284
4
285
0
286
0
287
3
288
0
340
11
278
46
341
215
342
215
343
215
344
215
  0
DIMSTYLE
105
22D
100
AcDbSymbolTableRecord
100
AcDbDimStyleTableRecord
  2
DIMSTYLE_1
 70
0
  3

  4

 40
1.0
 41
8.0
 42
1.5875
 43
0.38
 44
3.175
 45
0.0
 46
0.0
 47
0.02
 48
0.02
140
9.144
141
0.09
142
0.0
143
0.0393700787
144
1.0
145
0.0
146
1.0
147
1.143
 71
0
 72
0
 73
1
 74
1
 75
0
 76
0
 77
0
 78
4
 79
1
170
1
171
2
172
0
173
0
174
0
175
0
176
0
177
0
178
0
270
2
179
2
271
1
272
1
273
2
274
2
275
0
280
0
281
0
282
0
283
1
284
4
285
0
286
0
287
3
288
0
340
11
278
46
341
215
342
215
343
215
344
215
  0
DIMSTYLE
105
22E
100
AcDbSymbolTableRecord
100
AcDbDimStyleTableRecord
  2
DIMSTYLE_2
 70
0
  3

  4

 40
1.0
 41
8.0
 42
1.5875
 43
0.38
 44
3.175
 45
0.0
 46
0.0
 47
0.5
 48
0.5
140
9.144
141
0.09
142
0.0
143
0.0393700787
144
1.0
145
0.0
146
1.0
147
1.143
 71
0
 72
0
 73
1
 74
1
 75
0
 76
0
 77
0
 78
4
 79
1
170
0
171
1
172
0
173
0
174
0
175
0
176
0
177
0
178
0
270
2
179
2
271
0
272
0
273
2
274
2
275
0
280
0
281
0
282
0
283
1
284
4
285
0
286
0
287
3
288
0
340
11
278
46
341
215
342
215
343
215
344
215
  0
ENDTAB
  0
ENDSEC
  0
SECTION
  2
BLOCKS
  0
BLOCK
  5
20
100
AcDbEntity
  8
0
100
AcDbBlockBegin
  2
*Model_Space
 70
0
 10
0.0
 20
0.0
 30
0.0
  3
*Model_Space
  1

  0
ENDBLK
  5
21
100
AcDbEntity
  8
0
100
AcDbBlockEnd
  0
BLOCK
  5
1C
100
AcDbEntity
  8
0
100
AcDbBlockBegin
  2
*Paper_Space
 70
0
 10
0.0
 20
0.0
 30
0.0
  3
*Paper_Space
  1

  0
ENDBLK
  5
1D
100
AcDbEntity
  8
0
100
AcDbBlockEnd
  0
BLOCK
  5
22F
100
AcDbEntity
  8
0
100
AcDbBlockBegin
 62
2
  6
CONTINUOUS
  2
CG_3D_BL2
 70
64
 10
192.676915311
 20
478.2448155067
  3
CG_3D_BL2
  1

  0
ARC
  5
230
100
AcDbEntity
  8
0
100
AcDbCircle
 62
7
  6
CONTINUOUS
 10
192.676915311
 20
478.2448155067
 40
6.5
100
AcDbArc
 50
90.0
 51
180.0
  0
ARC
  5
231
100
AcDbEntity
  8
0
100
AcDbCircle
 62
7
  6
CONTINUOUS
 10
192.676915311
 20
478.2448155067
 40
6.5
100
AcDbArc
 50
180.0
 51
270.0
  0
ARC
  5
232
100
AcDbEntity
  8
0
100
AcDbCircle
 62
7
  6
CONTINUOUS
 10
192.676915311
 20
478.2448155067
 40
6.5
100
AcDbArc
 50
270.0
 51
360.0
  0
ARC
  5
233
100
AcDbEntity
  8
0
100
AcDbCircle
 62
7
  6
CONTINUOUS
 10
192.676915311
 20
478.2448155067
 40
6.5
100
AcDbArc
 50
0.0
 51
90.0
  0
LINE
  5
234
100
AcDbEntity
  8
0
100
AcDbLine
 62
7
  6
CONTINUOUS
 10
192.676915311
 20
478.2448155067
 11
199.176915311
 21
478.2448155067
  0
LINE
  5
235
100
AcDbEntity
  8
0
100
AcDbLine
 62
7
  6
CONTINUOUS
 10
192.676915311
 20
478.2448155067
 11
192.676915311
 21
471.7448155067
  0
LINE
  5
236
100
AcDbEntity
  8
0
100
AcDbLine
 62
7
  6
CONTINUOUS
 10
186.176915311
 20
478.2448155067
 11
192.676915311
 21
478.2448155067
  0
LINE
  5
237
100
AcDbEntity
  8
0
100
AcDbLine
 62
7
  6
CONTINUOUS
 10
192.676915311
 20
484.7448155067
 11
192.676915311
 21
478.2448155067
  0
LINE
  5
238
100
AcDbEntity
  8
0
100
AcDbLine
 62
2
  6
CONTINUOUS
 10
192.676915311
 20
478.2019762208
 11
192.7197545968
 21
478.2448155067
  0
LWPOLYLINE
  5
239
100
AcDbEntity
  8
0
100
AcDbPolyline
 62
7
  6
CONTINUOUS
 90
8
 70
0
 10
192.676915311
 20
478.2448155067
 10
192.676915311
 20
471.7448155067
 10
194.6855257744
 20
472.0629481508
 10
196.4975194509
 20
472.9862050432
 10
197.9355257744
 20
474.4242113668
 10
198.8587826669
 20
476.2362050432
 10
199.176915311
 20
478.2448155067
 10
192.676915311
 20
478.2448155067
  0
HATCH
  5
23A
100
AcDbEntity
  8
0
100
AcDbHatch
 62
7
  6
CONTINUOUS
 10
0.0
 20
0.0
 30
0.0
210
0.0
220
0.0
230
1.0
  2
SOLID
 70
1
 71
1
 91
1
 92
1
 93
7
 72
1
 10
192.676915311
 20
478.2448155067
 11
192.676915311
 21
471.7448155067
 72
1
 10
192.676915311
 20
471.7448155067
 11
194.6855257744
 21
472.0629481508
 72
1
 10
194.6855257744
 20
472.0629481508
 11
196.4975194509
 21
472.9862050432
 72
1
 10
196.4975194509
 20
472.9862050432
 11
197.9355257744
 21
474.4242113668
 72
1
 10
197.9355257744
 20
474.4242113668
 11
198.8587826669
 21
476.2362050432
 72
1
 10
198.8587826669
 20
476.2362050432
 11
199.176915311
 21
478.2448155067
 72
1
 10
199.176915311
 20
478.2448155067
 11
192.676915311
 21
478.2448155067
 97
1
330
239
 75
0
 76
1
 98
1
 10
0.0
 20
0.0
  0
LWPOLYLINE
  5
23B
100
AcDbEntity
  8
0
100
AcDbPolyline
 62
7
  6
CONTINUOUS
 90
8
 70
0
 10
192.676915311
 20
478.2448155067
 10
186.176915311
 20
478.2448155067
 10
186.495047955
 20
480.2534259701
 10
187.4183048475
 20
482.0654196466
 10
188.8563111711
 20
483.5034259701
 10
190.6683048475
 20
484.4266828626
 10
192.676915311
 20
484.7448155067
 10
192.676915311
 20
478.2448155067
  0
HATCH
  5
23C
100
AcDbEntity
  8
0
100
AcDbHatch
 62
7
  6
CONTINUOUS
 10
0.0
 20
0.0
 30
0.0
210
0.0
220
0.0
230
1.0
  2
SOLID
 70
1
 71
1
 91
1
 92
1
 93
7
 72
1
 10
192.676915311
 20
478.2448155067
 11
186.176915311
 21
478.2448155067
 72
1
 10
186.176915311
 20
478.2448155067
 11
186.495047955
 21
480.2534259701
 72
1
 10
186.495047955
 20
480.2534259701
 11
187.4183048475
 21
482.0654196466
 72
1
 10
187.4183048475
 20
482.0654196466
 11
188.8563111711
 21
483.5034259701
 72
1
 10
188.8563111711
 20
483.5034259701
 11
190.6683048475
 21
484.4266828626
 72
1
 10
190.6683048475
 20
484.4266828626
 11
192.676915311
 21
484.7448155067
 72
1
 10
192.676915311
 20
484.7448155067
 11
192.676915311
 21
478.2448155067
 97
1
330
23B
 75
0
 76
1
 98
1
 10
0.0
 20
0.0
  0
ENDBLK
  5
23D
100
AcDbEntity
  8
0
  6
BYBLOCK
 62
0
100
AcDbBlockEnd
  0
BLOCK
  5
23E
100
AcDbEntity
  8
0
100
AcDbBlockBegin
 62
2
  6
CONTINUOUS
  2
CG_3D_BL1
 70
64
 10
579.892366754
 20
478.2083812345
  3
CG_3D_BL1
  1

  0
ARC
  5
23F
100
AcDbEntity
  8
0
100
AcDbCircle
 62
7
  6
CONTINUOUS
 10
579.892366754
 20
478.2083812345
 40
8.0
100
AcDbArc
 50
90.0
 51
180.0
  0
ARC
  5
240
100
AcDbEntity
  8
0
100
AcDbCircle
 62
7
  6
CONTINUOUS
 10
579.892366754
 20
478.2083812345
 40
8.0
100
AcDbArc
 50
180.0
 51
270.0
  0
ARC
  5
241
100
AcDbEntity
  8
0
100
AcDbCircle
 62
7
  6
CONTINUOUS
 10
579.892366754
 20
478.2083812345
 40
8.0
100
AcDbArc
 50
270.0
 51
360.0
  0
ARC
  5
242
100
AcDbEntity
  8
0
100
AcDbCircle
 62
7
  6
CONTINUOUS
 10
579.892366754
 20
478.2083812345
 40
8.0
100
AcDbArc
 50
0.0
 51
90.0
  0
LINE
  5
243
100
AcDbEntity
  8
0
100
AcDbLine
 62
7
  6
CONTINUOUS
 10
579.892366754
 20
478.2083812345
 11
587.892366754
 21
478.2083812345
  0
LINE
  5
244
100
AcDbEntity
  8
0
100
AcDbLine
 62
7
  6
CONTINUOUS
 10
579.892366754
 20
478.2083812345
 11
579.892366754
 21
470.2083812345
  0
LINE
  5
245
100
AcDbEntity
  8
0
100
AcDbLine
 62
7
  6
CONTINUOUS
 10
571.892366754
 20
478.2083812345
 11
579.892366754
 21
478.2083812345
  0
LINE
  5
246
100
AcDbEntity
  8
0
100
AcDbLine
 62
7
  6
CONTINUOUS
 10
579.892366754
 20
486.2083812345
 11
579.892366754
 21
478.2083812345
  0
LINE
  5
247
100
AcDbEntity
  8
0
100
AcDbLine
 62
2
  6
CONTINUOUS
 10
579.892366754
 20
478.1556559596
 11
579.945092029
 21
478.2083812345
  0
LWPOLYLINE
  5
248
100
AcDbEntity
  8
0
100
AcDbPolyline
 62
7
  6
CONTINUOUS
 90
8
 70
0
 10
579.892366754
 20
478.2083812345
 10
579.892366754
 20
470.2083812345
 10
582.364502709
 20
470.5999291042
 10
584.5946487724
 20
471.7362452795
 10
586.364502709
 20
473.5060992162
 10
587.5008188844
 20
475.7362452795
 10
587.892366754
 20
478.2083812345
 10
579.892366754
 20
478.2083812345
  0
HATCH
  5
249
100
AcDbEntity
  8
0
100
AcDbHatch
 62
7
  6
CONTINUOUS
 10
0.0
 20
0.0
 30
0.0
210
0.0
220
0.0
230
1.0
  2
SOLID
 70
1
 71
1
 91
1
 92
1
 93
7
 72
1
 10
579.892366754
 20
478.2083812345
 11
579.892366754
 21
470.2083812345
 72
1
 10
579.892366754
 20
470.2083812345
 11
582.364502709
 21
470.5999291042
 72
1
 10
582.364502709
 20
470.5999291042
 11
584.5946487724
 21
471.7362452795
 72
1
 10
584.5946487724
 20
471.7362452795
 11
586.364502709
 21
473.5060992162
 72
1
 10
586.364502709
 20
473.5060992162
 11
587.5008188844
 21
475.7362452795
 72
1
 10
587.5008188844
 20
475.7362452795
 11
587.892366754
 21
478.2083812345
 72
1
 10
587.892366754
 20
478.2083812345
 11
579.892366754
 21
478.2083812345
 97
1
330
248
 75
0
 76
1
 98
1
 10
0.0
 20
0.0
  0
LWPOLYLINE
  5
24A
100
AcDbEntity
  8
0
100
AcDbPolyline
 62
7
  6
CONTINUOUS
 90
8
 70
0
 10
579.892366754
 20
478.2083812345
 10
571.892366754
 20
478.2083812345
 10
572.2839146237
 20
480.6805171895
 10
573.420230799
 20
482.9106632529
 10
575.1900847357
 20
484.6805171895
 10
577.420230799
 20
485.8168333649
 10
579.892366754
 20
486.2083812345
 10
579.892366754
 20
478.2083812345
  0
HATCH
  5
24B
100
AcDbEntity
  8
0
100
AcDbHatch
 62
7
  6
CONTINUOUS
 10
0.0
 20
0.0
 30
0.0
210
0.0
220
0.0
230
1.0
  2
SOLID
 70
1
 71
1
 91
1
 92
1
 93
7
 72
1
 10
579.892366754
 20
478.2083812345
 11
571.892366754
 21
478.2083812345
 72
1
 10
571.892366754
 20
478.2083812345
 11
572.2839146237
 21
480.6805171895
 72
1
 10
572.2839146237
 20
480.6805171895
 11
573.420230799
 21
482.9106632529
 72
1
 10
573.420230799
 20
482.9106632529
 11
575.1900847357
 21
484.6805171895
 72
1
 10
575.1900847357
 20
484.6805171895
 11
577.420230799
 21
485.8168333649
 72
1
 10
577.420230799
 20
485.8168333649
 11
579.892366754
 21
486.2083812345
 72
1
 10
579.892366754
 20
486.2083812345
 11
579.892366754
 21
478.2083812345
 97
1
330
24A
 75
0
 76
1
 98
1
 10
0.0
 20
0.0
  0
ENDBLK
  5
24C
100
AcDbEntity
  8
0
  6
BYBLOCK
 62
0
100
AcDbBlockEnd
  0
BLOCK
  5
24D
100
AcDbEntity
  8
0
100
AcDbBlockBegin
 62
2
  6
CONTINUOUS
  2
CG_3D_BL0
 70
64
 10
127.0440144151
 20
1021.265999144
  3
CG_3D_BL0
  1

  0
ARC
  5
24E
100
AcDbEntity
  8
0
100
AcDbCircle
 62
7
  6
CONTINUOUS
 10
127.0440144151
 20
1021.265999144
 40
6.5
100
AcDbArc
 50
90.0
 51
180.0
  0
ARC
  5
24F
100
AcDbEntity
  8
0
100
AcDbCircle
 62
7
  6
CONTINUOUS
 10
127.0440144151
 20
1021.265999144
 40
6.5
100
AcDbArc
 50
180.0
 51
270.0
  0
ARC
  5
250
100
AcDbEntity
  8
0
100
AcDbCircle
 62
7
  6
CONTINUOUS
 10
127.0440144151
 20
1021.265999144
 40
6.5
100
AcDbArc
 50
270.0
 51
360.0
  0
ARC
  5
251
100
AcDbEntity
  8
0
100
AcDbCircle
 62
7
  6
CONTINUOUS
 10
127.0440144151
 20
1021.265999144
 40
6.5
100
AcDbArc
 50
0.0
 51
90.0
  0
LINE
  5
252
100
AcDbEntity
  8
0
100
AcDbLine
 62
7
  6
CONTINUOUS
 10
127.0440144151
 20
1021.265999144
 11
133.5440144151
 21
1021.265999144
  0
LINE
  5
253
100
AcDbEntity
  8
0
100
AcDbLine
 62
7
  6
CONTINUOUS
 10
127.0440144151
 20
1021.265999144
 11
127.0440144151
 21
1014.765999144
  0
LINE
  5
254
100
AcDbEntity
  8
0
100
AcDbLine
 62
7
  6
CONTINUOUS
 10
120.5440144151
 20
1021.265999144
 11
127.0440144151
 21
1021.265999144
  0
LINE
  5
255
100
AcDbEntity
  8
0
100
AcDbLine
 62
7
  6
CONTINUOUS
 10
127.0440144151
 20
1027.765999144
 11
127.0440144151
 21
1021.265999144
  0
LINE
  5
256
100
AcDbEntity
  8
0
100
AcDbLine
 62
2
  6
CONTINUOUS
 10
127.0440144151
 20
1021.2231598581
 11
127.0868537009
 21
1021.265999144
  0
LWPOLYLINE
  5
257
100
AcDbEntity
  8
0
100
AcDbPolyline
 62
7
  6
CONTINUOUS
 90
8
 70
0
 10
127.0440144151
 20
1021.265999144
 10
127.0440144151
 20
1014.765999144
 10
129.0526248785
 20
1015.0841317881
 10
130.864618555
 20
1016.0073886805
 10
132.3026248785
 20
1017.4453950041
 10
133.225881771
 20
1019.2573886805
 10
133.5440144151
 20
1021.265999144
 10
127.0440144151
 20
1021.265999144
  0
HATCH
  5
258
100
AcDbEntity
  8
0
100
AcDbHatch
 62
7
  6
CONTINUOUS
 10
0.0
 20
0.0
 30
0.0
210
0.0
220
0.0
230
1.0
  2
SOLID
 70
1
 71
1
 91
1
 92
1
 93
7
 72
1
 10
127.0440144151
 20
1021.265999144
 11
127.0440144151
 21
1014.765999144
 72
1
 10
127.0440144151
 20
1014.765999144
 11
129.0526248785
 21
1015.0841317881
 72
1
 10
129.0526248785
 20
1015.0841317881
 11
130.864618555
 21
1016.0073886805
 72
1
 10
130.864618555
 20
1016.0073886805
 11
132.3026248785
 21
1017.4453950041
 72
1
 10
132.3026248785
 20
1017.4453950041
 11
133.225881771
 21
1019.2573886805
 72
1
 10
133.225881771
 20
1019.2573886805
 11
133.5440144151
 21
1021.265999144
 72
1
 10
133.5440144151
 20
1021.265999144
 11
127.0440144151
 21
1021.265999144
 97
1
330
257
 75
0
 76
1
 98
1
 10
0.0
 20
0.0
  0
LWPOLYLINE
  5
259
100
AcDbEntity
  8
0
100
AcDbPolyline
 62
7
  6
CONTINUOUS
 90
8
 70
0
 10
127.0440144151
 20
1021.265999144
 10
120.5440144151
 20
1021.265999144
 10
120.8621470592
 20
1023.2746096074
 10
121.7854039516
 20
1025.0866032839
 10
123.2234102752
 20
1026.5246096074
 10
125.0354039516
 20
1027.4478664999
 10
127.0440144151
 20
1027.765999144
 10
127.0440144151
 20
1021.265999144
  0
HATCH
  5
25A
100
AcDbEntity
  8
0
100
AcDbHatch
 62
7
  6
CONTINUOUS
 10
0.0
 20
0.0
 30
0.0
210
0.0
220
0.0
230
1.0
  2
SOLID
 70
1
 71
1
 91
1
 92
1
 93
7
 72
1
 10
127.0440144151
 20
1021.265999144
 11
120.5440144151
 21
1021.265999144
 72
1
 10
120.5440144151
 20
1021.265999144
 11
120.8621470592
 21
1023.2746096074
 72
1
 10
120.8621470592
 20
1023.2746096074
 11
121.7854039516
 21
1025.0866032839
 72
1
 10
121.7854039516
 20
1025.0866032839
 11
123.2234102752
 21
1026.5246096074
 72
1
 10
123.2234102752
 20
1026.5246096074
 11
125.0354039516
 21
1027.4478664999
 72
1
 10
125.0354039516
 20
1027.4478664999
 11
127.0440144151
 21
1027.765999144
 72
1
 10
127.0440144151
 20
1027.765999144
 11
127.0440144151
 21
1021.265999144
 97
1
330
259
 75
0
 76
1
 98
1
 10
0.0
 20
0.0
  0
ENDBLK
  5
25B
100
AcDbEntity
  8
0
  6
BYBLOCK
 62
0
100
AcDbBlockEnd
  0
BLOCK
  5
25C
100
AcDbEntity
  8
0
100
AcDbBlockBegin
  2
_FILLED
 70
64
 10
0.0
 20
0.0
  3
_FILLED
  1

  0
SOLID
  5
25D
100
AcDbEntity
  8
0
  6
BYBLOCK
 62
0
100
AcDbTrace
 10
0.0
 20
0.0
 11
-1.0
 21
0.1275
 12
-1.0
 22
-0.1275
 13
-1.0
 23
-0.1275
  0
ENDBLK
  5
25E
100
AcDbEntity
  8
0
  6
BYBLOCK
 62
0
100
AcDbBlockEnd
  0
BLOCK
  5
25F
100
AcDbEntity
  8
0
100
AcDbBlockBegin
  2
XSEC_FILLED
 70
64
 10
0.0
 20
0.0
  3
XSEC_FILLED
  1

  0
SOLID
  5
260
100
AcDbEntity
  8
0
  6
BYBLOCK
 62
0
100
AcDbTrace
 10
0.0
 20
0.0
 11
-1.0
 21
0.166
 12
-1.0
 22
-0.166
 13
-1.0
 23
-0.166
  0
ENDBLK
  5
261
100
AcDbEntity
  8
0
  6
BYBLOCK
 62
0
100
AcDbBlockEnd
  0
BLOCK
  5
262
100
AcDbEntity
  8
0
100
AcDbBlockBegin
 62
2
  6
CONTINUOUS
  2
*D0
 70
65
 10
0.0
 20
0.0
  3
*D0
  1

  0
MTEXT
  5
263
100
AcDbEntity
  8
0
100
AcDbMText
 62
2
  6
CONTINUOUS
  7
STANDARD
 71
2
 72
1
 10
485.2856538306
 20
591.4849121302
 30
0.0
 11
1.0
 21
0.0
 31
0.0
 73
2
 44
0.9
  1
187,3\P[7.37]
 40
9.144
 41
33.7206245353
  0
LINE
  5
264
100
AcDbEntity
  8
0
100
AcDbLine
 62
2
  6
CONTINUOUS
 10
392.6124456522
 20
543.9855482929
 11
392.6124456522
 21
599.6129121302
  0
LINE
  5
265
100
AcDbEntity
  8
0
100
AcDbLine
 62
2
  6
CONTINUOUS
 10
579.8624456522
 20
487.153644476
 11
579.8624456522
 21
599.6129121302
  0
LINE
  5
266
100
AcDbEntity
  8
0
100
AcDbLine
 62
2
  6
CONTINUOUS
 10
392.6124456522
 20
586.9129121302
 11
464.8051333845
 21
586.9129121302
  0
LINE
  5
267
100
AcDbEntity
  8
0
100
AcDbLine
 62
2
  6
CONTINUOUS
 10
579.8624456522
 20
586.9129121302
 11
507.6697579198
 21
586.9129121302
  0
INSERT
  5
268
100
AcDbEntity
  8
0
100
AcDbBlockReference
 62
2
  6
CONTINUOUS
  2
_FILLED
 10
392.6124456522
 20
586.9129121302
 41
8.0
 42
8.0
 43
8.0
 50
180.0
  0
INSERT
  5
269
100
AcDbEntity
  8
0
100
AcDbBlockReference
 62
2
  6
CONTINUOUS
  2
_FILLED
 10
579.8624456522
 20
586.9129121302
 41
8.0
 42
8.0
 43
8.0
  0
ENDBLK
  5
26A
100
AcDbEntity
  8
0
  6
BYBLOCK
 62
0
100
AcDbBlockEnd
  0
BLOCK
  5
26B
100
AcDbEntity
  8
0
100
AcDbBlockBegin
 62
2
  6
CONTINUOUS
  2
*D1
 70
65
 10
0.0
 20
0.0
  3
*D1
  1

  0
MTEXT
  5
26C
100
AcDbEntity
  8
0
100
AcDbMText
 62
2
  6
CONTINUOUS
  7
STANDARD
 71
2
 72
1
 10
300.2430559764
 20
460.4107733425
 30
0.0
 11
1.0
 21
0.0
 31
0.0
 73
2
 44
0.9
  1
62,5\P[2.46]
 40
9.144
 41
33.7206245353
  0
LINE
  5
26D
100
AcDbEntity
  8
0
100
AcDbLine
 62
2
  6
CONTINUOUS
 10
265.6195124756
 20
415.7618478261
 11
317.4300745637
 21
415.7618478261
  0
LINE
  5
26E
100
AcDbEntity
  8
0
100
AcDbLine
 62
2
  6
CONTINUOUS
 10
209.1634825999
 20
478.2389863143
 11
317.4300745637
 21
478.2389863143
  0
LINE
  5
26F
100
AcDbEntity
  8
0
100
AcDbLine
 62
2
  6
CONTINUOUS
 10
304.7300745637
 20
415.7618478261
 11
304.7300745637
 21
430.4973229248
  0
LINE
  5
270
100
AcDbEntity
  8
0
100
AcDbLine
 62
2
  6
CONTINUOUS
 10
304.7300745637
 20
478.2389863143
 11
304.7300745637
 21
464.9827733425
  0
INSERT
  5
271
100
AcDbEntity
  8
0
100
AcDbBlockReference
 62
2
  6
CONTINUOUS
  2
_FILLED
 10
304.7300745637
 20
415.7618478261
 41
8.0
 42
8.0
 43
8.0
 50
270.0
  0
INSERT
  5
272
100
AcDbEntity
  8
0
100
AcDbBlockReference
 62
2
  6
CONTINUOUS
  2
_FILLED
 10
304.7300745637
 20
478.2389863143
 41
8.0
 42
8.0
 43
8.0
 50
90.0
  0
ENDBLK
  5
273
100
AcDbEntity
  8
0
  6
BYBLOCK
 62
0
100
AcDbBlockEnd
  0
BLOCK
  5
274
100
AcDbEntity
  8
0
100
AcDbBlockBegin
 62
2
  6
CONTINUOUS
  2
*D2
 70
65
 10
0.0
 20
0.0
  3
*D2
  1

  0
MTEXT
  5
275
100
AcDbEntity
  8
0
100
AcDbMText
 62
2
  6
CONTINUOUS
  7
STANDARD
 71
2
 72
1
 10
238.018144327
 20
589.9205990666
 30
0.0
 11
1.0
 21
0.0
 31
0.0
 73
2
 44
0.9
  1
85,3\P[3.36]
 40
9.144
 41
33.7206245353
  0
LINE
  5
276
100
AcDbEntity
  8
0
100
AcDbLine
 62
2
  6
CONTINUOUS
 10
192.6533825999
 20
494.7490863143
 11
192.6533825999
 21
598.0485990666
  0
LINE
  5
277
100
AcDbEntity
  8
0
100
AcDbLine
 62
2
  6
CONTINUOUS
 10
277.9450308375
 20
518.6265110653
 11
277.9450308375
 21
598.0485990666
  0
LINE
  5
278
100
AcDbEntity
  8
0
100
AcDbLine
 62
2
  6
CONTINUOUS
 10
192.6533825999
 20
585.3485990666
 11
221.0728506467
 21
585.3485990666
  0
LINE
  5
279
100
AcDbEntity
  8
0
100
AcDbLine
 62
2
  6
CONTINUOUS
 10
277.9450308375
 20
585.3485990666
 11
263.937475182
 21
585.3485990666
  0
INSERT
  5
27A
100
AcDbEntity
  8
0
100
AcDbBlockReference
 62
2
  6
CONTINUOUS
  2
_FILLED
 10
192.6533825999
 20
585.3485990666
 41
8.0
 42
8.0
 43
8.0
 50
180.0
  0
INSERT
  5
27B
100
AcDbEntity
  8
0
100
AcDbBlockReference
 62
2
  6
CONTINUOUS
  2
_FILLED
 10
277.9450308375
 20
585.3485990666
 41
8.0
 42
8.0
 43
8.0
  0
ENDBLK
  5
27C
100
AcDbEntity
  8
0
  6
BYBLOCK
 62
0
100
AcDbBlockEnd
  0
BLOCK
  5
27D
100
AcDbEntity
  8
0
100
AcDbBlockBegin
 62
2
  6
CONTINUOUS
  2
*D3
 70
65
 10
0.0
 20
0.0
  3
*D3
  1

  0
MTEXT
  5
27E
100
AcDbEntity
  8
0
100
AcDbMText
 62
2
  6
CONTINUOUS
  7
STANDARD
 71
2
 72
1
 10
333.3585100861
 20
515.4132359986
 30
0.0
 11
1.0
 21
0.0
 31
0.0
 73
2
 44
0.9
  1
135,6\P[5.34]
 40
9.144
 41
33.7206245353
  0
LINE
  5
27F
100
AcDbEntity
  8
0
100
AcDbLine
 62
2
  6
CONTINUOUS
 10
265.6195124756
 20
415.7618478261
 11
347.0103019077
 21
415.7618478261
  0
LINE
  5
280
100
AcDbEntity
  8
0
100
AcDbLine
 62
2
  6
CONTINUOUS
 10
265.6195124756
 20
551.3618478261
 11
347.0103019077
 21
551.3618478261
  0
LINE
  5
281
100
AcDbEntity
  8
0
100
AcDbLine
 62
2
  6
CONTINUOUS
 10
334.3103019077
 20
415.7618478261
 11
334.3103019077
 21
485.4997981934
  0
LINE
  5
282
100
AcDbEntity
  8
0
100
AcDbLine
 62
2
  6
CONTINUOUS
 10
334.3103019077
 20
551.3618478261
 11
334.3103019077
 21
519.9852359986
  0
INSERT
  5
283
100
AcDbEntity
  8
0
100
AcDbBlockReference
 62
2
  6
CONTINUOUS
  2
_FILLED
 10
334.3103019077
 20
415.7618478261
 41
8.0
 42
8.0
 43
8.0
 50
270.0
  0
INSERT
  5
284
100
AcDbEntity
  8
0
100
AcDbBlockReference
 62
2
  6
CONTINUOUS
  2
_FILLED
 10
334.3103019077
 20
551.3618478261
 41
8.0
 42
8.0
 43
8.0
 50
90.0
  0
ENDBLK
  5
285
100
AcDbEntity
  8
0
  6
BYBLOCK
 62
0
100
AcDbBlockEnd
  0
BLOCK
  5
286
100
AcDbEntity
  8
0
100
AcDbBlockBegin
 62
2
  6
CONTINUOUS
  2
*D4
 70
65
 10
0.0
 20
0.0
  3
*D4
  1

  0
MTEXT
  5
287
100
AcDbEntity
  8
0
100
AcDbMText
 62
2
  6
CONTINUOUS
  7
STANDARD
 71
2
 72
1
 10
187.4521501006
 20
395.3110577214
 30
0.0
 11
1.0
 21
0.0
 31
0.0
 73
2
 44
0.9
  1
181,5\P[7.15]
 40
9.144
 41
33.7206245353
  0
LINE
  5
288
100
AcDbEntity
  8
0
100
AcDbLine
 62
2
  6
CONTINUOUS
 10
277.9450308375
 20
456.30143187
 11
277.9450308375
 21
417.7208914588
  0
LINE
  5
289
100
AcDbEntity
  8
0
100
AcDbLine
 62
2
  6
CONTINUOUS
 10
277.9450308375
 20
413.4471628363
 11
277.9450308375
 21
378.0390577214
  0
LINE
  5
28A
100
AcDbEntity
  8
0
100
AcDbLine
 62
2
  6
CONTINUOUS
 10
96.4582824294
 20
500.2572927443
 11
96.4582824294
 21
418.2474521527
  0
LINE
  5
28B
100
AcDbEntity
  8
0
100
AcDbLine
 62
2
  6
CONTINUOUS
 10
96.4582824294
 20
413.9034968332
 11
96.4582824294
 21
378.0390577214
  0
LINE
  5
28C
100
AcDbEntity
  8
0
100
AcDbLine
 62
2
  6
CONTINUOUS
 10
277.9450308375
 20
390.7390577214
 11
209.8362541899
 21
390.7390577214
  0
LINE
  5
28D
100
AcDbEntity
  8
0
100
AcDbLine
 62
2
  6
CONTINUOUS
 10
96.4582824294
 20
390.7390577214
 11
166.9716296545
 21
390.7390577214
  0
INSERT
  5
28E
100
AcDbEntity
  8
0
100
AcDbBlockReference
 62
2
  6
CONTINUOUS
  2
_FILLED
 10
277.9450308375
 20
390.7390577214
 41
8.0
 42
8.0
 43
8.0
  0
INSERT
  5
28F
100
AcDbEntity
  8
0
100
AcDbBlockReference
 62
2
  6
CONTINUOUS
  2
_FILLED
 10
96.4582824294
 20
390.7390577214
 41
8.0
 42
8.0
 43
8.0
 50
180.0
  0
ENDBLK
  5
290
100
AcDbEntity
  8
0
  6
BYBLOCK
 62
0
100
AcDbBlockEnd
  0
BLOCK
  5
291
100
AcDbEntity
  8
0
100
AcDbBlockBegin
 62
2
  6
CONTINUOUS
  2
*D5
 70
65
 10
0.0
 20
0.0
  3
*D5
  1

  0
MTEXT
  5
292
100
AcDbEntity
  8
0
100
AcDbMText
 62
2
  6
CONTINUOUS
  7
STANDARD
 71
2
 72
1
 10
1304.5316575615
 20
474.150104922
 30
0.0
 11
1.0
 21
0.0
 31
0.0
 73
2
 44
0.9
  1
138,0\P[5.43]
 40
9.144
 41
33.7206245353
  0
LINE
  5
293
100
AcDbEntity
  8
0
100
AcDbLine
 62
2
  6
CONTINUOUS
 10
1230.6009676262
 20
456.7084064644
 11
1242.1215692419
 21
499.7038770279
  0
LINE
  5
294
100
AcDbEntity
  8
0
100
AcDbLine
 62
2
  6
CONTINUOUS
 10
1356.5101283109
 20
393.4167351664
 11
1375.4193332698
 21
463.9868488038
  0
LINE
  5
295
100
AcDbEntity
  8
0
100
AcDbLine
 62
2
  6
CONTINUOUS
 10
1238.8345673691
 20
487.4366190341
 11
1284.0511371154
 21
475.320875686
  0
LINE
  5
296
100
AcDbEntity
  8
0
100
AcDbLine
 62
2
  6
CONTINUOUS
 10
1372.132331397
 20
451.7195908099
 11
1326.9157616507
 21
463.8353341579
  0
INSERT
  5
297
100
AcDbEntity
  8
0
100
AcDbBlockReference
 62
2
  6
CONTINUOUS
  2
_FILLED
 10
1238.8345673691
 20
487.4366190341
 41
8.0
 42
8.0
 43
8.0
 50
165.0
  0
INSERT
  5
298
100
AcDbEntity
  8
0
100
AcDbBlockReference
 62
2
  6
CONTINUOUS
  2
_FILLED
 10
1372.132331397
 20
451.7195908099
 41
8.0
 42
8.0
 43
8.0
 50
345.0
  0
ENDBLK
  5
299
100
AcDbEntity
  8
0
  6
BYBLOCK
 62
0
100
AcDbBlockEnd
  0
BLOCK
  5
29A
100
AcDbEntity
  8
0
100
AcDbBlockBegin
 62
2
  6
CONTINUOUS
  2
*D6
 70
65
 10
0.0
 20
0.0
  3
*D6
  1

  0
MTEXT
  5
29B
100
AcDbEntity
  8
0
100
AcDbMText
 62
2
  6
CONTINUOUS
  7
STANDARD
 71
2
 72
1
 10
1193.0244450817
 20
454.3319489319
 30
0.0
 11
1.0
 21
0.0
 31
0.0
 73
2
 44
0.9
  1
49,7\P[1.96]
 40
9.144
 41
33.7206245353
  0
LINE
  5
29C
100
AcDbEntity
  8
0
100
AcDbLine
 62
2
  6
CONTINUOUS
 10
1226.4983238844
 20
455.7889179901
 11
1188.6931993862
 21
465.9187705692
  0
LINE
  5
29D
100
AcDbEntity
  8
0
100
AcDbLine
 62
2
  6
CONTINUOUS
 10
1328.206274333
 20
377.0754974532
 11
1175.8279850486
 21
417.905137011
  0
LINE
  5
29E
100
AcDbEntity
  8
0
100
AcDbLine
 62
2
  6
CONTINUOUS
 10
1200.96045738
 20
462.6317686964
 11
1205.1015621017
 21
478.086581917
  0
LINE
  5
29F
100
AcDbEntity
  8
0
100
AcDbLine
 62
2
  6
CONTINUOUS
 10
1188.0952430425
 20
414.6181351382
 11
1183.9541383208
 21
399.1633219176
  0
INSERT
  5
2A0
100
AcDbEntity
  8
0
100
AcDbBlockReference
 62
2
  6
CONTINUOUS
  2
_FILLED
 10
1200.96045738
 20
462.6317686964
 41
8.0
 42
8.0
 43
8.0
 50
255.0
  0
INSERT
  5
2A1
100
AcDbEntity
  8
0
100
AcDbBlockReference
 62
2
  6
CONTINUOUS
  2
_FILLED
 10
1188.0952430425
 20
414.6181351382
 41
8.0
 42
8.0
 43
8.0
 50
75.0
  0
ENDBLK
  5
2A2
100
AcDbEntity
  8
0
  6
BYBLOCK
 62
0
100
AcDbBlockEnd
  0
BLOCK
  5
2A3
100
AcDbEntity
  8
0
100
AcDbBlockBegin
 62
2
  6
CONTINUOUS
  2
*D7
 70
65
 10
0.0
 20
0.0
  3
*D7
  1

  0
MTEXT
  5
2A4
100
AcDbEntity
  8
0
100
AcDbMText
 62
2
  6
CONTINUOUS
  7
STANDARD
 71
2
 72
1
 10
476.6604281529
 20
353.3161698423
 30
0.0
 11
1.0
 21
0.0
 31
0.0
 73
2
 44
0.9
  1
173,0\P[6.81]
 40
9.144
 41
33.7206245353
  0
LINE
  5
2A5
100
AcDbEntity
  8
0
100
AcDbLine
 62
2
  6
CONTINUOUS
 10
392.6124456522
 20
324.6805875812
 11
392.6124456522
 21
361.4441698423
  0
LINE
  5
2A6
100
AcDbEntity
  8
0
100
AcDbLine
 62
2
  6
CONTINUOUS
 10
565.6124456522
 20
274.9969940417
 11
565.6124456522
 21
361.4441698423
  0
LINE
  5
2A7
100
AcDbEntity
  8
0
100
AcDbLine
 62
2
  6
CONTINUOUS
 10
392.6124456522
 20
348.7441698423
 11
456.1799077068
 21
348.7441698423
  0
LINE
  5
2A8
100
AcDbEntity
  8
0
100
AcDbLine
 62
2
  6
CONTINUOUS
 10
565.6124456522
 20
348.7441698423
 11
499.0445322421
 21
348.7441698423
  0
INSERT
  5
2A9
100
AcDbEntity
  8
0
100
AcDbBlockReference
 62
2
  6
CONTINUOUS
  2
_FILLED
 10
392.6124456522
 20
348.7441698423
 41
8.0
 42
8.0
 43
8.0
 50
180.0
  0
INSERT
  5
2AA
100
AcDbEntity
  8
0
100
AcDbBlockReference
 62
2
  6
CONTINUOUS
  2
_FILLED
 10
565.6124456522
 20
348.7441698423
 41
8.0
 42
8.0
 43
8.0
  0
ENDBLK
  5
2AB
100
AcDbEntity
  8
0
  6
BYBLOCK
 62
0
100
AcDbBlockEnd
  0
BLOCK
  5
2AC
100
AcDbEntity
  8
0
100
AcDbBlockBegin
 62
2
  6
CONTINUOUS
  2
*D8
 70
65
 10
0.0
 20
0.0
  3
*D8
  1

  0
MTEXT
  5
2AD
100
AcDbEntity
  8
0
100
AcDbMText
 62
2
  6
CONTINUOUS
  7
STANDARD
 71
2
 72
1
 10
764.9623335787
 20
303.9902680757
 30
0.0
 11
1.0
 21
0.0
 31
0.0
 73
2
 44
0.9
  1
71,4\P[2.81]
 40
9.144
 41
33.7206245353
  0
LINE
  5
2AE
100
AcDbEntity
  8
0
100
AcDbLine
 62
2
  6
CONTINUOUS
 10
739.9624456522
 20
323.3305875812
 11
782.1493521661
 21
323.3305875812
  0
LINE
  5
2AF
100
AcDbEntity
  8
0
100
AcDbLine
 62
2
  6
CONTINUOUS
 10
588.7224456522
 20
251.8869940417
 11
782.1493521661
 21
251.8869940417
  0
LINE
  5
2B0
100
AcDbEntity
  8
0
100
AcDbLine
 62
2
  6
CONTINUOUS
 10
769.4493521661
 20
323.3305875812
 11
769.4493521661
 21
308.5622680757
  0
LINE
  5
2B1
100
AcDbEntity
  8
0
100
AcDbLine
 62
2
  6
CONTINUOUS
 10
769.4493521661
 20
251.8869940417
 11
769.4493521661
 21
274.0768241455
  0
INSERT
  5
2B2
100
AcDbEntity
  8
0
100
AcDbBlockReference
 62
2
  6
CONTINUOUS
  2
_FILLED
 10
769.4493521661
 20
323.3305875812
 41
8.0
 42
8.0
 43
8.0
 50
90.0
  0
INSERT
  5
2B3
100
AcDbEntity
  8
0
100
AcDbBlockReference
 62
2
  6
CONTINUOUS
  2
_FILLED
 10
769.4493521661
 20
251.8869940417
 41
8.0
 42
8.0
 43
8.0
 50
270.0
  0
ENDBLK
  5
2B4
100
AcDbEntity
  8
0
  6
BYBLOCK
 62
0
100
AcDbBlockEnd
  0
BLOCK
  5
2B5
100
AcDbEntity
  8
0
100
AcDbBlockBegin
 62
2
  6
CONTINUOUS
  2
*D9
 70
65
 10
0.0
 20
0.0
  3
*D9
  1

  0
MTEXT
  5
2B6
100
AcDbEntity
  8
0
100
AcDbMText
 62
2
  6
CONTINUOUS
  7
STANDARD
 71
2
 72
1
 10
1143.6938124763
 20
777.8962396107
 30
0.0
 11
1.0
 21
0.0
 31
0.0
 73
2
 44
0.9
  1
173,0\P[6.81]
 40
9.144
 41
33.7206245353
  0
LINE
  5
2B7
100
AcDbEntity
  8
0
100
AcDbLine
 62
2
  6
CONTINUOUS
 10
1074.5225634368
 20
686.1461316333
 11
1130.420982255
 21
671.1681954528
  0
LINE
  5
2B8
100
AcDbEntity
  8
0
100
AcDbLine
 62
2
  6
CONTINUOUS
 10
1112.6912994583
 20
855.0216288512
 11
1175.1966770577
 21
838.2733634008
  0
LINE
  5
2B9
100
AcDbEntity
  8
0
100
AcDbLine
 62
2
  6
CONTINUOUS
 10
1118.1537242611
 20
674.4551973256
 11
1137.8553734982
 21
747.9827532715
  0
LINE
  5
2BA
100
AcDbEntity
  8
0
100
AcDbLine
 62
2
  6
CONTINUOUS
 10
1162.9294190638
 20
841.5603652736
 11
1147.0957317134
 21
782.4682396107
  0
INSERT
  5
2BB
100
AcDbEntity
  8
0
100
AcDbBlockReference
 62
2
  6
CONTINUOUS
  2
_FILLED
 10
1118.1537242611
 20
674.4551973256
 41
8.0
 42
8.0
 43
8.0
 50
255.0
  0
INSERT
  5
2BC
100
AcDbEntity
  8
0
100
AcDbBlockReference
 62
2
  6
CONTINUOUS
  2
_FILLED
 10
1162.9294190638
 20
841.5603652736
 41
8.0
 42
8.0
 43
8.0
 50
75.0
  0
ENDBLK
  5
2BD
100
AcDbEntity
  8
0
  6
BYBLOCK
 62
0
100
AcDbBlockEnd
  0
BLOCK
  5
2BE
100
AcDbEntity
  8
0
100
AcDbBlockBegin
 62
2
  6
CONTINUOUS
  2
*D10
 70
65
 10
0.0
 20
0.0
  3
*D10
  1

  0
MTEXT
  5
2BF
100
AcDbEntity
  8
0
100
AcDbMText
 62
2
  6
CONTINUOUS
  7
STANDARD
 71
1
 72
1
 10
1102.233975993
 20
655.9304841115
 30
0.0
 11
1.0
 21
0.0
 31
0.0
 73
2
 44
0.9
  1
28,0\P[1.10]
 40
9.144
 41
33.7206245353
  0
LINE
  5
2C0
100
AcDbEntity
  8
0
100
AcDbLine
 62
2
  6
CONTINUOUS
 10
1071.6749411886
 20
683.0528821674
 11
1060.8099296043
 21
642.5041069097
  0
LINE
  5
2C1
100
AcDbEntity
  8
0
100
AcDbLine
 62
2
  6
CONTINUOUS
 10
1084.3874454805
 20
838.680391138
 11
1033.7639803387
 21
649.7510471739
  0
LINE
  5
2C2
100
AcDbEntity
  8
0
100
AcDbLine
 62
2
  6
CONTINUOUS
 10
1064.0969314771
 20
654.7713649035
 11
1050.5739568443
 21
658.3948350356
  0
LINE
  5
2C3
100
AcDbEntity
  8
0
100
AcDbLine
 62
2
  6
CONTINUOUS
 10
1050.5739568443
 20
658.3948350356
 11
1076.833975993
 21
651.3584841115
  0
LINE
  5
2C4
100
AcDbEntity
  8
0
100
AcDbLine
 62
2
  6
CONTINUOUS
 10
1076.833975993
 20
651.3584841115
 11
1097.661975993
 21
651.3584841115
  0
LINE
  5
2C5
100
AcDbEntity
  8
0
100
AcDbLine
 62
2
  6
CONTINUOUS
 10
1037.0509822115
 20
662.0183051678
 11
1050.5739568443
 21
658.3948350356
  0
INSERT
  5
2C6
100
AcDbEntity
  8
0
100
AcDbBlockReference
 62
2
  6
CONTINUOUS
  2
_FILLED
 10
1064.0969314771
 20
654.7713649035
 41
8.0
 42
8.0
 43
8.0
 50
345.0
  0
INSERT
  5
2C7
100
AcDbEntity
  8
0
100
AcDbBlockReference
 62
2
  6
CONTINUOUS
  2
_FILLED
 10
1037.0509822115
 20
662.0183051678
 41
8.0
 42
8.0
 43
8.0
 50
165.0
  0
ENDBLK
  5
2C8
100
AcDbEntity
  8
0
  6
BYBLOCK
 62
0
100
AcDbBlockEnd
  0
BLOCK
  5
2C9
100
AcDbEntity
  8
0
100
AcDbBlockBegin
 62
2
  6
CONTINUOUS
  2
*D11
 70
65
 10
0.0
 20
0.0
  3
*D11
  1

  0
MTEXT
  5
2CA
100
AcDbEntity
  8
0
100
AcDbMText
 62
2
  6
CONTINUOUS
  7
STANDARD
 71
2
 72
1
 10
797.4784070059
 20
466.8883982495
 30
0.0
 11
1.0
 21
0.0
 31
0.0
 73
2
 44
0.9
  1
61,8\P[2.43]\PBOTH ENDS
 40
9.144
 41
68.1550929368
  0
LINE
  5
2CB
100
AcDbEntity
  8
0
100
AcDbLine
 62
2
  6
CONTINUOUS
 10
855.0800427547
 20
415.7618478261
 11
789.2654255933
 21
415.7618478261
  0
LINE
  5
2CC
100
AcDbEntity
  8
0
100
AcDbLine
 62
2
  6
CONTINUOUS
 10
908.245110825
 20
477.5569847889
 11
789.2654255933
 21
477.5569847889
  0
LINE
  5
2CD
100
AcDbEntity
  8
0
100
AcDbLine
 62
2
  6
CONTINUOUS
 10
801.9654255933
 20
415.7618478261
 11
801.9654255933
 21
399.7618478261
  0
LINE
  5
2CE
100
AcDbEntity
  8
0
100
AcDbLine
 62
2
  6
CONTINUOUS
 10
801.9654255933
 20
477.5569847889
 11
801.9654255933
 21
493.5569847889
  0
INSERT
  5
2CF
100
AcDbEntity
  8
0
100
AcDbBlockReference
 62
2
  6
CONTINUOUS
  2
_FILLED
 10
801.9654255933
 20
415.7618478261
 41
8.0
 42
8.0
 43
8.0
 50
90.0
  0
INSERT
  5
2D0
100
AcDbEntity
  8
0
100
AcDbBlockReference
 62
2
  6
CONTINUOUS
  2
_FILLED
 10
801.9654255933
 20
477.5569847889
 41
8.0
 42
8.0
 43
8.0
 50
270.0
  0
ENDBLK
  5
2D1
100
AcDbEntity
  8
0
  6
BYBLOCK
 62
0
100
AcDbBlockEnd
  0
BLOCK
  5
2D2
100
AcDbEntity
  8
0
100
AcDbBlockBegin
 62
2
  6
CONTINUOUS
  2
*D12
 70
65
 10
0.0
 20
0.0
  3
*D12
  1

  0
MTEXT
  5
2D3
100
AcDbEntity
  8
0
100
AcDbMText
 62
2
  6
CONTINUOUS
  7
STANDARD
 71
2
 72
1
 10
889.1605719278
 20
404.1887074999
 30
0.0
 11
1.0
 21
0.0
 31
0.0
 73
2
 44
0.9
  1
90,0\P[3.54]\PBOTH ENDS
 40
9.144
 41
68.1550929368
  0
LINE
  5
2D4
100
AcDbEntity
  8
0
100
AcDbLine
 62
2
  6
CONTINUOUS
 10
932.755110825
 20
453.0469847889
 11
932.755110825
 21
386.9167074999
  0
LINE
  5
2D5
100
AcDbEntity
  8
0
100
AcDbLine
 62
2
  6
CONTINUOUS
 10
842.7545243928
 20
463.4650521732
 11
842.7545243928
 21
417.7674214505
  0
LINE
  5
2D6
100
AcDbEntity
  8
0
100
AcDbLine
 62
2
  6
CONTINUOUS
 10
842.7545243928
 20
413.1775818676
 11
842.7545243928
 21
386.9167074999
  0
LINE
  5
2D7
100
AcDbEntity
  8
0
100
AcDbLine
 62
2
  6
CONTINUOUS
 10
932.755110825
 20
399.6167074999
 11
915.0799027829
 21
399.6167074999
  0
LINE
  5
2D8
100
AcDbEntity
  8
0
100
AcDbLine
 62
2
  6
CONTINUOUS
 10
842.7545243928
 20
399.6167074999
 11
872.2152782475
 21
399.6167074999
  0
INSERT
  5
2D9
100
AcDbEntity
  8
0
100
AcDbBlockReference
 62
2
  6
CONTINUOUS
  2
_FILLED
 10
932.755110825
 20
399.6167074999
 41
8.0
 42
8.0
 43
8.0
  0
INSERT
  5
2DA
100
AcDbEntity
  8
0
100
AcDbBlockReference
 62
2
  6
CONTINUOUS
  2
_FILLED
 10
842.7545243928
 20
399.6167074999
 41
8.0
 42
8.0
 43
8.0
 50
180.0
  0
ENDBLK
  5
2DB
100
AcDbEntity
  8
0
  6
BYBLOCK
 62
0
100
AcDbBlockEnd
  0
BLOCK
  5
2DC
100
AcDbEntity
  8
0
100
AcDbBlockBegin
 62
2
  6
CONTINUOUS
  2
*D13
 70
65
 10
0.0
 20
0.0
  3
*D13
  1

  0
MTEXT
  5
2DD
100
AcDbEntity
  8
0
100
AcDbMText
 62
2
  6
CONTINUOUS
  7
STANDARD
 71
2
 72
1
 10
561.1254270648
 20
677.2023178814
 30
0.0
 11
1.0
 21
0.0
 31
0.0
 73
2
 44
0.9
  1
346,0\P[13.62]
 40
9.144
 41
40.7910780669
  0
LINE
  5
2DE
100
AcDbEntity
  8
0
100
AcDbLine
 62
2
  6
CONTINUOUS
 10
392.6124456522
 20
694.9115773819
 11
392.6124456522
 21
659.9303178814
  0
LINE
  5
2DF
100
AcDbEntity
  8
0
100
AcDbLine
 62
2
  6
CONTINUOUS
 10
738.6124456522
 20
694.9115773819
 11
738.6124456522
 21
659.9303178814
  0
LINE
  5
2E0
100
AcDbEntity
  8
0
100
AcDbLine
 62
2
  6
CONTINUOUS
 10
392.6124456522
 20
672.6303178814
 11
540.6449066187
 21
672.6303178814
  0
LINE
  5
2E1
100
AcDbEntity
  8
0
100
AcDbLine
 62
2
  6
CONTINUOUS
 10
738.6124456522
 20
672.6303178814
 11
590.5799846856
 21
672.6303178814
  0
INSERT
  5
2E2
100
AcDbEntity
  8
0
100
AcDbBlockReference
 62
2
  6
CONTINUOUS
  2
_FILLED
 10
392.6124456522
 20
672.6303178814
 41
8.0
 42
8.0
 43
8.0
 50
180.0
  0
INSERT
  5
2E3
100
AcDbEntity
  8
0
100
AcDbBlockReference
 62
2
  6
CONTINUOUS
  2
_FILLED
 10
738.6124456522
 20
672.6303178814
 41
8.0
 42
8.0
 43
8.0
  0
ENDBLK
  5
2E4
100
AcDbEntity
  8
0
  6
BYBLOCK
 62
0
100
AcDbBlockEnd
  0
BLOCK
  5
2E5
100
AcDbEntity
  8
0
100
AcDbBlockBegin
 62
2
  6
CONTINUOUS
  2
*D14
 70
65
 10
0.0
 20
0.0
  3
*D14
  1

  0
MTEXT
  5
2E6
100
AcDbEntity
  8
0
100
AcDbMText
 62
2
  6
CONTINUOUS
  7
STANDARD
 71
2
 72
1
 10
1401.4527167297
 20
447.2329242313
 30
0.0
 11
1.0
 21
0.0
 31
0.0
 73
2
 44
0.9
  1
70,0\P[2.76]
 40
9.144
 41
33.7206245353
  0
LINE
  5
2E7
100
AcDbEntity
  8
0
100
AcDbLine
 62
2
  6
CONTINUOUS
 10
1356.5101283109
 20
393.4167351664
 11
1375.4193332698
 21
463.9868488038
  0
LINE
  5
2E8
100
AcDbEntity
  8
0
100
AcDbLine
 62
2
  6
CONTINUOUS
 10
1424.1249361511
 20
375.2994020093
 11
1443.03414111
 21
445.8695156466
  0
LINE
  5
2E9
100
AcDbEntity
  8
0
100
AcDbLine
 62
2
  6
CONTINUOUS
 10
1372.132331397
 20
451.7195908099
 11
1384.5074230495
 21
448.4036949954
  0
LINE
  5
2EA
100
AcDbEntity
  8
0
100
AcDbLine
 62
2
  6
CONTINUOUS
 10
1439.7471392372
 20
433.6022576527
 11
1427.3720475848
 21
436.9181534673
  0
INSERT
  5
2EB
100
AcDbEntity
  8
0
100
AcDbBlockReference
 62
2
  6
CONTINUOUS
  2
_FILLED
 10
1372.132331397
 20
451.7195908099
 41
8.0
 42
8.0
 43
8.0
 50
165.0
  0
INSERT
  5
2EC
100
AcDbEntity
  8
0
100
AcDbBlockReference
 62
2
  6
CONTINUOUS
  2
_FILLED
 10
1439.7471392372
 20
433.6022576527
 41
8.0
 42
8.0
 43
8.0
 50
345.0
  0
ENDBLK
  5
2ED
100
AcDbEntity
  8
0
  6
BYBLOCK
 62
0
100
AcDbBlockEnd
  0
BLOCK
  5
2EE
100
AcDbEntity
  8
0
100
AcDbBlockBegin
 62
2
  6
CONTINUOUS
  2
*D15
 70
65
 10
0.0
 20
0.0
  3
*D15
  1

  0
MTEXT
  5
2EF
100
AcDbEntity
  8
0
100
AcDbMText
 62
2
  6
CONTINUOUS
  7
STANDARD
 71
2
 72
1
 10
764.9623335787
 20
235.0723739725
 30
0.0
 11
1.0
 21
0.0
 31
0.0
 73
2
 44
0.9
  1
60,0\P[2.36]
 40
9.144
 41
33.7206245353
  0
LINE
  5
2F0
100
AcDbEntity
  8
0
100
AcDbLine
 62
2
  6
CONTINUOUS
 10
588.7224456522
 20
191.8869940417
 11
782.1493521661
 21
191.8869940417
  0
LINE
  5
2F1
100
AcDbEntity
  8
0
100
AcDbLine
 62
2
  6
CONTINUOUS
 10
588.7224456522
 20
251.8869940417
 11
782.1493521661
 21
251.8869940417
  0
LINE
  5
2F2
100
AcDbEntity
  8
0
100
AcDbLine
 62
2
  6
CONTINUOUS
 10
769.4493521661
 20
191.8869940417
 11
769.4493521661
 21
205.1589191895
  0
LINE
  5
2F3
100
AcDbEntity
  8
0
100
AcDbLine
 62
2
  6
CONTINUOUS
 10
769.4493521661
 20
251.8869940417
 11
769.4493521661
 21
239.6443739725
  0
INSERT
  5
2F4
100
AcDbEntity
  8
0
100
AcDbBlockReference
 62
2
  6
CONTINUOUS
  2
_FILLED
 10
769.4493521661
 20
191.8869940417
 41
8.0
 42
8.0
 43
8.0
 50
270.0
  0
INSERT
  5
2F5
100
AcDbEntity
  8
0
100
AcDbBlockReference
 62
2
  6
CONTINUOUS
  2
_FILLED
 10
769.4493521661
 20
251.8869940417
 41
8.0
 42
8.0
 43
8.0
 50
90.0
  0
ENDBLK
  5
2F6
100
AcDbEntity
  8
0
  6
BYBLOCK
 62
0
100
AcDbBlockEnd
  0
BLOCK
  5
2F7
100
AcDbEntity
  8
0
100
AcDbBlockBegin
 62
2
  6
CONTINUOUS
  2
*D16
 70
65
 10
0.0
 20
0.0
  3
*D16
  1

  0
MTEXT
  5
2F8
100
AcDbEntity
  8
0
100
AcDbMText
 62
2
  6
CONTINUOUS
  7
STANDARD
 71
3
 72
1
 10
933.0465912547
 20
685.2477022324
 30
0.0
 11
1.0
 21
0.0
 31
0.0
 73
2
 44
0.9
  1
60,0\P[2.36]
 40
9.144
 41
33.7206245353
  0
LINE
  5
2F9
100
AcDbEntity
  8
0
100
AcDbLine
 62
2
  6
CONTINUOUS
 10
1084.3874454805
 20
838.680391138
 11
1033.7639803387
 21
649.7510471739
  0
LINE
  5
2FA
100
AcDbEntity
  8
0
100
AcDbLine
 62
2
  6
CONTINUOUS
 10
1026.4318959031
 20
854.2095338441
 11
975.8084307614
 21
665.28018988
  0
LINE
  5
2FB
100
AcDbEntity
  8
0
100
AcDbLine
 62
2
  6
CONTINUOUS
 10
1037.0509822115
 20
662.0183051678
 11
1008.0732074229
 21
669.7828765208
  0
LINE
  5
2FC
100
AcDbEntity
  8
0
100
AcDbLine
 62
2
  6
CONTINUOUS
 10
979.0954326342
 20
677.5474478739
 11
1008.0732074229
 21
669.7828765208
  0
LINE
  5
2FD
100
AcDbEntity
  8
0
100
AcDbLine
 62
2
  6
CONTINUOUS
 10
1008.0732074229
 20
669.7828765208
 11
967.4206284295
 21
680.6757022324
  0
LINE
  5
2FE
100
AcDbEntity
  8
0
100
AcDbLine
 62
2
  6
CONTINUOUS
 10
967.4206284295
 20
680.6757022324
 11
946.5926284295
 21
680.6757022324
  0
INSERT
  5
2FF
100
AcDbEntity
  8
0
100
AcDbBlockReference
 62
2
  6
CONTINUOUS
  2
_FILLED
 10
1037.0509822115
 20
662.0183051678
 41
8.0
 42
8.0
 43
8.0
 50
345.0
  0
INSERT
  5
300
100
AcDbEntity
  8
0
100
AcDbBlockReference
 62
2
  6
CONTINUOUS
  2
_FILLED
 10
979.0954326342
 20
677.5474478739
 41
8.0
 42
8.0
 43
8.0
 50
165.0
  0
ENDBLK
  5
301
100
AcDbEntity
  8
0
  6
BYBLOCK
 62
0
100
AcDbBlockEnd
  0
BLOCK
  5
302
100
AcDbEntity
  8
0
100
AcDbBlockBegin
 62
2
  6
CONTINUOUS
  2
*D17
 70
65
 10
0.0
 20
0.0
  3
*D17
  1

  0
MTEXT
  5
303
100
AcDbEntity
  8
0
100
AcDbMText
 62
2
  6
CONTINUOUS
  7
STANDARD
 71
2
 72
1
 10
61.7362265621
 20
463.4040813732
 30
0.0
 11
1.0
 21
0.0
 31
0.0
 73
2
 44
0.9
  1
15\fgdt;{\W1.0;{\fgdt;~}}
 40
9.144
 41
20.2369070632
  0
LINE
  5
304
100
AcDbEntity
  8
0
100
AcDbLine
 62
2
  6
CONTINUOUS
 10
117.6712695846
 20
415.7618478261
 11
51.9495311944
 21
415.7618478261
  0
LINE
  5
305
100
AcDbEntity
  8
0
100
AcDbLine
 62
2
  6
CONTINUOUS
 10
93.5858496341
 20
509.2138654436
 11
41.4842839029
 21
495.2532929815
  0
ARC
  5
306
100
AcDbEntity
  8
0
100
AcDbCircle
 62
2
  6
CONTINUOUS
 10
-255.1818281843
 20
415.7618478261
 40
319.8313593787
100
AcDbArc
 50
0.0
 51
6.0891274325
  0
ARC
  5
307
100
AcDbEntity
  8
0
100
AcDbCircle
 62
2
  6
CONTINUOUS
 10
-255.1818281843
 20
415.7618478261
 40
319.8313593787
100
AcDbArc
 50
9.3959088046
 51
15.0
  0
SOLID
  5
308
100
AcDbEntity
  8
0
100
AcDbTrace
 62
2
  6
CONTINUOUS
 10
63.5295608452
 20
423.7484657847
 11
64.6495311944
 21
415.7618478261
 12
65.5694013042
 22
423.7739785652
 13
65.5694013042
 23
423.7739785652
  0
SOLID
  5
309
100
AcDbEntity
  8
0
100
AcDbTrace
 62
2
  6
CONTINUOUS
 10
56.7137602197
 20
491.0392507532
 11
53.7515418967
 21
498.5402948543
 12
54.7368224454
 22
490.5359446471
 13
54.7368224454
 23
490.5359446471
  0
ENDBLK
  5
30A
100
AcDbEntity
  8
0
  6
BYBLOCK
 62
0
100
AcDbBlockEnd
  0
ENDSEC
  0
SECTION
  2
ENTITIES
  0
MTEXT
  5
30B
100
AcDbEntity
  8
0
100
AcDbMText
 62
2
  6
CONTINUOUS
  7
TEXTSTYLE_2
 71
1
 72
1
 10
908.9616186372
 20
63.8923724266
 30
0.0
 11
1.0
 21
0.0
 31
0.0
 73
2
 44
1.0000002
  1
DRAWN BY
 40
4.0
 41
29.1747211896
  0
MTEXT
  5
30C
100
AcDbEntity
  8
0
100
AcDbMText
 62
2
  6
CONTINUOUS
  7
TEXTSTYLE_2
 71
1
 72
1
 10
909.0186536509
 20
45.9024195011
 30
0.0
 11
1.0
 21
0.0
 31
0.0
 73
2
 44
1.0000002
  1
MECH ENGINEER
 40
4.0
 41
44.7286245353
  0
MTEXT
  5
30D
100
AcDbEntity
  8
0
100
AcDbMText
 62
2
  6
CONTINUOUS
  7
TEXTSTYLE_2
 71
1
 72
1
 10
788.8124246464
 20
56.3429189546
 30
0.0
 11
1.0
 21
0.0
 31
0.0
 73
2
 44
1.0000002
  1
DECIMALS          ANGLES
 40
5.92
 41
95.3802230483
  0
MTEXT
  5
30E
100
AcDbEntity
  8
0
100
AcDbMText
 62
2
  6
CONTINUOUS
  7
TEXTSTYLE_2
 71
1
 72
1
 10
651.3209059061
 20
40.4701444964
 30
0.0
 11
1.0
 21
0.0
 31
0.0
 73
2
 44
1.0000002
  1
PROJECTION
 40
6.28
 41
53.9519702602
  0
MTEXT
  5
30F
100
AcDbEntity
  8
0
100
AcDbMText
 62
2
  6
CONTINUOUS
  7
TEXTSTYLE_2
 71
2
 72
1
 10
705.8698055747
 20
64.5376893728
 30
0.0
 11
1.0
 21
0.0
 31
0.0
 73
2
 44
0.81
  1
UNLESS  OTHERWISE  SPECIFIED\PDIMENSIONS ARE IN MM [IN]
 40
5.92
 41
119.6764312268
  0
MTEXT
  5
310
100
AcDbEntity
  8
0
100
AcDbMText
 62
2
  6
CONTINUOUS
  7
TEXTSTYLE_2
 71
1
 72
1
 10
568.9149211299
 20
66.5708040424
 30
0.0
 11
1.0
 21
0.0
 31
0.0
 73
2
 44
1.0000002
  1
CAGE CODE
 40
5.291668
 41
45.7365356877
  0
MTEXT
  5
311
100
AcDbEntity
  8
0
100
AcDbMText
 62
2
  6
CONTINUOUS
  7
TEXTSTYLE_2
 71
1
 72
1
 10
576.3608321997
 20
57.6431794159
 30
0.0
 11
1.0
 21
0.0
 31
0.0
 73
2
 44
1.0000002
  1
00PW4
 40
7.408332
 41
33.2135627955
  0
MTEXT
  5
312
100
AcDbEntity
  8
0
100
AcDbMText
 62
2
  6
CONTINUOUS
  7
TEXTSTYLE_2
 71
1
 72
1
 10
196.1575178859
 20
46.5940069939
 30
0.0
 11
1.0
 21
0.0
 31
0.0
 73
2
 44
1.0000002
  1
1675 MACARTHUR BOULEVARD\PCOSTA MESA, CA 92626 USA
 40
6.096
 41
126.2257249071
  0
MTEXT
  5
313
100
AcDbEntity
  8
0
100
AcDbMText
 62
2
  6
CONTINUOUS
  7
TEXTSTYLE_2
 71
1
 72
1
 10
195.5919520639
 20
60.6748330172
 30
0.0
 11
1.0
 21
0.0
 31
0.0
 73
2
 44
1.0000002
  1
QSC, LLC
 40
10.16
 41
63.3772490706
  0
MTEXT
  5
314
100
AcDbEntity
  8
0
100
AcDbMText
 62
2
  6
CONTINUOUS
  7
TEXTSTYLE_2
 71
2
 72
1
 10
593.2683224413
 20
43.9841450818
 30
0.0
 11
1.0
 21
0.0
 31
0.0
 73
2
 44
1.0000002
  1
FORM
 40
5.2
 41
20.8966542751
  0
MTEXT
  5
315
100
AcDbEntity
  8
0
100
AcDbMText
 62
2
  6
CONTINUOUS
  7
TEXTSTYLE_2
 71
1
 72
1
 10
337.4130556513
 20
59.6093149325
 30
0.0
 11
1.0
 21
0.0
 31
0.0
 73
2
 44
1.0000002
  3
THIS DOCUMENT CONTAINS CONFIDENTIAL OR PROPRIETARY INFORMATION WHICH \PIS THE PROPERTY OF QSC, LLC, THAT MAY NOT BE DISCLOSED, REPRODUCED OR\P USED WITHOUT EXPRESS WRITTEN CONSENT FROM QSC, LLC. NO PORTION OF THIS \PDOCUMENT MAY BE REPRODUCED,REDISTR
  1
UBUTED, OR OTHERWISE DISCLOSED TO \P                        ANY THIRD PARTY WITHOUT QSC'S WRITTEN PERMISSION.
 40
3.6
 41
200.2483271375
  0
MTEXT
  5
316
100
AcDbEntity
  8
0
100
AcDbMText
 62
2
  6
CONTINUOUS
  7
TEXTSTYLE_2
 71
2
 72
1
 10
592.1604760117
 20
36.5615533129
 30
0.0
 11
1.0
 21
0.0
 31
0.0
 73
2
 44
1.0000002
  1
QOS40169 B
 40
6.8
 41
55.5881040892
  0
MTEXT
  5
317
100
AcDbEntity
  8
0
100
AcDbMText
 62
2
  6
CONTINUOUS
  7
TEXTSTYLE_2
 71
1
 72
1
 10
789.1734057814
 20
64.1785980347
 30
0.0
 11
1.0
 21
0.0
 31
0.0
 73
2
 44
1.2
  1
TOLERANCES ARE:
 40
5.92
 41
71.5021561338
  0
MTEXT
  5
318
100
AcDbEntity
  8
0
100
AcDbMText
 62
2
  6
CONTINUOUS
  7
TEXTSTYLE_2
 71
1
 72
1
 10
1015.1146303091
 20
63.8697325794
 30
0.0
 11
1.0
 21
0.0
 31
0.0
 73
2
 44
1.0000002
  1
TECH DIRECTOR
 40
4.0
 41
42.2007434944
  0
MTEXT
  5
319
100
AcDbEntity
  8
0
100
AcDbMText
 62
2
  6
CONTINUOUS
  7
TEXTSTYLE_2
 71
1
 72
1
 10
1014.6630469225
 20
45.8731441405
 30
0.0
 11
1.0
 21
0.0
 31
0.0
 73
2
 44
1.0000002
  1
MFG ENGINEER
 40
4.0
 41
40.9665427509
  0
MTEXT
  5
31A
100
AcDbEntity
  8
0
100
AcDbMText
 62
2
  6
CONTINUOUS
  7
TEXTSTYLE_2
 71
1
 72
1
 10
1121.655165346
 20
63.8556107553
 30
0.0
 11
1.0
 21
0.0
 31
0.0
 73
2
 44
1.0000002
  1
REV BY
 40
4.0
 41
18.3345724907
  0
MTEXT
  5
31B
100
AcDbEntity
  8
0
100
AcDbMText
 62
2
  6
CONTINUOUS
  7
TEXTSTYLE_2
 71
1
 72
1
 10
1121.6565865618
 20
45.8613813643
 30
0.0
 11
1.0
 21
0.0
 31
0.0
 73
2
 44
1.0000002
  1
REV DATE
 40
4.0
 41
25.4721189591
  0
MTEXT
  5
31C
100
AcDbEntity
  8
0
100
AcDbMText
 62
2
  6
CONTINUOUS
  7
TEXTSTYLE_2
 71
1
 72
1
 10
1531.2608776974
 20
66.2231134639
 30
0.0
 11
1.0
 21
0.0
 31
0.0
 73
2
 44
1.0000002
  1
DRAWING NUMBER
 40
4.0
 41
51.2862453532
  0
MTEXT
  5
31D
100
AcDbEntity
  8
0
100
AcDbMText
 62
2
  6
CONTINUOUS
  7
TEXTSTYLE_2
 71
1
 72
1
 10
1661.7765770227
 20
65.2368100712
 30
0.0
 11
1.0
 21
0.0
 31
0.0
 73
2
 44
1.0000002
  1
REV
 40
4.0
 41
10.2899628253
  0
MTEXT
  5
31E
100
AcDbEntity
  8
0
100
AcDbMText
 62
2
  6
CONTINUOUS
  7
TEXTSTYLE_2
 71
1
 72
1
 10
1532.204961989
 20
38.247332783
 30
0.0
 11
1.0
 21
0.0
 31
0.0
 73
2
 44
1.0000002
  1
SCALE:  
 40
5.291668
 41
28.6222191078
  0
MTEXT
  5
31F
100
AcDbEntity
  8
0
100
AcDbMText
 62
2
  6
CONTINUOUS
  7
TEXTSTYLE_2
 71
1
 72
1
 10
1635.0053329348
 20
38.3827360884
 30
0.0
 11
1.0
 21
0.0
 31
0.0
 73
2
 44
1.0000002
  1
SHEET:
 40
5.291668
 41
21.8158357323
  0
MTEXT
  5
320
100
AcDbEntity
  8
0
100
AcDbMText
 62
2
  6
CONTINUOUS
  7
TEXTSTYLE_3
 71
1
 72
1
 10
171.2789404097
 20
53.934777886
 30
0.0
 11
1.0
 21
0.0
 31
0.0
 73
2
 44
1.0000002
  1
TM
 40
2.28
 41
4.5854275093
  0
MTEXT
  5
321
100
AcDbEntity
  8
0
100
AcDbMText
 62
7
  6
CONTINUOUS
  7
STANDARD
 71
1
 72
1
 10
1076.5055005753
 20
534.6605030921
 30
0.0
 11
1.0
 21
0.0
 31
0.0
 73
2
 44
0.9
  1
A
 40
25.4
 41
26.1553903346
  0
LEADER
  5
322
100
AcDbEntity
  8
0
100
AcDbLeader
 62
7
  6
CONTINUOUS
  3
STANDARD
 71
1
 72
0
 73
3
 75
0
 76
2
 10
1107.5709280845
 20
521.9605030921
 30
0.0
 10
1142.7071577344
 20
512.5457787323
 30
0.0
1001
ACAD
1000
DSTYLE
1002
{
1070
77
1070
0
1070
341
1005
216
1070
41
1040
25.4
1002
}
  0
MTEXT
  5
323
100
AcDbEntity
  8
0
100
AcDbMText
 62
7
  6
CONTINUOUS
  7
STANDARD
 71
1
 72
1
 10
1028.6379868528
 20
379.0755879922
 30
0.0
 11
1.0
 21
0.0
 31
0.0
 73
2
 44
0.9
  1
A
 40
25.4
 41
26.1553903346
  0
LEADER
  5
324
100
AcDbEntity
  8
0
100
AcDbLeader
 62
7
  6
CONTINUOUS
  3
STANDARD
 71
1
 72
0
 73
3
 75
0
 76
2
 10
1059.7034143621
 20
366.3755879922
 30
0.0
 10
1100.6044135481
 20
355.4161982907
 30
0.0
1001
ACAD
1000
DSTYLE
1002
{
1070
77
1070
0
1070
341
1005
216
1070
41
1040
25.4
1002
}
  0
MTEXT
  5
325
100
AcDbEntity
  8
0
100
AcDbMText
 62
7
  6
CONTINUOUS
  7
STANDARD
 71
1
 72
1
 10
814.2372007315
 20
560.4378291073
 30
0.0
 11
1.0
 21
0.0
 31
0.0
 73
2
 44
0.9
  1
B
 40
25.4
 41
20.3011152416
  0
LEADER
  5
326
100
AcDbEntity
  8
0
100
AcDbLeader
 62
7
  6
CONTINUOUS
  3
STANDARD
 71
1
 72
0
 73
3
 75
0
 76
2
 10
824.3877583523
 20
573.1378291073
 30
0.0
 10
834.5669152275
 20
611.1269597438
 30
0.0
1001
ACAD
1000
DSTYLE
1002
{
1070
77
1070
0
1070
341
1005
216
1070
41
1040
25.4
1002
}
  0
MTEXT
  5
327
100
AcDbEntity
  8
0
100
AcDbMText
 62
7
  6
CONTINUOUS
  7
STANDARD
 71
1
 72
1
 10
1036.3648389924
 20
507.0050638899
 30
0.0
 11
1.0
 21
0.0
 31
0.0
 73
2
 44
0.9
  1
B
 40
25.4
 41
20.3011152416
  0
LEADER
  5
328
100
AcDbEntity
  8
0
100
AcDbLeader
 62
7
  6
CONTINUOUS
  3
STANDARD
 71
1
 72
0
 73
3
 75
0
 76
2
 10
1046.5153966132
 20
519.7050638899
 30
0.0
 10
1055.1730144706
 20
552.0157336062
 30
0.0
1001
ACAD
1000
DSTYLE
1002
{
1070
77
1070
0
1070
341
1005
216
1070
41
1040
25.4
1002
}
  0
DIMENSION
  5
329
100
AcDbEntity
  8
0
100
AcDbDimension
 62
2
  6
CONTINUOUS
  2
*D0
 10
579.8624456522
 20
586.9129121302
 11
486.2374456522
 21
580.0549121302
 70
160
 71
2
 72
2
 41
0.9
 42
187.25
  1
<>\P[]
  3
DIMSTYLE_1
100
AcDbAlignedDimension
 13
392.6124456522
 23
542.3980482929
 14
579.8624456522
 24
485.566144476
100
AcDbRotatedDimension
  0
DIMENSION
  5
32A
100
AcDbEntity
  8
0
100
AcDbDimension
 62
2
  6
CONTINUOUS
  2
*D1
 10
304.7300745637
 20
478.2389863143
 11
304.7300745637
 21
448.9807733425
 70
160
 71
2
 72
2
 41
0.9
 42
62.4771384882
  1
<>\P[]
  3
DIMSTYLE_1
100
AcDbAlignedDimension
 13
264.0320124756
 23
415.7618478261
 14
207.5759825999
 24
478.2389863143
 50
90.0
100
AcDbRotatedDimension
  0
DIMENSION
  5
32B
100
AcDbEntity
  8
0
100
AcDbDimension
 62
2
  6
CONTINUOUS
  2
*D2
 10
277.9450308375
 20
585.3485990666
 11
242.5051629143
 21
578.4905990666
 70
160
 71
2
 72
2
 41
0.9
 42
85.2916482377
  1
<>\P[]
  3
DIMSTYLE_1
100
AcDbAlignedDimension
 13
192.6533825999
 23
493.1615863143
 14
277.9450308375
 24
517.0390110653
100
AcDbRotatedDimension
  0
DIMENSION
  5
32C
100
AcDbEntity
  8
0
100
AcDbDimension
 62
2
  6
CONTINUOUS
  2
*D3
 10
334.3103019077
 20
551.3618478261
 11
334.3103019077
 21
503.9832359986
 70
160
 71
2
 72
2
 41
0.9
 42
135.6
  1
<>\P[]
  3
DIMSTYLE_1
100
AcDbAlignedDimension
 13
264.0320124756
 23
415.7618478261
 14
264.0320124756
 24
551.3618478261
 50
90.0
100
AcDbRotatedDimension
  0
DIMENSION
  5
32D
100
AcDbEntity
  8
0
100
AcDbDimension
 62
2
  6
CONTINUOUS
  2
*D4
 10
96.4582824294
 20
390.7390577214
 11
188.4039419222
 21
383.8810577214
 70
160
 71
2
 72
2
 41
0.9
 42
181.4867484081
  1
<>\P[]
  3
DIMSTYLE_1
100
AcDbAlignedDimension
 13
277.9450308375
 23
457.88893187
 14
96.4582824294
 24
501.8447927443
 50
180.0
100
AcDbRotatedDimension
  0
DIMENSION
  5
32E
100
AcDbEntity
  8
0
100
AcDbDimension
 62
2
  6
CONTINUOUS
  2
*D5
 10
1372.132331397
 20
451.7195908099
 11
1305.483449383
 21
462.720104922
 70
160
 71
2
 72
2
 41
0.9
 42
138.0
  1
<>\P[]
  3
DIMSTYLE_1
100
AcDbAlignedDimension
 13
1230.1900923921
 23
455.1749992152
 14
1356.0992530768
 24
391.8833279172
 50
345.0
100
AcDbRotatedDimension
  0
DIMENSION
  5
32F
100
AcDbEntity
  8
0
100
AcDbDimension
 62
2
  6
CONTINUOUS
  2
*D6
 10
1188.0952430425
 20
414.6181351382
 11
1197.511463669
 21
442.9019489319
 70
160
 71
2
 72
2
 41
0.9
 42
49.7073711577
  1
<>\P[]
  3
DIMSTYLE_1
100
AcDbAlignedDimension
 13
1228.0317311336
 23
455.378042756
 14
1329.7396815823
 24
376.6646222191
 50
255.0
100
AcDbRotatedDimension
  0
DIMENSION
  5
330
100
AcDbEntity
  8
0
100
AcDbDimension
 62
2
  6
CONTINUOUS
  2
*D7
 10
565.6124456522
 20
348.7441698423
 11
477.6122199745
 21
341.8861698423
 70
160
 71
2
 72
2
 41
0.9
 42
173.0
  1
<>\P[]
  3
DIMSTYLE_1
100
AcDbAlignedDimension
 13
392.6124456522
 23
323.0930875812
 14
565.6124456522
 24
273.4094940417
100
AcDbRotatedDimension
  0
DIMENSION
  5
331
100
AcDbEntity
  8
0
100
AcDbDimension
 62
2
  6
CONTINUOUS
  2
*D8
 10
769.4493521661
 20
251.8869940417
 11
769.4493521661
 21
292.5602680757
 70
160
 71
2
 72
2
 41
0.9
 42
71.4435935394
  1
<>\P[]
  3
DIMSTYLE_1
100
AcDbAlignedDimension
 13
738.3749456522
 23
323.3305875812
 14
587.1349456522
 24
251.8869940417
 50
270.0
100
AcDbRotatedDimension
  0
DIMENSION
  5
332
100
AcDbEntity
  8
0
100
AcDbDimension
 62
2
  6
CONTINUOUS
  2
*D9
 10
1162.9294190638
 20
841.5603652736
 11
1144.6456042978
 21
766.4662396107
 70
160
 71
2
 72
2
 41
0.9
 42
173.0
  1
<>\P[]
  3
DIMSTYLE_1
100
AcDbAlignedDimension
 13
1072.9891561876
 23
686.5570068674
 14
1111.1578922091
 24
855.4325040853
 50
75.0
100
AcDbRotatedDimension
  0
DIMENSION
  5
333
100
AcDbEntity
  8
0
100
AcDbDimension
 62
2
  6
CONTINUOUS
  2
*D10
 10
1037.0509822115
 20
662.0183051678
 11
1119.0942882607
 21
644.5004841115
 70
160
 71
1
 72
2
 41
0.9
 42
28.0000270512
  1
<>\P[]
  3
DIMSTYLE_1
100
AcDbAlignedDimension
 13
1072.0858164227
 23
684.5862894166
 14
1084.7983207146
 24
840.2137983872
 50
165.0
100
AcDbRotatedDimension
  0
DIMENSION
  5
334
100
AcDbEntity
  8
0
100
AcDbDimension
 62
2
  6
CONTINUOUS
  2
*D11
 10
801.9654255933
 20
477.5569847889
 11
801.9654255933
 21
447.3596695248
 70
160
 71
2
 72
2
 41
0.9
 42
61.7951369629
  1
<>\PBOTH ENDS\P[]
  3
DIMSTYLE_1
100
AcDbAlignedDimension
 13
856.6675427547
 23
415.7618478261
 14
909.832610825
 24
477.5569847889
 50
90.0
100
AcDbRotatedDimension
  0
DIMENSION
  5
335
100
AcDbEntity
  8
0
100
AcDbDimension
 62
2
  6
CONTINUOUS
  2
*D12
 10
842.7545243928
 20
399.6167074999
 11
893.6475905152
 21
384.6599787752
 70
160
 71
2
 72
2
 41
0.9
 42
90.0005864322
  1
<>\PBOTH ENDS\P[]
  3
DIMSTYLE_1
100
AcDbAlignedDimension
 13
932.755110825
 23
454.6344847889
 14
842.7545243928
 24
465.0525521732
 50
180.0
100
AcDbRotatedDimension
  0
DIMENSION
  5
336
100
AcDbEntity
  8
0
100
AcDbDimension
 62
2
  6
CONTINUOUS
  2
*D13
 10
738.6124456522
 20
672.6303178814
 11
565.6124456522
 21
665.7723178814
 70
160
 71
2
 72
2
 41
0.9
 42
346.0
  1
<>\P[]
  3
DIMSTYLE_1
100
AcDbAlignedDimension
 13
392.6124456522
 23
696.4990773819
 14
738.6124456522
 24
696.4990773819
100
AcDbRotatedDimension
  0
DIMENSION
  5
337
100
AcDbEntity
  8
0
100
AcDbDimension
 62
2
  6
CONTINUOUS
  2
*D14
 10
1439.7471392372
 20
433.6022576527
 11
1405.9397353171
 21
435.8029242313
 70
160
 71
2
 72
2
 41
0.9
 42
70.0
  1
<>\P[]
  3
DIMSTYLE_1
100
AcDbAlignedDimension
 13
1356.0992530768
 23
391.8833279172
 14
1423.714060917
 24
373.76599476
 50
345.0
100
AcDbRotatedDimension
  0
DIMENSION
  5
338
100
AcDbEntity
  8
0
100
AcDbDimension
 62
2
  6
CONTINUOUS
  2
*D15
 10
769.4493521661
 20
251.8869940417
 11
769.4493521661
 21
223.6423739725
 70
160
 71
2
 72
2
 41
0.9
 42
60.0
  1
<>\P[]
  3
DIMSTYLE_1
100
AcDbAlignedDimension
 13
587.1349456522
 23
191.8869940417
 14
587.1349456522
 24
251.8869940417
 50
90.0
100
AcDbRotatedDimension
  0
DIMENSION
  5
339
100
AcDbEntity
  8
0
100
AcDbDimension
 62
2
  6
CONTINUOUS
  2
*D16
 10
979.0954326342
 20
677.5474478739
 11
925.1603161618
 21
673.8177022324
 70
160
 71
3
 72
2
 41
0.9
 42
60.0
  1
<>\P[]
  3
DIMSTYLE_1
100
AcDbAlignedDimension
 13
1084.7983207146
 23
840.2137983872
 14
1026.8427711372
 24
855.7429410934
 50
165.0
100
AcDbRotatedDimension
  0
DIMENSION
  5
33A
100
AcDbEntity
  8
0
100
AcDbDimension
 62
2
  6
CONTINUOUS
  2
*D17
 10
92.0524423848
 20
508.8029902095
 11
61.7362265621
 21
458.8320813732
 70
162
 71
2
 72
2
 41
0.9
 42
0.2617993878
  3
DIMSTYLE_2
100
AcDb2LineAngularDimension
 13
112.8854559909
 23
415.7618478261
 14
116.0837695846
 24
415.7618478261
 15
88.963108684
 25
507.9752057392
 16
61.9133295779
 26
457.5082173184
  0
LINE
  5
33B
100
AcDbEntity
  8
0
100
AcDbLine
 62
2
  6
CONTINUOUS
 10
1257.3289752462
 20
72.078746919
 11
1492.9289752462
 21
72.078746919
  0
LINE
  5
33C
100
AcDbEntity
  8
0
100
AcDbLine
 62
2
  6
CONTINUOUS
 10
1257.3289752462
 20
72.078746919
 11
1257.3289752462
 21
-4.358753081
  0
LINE
  5
33D
100
AcDbEntity
  8
0
100
AcDbLine
 62
2
  6
CONTINUOUS
 10
1257.3289752462
 20
-4.358753081
 11
1492.9289752462
 21
-4.358753081
  0
LINE
  5
33E
100
AcDbEntity
  8
0
100
AcDbLine
 62
2
  6
CONTINUOUS
 10
1492.9289752462
 20
72.078746919
 11
1492.9289752462
 21
-4.358753081
  0
MTEXT
  5
33F
100
AcDbEntity
  8
0
100
AcDbMText
 62
2
  6
CONTINUOUS
  7
TEXTSTYLE_2
 71
2
 72
1
 10
1375.1289752462
 20
50.793329829
 30
0.0
 11
1.0
 21
0.0
 31
0.0
 73
2
 44
0.99999996
  1
LOUDSPEAKER, PL-DC24, 4" \P2-WAY
 40
12.7
 41
232.5657992565
  0
LINE
  5
340
100
AcDbEntity
  8
0
100
AcDbLine
 62
2
  6
CONTINUOUS
 10
1659.3653788375
 20
67.187082079
 11
1701.2153788375
 21
67.187082079
  0
LINE
  5
341
100
AcDbEntity
  8
0
100
AcDbLine
 62
2
  6
CONTINUOUS
 10
1659.3653788375
 20
67.187082079
 11
1659.3653788375
 21
42.787082079
  0
LINE
  5
342
100
AcDbEntity
  8
0
100
AcDbLine
 62
2
  6
CONTINUOUS
 10
1659.3653788375
 20
42.787082079
 11
1701.2153788375
 21
42.787082079
  0
LINE
  5
343
100
AcDbEntity
  8
0
100
AcDbLine
 62
2
  6
CONTINUOUS
 10
1701.2153788375
 20
67.187082079
 11
1701.2153788375
 21
42.787082079
  0
MTEXT
  5
344
100
AcDbEntity
  8
0
100
AcDbMText
 62
2
  6
CONTINUOUS
  7
TEXTSTYLE_2
 71
2
 72
1
 10
1680.2903788375
 20
60.679582079
 30
0.0
 11
1.0
 21
0.0
 31
0.0
 73
2
 44
0.9
  1
A
 40
12.7
 41
13.0776951673
  0
LINE
  5
345
100
AcDbEntity
  8
0
100
AcDbLine
 62
2
  6
CONTINUOUS
 10
1530.4974260922
 20
67.641222168
 11
1656.4974260922
 21
67.641222168
  0
LINE
  5
346
100
AcDbEntity
  8
0
100
AcDbLine
 62
2
  6
CONTINUOUS
 10
1530.4974260922
 20
67.641222168
 11
1530.4974260922
 21
42.703722168
  0
LINE
  5
347
100
AcDbEntity
  8
0
100
AcDbLine
 62
2
  6
CONTINUOUS
 10
1530.4974260922
 20
42.703722168
 11
1656.4974260922
 21
42.703722168
  0
LINE
  5
348
100
AcDbEntity
  8
0
100
AcDbLine
 62
2
  6
CONTINUOUS
 10
1656.4974260922
 20
67.641222168
 11
1656.4974260922
 21
42.703722168
  0
MTEXT
  5
349
100
AcDbEntity
  8
0
100
AcDbMText
 62
2
  6
CONTINUOUS
  7
TEXTSTYLE_2
 71
2
 72
1
 10
1593.4974260922
 20
59.016222168
 30
0.0
 11
1.0
 21
0.0
 31
0.0
 73
2
 44
0.9
  1
FG-901545-2D
 40
12.7
 41
117.7464684015
  0
LINE
  5
34A
100
AcDbEntity
  8
0
100
AcDbLine
 62
2
  6
CONTINUOUS
 10
1530.7288520578
 20
41.5177978148
 11
1592.7288520578
 21
41.5177978148
  0
LINE
  5
34B
100
AcDbEntity
  8
0
100
AcDbLine
 62
2
  6
CONTINUOUS
 10
1530.7288520578
 20
41.5177978148
 11
1530.7288520578
 21
29.1115478148
  0
LINE
  5
34C
100
AcDbEntity
  8
0
100
AcDbLine
 62
2
  6
CONTINUOUS
 10
1530.7288520578
 20
29.1115478148
 11
1592.7288520578
 21
29.1115478148
  0
LINE
  5
34D
100
AcDbEntity
  8
0
100
AcDbLine
 62
2
  6
CONTINUOUS
 10
1592.7288520578
 20
41.5177978148
 11
1592.7288520578
 21
29.1115478148
  0
MTEXT
  5
34E
100
AcDbEntity
  8
0
100
AcDbMText
 62
2
  6
CONTINUOUS
  7
TEXTSTYLE_2
 71
1
 72
1
 10
1564.9788520578
 20
38.8706728148
 30
0.0
 11
1.0
 21
0.0
 31
0.0
 73
2
 44
0.9
  1
1:4
 40
7.112
 41
13.7481040892
  0
LINE
  5
34F
100
AcDbEntity
  8
0
100
AcDbLine
 62
2
  6
CONTINUOUS
 10
774.2649723096
 20
72.0567472258
 11
894.4149723096
 21
72.0567472258
  0
LINE
  5
350
100
AcDbEntity
  8
0
100
AcDbLine
 62
2
  6
CONTINUOUS
 10
774.2649723096
 20
72.0567472258
 11
774.2649723096
 21
23.1504972258
  0
MTEXT
  5
351
100
AcDbEntity
  8
0
100
AcDbMText
 62
2
  6
CONTINUOUS
  7
TEXTSTYLE_2
 71
1
 72
1
 10
787.8649723096
 20
40.8692472258
 30
0.0
 11
1.0
 21
0.0
 31
0.0
 73
2
 44
0.9
  1
.X \fgdt;{\W1.0;{\fgdt;`}}\fCentury Gothic; 3.0 [.12]        \fgdt;{\W1.0;{\fgdt;`}}\fCentury Gothic;1\fgdt;{\W1.0;{\fgdt;~}}\P\fCentury Gothic;.XX \fgdt;{\W1.0;{\fgdt;`}}\fCentury Gothic; 
 40
6.35
 41
89.5845724907
  0
LINE
  5
352
100
AcDbEntity
  8
0
100
AcDbLine
 62
2
  6
CONTINUOUS
 10
1632.2388290287
 20
41.0127845118
 11
1701.2388290287
 21
41.0127845118
  0
LINE
  5
353
100
AcDbEntity
  8
0
100
AcDbLine
 62
2
  6
CONTINUOUS
 10
1632.2388290287
 20
41.0127845118
 11
1632.2388290287
 21
28.9815345118
  0
LINE
  5
354
100
AcDbEntity
  8
0
100
AcDbLine
 62
2
  6
CONTINUOUS
 10
1632.2388290287
 20
28.9815345118
 11
1701.2388290287
 21
28.9815345118
  0
LINE
  5
355
100
AcDbEntity
  8
0
100
AcDbLine
 62
2
  6
CONTINUOUS
 10
1701.2388290287
 20
41.0127845118
 11
1701.2388290287
 21
28.9815345118
  0
MTEXT
  5
356
100
AcDbEntity
  8
0
100
AcDbMText
 62
2
  6
CONTINUOUS
  7
TEXTSTYLE_2
 71
2
 72
1
 10
1680.5388290287
 20
38.7013255118
 30
0.0
 11
1.0
 21
0.0
 31
0.0
 73
2
 44
0.9
  1
1 OF 1
 40
7.408332
 41
31.1755829888
  0
LINE
  5
357
100
AcDbEntity
  8
0
100
AcDbLine
 62
2
  6
CONTINUOUS
 10
907.1555668628
 20
64.6516612072
 11
1009.1555668628
 21
64.6516612072
  0
LINE
  5
358
100
AcDbEntity
  8
0
100
AcDbLine
 62
2
  6
CONTINUOUS
 10
907.1555668628
 20
64.6516612072
 11
907.1555668628
 21
48.5579112072
  0
LINE
  5
359
100
AcDbEntity
  8
0
100
AcDbLine
 62
2
  6
CONTINUOUS
 10
907.1555668628
 20
48.5579112072
 11
1009.1555668628
 21
48.5579112072
  0
LINE
  5
35A
100
AcDbEntity
  8
0
100
AcDbLine
 62
2
  6
CONTINUOUS
 10
1009.1555668628
 20
64.6516612072
 11
1009.1555668628
 21
48.5579112072
  0
MTEXT
  5
35B
100
AcDbEntity
  8
0
100
AcDbMText
 62
2
  6
CONTINUOUS
  7
TEXTSTYLE_2
 71
1
 72
1
 10
907.4055668628
 20
56.5610362072
 30
0.0
 11
1.0
 21
0.0
 31
0.0
 73
2
 44
0.9
  1
 M. DAVILA
 40
6.35
 41
47.4715613383
  0
LINE
  5
35C
100
AcDbEntity
  8
0
100
AcDbLine
 62
2
  6
CONTINUOUS
 10
907.2626340036
 20
46.557446053
 11
1009.2626340036
 21
46.557446053
  0
LINE
  5
35D
100
AcDbEntity
  8
0
100
AcDbLine
 62
2
  6
CONTINUOUS
 10
907.2626340036
 20
46.557446053
 11
907.2626340036
 21
30.463696053
  0
LINE
  5
35E
100
AcDbEntity
  8
0
100
AcDbLine
 62
2
  6
CONTINUOUS
 10
907.2626340036
 20
30.463696053
 11
1009.2626340036
 21
30.463696053
  0
LINE
  5
35F
100
AcDbEntity
  8
0
100
AcDbLine
 62
2
  6
CONTINUOUS
 10
1009.2626340036
 20
46.557446053
 11
1009.2626340036
 21
30.463696053
  0
MTEXT
  5
360
100
AcDbEntity
  8
0
100
AcDbMText
 62
2
  6
CONTINUOUS
  7
TEXTSTYLE_2
 71
1
 72
1
 10
907.5126340036
 20
38.466821053
 30
0.0
 11
1.0
 21
0.0
 31
0.0
 73
2
 44
0.9
  1
 B. HAWKINS
 40
6.35
 41
51.7206319703
  0
LINE
  5
361
100
AcDbEntity
  8
0
100
AcDbLine
 62
2
  6
CONTINUOUS
 10
1012.854522913
 20
64.5698414628
 11
1114.854522913
 21
64.5698414628
  0
LINE
  5
362
100
AcDbEntity
  8
0
100
AcDbLine
 62
2
  6
CONTINUOUS
 10
1012.854522913
 20
64.5698414628
 11
1012.854522913
 21
48.4760914628
  0
LINE
  5
363
100
AcDbEntity
  8
0
100
AcDbLine
 62
2
  6
CONTINUOUS
 10
1012.854522913
 20
48.4760914628
 11
1114.854522913
 21
48.4760914628
  0
LINE
  5
364
100
AcDbEntity
  8
0
100
AcDbLine
 62
2
  6
CONTINUOUS
 10
1114.854522913
 20
64.5698414628
 11
1114.854522913
 21
48.4760914628
  0
MTEXT
  5
365
100
AcDbEntity
  8
0
100
AcDbMText
 62
2
  6
CONTINUOUS
  7
TEXTSTYLE_2
 71
1
 72
1
 10
1013.104522913
 20
56.4792164628
 30
0.0
 11
1.0
 21
0.0
 31
0.0
 73
2
 44
0.9
  1
 R. VAUCHER
 40
6.35
 41
54.6713754647
  0
LINE
  5
366
100
AcDbEntity
  8
0
100
AcDbLine
 62
2
  6
CONTINUOUS
 10
1012.8137536003
 20
46.5034488113
 11
1114.8137536003
 21
46.5034488113
  0
LINE
  5
367
100
AcDbEntity
  8
0
100
AcDbLine
 62
2
  6
CONTINUOUS
 10
1012.8137536003
 20
46.5034488113
 11
1012.8137536003
 21
30.4096988113
  0
LINE
  5
368
100
AcDbEntity
  8
0
100
AcDbLine
 62
2
  6
CONTINUOUS
 10
1012.8137536003
 20
30.4096988113
 11
1114.8137536003
 21
30.4096988113
  0
LINE
  5
369
100
AcDbEntity
  8
0
100
AcDbLine
 62
2
  6
CONTINUOUS
 10
1114.8137536003
 20
46.5034488113
 11
1114.8137536003
 21
30.4096988113
  0
MTEXT
  5
36A
100
AcDbEntity
  8
0
100
AcDbMText
 62
2
  6
CONTINUOUS
  7
TEXTSTYLE_2
 71
1
 72
1
 10
1013.0637536003
 20
38.4128238113
 30
0.0
 11
1.0
 21
0.0
 31
0.0
 73
2
 44
0.9
  1
 A. TRAN
 40
6.35
 41
36.1407063197
  0
LINE
  5
36B
100
AcDbEntity
  8
0
100
AcDbLine
 62
2
  6
CONTINUOUS
 10
1120.2153180921
 20
64.6591592838
 11
1222.2153180921
 21
64.6591592838
  0
LINE
  5
36C
100
AcDbEntity
  8
0
100
AcDbLine
 62
2
  6
CONTINUOUS
 10
1120.2153180921
 20
64.6591592838
 11
1120.2153180921
 21
48.5654092838
  0
LINE
  5
36D
100
AcDbEntity
  8
0
100
AcDbLine
 62
2
  6
CONTINUOUS
 10
1120.2153180921
 20
48.5654092838
 11
1222.2153180921
 21
48.5654092838
  0
LINE
  5
36E
100
AcDbEntity
  8
0
100
AcDbLine
 62
2
  6
CONTINUOUS
 10
1222.2153180921
 20
64.6591592838
 11
1222.2153180921
 21
48.5654092838
  0
MTEXT
  5
36F
100
AcDbEntity
  8
0
100
AcDbMText
 62
2
  6
CONTINUOUS
  7
TEXTSTYLE_2
 71
1
 72
1
 10
1120.4653180921
 20
56.5685342838
 30
0.0
 11
1.0
 21
0.0
 31
0.0
 73
2
 44
0.9
  1
 MD
 40
6.35
 41
17.1851301115
  0
LINE
  5
370
100
AcDbEntity
  8
0
100
AcDbLine
 62
2
  6
CONTINUOUS
 10
1119.8930635233
 20
46.5837896906
 11
1221.8930635233
 21
46.5837896906
  0
LINE
  5
371
100
AcDbEntity
  8
0
100
AcDbLine
 62
2
  6
CONTINUOUS
 10
1119.8930635233
 20
46.5837896906
 11
1119.8930635233
 21
30.4900396906
  0
LINE
  5
372
100
AcDbEntity
  8
0
100
AcDbLine
 62
2
  6
CONTINUOUS
 10
1119.8930635233
 20
30.4900396906
 11
1221.8930635233
 21
30.4900396906
  0
LINE
  5
373
100
AcDbEntity
  8
0
100
AcDbLine
 62
2
  6
CONTINUOUS
 10
1221.8930635233
 20
46.5837896906
 11
1221.8930635233
 21
30.4900396906
  0
MTEXT
  5
374
100
AcDbEntity
  8
0
100
AcDbMText
 62
2
  6
CONTINUOUS
  7
TEXTSTYLE_2
 71
1
 72
1
 10
1120.1430635233
 20
38.4931646906
 30
0.0
 11
1.0
 21
0.0
 31
0.0
 73
2
 44
0.9
  1
 09-JAN-2024
 40
6.35
 41
55.1671003717
  0
MTEXT
  5
375
100
AcDbEntity
  8
0
100
AcDbMText
 62
2
  6
CONTINUOUS
  7
TEXTSTYLE_2
 71
1
 72
1
 10
1665.0929545215
 20
38.7716541509
 30
0.0
 11
1.0
 21
0.0
 31
0.0
 73
2
 44
0.9
  1
1 OF 1
 40
7.408332
 41
31.1755829888
  0
TEXT
  5
376
100
AcDbEntity
  8
0
100
AcDbText
 62
2
  6
CONTINUOUS
 10
33.6386854112
 20
1071.3357886655
  7
STANDARD
 40
9.144
  1
NOTES: UNLESS OTHERWISE SPECIFIED
 41
1.0
 72
0
100
AcDbText
  0
TEXT
  5
377
100
AcDbEntity
  8
0
100
AcDbText
 62
2
  6
CONTINUOUS
 10
33.6386854112
 20
1057.6197886655
  7
STANDARD
 40
9.144
  1
 
 41
1.0
 72
0
100
AcDbText
  0
TEXT
  5
378
100
AcDbEntity
  8
0
100
AcDbText
 62
2
  6
CONTINUOUS
 10
33.6386854112
 20
1043.9037886655
  7
STANDARD
 40
9.144
  1
1.      NET WEIGHT APPROX. 3.9 KG [8.7 LBS]. 
 41
1.0
 72
0
100
AcDbText
  0
TEXT
  5
379
100
AcDbEntity
  8
0
100
AcDbText
 62
2
  6
CONTINUOUS
 10
33.6386854112
 20
1030.1877886655
  7
STANDARD
 40
9.144
  1
 
 41
1.0
 72
0
100
AcDbText
  0
TEXT
  5
37A
100
AcDbEntity
  8
0
100
AcDbText
 62
2
  6
CONTINUOUS
 10
33.6386854112
 20
1016.4717886655
  7
STANDARD
 40
9.144
  1
2.      SYMBOL      INDICATES CENTER OF GRAVITY.
 41
1.0
 72
0
100
AcDbText
  0
TEXT
  5
37B
100
AcDbEntity
  8
0
100
AcDbText
 62
2
  6
CONTINUOUS
 10
33.6386854112
 20
1002.7557886655
  7
STANDARD
 40
9.144
  1
 
 41
1.0
 72
0
100
AcDbText
  0
TEXT
  5
37C
100
AcDbEntity
  8
0
100
AcDbText
 62
2
  6
CONTINUOUS
 10
38.2106854112
 20
986.7537886655
  7
STANDARD
 40
9.144
  1
3
 41
1.0
 72
0
100
AcDbText
  0
TEXT
  5
37D
100
AcDbEntity
  8
0
100
AcDbText
 62
2
  6
CONTINUOUS
 10
49.8531389428
 20
986.7537886655
  7
STANDARD
 40
9.144
  1
    SUSPENSION POINT LOCATION, M8 THREAD.
 41
1.0
 72
0
100
AcDbText
  0
TEXT
  5
37E
100
AcDbEntity
  8
0
100
AcDbText
 62
2
  6
CONTINUOUS
 10
33.6386854112
 20
970.7517886655
  7
STANDARD
 40
9.144
  1
 
 41
1.0
 72
0
100
AcDbText
  0
TEXT
  5
37F
100
AcDbEntity
  8
0
100
AcDbText
 62
2
  6
CONTINUOUS
 10
38.2106854112
 20
954.7497886655
  7
STANDARD
 40
9.144
  1
4
 41
1.0
 72
0
100
AcDbText
  0
TEXT
  5
380
100
AcDbEntity
  8
0
100
AcDbText
 62
2
  6
CONTINUOUS
 10
49.8531389428
 20
954.7497886655
  7
STANDARD
 40
9.144
  1
     SUSPENSION POINT LOCATION, M6 THREAD.
 41
1.0
 72
0
100
AcDbText
  0
TEXT
  5
381
100
AcDbEntity
  8
0
100
AcDbText
 62
2
  6
CONTINUOUS
 10
33.6386854112
 20
938.7477886655
  7
STANDARD
 40
9.144
  1
 
 41
1.0
 72
0
100
AcDbText
  0
TEXT
  5
382
100
AcDbEntity
  8
0
100
AcDbText
 62
2
  6
CONTINUOUS
 10
33.6386854112
 20
925.0317886655
  7
STANDARD
 40
9.144
  1
5.      GRILLE NOT SHOWN FOR CLARITY. 
 41
1.0
 72
0
100
AcDbText
  0
TEXT
  5
383
100
AcDbEntity
  8
0
100
AcDbText
 62
2
  6
CONTINUOUS
 10
994.6027747562
 20
388.6326781041
  7
STANDARD
 40
9.144
  1
3
 41
1.0
 72
0
100
AcDbText
  0
TEXT
  5
384
100
AcDbEntity
  8
0
100
AcDbText
 62
2
  6
CONTINUOUS
 10
1006.2452282878
 20
388.6326781041
  7
STANDARD
 40
9.144
  1
 BOTH ENDS
 41
1.0
 72
0
100
AcDbText
  0
LEADER
  5
385
100
AcDbEntity
  8
0
100
AcDbLeader
 62
2
  6
CONTINUOUS
  3
STANDARD
 71
1
 72
0
 73
3
 75
0
 76
3
 10
939.1196223504
 20
471.1935743007
 30
0.0
 10
964.6307747562
 20
393.2046781041
 30
0.0
 10
990.0307747562
 20
393.2046781041
 30
0.0
1001
ACAD
1000
DSTYLE
1002
{
1070
77
1070
0
1002
}
  0
MTEXT
  5
386
100
AcDbEntity
  8
0
100
AcDbMText
 62
2
  6
CONTINUOUS
  7
STANDARD
 71
3
 72
1
 10
1378.2534716619
 20
223.8519774466
 30
0.0
 11
1.0
 21
0.0
 31
0.0
 73
2
 44
0.9
  1
VIEW \H25.4;A\H9.144;-\H25.4;A
 40
9.144
 41
90.9943197026
  0
TEXT
  5
387
100
AcDbEntity
  8
0
100
AcDbText
 62
2
  6
CONTINUOUS
 10
1201.6231367373
 20
271.5439123657
  7
STANDARD
 40
9.144
  1
2X 
 41
1.0
 72
2
 11
1219.9791218674
 21
271.5439123657
100
AcDbText
  0
TEXT
  5
388
100
AcDbEntity
  8
0
100
AcDbText
 62
2
  6
CONTINUOUS
 10
1224.5511218674
 20
271.5439123657
  7
STANDARD
 40
9.144
  1
4
 41
1.0
 72
2
 11
1231.621575399
 21
271.5439123657
100
AcDbText
  0
LEADER
  5
389
100
AcDbEntity
  8
0
100
AcDbLeader
 62
2
  6
CONTINUOUS
  3
STANDARD
 71
1
 72
0
 73
3
 75
0
 76
3
 10
1344.7317752397
 20
367.1706360873
 30
0.0
 10
1261.593575399
 20
276.1159123657
 30
0.0
 10
1236.193575399
 20
276.1159123657
 30
0.0
1001
ACAD
1000
DSTYLE
1002
{
1070
77
1070
0
1002
}
  0
MTEXT
  5
38A
100
AcDbEntity
  8
0
100
AcDbMText
 62
2
  6
CONTINUOUS
  7
STANDARD
 71
2
 72
1
 10
961.120495162
 20
626.3425375897
 30
0.0
 11
1.0
 21
0.0
 31
0.0
 73
2
 44
0.9
  1
VIEW \H25.4;B\H9.144;-\H25.4;B
 40
9.144
 41
79.2857695167
  0
TEXT
  5
38B
100
AcDbEntity
  8
0
100
AcDbText
 62
2
  6
CONTINUOUS
 10
884.6763052403
 20
945.3261488395
  7
STANDARD
 40
9.144
  1
2X 
 41
1.0
 72
2
 11
903.0322903704
 21
945.3261488395
100
AcDbText
  0
TEXT
  5
38C
100
AcDbEntity
  8
0
100
AcDbText
 62
2
  6
CONTINUOUS
 10
907.6042903704
 20
945.3261488395
  7
STANDARD
 40
9.144
  1
4
 41
1.0
 72
2
 11
914.674743902
 21
945.3261488395
100
AcDbText
  0
LEADER
  5
38D
100
AcDbEntity
  8
0
100
AcDbLeader
 62
2
  6
CONTINUOUS
  3
STANDARD
 71
1
 72
0
 73
3
 75
0
 76
3
 10
1028.4896508019
 20
882.3291246285
 30
0.0
 10
944.646743902
 20
949.8981488395
 30
0.0
 10
919.246743902
 20
949.8981488395
 30
0.0
1001
ACAD
1000
DSTYLE
1002
{
1070
77
1070
0
1002
}
  0
TEXT
  5
38E
100
AcDbEntity
  8
0
100
AcDbText
 62
2
  6
CONTINUOUS
 10
628.2033764717
 20
115.8996014877
  7
STANDARD
 40
9.144
  1
4
 41
1.0
 72
0
100
AcDbText
  0
TEXT
  5
38F
100
AcDbEntity
  8
0
100
AcDbText
 62
2
  6
CONTINUOUS
 10
639.8458300033
 20
115.8996014877
  7
STANDARD
 40
9.144
  1
 2X
 41
1.0
 72
0
100
AcDbText
  0
LEADER
  5
390
100
AcDbEntity
  8
0
100
AcDbLeader
 62
2
  6
CONTINUOUS
  3
STANDARD
 71
1
 72
0
 73
3
 75
0
 76
3
 10
570.1964706582
 20
186.5967469072
 30
0.0
 10
598.2313764717
 20
120.4716014877
 30
0.0
 10
623.6313764717
 20
120.4716014877
 30
0.0
1001
ACAD
1000
DSTYLE
1002
{
1070
77
1070
0
1002
}
  0
INSERT
  5
391
100
AcDbEntity
  8
0
100
AcDbBlockReference
 62
2
  6
CONTINUOUS
  2
CG_3D_BL0
 10
127.0440144151
 20
1021.265999144
  0
INSERT
  5
392
100
AcDbEntity
  8
0
100
AcDbBlockReference
 62
2
  6
CONTINUOUS
  2
CG_3D_BL1
 10
579.892366754
 20
478.2083812345
  0
INSERT
  5
393
100
AcDbEntity
  8
0
100
AcDbBlockReference
 62
2
  6
CONTINUOUS
  2
CG_3D_BL2
 10
192.676915311
 20
478.2448155067
  0
LINE
  5
394
100
AcDbEntity
  8
0
100
AcDbLine
 62
7
  6
CONTINUOUS
 10
50.1905013589
 20
39.8429549364
 11
54.984666675
 21
37.1835878942
  0
LINE
  5
395
100
AcDbEntity
  8
0
100
AcDbLine
 62
7
  6
CONTINUOUS
 10
52.587584017
 20
42.2613694892
 11
57.2877460915
 21
39.6541468988
  0
LINE
  5
396
100
AcDbEntity
  8
0
100
AcDbLine
 62
7
  6
CONTINUOUS
 10
30.0503068695
 20
37.4956564757
 11
41.0251853135
 21
31.1593074517
  0
LINE
  5
397
100
AcDbEntity
  8
0
100
AcDbLine
 62
7
  6
CONTINUOUS
 10
34.0454446328
 20
40.6163422905
 11
41.7302096247
 21
36.1795411538
  0
LINE
  5
398
100
AcDbEntity
  8
0
100
AcDbLine
 62
7
  6
CONTINUOUS
 10
38.087584017
 20
43.4928005198
 11
42.2002258322
 21
41.1183656607
  0
LINE
  5
399
100
AcDbEntity
  8
0
100
AcDbLine
 62
7
  6
CONTINUOUS
 10
47.4879081661
 20
50.2769001173
 11
43.3752663508
 21
52.6513349764
  0
LINE
  5
39A
100
AcDbEntity
  8
0
100
AcDbLine
 62
7
  6
CONTINUOUS
 10
51.5300475502
 20
53.1533583466
 11
43.8452825583
 21
57.5901594833
  0
LINE
  5
39B
100
AcDbEntity
  8
0
100
AcDbLine
 62
7
  6
CONTINUOUS
 10
55.5251853135
 20
56.2740441614
 11
44.5503068695
 21
62.6103931854
  0
LINE
  5
39C
100
AcDbEntity
  8
0
100
AcDbLine
 62
7
  6
CONTINUOUS
 10
28.2877460915
 20
53.2211993426
 11
28.2877460915
 21
40.5485012945
  0
LINE
  5
39D
100
AcDbEntity
  8
0
100
AcDbLine
 62
7
  6
CONTINUOUS
 10
32.9879081661
 20
51.3216514553
 11
32.9879081661
 21
42.4480491818
  0
LINE
  5
39E
100
AcDbEntity
  8
0
100
AcDbLine
 62
7
  6
CONTINUOUS
 10
37.5000637576
 20
49.2592851777
 11
37.5000637576
 21
44.5104154594
  0
LINE
  5
39F
100
AcDbEntity
  8
0
100
AcDbLine
 62
7
  6
CONTINUOUS
 10
48.0754284254
 20
44.5104154594
 11
48.0754284254
 21
49.2592851777
  0
LINE
  5
3A0
100
AcDbEntity
  8
0
100
AcDbLine
 62
7
  6
CONTINUOUS
 10
52.587584017
 20
42.2613694892
 11
52.587584017
 21
51.3216514553
  0
LINE
  5
3A1
100
AcDbEntity
  8
0
100
AcDbLine
 62
7
  6
CONTINUOUS
 10
57.2877460915
 20
39.6541468988
 11
57.2877460915
 21
53.2211993426
  0
LINE
  5
3A2
100
AcDbEntity
  8
0
100
AcDbLine
 62
7
  6
CONTINUOUS
 10
41.0251853135
 20
62.6103931854
 11
30.0503068695
 21
56.2740441614
  0
LINE
  5
3A3
100
AcDbEntity
  8
0
100
AcDbLine
 62
7
  6
CONTINUOUS
 10
41.7302096247
 20
57.5901594833
 11
34.0454446328
 21
53.1533583466
  0
LINE
  5
3A4
100
AcDbEntity
  8
0
100
AcDbLine
 62
7
  6
CONTINUOUS
 10
42.2002258322
 20
52.6513349764
 11
38.087584017
 21
50.2769001173
  0
LINE
  5
3A5
100
AcDbEntity
  8
0
100
AcDbLine
 62
7
  6
CONTINUOUS
 10
43.3752663508
 20
41.1183656607
 11
47.4879081661
 21
43.4928005198
  0
LINE
  5
3A6
100
AcDbEntity
  8
0
100
AcDbLine
 62
7
  6
CONTINUOUS
 10
43.8452825583
 20
36.1795411538
 11
50.1905013589
 21
39.8429549364
  0
LINE
  5
3A7
100
AcDbEntity
  8
0
100
AcDbLine
 62
7
  6
CONTINUOUS
 10
44.5503068695
 20
31.1593074517
 11
54.984666675
 21
37.1835878942
  0
ARC
  5
3A8
100
AcDbEntity
  8
0
100
AcDbCircle
 62
7
  6
CONTINUOUS
 10
53.7626245356
 20
53.2211993426
 40
3.5251215559
100
AcDbArc
 50
0.0
 51
60.0
  0
ARC
  5
3A9
100
AcDbEntity
  8
0
100
AcDbCircle
 62
7
  6
CONTINUOUS
 10
42.7877460915
 20
59.5575483666
 40
3.5251215559
100
AcDbArc
 50
60.0
 51
120.0
  0
ARC
  5
3AA
100
AcDbEntity
  8
0
100
AcDbCircle
 62
7
  6
CONTINUOUS
 10
31.8128676474
 20
53.2211993426
 40
3.5251215559
100
AcDbArc
 50
120.0
 51
180.0
  0
ARC
  5
3AB
100
AcDbEntity
  8
0
100
AcDbCircle
 62
7
  6
CONTINUOUS
 10
31.8128676474
 20
40.5485012945
 40
3.5251215559
100
AcDbArc
 50
180.0
 51
240.0
  0
ARC
  5
3AC
100
AcDbEntity
  8
0
100
AcDbCircle
 62
7
  6
CONTINUOUS
 10
42.7877460915
 20
34.2121522705
 40
3.5251215559
100
AcDbArc
 50
240.0
 51
300.0
  0
ARC
  5
3AD
100
AcDbEntity
  8
0
100
AcDbCircle
 62
7
  6
CONTINUOUS
 10
50.4725110834
 20
51.3216514553
 40
2.1150729335
100
AcDbArc
 50
0.0
 51
60.0
  0
ARC
  5
3AE
100
AcDbEntity
  8
0
100
AcDbCircle
 62
7
  6
CONTINUOUS
 10
42.7877460915
 20
55.758452592
 40
2.1150729335
100
AcDbArc
 50
60.0
 51
120.0
  0
ARC
  5
3AF
100
AcDbEntity
  8
0
100
AcDbCircle
 62
7
  6
CONTINUOUS
 10
35.1029810996
 20
51.3216514553
 40
2.1150729335
100
AcDbArc
 50
120.0
 51
180.0
  0
ARC
  5
3B0
100
AcDbEntity
  8
0
100
AcDbCircle
 62
7
  6
CONTINUOUS
 10
35.1029810996
 20
42.4480491818
 40
2.1150729335
100
AcDbArc
 50
180.0
 51
240.0
  0
ARC
  5
3B1
100
AcDbEntity
  8
0
100
AcDbCircle
 62
7
  6
CONTINUOUS
 10
42.7877460915
 20
38.0112480451
 40
2.1150729335
100
AcDbArc
 50
240.0
 51
300.0
  0
ARC
  5
3B2
100
AcDbEntity
  8
0
100
AcDbCircle
 62
7
  6
CONTINUOUS
 10
42.7877460915
 20
42.1359806003
 40
1.1750405186
100
AcDbArc
 50
240.0
 51
300.0
  0
ARC
  5
3B3
100
AcDbEntity
  8
0
100
AcDbCircle
 62
7
  6
CONTINUOUS
 10
46.9003879067
 20
44.5104154594
 40
1.1750405186
100
AcDbArc
 50
300.0
 51
360.0
  0
ARC
  5
3B4
100
AcDbEntity
  8
0
100
AcDbCircle
 62
7
  6
CONTINUOUS
 10
46.9003879067
 20
49.2592851777
 40
1.1750405186
100
AcDbArc
 50
0.0
 51
60.0
  0
ARC
  5
3B5
100
AcDbEntity
  8
0
100
AcDbCircle
 62
7
  6
CONTINUOUS
 10
42.7877460915
 20
51.6337200368
 40
1.1750405186
100
AcDbArc
 50
60.0
 51
120.0
  0
ARC
  5
3B6
100
AcDbEntity
  8
0
100
AcDbCircle
 62
7
  6
CONTINUOUS
 10
38.6751042763
 20
49.2592851777
 40
1.1750405186
100
AcDbArc
 50
120.0
 51
180.0
  0
ARC
  5
3B7
100
AcDbEntity
  8
0
100
AcDbCircle
 62
7
  6
CONTINUOUS
 10
38.6751042763
 20
44.5104154594
 40
1.1750405186
100
AcDbArc
 50
180.0
 51
240.0
  0
HATCH
  5
3B8
100
AcDbEntity
  8
0
100
AcDbHatch
 62
7
  6
CONTINUOUS
 10
0.0
 20
0.0
 30
0.0
210
0.0
220
0.0
230
1.0
  2
XSEC0001
 70
1
 71
1
 91
2
 92
1
 93
24
 72
1
 10
54.984666675
 20
37.1835878942
 11
44.5503068695
 21
31.1593074517
 72
2
 10
42.7877460915
 20
34.2121522705
 40
3.5251215559
 50
-300.0
 51
-240.0
 73
0
 72
1
 10
41.0251853135
 20
31.1593074517
 11
30.0503068695
 21
37.4956564757
 72
2
 10
31.8128676474
 20
40.5485012945
 40
3.5251215559
 50
-240.0
 51
-180.0
 73
0
 72
1
 10
28.2877460915
 20
40.5485012945
 11
28.2877460915
 21
53.2211993426
 72
2
 10
31.8128676474
 20
53.2211993426
 40
3.5251215559
 50
-180.0
 51
-120.0
 73
0
 72
1
 10
30.0503068695
 20
56.2740441614
 11
41.0251853135
 21
62.6103931854
 72
2
 10
42.7877460915
 20
59.5575483666
 40
3.5251215559
 50
-120.0
 51
-60.0
 73
0
 72
1
 10
44.5503068695
 20
62.6103931854
 11
55.5251853135
 21
56.2740441614
 72
2
 10
53.7626245356
 20
53.2211993426
 40
3.5251215559
 50
-60.0
 51
0.0
 73
0
 72
1
 10
57.2877460915
 20
53.2211993426
 11
57.2877460915
 21
39.6541468988
 72
1
 10
57.2877460915
 20
39.6541468988
 11
52.587584017
 21
42.2613694892
 72
1
 10
52.587584017
 20
42.2613694892
 11
52.587584017
 21
51.3216514553
 72
2
 10
50.4725110834
 20
51.3216514553
 40
2.1150729335
 50
0.0
 51
60.0
 73
1
 72
1
 10
51.5300475502
 20
53.1533583466
 11
43.8452825583
 21
57.5901594833
 72
2
 10
42.7877460915
 20
55.758452592
 40
2.1150729335
 50
60.0
 51
120.0
 73
1
 72
1
 10
41.7302096247
 20
57.5901594833
 11
34.0454446328
 21
53.1533583466
 72
2
 10
35.1029810996
 20
51.3216514553
 40
2.1150729335
 50
120.0
 51
180.0
 73
1
 72
1
 10
32.9879081661
 20
51.3216514553
 11
32.9879081661
 21
42.4480491818
 72
2
 10
35.1029810996
 20
42.4480491818
 40
2.1150729335
 50
180.0
 51
240.0
 73
1
 72
1
 10
34.0454446328
 20
40.6163422905
 11
41.7302096247
 21
36.1795411538
 72
2
 10
42.7877460915
 20
38.0112480451
 40
2.1150729335
 50
240.0
 51
300.0
 73
1
 72
1
 10
43.8452825583
 20
36.1795411538
 11
50.1905013589
 21
39.8429549364
 72
1
 10
50.1905013589
 20
39.8429549364
 11
54.984666675
 21
37.1835878942
 97
36
330
394
330
395
330
396
330
397
330
398
330
399
330
39A
330
39B
330
39C
330
39D
330
39E
330
39F
330
3A0
330
3A1
330
3A2
330
3A3
330
3A4
330
3A5
330
3A6
330
3A7
330
3A8
330
3A9
330
3AA
330
3AB
330
3AC
330
3AD
330
3AE
330
3AF
330
3B0
330
3B1
330
3B2
330
3B3
330
3B4
330
3B5
330
3B6
330
3B7
 92
1
 93
12
 72
2
 10
42.7877460915
 20
42.1359806003
 40
1.1750405186
 50
240.0
 51
300.0
 73
1
 72
1
 10
43.3752663508
 20
41.1183656607
 11
47.4879081661
 21
43.4928005198
 72
2
 10
46.9003879067
 20
44.5104154594
 40
1.1750405186
 50
-60.0
 51
0.0
 73
1
 72
1
 10
48.0754284254
 20
44.5104154594
 11
48.0754284254
 21
49.2592851777
 72
2
 10
46.9003879067
 20
49.2592851777
 40
1.1750405186
 50
0.0
 51
60.0
 73
1
 72
1
 10
47.4879081661
 20
50.2769001173
 11
43.3752663508
 21
52.6513349764
 72
2
 10
42.7877460915
 20
51.6337200368
 40
1.1750405186
 50
60.0
 51
120.0
 73
1
 72
1
 10
42.2002258322
 20
52.6513349764
 11
38.087584017
 21
50.2769001173
 72
2
 10
38.6751042763
 20
49.2592851777
 40
1.1750405186
 50
120.0
 51
180.0
 73
1
 72
1
 10
37.5000637576
 20
49.2592851777
 11
37.5000637576
 21
44.5104154594
 72
2
 10
38.6751042763
 20
44.5104154594
 40
1.1750405186
 50
180.0
 51
240.0
 73
1
 72
1
 10
38.087584017
 20
43.4928005198
 11
42.2002258322
 21
41.1183656607
 97
36
330
394
330
395
330
396
330
397
330
398
330
399
330
39A
330
39B
330
39C
330
39D
330
39E
330
39F
330
3A0
330
3A1
330
3A2
330
3A3
330
3A4
330
3A5
330
3A6
330
3A7
330
3A8
330
3A9
330
3AA
330
3AB
330
3AC
330
3AD
330
3AE
330
3AF
330
3B0
330
3B1
330
3B2
330
3B3
330
3B4
330
3B5
330
3B6
330
3B7
 75
0
 76
1
 98
1
 10
0.0
 20
0.0
  0
LINE
  5
3B9
100
AcDbEntity
  8
0
100
AcDbLine
 62
7
  6
CONTINUOUS
 10
136.438475427
 20
45.2097535016
 11
126.8031431742
 21
53.9245126093
  0
LINE
  5
3BA
100
AcDbEntity
  8
0
100
AcDbLine
 62
7
  6
CONTINUOUS
 10
137.9425272909
 20
47.2502824634
 11
130.5632728338
 21
53.9245126093
  0
LINE
  5
3BB
100
AcDbEntity
  8
0
100
AcDbLine
 62
7
  6
CONTINUOUS
 10
136.438475427
 20
45.2097535016
 11
136.438475427
 21
39.5420166612
  0
LINE
  5
3BC
100
AcDbEntity
  8
0
100
AcDbLine
 62
7
  6
CONTINUOUS
 10
139.4465791547
 20
45.2097535016
 11
139.4465791547
 21
39.5420166612
  0
LINE
  5
3BD
100
AcDbEntity
  8
0
100
AcDbLine
 62
7
  6
CONTINUOUS
 10
139.4465791547
 20
39.5420166612
 11
136.438475427
 21
39.5420166612
  0
LINE
  5
3BE
100
AcDbEntity
  8
0
100
AcDbLine
 62
7
  6
CONTINUOUS
 10
130.5632728338
 20
53.9245126093
 11
126.8031431742
 21
53.9245126093
  0
LINE
  5
3BF
100
AcDbEntity
  8
0
100
AcDbLine
 62
7
  6
CONTINUOUS
 10
145.3217817479
 20
53.9245126093
 11
149.0819114076
 21
53.9245126093
  0
LINE
  5
3C0
100
AcDbEntity
  8
0
100
AcDbLine
 62
7
  6
CONTINUOUS
 10
137.9425272909
 20
47.2502824634
 11
145.3217817479
 21
53.9245126093
  0
LINE
  5
3C1
100
AcDbEntity
  8
0
100
AcDbLine
 62
7
  6
CONTINUOUS
 10
139.4465791547
 20
45.2097535016
 11
149.0819114076
 21
53.9245126093
  0
HATCH
  5
3C2
100
AcDbEntity
  8
0
100
AcDbHatch
 62
7
  6
CONTINUOUS
 10
0.0
 20
0.0
 30
0.0
210
0.0
220
0.0
230
1.0
  2
XSEC0005
 70
1
 71
1
 91
1
 92
1
 93
9
 72
1
 10
126.8031431742
 20
53.9245126093
 11
130.5632728338
 21
53.9245126093
 72
1
 10
130.5632728338
 20
53.9245126093
 11
137.9425272909
 21
47.2502824634
 72
1
 10
137.9425272909
 20
47.2502824634
 11
145.3217817479
 21
53.9245126093
 72
1
 10
145.3217817479
 20
53.9245126093
 11
149.0819114076
 21
53.9245126093
 72
1
 10
149.0819114076
 20
53.9245126093
 11
139.4465791547
 21
45.2097535016
 72
1
 10
139.4465791547
 20
45.2097535016
 11
139.4465791547
 21
39.5420166612
 72
1
 10
139.4465791547
 20
39.5420166612
 11
136.438475427
 21
39.5420166612
 72
1
 10
136.438475427
 20
39.5420166612
 11
136.438475427
 21
45.2097535016
 72
1
 10
136.438475427
 20
45.2097535016
 11
126.8031431742
 21
53.9245126093
 97
9
330
3B9
330
3BA
330
3BB
330
3BC
330
3BD
330
3BE
330
3BF
330
3C0
330
3C1
 75
0
 76
1
 98
1
 10
0.0
 20
0.0
  0
LINE
  5
3C3
100
AcDbEntity
  8
0
100
AcDbLine
 62
7
  6
CONTINUOUS
 10
70.6362063832
 20
43.3021463208
 11
70.6362063832
 21
50.1643829497
  0
LINE
  5
3C4
100
AcDbEntity
  8
0
100
AcDbLine
 62
7
  6
CONTINUOUS
 10
73.2212955242
 20
43.3256471312
 11
73.2212955242
 21
50.1408821393
  0
LINE
  5
3C5
100
AcDbEntity
  8
0
100
AcDbLine
 62
7
  6
CONTINUOUS
 10
81.8225921207
 20
39.5420166612
 11
81.8225921207
 21
41.7040912155
  0
LINE
  5
3C6
100
AcDbEntity
  8
0
100
AcDbLine
 62
7
  6
CONTINUOUS
 10
82.9976326393
 20
37.7559550728
 11
82.9976326393
 21
43.1141398378
  0
LINE
  5
3C7
100
AcDbEntity
  8
0
100
AcDbLine
 62
7
  6
CONTINUOUS
 10
85.7237266426
 20
37.7559550728
 11
85.7237266426
 21
43.1141398378
  0
LINE
  5
3C8
100
AcDbEntity
  8
0
100
AcDbLine
 62
7
  6
CONTINUOUS
 10
86.9927704027
 20
39.5420166612
 11
86.9927704027
 21
41.7040912155
  0
LINE
  5
3C9
100
AcDbEntity
  8
0
100
AcDbLine
 62
7
  6
CONTINUOUS
 10
89.6718627852
 20
43.3256471312
 11
89.6718627852
 21
50.1408821393
  0
LINE
  5
3CA
100
AcDbEntity
  8
0
100
AcDbLine
 62
7
  6
CONTINUOUS
 10
92.2569519262
 20
43.3021463208
 11
92.2569519262
 21
50.1643829497
  0
LINE
  5
3CB
100
AcDbEntity
  8
0
100
AcDbLine
 62
7
  6
CONTINUOUS
 10
82.9976326393
 20
37.7559550728
 11
85.7237266426
 21
37.7559550728
  0
LINE
  5
3CC
100
AcDbEntity
  8
0
100
AcDbLine
 62
7
  6
CONTINUOUS
 10
87.3092568337
 20
39.5420166612
 11
86.9927704027
 21
39.5420166612
  0
LINE
  5
3CD
100
AcDbEntity
  8
0
100
AcDbLine
 62
7
  6
CONTINUOUS
 10
75.5839014757
 20
39.5420166612
 11
81.8225921207
 21
39.5420166612
  0
LINE
  5
3CE
100
AcDbEntity
  8
0
100
AcDbLine
 62
7
  6
CONTINUOUS
 10
87.0576385021
 20
41.7040912155
 11
86.9927704027
 21
41.7040912155
  0
LINE
  5
3CF
100
AcDbEntity
  8
0
100
AcDbLine
 62
7
  6
CONTINUOUS
 10
75.8355198074
 20
41.7040912155
 11
81.8225921207
 21
41.7040912155
  0
LINE
  5
3D0
100
AcDbEntity
  8
0
100
AcDbLine
 62
7
  6
CONTINUOUS
 10
82.9976326393
 20
43.1141398378
 11
85.7237266426
 21
43.1141398378
  0
LINE
  5
3D1
100
AcDbEntity
  8
0
100
AcDbLine
 62
7
  6
CONTINUOUS
 10
75.8355198074
 20
51.762438055
 11
87.0576385021
 21
51.762438055
  0
LINE
  5
3D2
100
AcDbEntity
  8
0
100
AcDbLine
 62
7
  6
CONTINUOUS
 10
75.5839014757
 20
53.9245126093
 11
87.3092568337
 21
53.9245126093
  0
ELLIPSE
  5
3D3
100
AcDbEntity
  8
0
100
AcDbEllipse
 62
7
  6
CONTINUOUS
 10
87.0576385021
 20
43.3256471312
 30
0.0
 11
2.6142242831
 21
0.0
 31
0.0
 40
0.6202818657
 41
-1.5707963268
 42
0.0
  0
ELLIPSE
  5
3D4
100
AcDbEntity
  8
0
100
AcDbEllipse
 62
7
  6
CONTINUOUS
 10
87.3092568337
 20
43.3021463208
 30
0.0
 11
4.9476950925
 21
0.0
 31
0.0
 40
0.7599760271
 41
4.7123889804
 42
6.2831853072
  0
ELLIPSE
  5
3D5
100
AcDbEntity
  8
0
100
AcDbEllipse
 62
7
  6
CONTINUOUS
 10
75.8355198074
 20
43.3256471312
 30
0.0
 11
2.6142242831
 21
0.0
 31
0.0
 40
0.6202818657
 41
9.4247779608
 42
10.9955742876
  0
ELLIPSE
  5
3D6
100
AcDbEntity
  8
0
100
AcDbEllipse
 62
7
  6
CONTINUOUS
 10
75.8355198074
 20
50.1408821393
 30
0.0
 11
2.6142242831
 21
0.0
 31
0.0
 40
0.6202818657
 41
1.5707963268
 42
3.1415926536
  0
ELLIPSE
  5
3D7
100
AcDbEntity
  8
0
100
AcDbEllipse
 62
7
  6
CONTINUOUS
 10
75.5839014757
 20
43.3021463208
 30
0.0
 11
4.9476950925
 21
0.0
 31
0.0
 40
0.7599760271
 41
3.1415926536
 42
4.7123889804
  0
ELLIPSE
  5
3D8
100
AcDbEntity
  8
0
100
AcDbEllipse
 62
7
  6
CONTINUOUS
 10
75.5839014757
 20
50.1643829497
 30
0.0
 11
4.9476950925
 21
0.0
 31
0.0
 40
0.7599760271
 41
7.853981634
 42
9.4247779608
  0
ELLIPSE
  5
3D9
100
AcDbEntity
  8
0
100
AcDbEllipse
 62
7
  6
CONTINUOUS
 10
87.0576385021
 20
50.1408821393
 30
0.0
 11
-2.6142242831
 21
0.0
 31
0.0
 40
0.6202818657
 41
3.1415926536
 42
4.7123889804
  0
ELLIPSE
  5
3DA
100
AcDbEntity
  8
0
100
AcDbEllipse
 62
7
  6
CONTINUOUS
 10
87.3092568337
 20
50.1643829497
 30
0.0
 11
4.9476950925
 21
0.0
 31
0.0
 40
0.7599760271
 41
0.0
 42
1.5707963268
  0
HATCH
  5
3DB
100
AcDbEntity
  8
0
100
AcDbHatch
 62
7
  6
CONTINUOUS
 10
0.0
 20
0.0
 30
0.0
210
0.0
220
0.0
230
1.0
  2
XSEC0002
 70
1
 71
1
 91
2
 92
1
 93
20
 72
3
 10
75.5839014757
 20
50.1643829497
 11
4.9476950925
 21
0.0
 40
0.7599760271
 50
-180.0
 51
-90.0
 73
0
 72
1
 10
75.5839014757
 20
53.9245126093
 11
87.3092568337
 21
53.9245126093
 72
3
 10
87.3092568337
 20
50.1643829497
 11
4.9476950925
 21
0.0
 40
0.7599760271
 50
-90.0
 51
0.0
 73
0
 72
1
 10
92.2569519262
 20
50.1643829497
 11
92.2569519262
 21
43.3021463208
 72
3
 10
87.3092568337
 20
43.3021463208
 11
4.9476950925
 21
0.0
 40
0.7599760271
 50
0.0
 51
90.0
 73
0
 72
1
 10
87.3092568337
 20
39.5420166612
 11
86.9927704027
 21
39.5420166612
 72
1
 10
86.9927704027
 20
39.5420166612
 11
86.9927704027
 21
41.7040912155
 72
1
 10
86.9927704027
 20
41.7040912155
 11
87.0576385021
 21
41.7040912155
 72
3
 10
87.0576385021
 20
43.3256471312
 11
2.6142242831
 21
0.0
 40
0.6202818657
 50
-90.0
 51
0.0
 73
1
 72
1
 10
89.6718627852
 20
43.3256471312
 11
89.6718627852
 21
50.1408821393
 72
3
 10
87.0576385021
 20
50.1408821393
 11
-2.6142242831
 21
0.0
 40
0.6202818657
 50
180.0
 51
-90.0
 73
1
 72
1
 10
87.0576385021
 20
51.762438055
 11
75.8355198074
 21
51.762438055
 72
3
 10
75.8355198074
 20
50.1408821393
 11
2.6142242831
 21
0.0
 40
0.6202818657
 50
90.0
 51
180.0
 73
1
 72
1
 10
73.2212955242
 20
50.1408821393
 11
73.2212955242
 21
43.3256471312
 72
3
 10
75.8355198074
 20
43.3256471312
 11
2.6142242831
 21
0.0
 40
0.6202818657
 50
180.0
 51
-90.0
 73
1
 72
1
 10
75.8355198074
 20
41.7040912155
 11
81.8225921207
 21
41.7040912155
 72
1
 10
81.8225921207
 20
41.7040912155
 11
81.8225921207
 21
39.5420166612
 72
1
 10
81.8225921207
 20
39.5420166612
 11
75.5839014757
 21
39.5420166612
 72
3
 10
75.5839014757
 20
43.3021463208
 11
4.9476950925
 21
0.0
 40
0.7599760271
 50
-270.0
 51
-180.0
 73
0
 72
1
 10
70.6362063832
 20
43.3021463208
 11
70.6362063832
 21
50.1643829497
 97
24
330
3C3
330
3C4
330
3C5
330
3C6
330
3C7
330
3C8
330
3C9
330
3CA
330
3CB
330
3CC
330
3CD
330
3CE
330
3CF
330
3D0
330
3D1
330
3D2
330
3D3
330
3D4
330
3D5
330
3D6
330
3D7
330
3D8
330
3D9
330
3DA
 92
1
 93
4
 72
1
 10
82.9976326393
 20
43.1141398378
 11
85.7237266426
 21
43.1141398378
 72
1
 10
85.7237266426
 20
43.1141398378
 11
85.7237266426
 21
37.7559550728
 72
1
 10
85.7237266426
 20
37.7559550728
 11
82.9976326393
 21
37.7559550728
 72
1
 10
82.9976326393
 20
37.7559550728
 11
82.9976326393
 21
43.1141398378
 97
24
330
3C3
330
3C4
330
3C5
330
3C6
330
3C7
330
3C8
330
3C9
330
3CA
330
3CB
330
3CC
330
3CD
330
3CE
330
3CF
330
3D0
330
3D1
330
3D2
330
3D3
330
3D4
330
3D5
330
3D6
330
3D7
330
3D8
330
3D9
330
3DA
 75
0
 76
1
 98
1
 10
0.0
 20
0.0
  0
LINE
  5
3DC
100
AcDbEntity
  8
0
100
AcDbLine
 62
7
  6
CONTINUOUS
 10
96.3460929311
 20
43.9601690112
 11
96.3460929311
 21
45.7462305996
  0
LINE
  5
3DD
100
AcDbEntity
  8
0
100
AcDbLine
 62
7
  6
CONTINUOUS
 10
102.2212955242
 20
43.9601690112
 11
102.2212955242
 21
45.7462305996
  0
LINE
  5
3DE
100
AcDbEntity
  8
0
100
AcDbLine
 62
7
  6
CONTINUOUS
 10
96.3460929311
 20
43.9601690112
 11
102.2212955242
 21
43.9601690112
  0
LINE
  5
3DF
100
AcDbEntity
  8
0
100
AcDbLine
 62
7
  6
CONTINUOUS
 10
96.3460929311
 20
45.7462305996
 11
102.2212955242
 21
45.7462305996
  0
HATCH
  5
3E0
100
AcDbEntity
  8
0
100
AcDbHatch
 62
7
  6
CONTINUOUS
 10
0.0
 20
0.0
 30
0.0
210
0.0
220
0.0
230
1.0
  2
XSEC0003
 70
1
 71
1
 91
1
 92
1
 93
4
 72
1
 10
96.3460929311
 20
45.7462305996
 11
102.2212955242
 21
45.7462305996
 72
1
 10
102.2212955242
 20
45.7462305996
 11
102.2212955242
 21
43.9601690112
 72
1
 10
102.2212955242
 20
43.9601690112
 11
96.3460929311
 21
43.9601690112
 72
1
 10
96.3460929311
 20
43.9601690112
 11
96.3460929311
 21
45.7462305996
 97
4
330
3DC
330
3DD
330
3DE
330
3DF
 75
0
 76
1
 98
1
 10
0.0
 20
0.0
  0
LINE
  5
3E1
100
AcDbEntity
  8
0
100
AcDbLine
 62
7
  6
CONTINUOUS
 10
105.2764008727
 20
43.3021463208
 11
105.2764008727
 21
44.2421787357
  0
LINE
  5
3E2
100
AcDbEntity
  8
0
100
AcDbLine
 62
7
  6
CONTINUOUS
 10
105.2764008727
 20
49.4123570177
 11
105.2764008727
 21
50.1643829497
  0
LINE
  5
3E3
100
AcDbEntity
  8
0
100
AcDbLine
 62
7
  6
CONTINUOUS
 10
107.8614900137
 20
43.3256471312
 11
107.8614900137
 21
44.2421787357
  0
LINE
  5
3E4
100
AcDbEntity
  8
0
100
AcDbLine
 62
7
  6
CONTINUOUS
 10
107.8614900137
 20
49.4358578281
 11
107.8614900137
 21
50.1408821393
  0
LINE
  5
3E5
100
AcDbEntity
  8
0
100
AcDbLine
 62
7
  6
CONTINUOUS
 10
122.4319924448
 20
44.0306714424
 11
122.4319924448
 21
43.3256471312
  0
LINE
  5
3E6
100
AcDbEntity
  8
0
100
AcDbLine
 62
7
  6
CONTINUOUS
 10
122.4319924448
 20
49.2243505347
 11
122.4319924448
 21
50.1408821393
  0
LINE
  5
3E7
100
AcDbEntity
  8
0
100
AcDbLine
 62
7
  6
CONTINUOUS
 10
125.0170815858
 20
43.3021463208
 11
125.0170815858
 21
44.0541722527
  0
LINE
  5
3E8
100
AcDbEntity
  8
0
100
AcDbLine
 62
7
  6
CONTINUOUS
 10
125.0170815858
 20
49.2243505347
 11
125.0170815858
 21
50.1643829497
  0
LINE
  5
3E9
100
AcDbEntity
  8
0
100
AcDbLine
 62
7
  6
CONTINUOUS
 10
110.2240959652
 20
39.5420166612
 11
120.0693864933
 21
39.5420166612
  0
LINE
  5
3EA
100
AcDbEntity
  8
0
100
AcDbLine
 62
7
  6
CONTINUOUS
 10
110.4757142968
 20
41.7040912155
 11
119.8177681617
 21
41.7040912155
  0
LINE
  5
3EB
100
AcDbEntity
  8
0
100
AcDbLine
 62
7
  6
CONTINUOUS
 10
105.2764008727
 20
44.2421787357
 11
107.8614900137
 21
44.2421787357
  0
LINE
  5
3EC
100
AcDbEntity
  8
0
100
AcDbLine
 62
7
  6
CONTINUOUS
 10
110.2240959652
 20
45.6522273581
 11
119.8177681617
 21
45.6522273581
  0
LINE
  5
3ED
100
AcDbEntity
  8
0
100
AcDbLine
 62
7
  6
CONTINUOUS
 10
110.4757142968
 20
47.8143019124
 11
120.0693864933
 21
47.8143019124
  0
LINE
  5
3EE
100
AcDbEntity
  8
0
100
AcDbLine
 62
7
  6
CONTINUOUS
 10
122.4319924448
 20
49.2243505347
 11
125.0170815858
 21
49.2243505347
  0
LINE
  5
3EF
100
AcDbEntity
  8
0
100
AcDbLine
 62
7
  6
CONTINUOUS
 10
110.4757142968
 20
51.762438055
 11
119.8177681617
 21
51.762438055
  0
LINE
  5
3F0
100
AcDbEntity
  8
0
100
AcDbLine
 62
7
  6
CONTINUOUS
 10
110.2240959652
 20
53.9245126093
 11
120.0693864933
 21
53.9245126093
  0
ELLIPSE
  5
3F1
100
AcDbEntity
  8
0
100
AcDbEllipse
 62
7
  6
CONTINUOUS
 10
110.4757142968
 20
43.3256471312
 30
0.0
 11
2.6142242831
 21
0.0
 31
0.0
 40
0.6202818657
 41
9.4247779608
 42
10.9955742876
  0
ELLIPSE
  5
3F2
100
AcDbEntity
  8
0
100
AcDbEllipse
 62
7
  6
CONTINUOUS
 10
110.4757142968
 20
50.1408821393
 30
0.0
 11
2.6142242831
 21
0.0
 31
0.0
 40
0.6202818657
 41
1.5707963268
 42
3.1415926536
  0
ELLIPSE
  5
3F3
100
AcDbEntity
  8
0
100
AcDbEllipse
 62
7
  6
CONTINUOUS
 10
119.8177681617
 20
43.3256471312
 30
0.0
 11
2.6142242831
 21
-0.0
 31
0.0
 40
0.6202818657
 41
-1.5707963268
 42
0.0
  0
ELLIPSE
  5
3F4
100
AcDbEntity
  8
0
100
AcDbEllipse
 62
7
  6
CONTINUOUS
 10
119.8177681617
 20
50.1408821393
 30
0.0
 11
-2.6142242831
 21
0.0
 31
0.0
 40
0.6202818657
 41
3.1415926536
 42
4.7123889804
  0
ELLIPSE
  5
3F5
100
AcDbEntity
  8
0
100
AcDbEllipse
 62
7
  6
CONTINUOUS
 10
119.8177681617
 20
44.0306714424
 30
0.0
 11
2.6142242831
 21
0.0
 31
0.0
 40
0.6202818657
 41
0.0
 42
1.5707963268
  0
ELLIPSE
  5
3F6
100
AcDbEntity
  8
0
100
AcDbEllipse
 62
7
  6
CONTINUOUS
 10
110.4757142968
 20
49.4358578281
 30
0.0
 11
2.6142242831
 21
0.0
 31
0.0
 40
0.6202818657
 41
3.1415926536
 42
4.7123889804
  0
ELLIPSE
  5
3F7
100
AcDbEntity
  8
0
100
AcDbEllipse
 62
7
  6
CONTINUOUS
 10
120.0693864933
 20
43.3021463208
 30
0.0
 11
4.9476950925
 21
0.0
 31
0.0
 40
0.7599760271
 41
4.7123889804
 42
6.2831853072
  0
ELLIPSE
  5
3F8
100
AcDbEntity
  8
0
100
AcDbEllipse
 62
7
  6
CONTINUOUS
 10
110.2240959652
 20
43.3021463208
 30
0.0
 11
4.9476950925
 21
0.0
 31
0.0
 40
0.7599760271
 41
3.1415926536
 42
4.7123889804
  0
ELLIPSE
  5
3F9
100
AcDbEntity
  8
0
100
AcDbEllipse
 62
7
  6
CONTINUOUS
 10
120.0693864933
 20
50.1643829497
 30
0.0
 11
4.9476950925
 21
0.0
 31
0.0
 40
0.7599760271
 41
0.0
 42
1.5707963268
  0
ELLIPSE
  5
3FA
100
AcDbEntity
  8
0
100
AcDbEllipse
 62
7
  6
CONTINUOUS
 10
110.2240959652
 20
49.4123570177
 30
0.0
 11
4.9476950925
 21
0.0
 31
0.0
 40
0.7599760271
 41
9.4247779608
 42
10.9955742876
  0
ELLIPSE
  5
3FB
100
AcDbEntity
  8
0
100
AcDbEllipse
 62
7
  6
CONTINUOUS
 10
120.0693864933
 20
44.0541722527
 30
0.0
 11
4.9476950925
 21
0.0
 31
0.0
 40
0.7599760271
 41
6.2831853072
 42
7.853981634
  0
ELLIPSE
  5
3FC
100
AcDbEntity
  8
0
100
AcDbEllipse
 62
7
  6
CONTINUOUS
 10
110.2240959652
 20
50.1643829497
 30
0.0
 11
4.9476950925
 21
0.0
 31
0.0
 40
0.7599760271
 41
7.853981634
 42
9.4247779608
  0
HATCH
  5
3FD
100
AcDbEntity
  8
0
100
AcDbHatch
 62
7
  6
CONTINUOUS
 10
0.0
 20
0.0
 30
0.0
210
0.0
220
0.0
230
1.0
  2
XSEC0004
 70
1
 71
1
 91
1
 92
1
 93
28
 72
1
 10
105.2764008727
 20
44.2421787357
 11
107.8614900137
 21
44.2421787357
 72
1
 10
107.8614900137
 20
44.2421787357
 11
107.8614900137
 21
43.3256471312
 72
3
 10
110.4757142968
 20
43.3256471312
 11
2.6142242831
 21
0.0
 40
0.6202818657
 50
180.0
 51
-90.0
 73
1
 72
1
 10
110.4757142968
 20
41.7040912155
 11
119.8177681617
 21
41.7040912155
 72
3
 10
119.8177681617
 20
43.3256471312
 11
2.6142242831
 21
-0.0
 40
0.6202818657
 50
-90.0
 51
0.0
 73
1
 72
1
 10
122.4319924448
 20
43.3256471312
 11
122.4319924448
 21
44.0306714424
 72
3
 10
119.8177681617
 20
44.0306714424
 11
2.6142242831
 21
0.0
 40
0.6202818657
 50
0.0
 51
90.0
 73
1
 72
1
 10
119.8177681617
 20
45.6522273581
 11
110.2240959652
 21
45.6522273581
 72
3
 10
110.2240959652
 20
49.4123570177
 11
4.9476950925
 21
0.0
 40
0.7599760271
 50
-270.0
 51
-180.0
 73
0
 72
1
 10
105.2764008727
 20
49.4123570177
 11
105.2764008727
 21
50.1643829497
 72
3
 10
110.2240959652
 20
50.1643829497
 11
4.9476950925
 21
0.0
 40
0.7599760271
 50
-180.0
 51
-90.0
 73
0
 72
1
 10
110.2240959652
 20
53.9245126093
 11
120.0693864933
 21
53.9245126093
 72
3
 10
120.0693864933
 20
50.1643829497
 11
4.9476950925
 21
0.0
 40
0.7599760271
 50
-90.0
 51
0.0
 73
0
 72
1
 10
125.0170815858
 20
50.1643829497
 11
125.0170815858
 21
49.2243505347
 72
1
 10
125.0170815858
 20
49.2243505347
 11
122.4319924448
 21
49.2243505347
 72
1
 10
122.4319924448
 20
49.2243505347
 11
122.4319924448
 21
50.1408821393
 72
3
 10
119.8177681617
 20
50.1408821393
 11
-2.6142242831
 21
0.0
 40
0.6202818657
 50
180.0
 51
-90.0
 73
1
 72
1
 10
119.8177681617
 20
51.762438055
 11
110.4757142968
 21
51.762438055
 72
3
 10
110.4757142968
 20
50.1408821393
 11
2.6142242831
 21
0.0
 40
0.6202818657
 50
90.0
 51
180.0
 73
1
 72
1
 10
107.8614900137
 20
50.1408821393
 11
107.8614900137
 21
49.4358578281
 72
3
 10
110.4757142968
 20
49.4358578281
 11
2.6142242831
 21
0.0
 40
0.6202818657
 50
180.0
 51
-90.0
 73
1
 72
1
 10
110.4757142968
 20
47.8143019124
 11
120.0693864933
 21
47.8143019124
 72
3
 10
120.0693864933
 20
44.0541722527
 11
4.9476950925
 21
0.0
 40
0.7599760271
 50
-90.0
 51
0.0
 73
0
 72
1
 10
125.0170815858
 20
44.0541722527
 11
125.0170815858
 21
43.3021463208
 72
3
 10
120.0693864933
 20
43.3021463208
 11
4.9476950925
 21
0.0
 40
0.7599760271
 50
0.0
 51
90.0
 73
0
 72
1
 10
120.0693864933
 20
39.5420166612
 11
110.2240959652
 21
39.5420166612
 72
3
 10
110.2240959652
 20
43.3021463208
 11
4.9476950925
 21
0.0
 40
0.7599760271
 50
-270.0
 51
-180.0
 73
0
 72
1
 10
105.2764008727
 20
43.3021463208
 11
105.2764008727
 21
44.2421787357
 97
28
330
3E1
330
3E2
330
3E3
330
3E4
330
3E5
330
3E6
330
3E7
330
3E8
330
3E9
330
3EA
330
3EB
330
3EC
330
3ED
330
3EE
330
3EF
330
3F0
330
3F1
330
3F2
330
3F3
330
3F4
330
3F5
330
3F6
330
3F7
330
3F8
330
3F9
330
3FA
330
3FB
330
3FC
 75
0
 76
1
 98
1
 10
0.0
 20
0.0
  0
LINE
  5
3FE
100
AcDbEntity
  8
0
100
AcDbLine
 62
7
  6
CONTINUOUS
 10
150.3039535469
 20
43.3021463208
 11
150.3039535469
 21
44.2421787357
  0
LINE
  5
3FF
100
AcDbEntity
  8
0
100
AcDbLine
 62
7
  6
CONTINUOUS
 10
150.3039535469
 20
49.4123570177
 11
150.3039535469
 21
50.1643829497
  0
LINE
  5
400
100
AcDbEntity
  8
0
100
AcDbLine
 62
7
  6
CONTINUOUS
 10
152.8890426879
 20
43.3256471312
 11
152.8890426879
 21
44.2421787357
  0
LINE
  5
401
100
AcDbEntity
  8
0
100
AcDbLine
 62
7
  6
CONTINUOUS
 10
152.8890426879
 20
49.4358578281
 11
152.8890426879
 21
50.1408821393
  0
LINE
  5
402
100
AcDbEntity
  8
0
100
AcDbLine
 62
7
  6
CONTINUOUS
 10
167.4595451191
 20
44.0306714424
 11
167.4595451191
 21
43.3256471312
  0
LINE
  5
403
100
AcDbEntity
  8
0
100
AcDbLine
 62
7
  6
CONTINUOUS
 10
167.4595451191
 20
49.2243505347
 11
167.4595451191
 21
50.1408821393
  0
LINE
  5
404
100
AcDbEntity
  8
0
100
AcDbLine
 62
7
  6
CONTINUOUS
 10
170.0446342601
 20
43.3021463208
 11
170.0446342601
 21
44.0541722527
  0
LINE
  5
405
100
AcDbEntity
  8
0
100
AcDbLine
 62
7
  6
CONTINUOUS
 10
170.0446342601
 20
49.2243505347
 11
170.0446342601
 21
50.1643829497
  0
LINE
  5
406
100
AcDbEntity
  8
0
100
AcDbLine
 62
7
  6
CONTINUOUS
 10
155.2516486394
 20
39.5420166612
 11
165.0969391676
 21
39.5420166612
  0
LINE
  5
407
100
AcDbEntity
  8
0
100
AcDbLine
 62
7
  6
CONTINUOUS
 10
155.503266971
 20
41.7040912155
 11
164.8453208359
 21
41.7040912155
  0
LINE
  5
408
100
AcDbEntity
  8
0
100
AcDbLine
 62
7
  6
CONTINUOUS
 10
150.3039535469
 20
44.2421787357
 11
152.8890426879
 21
44.2421787357
  0
LINE
  5
409
100
AcDbEntity
  8
0
100
AcDbLine
 62
7
  6
CONTINUOUS
 10
155.2516486394
 20
45.6522273581
 11
164.8453208359
 21
45.6522273581
  0
LINE
  5
40A
100
AcDbEntity
  8
0
100
AcDbLine
 62
7
  6
CONTINUOUS
 10
155.503266971
 20
47.8143019124
 11
165.0969391676
 21
47.8143019124
  0
LINE
  5
40B
100
AcDbEntity
  8
0
100
AcDbLine
 62
7
  6
CONTINUOUS
 10
167.4595451191
 20
49.2243505347
 11
170.0446342601
 21
49.2243505347
  0
LINE
  5
40C
100
AcDbEntity
  8
0
100
AcDbLine
 62
7
  6
CONTINUOUS
 10
155.503266971
 20
51.762438055
 11
164.8453208359
 21
51.762438055
  0
LINE
  5
40D
100
AcDbEntity
  8
0
100
AcDbLine
 62
7
  6
CONTINUOUS
 10
155.2516486394
 20
53.9245126093
 11
165.0969391676
 21
53.9245126093
  0
ELLIPSE
  5
40E
100
AcDbEntity
  8
0
100
AcDbEllipse
 62
7
  6
CONTINUOUS
 10
155.503266971
 20
43.3256471312
 30
0.0
 11
2.6142242831
 21
0.0
 31
0.0
 40
0.6202818657
 41
9.4247779608
 42
10.9955742876
  0
ELLIPSE
  5
40F
100
AcDbEntity
  8
0
100
AcDbEllipse
 62
7
  6
CONTINUOUS
 10
155.503266971
 20
50.1408821393
 30
0.0
 11
2.6142242831
 21
0.0
 31
0.0
 40
0.6202818657
 41
1.5707963268
 42
3.1415926536
  0
ELLIPSE
  5
410
100
AcDbEntity
  8
0
100
AcDbEllipse
 62
7
  6
CONTINUOUS
 10
164.8453208359
 20
43.3256471312
 30
0.0
 11
2.6142242831
 21
-0.0
 31
0.0
 40
0.6202818657
 41
-1.5707963268
 42
0.0
  0
ELLIPSE
  5
411
100
AcDbEntity
  8
0
100
AcDbEllipse
 62
7
  6
CONTINUOUS
 10
164.8453208359
 20
50.1408821393
 30
0.0
 11
-2.6142242831
 21
0.0
 31
0.0
 40
0.6202818657
 41
3.1415926536
 42
4.7123889804
  0
ELLIPSE
  5
412
100
AcDbEntity
  8
0
100
AcDbEllipse
 62
7
  6
CONTINUOUS
 10
164.8453208359
 20
44.0306714424
 30
0.0
 11
2.6142242831
 21
0.0
 31
0.0
 40
0.6202818657
 41
0.0
 42
1.5707963268
  0
ELLIPSE
  5
413
100
AcDbEntity
  8
0
100
AcDbEllipse
 62
7
  6
CONTINUOUS
 10
155.503266971
 20
49.4358578281
 30
0.0
 11
2.6142242831
 21
0.0
 31
0.0
 40
0.6202818657
 41
3.1415926536
 42
4.7123889804
  0
ELLIPSE
  5
414
100
AcDbEntity
  8
0
100
AcDbEllipse
 62
7
  6
CONTINUOUS
 10
165.0969391676
 20
43.3021463208
 30
0.0
 11
4.9476950925
 21
0.0
 31
0.0
 40
0.7599760271
 41
4.7123889804
 42
6.2831853072
  0
ELLIPSE
  5
415
100
AcDbEntity
  8
0
100
AcDbEllipse
 62
7
  6
CONTINUOUS
 10
155.2516486394
 20
43.3021463208
 30
0.0
 11
4.9476950925
 21
0.0
 31
0.0
 40
0.7599760271
 41
3.1415926536
 42
4.7123889804
  0
ELLIPSE
  5
416
100
AcDbEntity
  8
0
100
AcDbEllipse
 62
7
  6
CONTINUOUS
 10
165.0969391676
 20
50.1643829497
 30
0.0
 11
4.9476950925
 21
0.0
 31
0.0
 40
0.7599760271
 41
0.0
 42
1.5707963268
  0
ELLIPSE
  5
417
100
AcDbEntity
  8
0
100
AcDbEllipse
 62
7
  6
CONTINUOUS
 10
155.2516486394
 20
50.1643829497
 30
0.0
 11
4.9476950925
 21
0.0
 31
0.0
 40
0.7599760271
 41
7.853981634
 42
9.4247779608
  0
ELLIPSE
  5
418
100
AcDbEntity
  8
0
100
AcDbEllipse
 62
7
  6
CONTINUOUS
 10
155.2516486394
 20
49.4123570177
 30
0.0
 11
4.9476950925
 21
0.0
 31
0.0
 40
0.7599760271
 41
9.4247779608
 42
10.9955742876
  0
ELLIPSE
  5
419
100
AcDbEntity
  8
0
100
AcDbEllipse
 62
7
  6
CONTINUOUS
 10
165.0969391676
 20
44.0541722527
 30
0.0
 11
4.9476950925
 21
0.0
 31
0.0
 40
0.7599760271
 41
6.2831853072
 42
7.853981634
  0
HATCH
  5
41A
100
AcDbEntity
  8
0
100
AcDbHatch
 62
7
  6
CONTINUOUS
 10
0.0
 20
0.0
 30
0.0
210
0.0
220
0.0
230
1.0
  2
XSEC0006
 70
1
 71
1
 91
1
 92
1
 93
28
 72
1
 10
150.3039535469
 20
44.2421787357
 11
152.8890426879
 21
44.2421787357
 72
1
 10
152.8890426879
 20
44.2421787357
 11
152.8890426879
 21
43.3256471312
 72
3
 10
155.503266971
 20
43.3256471312
 11
2.6142242831
 21
0.0
 40
0.6202818657
 50
180.0
 51
-90.0
 73
1
 72
1
 10
155.503266971
 20
41.7040912155
 11
164.8453208359
 21
41.7040912155
 72
3
 10
164.8453208359
 20
43.3256471312
 11
2.6142242831
 21
-0.0
 40
0.6202818657
 50
-90.0
 51
0.0
 73
1
 72
1
 10
167.4595451191
 20
43.3256471312
 11
167.4595451191
 21
44.0306714424
 72
3
 10
164.8453208359
 20
44.0306714424
 11
2.6142242831
 21
0.0
 40
0.6202818657
 50
0.0
 51
90.0
 73
1
 72
1
 10
164.8453208359
 20
45.6522273581
 11
155.2516486394
 21
45.6522273581
 72
3
 10
155.2516486394
 20
49.4123570177
 11
4.9476950925
 21
0.0
 40
0.7599760271
 50
-270.0
 51
-180.0
 73
0
 72
1
 10
150.3039535469
 20
49.4123570177
 11
150.3039535469
 21
50.1643829497
 72
3
 10
155.2516486394
 20
50.1643829497
 11
4.9476950925
 21
0.0
 40
0.7599760271
 50
-180.0
 51
-90.0
 73
0
 72
1
 10
155.2516486394
 20
53.9245126093
 11
165.0969391676
 21
53.9245126093
 72
3
 10
165.0969391676
 20
50.1643829497
 11
4.9476950925
 21
0.0
 40
0.7599760271
 50
-90.0
 51
0.0
 73
0
 72
1
 10
170.0446342601
 20
50.1643829497
 11
170.0446342601
 21
49.2243505347
 72
1
 10
170.0446342601
 20
49.2243505347
 11
167.4595451191
 21
49.2243505347
 72
1
 10
167.4595451191
 20
49.2243505347
 11
167.4595451191
 21
50.1408821393
 72
3
 10
164.8453208359
 20
50.1408821393
 11
-2.6142242831
 21
0.0
 40
0.6202818657
 50
180.0
 51
-90.0
 73
1
 72
1
 10
164.8453208359
 20
51.762438055
 11
155.503266971
 21
51.762438055
 72
3
 10
155.503266971
 20
50.1408821393
 11
2.6142242831
 21
0.0
 40
0.6202818657
 50
90.0
 51
180.0
 73
1
 72
1
 10
152.8890426879
 20
50.1408821393
 11
152.8890426879
 21
49.4358578281
 72
3
 10
155.503266971
 20
49.4358578281
 11
2.6142242831
 21
0.0
 40
0.6202818657
 50
180.0
 51
-90.0
 73
1
 72
1
 10
155.503266971
 20
47.8143019124
 11
165.0969391676
 21
47.8143019124
 72
3
 10
165.0969391676
 20
44.0541722527
 11
4.9476950925
 21
0.0
 40
0.7599760271
 50
-90.0
 51
0.0
 73
0
 72
1
 10
170.0446342601
 20
44.0541722527
 11
170.0446342601
 21
43.3021463208
 72
3
 10
165.0969391676
 20
43.3021463208
 11
4.9476950925
 21
0.0
 40
0.7599760271
 50
0.0
 51
90.0
 73
0
 72
1
 10
165.0969391676
 20
39.5420166612
 11
155.2516486394
 21
39.5420166612
 72
3
 10
155.2516486394
 20
43.3021463208
 11
4.9476950925
 21
0.0
 40
0.7599760271
 50
-270.0
 51
-180.0
 73
0
 72
1
 10
150.3039535469
 20
43.3021463208
 11
150.3039535469
 21
44.2421787357
 97
28
330
3FE
330
3FF
330
400
330
401
330
402
330
403
330
404
330
405
330
406
330
407
330
408
330
409
330
40A
330
40B
330
40C
330
40D
330
40E
330
40F
330
410
330
411
330
412
330
413
330
414
330
415
330
416
330
417
330
418
330
419
 75
0
 76
1
 98
1
 10
0.0
 20
0.0
  0
LWPOLYLINE
  5
41B
100
AcDbEntity
  8
0
100
AcDbPolyline
 62
7
  6
CONTINUOUS
 90
2
 70
0
 43
0.9999999955
 10
736.9639201033
 20
35.0787110479
 10
752.2039201037
 20
32.5387110479
  0
LWPOLYLINE
  5
41C
100
AcDbEntity
  8
0
100
AcDbPolyline
 62
7
  6
CONTINUOUS
 90
2
 70
0
 43
0.9999999955
 10
736.9639201033
 20
40.1587110479
 10
752.2039201037
 20
42.6987110479
  0
LWPOLYLINE
  5
41D
100
AcDbEntity
  8
0
100
AcDbPolyline
 62
7
  6
CONTINUOUS
 90
2
 70
0
 43
0.3999999879
 10
720.2202401033
 20
37.6187110479
 10
733.3876001037
 20
37.6187110479
  0
LWPOLYLINE
  5
41E
100
AcDbEntity
  8
0
100
AcDbPolyline
 62
7
  6
CONTINUOUS
 90
2
 70
0
 43
0.3999999879
 10
735.0723741361
 20
37.6187110479
 10
753.7584341337
 20
37.6187110479
  0
LWPOLYLINE
  5
41F
100
AcDbEntity
  8
0
100
AcDbPolyline
 62
7
  6
CONTINUOUS
 90
2
 70
0
 43
0.9999999955
 10
1701.2
 20
72.0
 10
26.0
 20
72.0
  0
LWPOLYLINE
  5
420
100
AcDbEntity
  8
0
100
AcDbPolyline
 62
7
  6
CONTINUOUS
 90
2
 70
0
 43
0.3999999879
 10
726.8039201033
 20
31.0350310479
 10
726.8039201033
 20
44.2023910479
  0
LWPOLYLINE
  5
421
100
AcDbEntity
  8
0
100
AcDbPolyline
 62
7
  6
CONTINUOUS
 90
2
 70
0
 43
0.9999999955
 10
736.9639201033
 20
40.1587110479
 10
736.9639201033
 20
35.0787110479
  0
LWPOLYLINE
  5
422
100
AcDbEntity
  8
0
100
AcDbPolyline
 62
7
  6
CONTINUOUS
 90
2
 70
0
 43
0.9999999955
 10
752.2039201037
 20
42.6987110479
 10
752.2039201037
 20
32.5387110479
  0
LWPOLYLINE
  5
423
100
AcDbEntity
  8
0
100
AcDbPolyline
 62
2
  6
CONTINUOUS
 90
5
 70
0
 10
33.6386854112
 20
950.1777886655
 10
49.8531389428
 20
950.1777886655
 10
49.8531389428
 20
968.4657886655
 10
33.6386854112
 20
968.4657886655
 10
33.6386854112
 20
950.1777886655
  0
LWPOLYLINE
  5
424
100
AcDbEntity
  8
0
100
AcDbPolyline
 62
2
  6
CONTINUOUS
 90
5
 70
0
 10
33.6386854112
 20
982.1817886655
 10
49.8531389428
 20
982.1817886655
 10
49.8531389428
 20
1000.4697886655
 10
33.6386854112
 20
1000.4697886655
 10
33.6386854112
 20
982.1817886655
  0
LWPOLYLINE
  5
425
100
AcDbEntity
  8
0
100
AcDbPolyline
 62
7
  6
CONTINUOUS
 90
2
 70
0
 43
0.9999999955
 10
26.0
 20
1091.6
 10
1701.2
 20
1091.6
  0
LINE
  5
426
100
AcDbEntity
  8
7_ALL_ROUNDS
100
AcDbLine
 62
7
  6
CONTINUOUS
 10
392.6124456522
 20
420.1618478261
 11
392.6124456522
 21
546.3618478261
  0
LINE
  5
427
100
AcDbEntity
  8
0
100
AcDbLine
 62
9
  6
CONTINUOUS
 10
397.6124456522
 20
415.7618478261
 11
397.6124456522
 21
415.7908800842
  0
LINE
  5
428
100
AcDbEntity
  8
7_ALL_ROUNDS
100
AcDbLine
 62
9
  6
CONTINUOUS
 10
397.6124456522
 20
415.7908800842
 11
397.6124456522
 21
551.3618478261
  0
LINE
  5
429
100
AcDbEntity
  8
0
100
AcDbLine
 62
7
  6
CONTINUOUS
 10
405.1394686417
 20
538.1066102211
 11
405.4384751348
 21
429.3027360262
  0
LINE
  5
42A
100
AcDbEntity
  8
0
100
AcDbLine
 62
7
  6
CONTINUOUS
 10
404.1846761189
 20
548.1897340181
 11
404.1846761189
 21
418.3339616341
  0
LINE
  5
42B
100
AcDbEntity
  8
0
100
AcDbLine
 62
7
  6
CONTINUOUS
 10
425.5586048008
 20
429.3027360262
 11
425.5586048008
 21
538.1066102211
  0
LINE
  5
42C
100
AcDbEntity
  8
0
100
AcDbLine
 62
7
  6
CONTINUOUS
 10
430.5324456522
 20
537.6318478261
 11
430.5324456522
 21
428.8918478261
  0
LINE
  5
42D
100
AcDbEntity
  8
0
100
AcDbLine
 62
7
  6
CONTINUOUS
 10
472.2474456522
 20
457.0168478261
 11
472.2474456522
 21
509.5068478261
  0
LINE
  5
42E
100
AcDbEntity
  8
0
100
AcDbLine
 62
7
  6
CONTINUOUS
 10
475.7981545356
 20
490.1561389427
 11
472.2474456522
 21
509.5068478261
  0
LINE
  5
42F
100
AcDbEntity
  8
0
100
AcDbLine
 62
7
  6
CONTINUOUS
 10
475.7981545356
 20
476.3675567095
 11
472.2474456522
 21
457.0168478261
  0
LINE
  5
430
100
AcDbEntity
  8
0
100
AcDbLine
 62
7
  6
CONTINUOUS
 10
489.5867367687
 20
490.1561389427
 11
493.1374456522
 21
509.5068478261
  0
LINE
  5
431
100
AcDbEntity
  8
0
100
AcDbLine
 62
7
  6
CONTINUOUS
 10
489.5867367687
 20
476.3675567095
 11
493.1374456522
 21
457.0168478261
  0
LINE
  5
432
100
AcDbEntity
  8
0
100
AcDbLine
 62
7
  6
CONTINUOUS
 10
493.1374456522
 20
509.5068478261
 11
493.1374456522
 21
457.0168478261
  0
LINE
  5
433
100
AcDbEntity
  8
0
100
AcDbLine
 62
7
  6
CONTINUOUS
 10
623.6124456522
 20
421.850164483
 11
538.3048338076
 21
420.3611145794
  0
LINE
  5
434
100
AcDbEntity
  8
0
100
AcDbLine
 62
7
  6
CONTINUOUS
 10
395.2375772348
 20
415.7618478261
 11
735.9873140696
 21
415.7618478261
  0
LINE
  5
435
100
AcDbEntity
  8
7_ALL_ROUNDS
100
AcDbLine
 62
9
  6
CONTINUOUS
 10
733.6124456522
 20
415.7908800842
 11
397.6124456522
 21
415.7908800842
  0
LINE
  5
436
100
AcDbEntity
  8
0
100
AcDbLine
 62
7
  6
CONTINUOUS
 10
404.1846761189
 20
418.3339616341
 11
720.2470511259
 21
418.3339616341
  0
LINE
  5
437
100
AcDbEntity
  8
0
100
AcDbLine
 62
7
  6
CONTINUOUS
 10
708.9200574967
 20
420.3611145794
 11
538.3048338076
 21
420.3611145794
  0
LINE
  5
438
100
AcDbEntity
  8
7_ALL_ROUNDS
100
AcDbLine
 62
9
  6
CONTINUOUS
 10
733.6124456522
 20
425.9246472839
 11
720.2470511259
 21
425.9246472839
  0
LINE
  5
439
100
AcDbEntity
  8
7_ALL_ROUNDS
100
AcDbLine
 62
9
  6
CONTINUOUS
 10
404.1846761189
 20
425.9246472839
 11
397.6124456522
 21
425.9246472839
  0
LINE
  5
43A
100
AcDbEntity
  8
0
100
AcDbLine
 62
7
  6
CONTINUOUS
 10
708.9200574967
 20
420.3611145794
 11
623.6124456522
 21
421.850164483
  0
LINE
  5
43B
100
AcDbEntity
  8
0
100
AcDbLine
 62
7
  6
CONTINUOUS
 10
493.1374456522
 20
457.0168478261
 11
534.8524456522
 21
428.8918478261
  0
LINE
  5
43C
100
AcDbEntity
  8
0
100
AcDbLine
 62
7
  6
CONTINUOUS
 10
493.1374456522
 20
509.5068478261
 11
534.8524456522
 21
537.6318478261
  0
LINE
  5
43D
100
AcDbEntity
  8
7_ALL_ROUNDS
100
AcDbLine
 62
9
  6
CONTINUOUS
 10
733.6124456522
 20
428.1998726698
 11
720.2470511259
 21
428.1998726698
  0
LINE
  5
43E
100
AcDbEntity
  8
7_ALL_ROUNDS
100
AcDbLine
 62
9
  6
CONTINUOUS
 10
404.1846761189
 20
428.1998726698
 11
397.6124456522
 21
428.1998726698
  0
LINE
  5
43F
100
AcDbEntity
  8
0
100
AcDbLine
 62
7
  6
CONTINUOUS
 10
430.5324456522
 20
428.8918478261
 11
534.8524456522
 21
428.8918478261
  0
LINE
  5
440
100
AcDbEntity
  8
0
100
AcDbLine
 62
7
  6
CONTINUOUS
 10
405.4384751348
 20
429.3027360262
 11
425.5586048008
 21
429.3027360262
  0
LINE
  5
441
100
AcDbEntity
  8
0
100
AcDbLine
 62
7
  6
CONTINUOUS
 10
534.8524456522
 20
428.8918478261
 11
534.8524456522
 21
537.6318478261
  0
LINE
  5
442
100
AcDbEntity
  8
0
100
AcDbLine
 62
7
  6
CONTINUOUS
 10
538.3048338076
 20
420.3611145794
 11
538.3048338076
 21
548.1897340181
  0
LINE
  5
443
100
AcDbEntity
  8
0
100
AcDbLine
 62
7
  6
CONTINUOUS
 10
472.2474456522
 20
457.0168478261
 11
430.5324456522
 21
428.8918478261
  0
LINE
  5
444
100
AcDbEntity
  8
0
100
AcDbLine
 62
7
  6
CONTINUOUS
 10
493.1374456522
 20
457.0168478261
 11
472.2474456522
 21
457.0168478261
  0
LINE
  5
445
100
AcDbEntity
  8
0
100
AcDbLine
 62
7
  6
CONTINUOUS
 10
472.2474456522
 20
509.5068478261
 11
430.5324456522
 21
537.6318478261
  0
LINE
  5
446
100
AcDbEntity
  8
3_ALL_AXES
100
AcDbLine
 62
7
  6
CENTER
 10
577.3661091979
 20
478.2389863143
 11
582.2444529831
 21
478.2389863143
  0
LINE
  5
447
100
AcDbEntity
  8
3_AXES_OTHER
100
AcDbLine
 62
7
  6
CENTER
 10
579.8624456522
 20
480.803644476
 11
579.8624456522
 21
475.947877456
  0
LINE
  5
448
100
AcDbEntity
  8
0
100
AcDbLine
 62
7
  6
CONTINUOUS
 10
706.8809717963
 20
549.5942318286
 11
623.6124456522
 21
527.2824974934
  0
LINE
  5
449
100
AcDbEntity
  8
0
100
AcDbLine
 62
7
  6
CONTINUOUS
 10
472.2474456522
 20
509.5068478261
 11
493.1374456522
 21
509.5068478261
  0
LINE
  5
44A
100
AcDbEntity
  8
0
100
AcDbLine
 62
7
  6
CONTINUOUS
 10
534.8524456522
 20
537.6318478261
 11
430.5324456522
 21
537.6318478261
  0
LINE
  5
44B
100
AcDbEntity
  8
0
100
AcDbLine
 62
7
  6
CONTINUOUS
 10
425.5586048008
 20
538.1066102211
 11
405.1394686417
 21
538.1066102211
  0
LINE
  5
44C
100
AcDbEntity
  8
7_ALL_ROUNDS
100
AcDbLine
 62
9
  6
CONTINUOUS
 10
733.6124456522
 20
538.3238229824
 11
720.2470511259
 21
538.3238229824
  0
LINE
  5
44D
100
AcDbEntity
  8
7_ALL_ROUNDS
100
AcDbLine
 62
9
  6
CONTINUOUS
 10
404.1846761189
 20
538.3238229824
 11
397.6124456522
 21
538.3238229824
  0
LINE
  5
44E
100
AcDbEntity
  8
7_ALL_ROUNDS
100
AcDbLine
 62
9
  6
CONTINUOUS
 10
733.6124456522
 20
540.5990483682
 11
720.2470511259
 21
540.5990483682
  0
LINE
  5
44F
100
AcDbEntity
  8
7_ALL_ROUNDS
100
AcDbLine
 62
9
  6
CONTINUOUS
 10
404.1846761189
 20
540.5990483682
 11
397.6124456522
 21
540.5990483682
  0
LINE
  5
450
100
AcDbEntity
  8
0
100
AcDbLine
 62
7
  6
CONTINUOUS
 10
623.6124456522
 20
527.2824974934
 11
540.343919508
 21
549.5942318286
  0
LINE
  5
451
100
AcDbEntity
  8
0
100
AcDbLine
 62
7
  6
CONTINUOUS
 10
623.6124456522
 20
527.2824974934
 11
623.6124456522
 21
421.850164483
  0
LINE
  5
452
100
AcDbEntity
  8
0
100
AcDbLine
 62
7
  6
CONTINUOUS
 10
404.1846761189
 20
548.1897340181
 11
538.3048338076
 21
548.1897340181
  0
LINE
  5
453
100
AcDbEntity
  8
0
100
AcDbLine
 62
7
  6
CONTINUOUS
 10
708.9200574967
 20
548.1897340181
 11
720.2470511259
 21
548.1897340181
  0
LINE
  5
454
100
AcDbEntity
  8
0
100
AcDbLine
 62
7
  6
CONTINUOUS
 10
540.343919508
 20
549.5942318286
 11
706.8809717963
 21
549.5942318286
  0
LINE
  5
455
100
AcDbEntity
  8
7_ALL_ROUNDS
100
AcDbLine
 62
9
  6
CONTINUOUS
 10
733.6124456522
 20
550.732815568
 11
397.6124456522
 21
550.732815568
  0
LINE
  5
456
100
AcDbEntity
  8
7_ALL_ROUNDS
100
AcDbLine
 62
7
  6
CONTINUOUS
 10
733.6124456522
 20
551.3618478261
 11
397.6124456522
 21
551.3618478261
  0
LINE
  5
457
100
AcDbEntity
  8
0
100
AcDbLine
 62
7
  6
CONTINUOUS
 10
708.9200574967
 20
548.1897340181
 11
708.9200574967
 21
420.3611145794
  0
LINE
  5
458
100
AcDbEntity
  8
0
100
AcDbLine
 62
7
  6
CONTINUOUS
 10
720.2470511259
 20
418.3339616341
 11
720.2470511259
 21
548.1897340181
  0
LINE
  5
459
100
AcDbEntity
  8
7_ALL_ROUNDS
100
AcDbLine
 62
9
  6
CONTINUOUS
 10
733.6124456522
 20
551.3618478261
 11
733.6124456522
 21
415.7908800842
  0
LINE
  5
45A
100
AcDbEntity
  8
0
100
AcDbLine
 62
9
  6
CONTINUOUS
 10
733.6124456522
 20
415.7908800842
 11
733.6124456522
 21
415.7618478261
  0
LINE
  5
45B
100
AcDbEntity
  8
7_ALL_ROUNDS
100
AcDbLine
 62
7
  6
CONTINUOUS
 10
738.6124456522
 20
546.3618478261
 11
738.6124456522
 21
420.1618478261
  0
LINE
  5
45C
100
AcDbEntity
  8
7_ALL_ROUNDS
100
AcDbLine
 62
7
  6
CONTINUOUS
 10
392.6124456522
 20
701.2615773819
 11
392.6124456522
 21
873.34832579
  0
LINE
  5
45D
100
AcDbEntity
  8
0
100
AcDbLine
 62
7
  6
CONTINUOUS
 10
395.2375772348
 20
725.5615773819
 11
395.2375772348
 21
877.748325007
  0
LINE
  5
45E
100
AcDbEntity
  8
7_ALL_ROUNDS
100
AcDbLine
 62
9
  6
CONTINUOUS
 10
397.6124456522
 20
696.2615773819
 11
397.6124456522
 21
714.9370957438
  0
LINE
  5
45F
100
AcDbEntity
  8
0
100
AcDbLine
 62
9
  6
CONTINUOUS
 10
397.6124456522
 20
714.9370957438
 11
397.6124456522
 21
723.3223468974
  0
LINE
  5
460
100
AcDbEntity
  8
0
100
AcDbLine
 62
7
  6
CONTINUOUS
 10
404.1846761189
 20
708.5615773819
 11
404.1846761189
 21
696.2615773819
  0
LINE
  5
461
100
AcDbEntity
  8
0
100
AcDbLine
 62
7
  6
CONTINUOUS
 10
397.6124456522
 20
696.2615773819
 11
404.1846761189
 21
696.2615773819
  0
LINE
  5
462
100
AcDbEntity
  8
0
100
AcDbLine
 62
7
  6
CONTINUOUS
 10
721.2200574967
 20
696.2615773819
 11
733.6124456522
 21
696.2615773819
  0
LINE
  5
463
100
AcDbEntity
  8
7_ALL_ROUNDS
100
AcDbLine
 62
9
  6
CONTINUOUS
 10
733.6124456522
 20
700.0694789096
 11
720.2470511259
 21
700.0694789096
  0
LINE
  5
464
100
AcDbEntity
  8
7_ALL_ROUNDS
100
AcDbLine
 62
9
  6
CONTINUOUS
 10
404.1846761189
 20
700.0694789096
 11
397.6124456522
 21
700.0694789096
  0
LINE
  5
465
100
AcDbEntity
  8
7_ALL_ROUNDS
100
AcDbLine
 62
9
  6
CONTINUOUS
 10
733.6124456522
 20
700.9947636407
 11
720.2470511259
 21
700.9947636407
  0
LINE
  5
466
100
AcDbEntity
  8
7_ALL_ROUNDS
100
AcDbLine
 62
9
  6
CONTINUOUS
 10
404.1846761189
 20
700.9947636407
 11
397.6124456522
 21
700.9947636407
  0
LINE
  5
467
100
AcDbEntity
  8
0
100
AcDbLine
 62
7
  6
CONTINUOUS
 10
404.1846761189
 20
708.5615773819
 11
720.2470511259
 21
708.5615773819
  0
LINE
  5
468
100
AcDbEntity
  8
0
100
AcDbLine
 62
7
  6
CONTINUOUS
 10
540.343919508
 20
710.6006630824
 11
706.8809717963
 21
710.6006630824
  0
LINE
  5
469
100
AcDbEntity
  8
7_ALL_ROUNDS
100
AcDbLine
 62
9
  6
CONTINUOUS
 10
733.6124456522
 20
712.509207567
 11
397.6124456522
 21
712.509207567
  0
LINE
  5
46A
100
AcDbEntity
  8
7_ALL_ROUNDS
100
AcDbLine
 62
9
  6
CONTINUOUS
 10
392.6124456522
 20
714.9370957438
 11
738.6124456522
 21
714.9370957438
  0
LINE
  5
46B
100
AcDbEntity
  8
0
100
AcDbLine
 62
7
  6
CONTINUOUS
 10
397.6124456522
 20
723.3223468974
 11
733.6124456522
 21
723.3223468974
  0
LINE
  5
46C
100
AcDbEntity
  8
0
100
AcDbLine
 62
7
  6
CONTINUOUS
 10
540.343919508
 20
710.6006630824
 11
538.3048338076
 21
708.5615773819
  0
LINE
  5
46D
100
AcDbEntity
  8
0
100
AcDbLine
 62
7
  6
CONTINUOUS
 10
706.8809717963
 20
710.6006630824
 11
708.9200574967
 21
708.5615773819
  0
LINE
  5
46E
100
AcDbEntity
  8
0
100
AcDbLine
 62
7
  6
CONTINUOUS
 10
720.2470511259
 20
697.2345837528
 11
721.2200979192
 21
696.2615369595
  0
LINE
  5
46F
100
AcDbEntity
  8
0
100
AcDbLine
 62
9
  6
CONTINUOUS
 10
735.9873140696
 20
874.4871295885
 11
395.2375772348
 21
874.4871295885
  0
LINE
  5
470
100
AcDbEntity
  8
0
100
AcDbLine
 62
7
  6
CONTINUOUS
 10
395.2375772348
 20
877.74832579
 11
735.9873140696
 21
877.74832579
  0
LINE
  5
471
100
AcDbEntity
  8
0
100
AcDbLine
 62
7
  6
CONTINUOUS
 10
720.2470511259
 20
708.5615773819
 11
720.2470511259
 21
697.2345837528
  0
LINE
  5
472
100
AcDbEntity
  8
0
100
AcDbLine
 62
9
  6
CONTINUOUS
 10
733.6124456522
 20
723.3223468974
 11
733.6124456522
 21
714.9370957438
  0
LINE
  5
473
100
AcDbEntity
  8
7_ALL_ROUNDS
100
AcDbLine
 62
9
  6
CONTINUOUS
 10
733.6124456522
 20
714.9370957438
 11
733.6124456522
 21
696.2615773819
  0
LINE
  5
474
100
AcDbEntity
  8
0
100
AcDbLine
 62
7
  6
CONTINUOUS
 10
735.9873140696
 20
877.7483250071
 11
735.9873140696
 21
725.5615773819
  0
LINE
  5
475
100
AcDbEntity
  8
7_ALL_ROUNDS
100
AcDbLine
 62
7
  6
CONTINUOUS
 10
738.6124456522
 20
873.34832579
 11
738.6124456522
 21
701.2615773819
  0
LWPOLYLINE
  5
476
100
AcDbEntity
  8
0
100
AcDbPolyline
 62
2
  6
CONTINUOUS
 90
5
 70
0
 10
990.0307747562
 20
384.0606781041
 10
1006.2452282878
 20
384.0606781041
 10
1006.2452282878
 20
402.3486781041
 10
990.0307747562
 20
402.3486781041
 10
990.0307747562
 20
384.0606781041
  0
LINE
  5
477
100
AcDbEntity
  8
0
100
AcDbLine
 62
9
  6
CONTINUOUS
 10
861.4300427547
 20
420.1618478261
 11
861.4300427547
 21
415.7618478261
  0
LINE
  5
478
100
AcDbEntity
  8
7_ALL_ROUNDS
100
AcDbLine
 62
9
  6
CONTINUOUS
 10
861.4300427547
 20
546.3618478261
 11
861.4300427707
 21
551.3618478261
  0
LINE
  5
479
100
AcDbEntity
  8
0
100
AcDbLine
 62
7
  6
CONTINUOUS
 10
872.0545243928
 20
550.7618478261
 11
871.4752534034
 21
546.3618478261
  0
LINE
  5
47A
100
AcDbEntity
  8
0
100
AcDbLine
 62
7
  6
CONTINUOUS
 10
859.0551743373
 20
415.7618478261
 11
996.6782856457
 21
415.7618478261
  0
LINE
  5
47B
100
AcDbEntity
  8
7_ALL_ROUNDS
100
AcDbLine
 62
9
  6
CONTINUOUS
 10
861.4300427547
 20
420.1618478261
 11
996.6782856457
 21
420.1618478261
  0
LINE
  5
47C
100
AcDbEntity
  8
0
100
AcDbLine
 62
9
  6
CONTINUOUS
 10
996.6782856457
 20
420.1618478261
 11
1000.9283592814
 21
419.0230440276
  0
LINE
  5
47D
100
AcDbEntity
  8
7_ALL_ROUNDS
100
AcDbLine
 62
9
  6
CONTINUOUS
 10
851.5148271514
 20
428.8881473592
 11
846.5624259186
 21
428.1998726833
  0
LINE
  5
47E
100
AcDbEntity
  8
7_ALL_ROUNDS
100
AcDbLine
 62
9
  6
CONTINUOUS
 10
861.4300427547
 20
546.3618478261
 11
859.0021545789
 21
550.7328155686
  0
LINE
  5
47F
100
AcDbEntity
  8
7_ALL_ROUNDS
100
AcDbLine
 62
9
  6
CONTINUOUS
 10
861.4300427547
 20
420.1618478261
 11
859.0021545639
 21
415.7908800919
  0
LINE
  5
480
100
AcDbEntity
  8
3_AXES_OTHER
100
AcDbLine
 62
7
  6
CENTER
 10
932.755110825
 20
477.5569847889
 11
914.595110825
 21
477.5569847889
  0
LINE
  5
481
100
AcDbEntity
  8
3_AXES_OTHER
100
AcDbLine
 62
7
  6
CENTER
 10
932.755110825
 20
477.5569847889
 11
950.915110825
 21
477.5569847889
  0
LINE
  5
482
100
AcDbEntity
  8
7_ALL_ROUNDS
100
AcDbLine
 62
9
  6
CONTINUOUS
 10
851.5148271514
 20
537.6355482929
 11
847.4877106596
 21
540.5990483792
  0
LINE
  5
483
100
AcDbEntity
  8
3_AXES_OTHER
100
AcDbLine
 62
7
  6
CENTER
 10
932.755110825
 20
477.5569847889
 11
932.755110825
 21
459.3969847889
  0
LINE
  5
484
100
AcDbEntity
  8
3_AXES_OTHER
100
AcDbLine
 62
7
  6
CENTER
 10
932.755110825
 20
477.5569847889
 11
932.755110825
 21
495.7169847889
  0
LINE
  5
485
100
AcDbEntity
  8
7_ALL_ROUNDS
100
AcDbLine
 62
9
  6
CONTINUOUS
 10
851.5148271514
 20
428.8881473592
 11
847.4877106509
 21
425.9246472848
  0
LINE
  5
486
100
AcDbEntity
  8
7_ALL_ROUNDS
100
AcDbLine
 62
9
  6
CONTINUOUS
 10
851.5148271514
 20
537.6355482929
 11
846.5624259205
 21
538.3238229824
  0
LINE
  5
487
100
AcDbEntity
  8
7_ALL_ROUNDS
100
AcDbLine
 62
9
  6
CONTINUOUS
 10
1019.8412728009
 20
506.6072927443
 11
871.4752534034
 21
546.3618478261
  0
LINE
  5
488
100
AcDbEntity
  8
0
100
AcDbLine
 62
9
  6
CONTINUOUS
 10
1019.8412728009
 20
506.6072927443
 11
1024.0913464366
 21
505.4684889459
  0
LINE
  5
489
100
AcDbEntity
  8
0
100
AcDbLine
 62
7
  6
CONTINUOUS
 10
1020.9800765994
 20
510.85736638
 11
869.8152939083
 21
551.3618478261
  0
LINE
  5
48A
100
AcDbEntity
  8
7_ALL_ROUNDS
100
AcDbLine
 62
9
  6
CONTINUOUS
 10
871.4752534034
 20
546.3618478261
 11
861.4300427547
 21
546.3618478261
  0
LINE
  5
48B
100
AcDbEntity
  8
0
100
AcDbLine
 62
9
  6
CONTINUOUS
 10
996.6782856457
 20
420.1618478261
 11
996.6782856457
 21
415.7618478261
  0
LINE
  5
48C
100
AcDbEntity
  8
0
100
AcDbLine
 62
7
  6
CONTINUOUS
 10
869.8152939083
 20
551.3618478261
 11
861.4300427547
 21
551.3618478261
  0
LINE
  5
48D
100
AcDbEntity
  8
7_ALL_ROUNDS
100
AcDbLine
 62
9
  6
CONTINUOUS
 10
996.6782856457
 20
420.1618478261
 11
1019.8412728009
 21
506.6072927443
  0
LINE
  5
48E
100
AcDbEntity
  8
0
100
AcDbLine
 62
9
  6
CONTINUOUS
 10
1019.8412728009
 20
506.6072927443
 11
1020.9800765994
 21
510.85736638
  0
LINE
  5
48F
100
AcDbEntity
  8
0
100
AcDbLine
 62
7
  6
CONTINUOUS
 10
1000.9283592814
 20
419.0230440276
 11
1024.0913464366
 21
505.4684889459
  0
LINE
  5
490
100
AcDbEntity
  8
DEFAULT_3
100
AcDbLine
 62
7
  6
PHANTOM
 10
834.5669152275
 20
611.1269597438
 11
1055.1730144706
 21
552.0157336062
  0
LINE
  5
491
100
AcDbEntity
  8
DEFAULT_3
100
AcDbLine
 62
7
  6
PHANTOM
 10
1142.7071577344
 20
512.5457787323
 11
1100.6044135481
 21
355.4161982907
  0
LINE
  5
492
100
AcDbEntity
  8
7_ALL_ROUNDS
100
AcDbLine
 62
9
  6
CONTINUOUS
 10
1326.0300422161
 20
864.4378874333
 11
1326.0299809537
 21
864.4373422859
  0
LINE
  5
493
100
AcDbEntity
  8
0
100
AcDbLine
 62
7
  6
CONTINUOUS
 10
1338.1488761804
 20
871.2565774419
 11
1338.1488761804
 21
765.2436688313
  0
LINE
  5
494
100
AcDbEntity
  8
7_ALL_ROUNDS
100
AcDbLine
 62
7
  6
CONTINUOUS
 10
1335.5092887517
 20
879.3814341588
 11
1342.9413919143
 21
883.6734846023
  0
LINE
  5
495
100
AcDbEntity
  8
0
100
AcDbLine
 62
9
  6
CONTINUOUS
 10
1338.0097797171
 20
879.1335388877
 11
1343.9390476697
 21
882.5576998
  0
LINE
  5
496
100
AcDbEntity
  8
7_ALL_ROUNDS
100
AcDbLine
 62
9
  6
CONTINUOUS
 10
1335.5092887517
 20
879.3814341588
 11
1335.5101788041
 21
879.3819477994
  0
LINE
  5
497
100
AcDbEntity
  8
0
100
AcDbLine
 62
7
  6
CONTINUOUS
 10
1338.8240164478
 20
862.6349250394
 11
1339.0354459668
 21
773.6864673739
  0
LINE
  5
498
100
AcDbEntity
  8
0
100
AcDbLine
 62
7
  6
CONTINUOUS
 10
1353.2625260919
 20
765.470307799
 11
1353.2625260919
 21
854.2966646082
  0
LINE
  5
499
100
AcDbEntity
  8
0
100
AcDbLine
 62
7
  6
CONTINUOUS
 10
1356.7795626865
 20
851.8779797266
 11
1356.7795626865
 21
763.1037691491
  0
LINE
  5
49A
100
AcDbEntity
  8
7_ALL_ROUNDS
100
AcDbLine
 62
9
  6
CONTINUOUS
 10
1327.4781465008
 20
771.5478602964
 11
1327.478752362
 21
771.5472597897
  0
LINE
  5
49B
100
AcDbEntity
  8
0
100
AcDbLine
 62
7
  6
CONTINUOUS
 10
1401.8187291142
 20
778.0058381917
 11
1401.8187291142
 21
820.8581309378
  0
LINE
  5
49C
100
AcDbEntity
  8
0
100
AcDbLine
 62
7
  6
CONTINUOUS
 10
1416.5901897732
 20
812.3275908086
 11
1416.5901897732
 21
769.4752980625
  0
LINE
  5
49D
100
AcDbEntity
  8
0
100
AcDbLine
 62
7
  6
CONTINUOUS
 10
1339.0354459668
 20
773.6864673739
 11
1353.2625260919
 21
781.9026269488
  0
LINE
  5
49E
100
AcDbEntity
  8
7_ALL_ROUNDS
100
AcDbLine
 62
9
  6
CONTINUOUS
 10
1330.6502571673
 20
769.119435649
 11
1327.478752362
 21
771.5472597897
  0
LINE
  5
49F
100
AcDbEntity
  8
0
100
AcDbLine
 62
7
  6
CONTINUOUS
 10
1430.5449420999
 20
720.5041546793
 11
1430.5449420999
 21
809.2783652568
  0
LINE
  5
4A0
100
AcDbEntity
  8
0
100
AcDbLine
 62
7
  6
CONTINUOUS
 10
1432.9861491759
 20
712.1299516911
 11
1432.9861491759
 21
816.4879136175
  0
LINE
  5
4A1
100
AcDbEntity
  8
0
100
AcDbLine
 62
7
  6
CONTINUOUS
 10
1416.5901897732
 20
791.9466508936
 11
1401.8187291142
 21
778.0058381917
  0
LINE
  5
4A2
100
AcDbEntity
  8
0
100
AcDbLine
 62
7
  6
CONTINUOUS
 10
1550.5293308201
 20
679.0747823061
 11
1553.6293308201
 21
679.0747823061
  0
LINE
  5
4A3
100
AcDbEntity
  8
0
100
AcDbLine
 62
7
  6
CONTINUOUS
 10
1330.6502571673
 20
769.119435649
 11
1335.2975258978
 21
766.4356311619
  0
LINE
  5
4A4
100
AcDbEntity
  8
0
100
AcDbLine
 62
7
  6
CONTINUOUS
 10
1558.7873745433
 20
637.3699167858
 11
1568.238135646
 21
631.9120884303
  0
LINE
  5
4A5
100
AcDbEntity
  8
0
100
AcDbLine
 62
7
  6
CONTINUOUS
 10
1338.1488761804
 20
765.2436688313
 11
1556.2807906065
 21
639.2721693012
  0
LINE
  5
4A6
100
AcDbEntity
  8
7_ALL_ROUNDS
100
AcDbLine
 62
9
  6
CONTINUOUS
 10
1565.7389406201
 20
633.827135564
 11
1556.2881795173
 21
639.2849639196
  0
LINE
  5
4A7
100
AcDbEntity
  8
7_ALL_ROUNDS
100
AcDbLine
 62
9
  6
CONTINUOUS
 10
1332.7983308719
 20
768.3506782957
 11
1328.1510621414
 21
771.0344827828
  0
LINE
  5
4A8
100
AcDbEntity
  8
7_ALL_ROUNDS
100
AcDbLine
 62
9
  6
CONTINUOUS
 10
1565.0846655122
 20
635.3067611898
 11
1555.6339044095
 21
640.7645895453
  0
LINE
  5
4A9
100
AcDbEntity
  8
7_ALL_ROUNDS
100
AcDbLine
 62
9
  6
CONTINUOUS
 10
1332.1440557641
 20
769.8303039215
 11
1327.4967870336
 21
772.5141084085
  0
LINE
  5
4AA
100
AcDbEntity
  8
0
100
AcDbLine
 62
7
  6
CONTINUOUS
 10
1553.6293308201
 20
642.4583378889
 11
1432.9861491759
 21
712.1299516911
  0
LINE
  5
4AB
100
AcDbEntity
  8
0
100
AcDbLine
 62
7
  6
CONTINUOUS
 10
1356.7795626865
 20
763.1037691491
 11
1430.5449420999
 21
720.5041546793
  0
LINE
  5
4AC
100
AcDbEntity
  8
0
100
AcDbLine
 62
7
  6
CONTINUOUS
 10
1339.0354459668
 20
773.6864673739
 11
1353.2625260919
 21
765.470307799
  0
LINE
  5
4AD
100
AcDbEntity
  8
0
100
AcDbLine
 62
7
  6
CONTINUOUS
 10
1416.5901897732
 20
769.4752980625
 11
1430.5449420999
 21
720.5041546793
  0
LINE
  5
4AE
100
AcDbEntity
  8
7_ALL_ROUNDS
100
AcDbLine
 62
9
  6
CONTINUOUS
 10
1565.7389406201
 20
633.827135564
 11
1568.238135646
 21
631.9120884303
  0
LINE
  5
4AF
100
AcDbEntity
  8
0
100
AcDbLine
 62
7
  6
CONTINUOUS
 10
1517.4724969101
 20
824.4462117781
 11
1518.3963794041
 21
824.7947802137
  0
LINE
  5
4B0
100
AcDbEntity
  8
0
100
AcDbLine
 62
7
  6
CONTINUOUS
 10
1558.4532590237
 20
835.4348304363
 11
1559.3771415176
 21
835.7833988718
  0
LINE
  5
4B1
100
AcDbEntity
  8
0
100
AcDbLine
 62
7
  6
CONTINUOUS
 10
1401.8187291142
 20
778.0058381917
 11
1356.7795626865
 21
763.1037691491
  0
LINE
  5
4B2
100
AcDbEntity
  8
0
100
AcDbLine
 62
7
  6
CONTINUOUS
 10
1550.5293308201
 20
713.3143598846
 11
1432.9861491759
 21
712.1299516911
  0
LINE
  5
4B3
100
AcDbEntity
  8
7_ALL_ROUNDS
100
AcDbLine
 62
9
  6
CONTINUOUS
 10
1691.1468470835
 20
768.0353096311
 11
1586.2362286699
 21
739.904481421
  0
LINE
  5
4B4
100
AcDbEntity
  8
0
100
AcDbLine
 62
7
  6
CONTINUOUS
 10
1690.0958546282
 20
773.042048346
 11
1584.7895867711
 21
744.8051303358
  0
LINE
  5
4B5
100
AcDbEntity
  8
0
100
AcDbLine
 62
7
  6
CONTINUOUS
 10
1416.5901897732
 20
769.4752980625
 11
1401.8187291142
 21
778.0058381917
  0
LINE
  5
4B6
100
AcDbEntity
  8
0
100
AcDbLine
 62
7
  6
CONTINUOUS
 10
1401.8187291142
 20
820.8581309378
 11
1356.7795626865
 21
851.8779797266
  0
LINE
  5
4B7
100
AcDbEntity
  8
7_ALL_ROUNDS
100
AcDbLine
 62
9
  6
CONTINUOUS
 10
1565.0846655122
 20
725.210814479
 11
1555.6339044095
 21
730.6686428346
  0
LINE
  5
4B8
100
AcDbEntity
  8
7_ALL_ROUNDS
100
AcDbLine
 62
9
  6
CONTINUOUS
 10
1332.1440557641
 20
859.7343572107
 11
1327.4967870336
 21
862.4181616978
  0
LINE
  5
4B9
100
AcDbEntity
  8
0
100
AcDbLine
 62
7
  6
CONTINUOUS
 10
1401.8187291142
 20
820.8581309378
 11
1416.5901897732
 21
812.3275908086
  0
LINE
  5
4BA
100
AcDbEntity
  8
7_ALL_ROUNDS
100
AcDbLine
 62
9
  6
CONTINUOUS
 10
1565.7389406201
 20
727.4461297677
 11
1556.2881795173
 21
732.9039581232
  0
LINE
  5
4BB
100
AcDbEntity
  8
7_ALL_ROUNDS
100
AcDbLine
 62
9
  6
CONTINUOUS
 10
1332.7983308719
 20
861.9696724993
 11
1328.1510621414
 21
864.6534769864
  0
LINE
  5
4BC
100
AcDbEntity
  8
0
100
AcDbLine
 62
7
  6
CONTINUOUS
 10
1430.5449420999
 20
809.2783652568
 11
1356.7795626865
 21
851.8779797266
  0
LINE
  5
4BD
100
AcDbEntity
  8
0
100
AcDbLine
 62
7
  6
CONTINUOUS
 10
1353.2625260919
 20
854.2966646082
 11
1338.8240164478
 21
862.6349250394
  0
LINE
  5
4BE
100
AcDbEntity
  8
0
100
AcDbLine
 62
7
  6
CONTINUOUS
 10
1338.1488761804
 20
871.2565774419
 11
1432.9861491759
 21
816.4879136175
  0
LINE
  5
4BF
100
AcDbEntity
  8
0
100
AcDbLine
 62
7
  6
CONTINUOUS
 10
1553.6293308201
 20
746.8162998153
 11
1561.6387248258
 21
742.1908630658
  0
LINE
  5
4C0
100
AcDbEntity
  8
0
100
AcDbLine
 62
7
  6
CONTINUOUS
 10
1435.8698518282
 20
817.6345310939
 11
1553.6293308201
 21
749.62825979
  0
LINE
  5
4C1
100
AcDbEntity
  8
7_ALL_ROUNDS
100
AcDbLine
 62
9
  6
CONTINUOUS
 10
1573.880882002
 20
740.4212154816
 11
1336.2930035233
 21
877.6285627003
  0
LINE
  5
4C2
100
AcDbEntity
  8
7_ALL_ROUNDS
100
AcDbLine
 62
9
  6
CONTINUOUS
 10
1575.5976581958
 20
741.9261916689
 11
1338.0097797171
 21
879.1335388877
  0
LINE
  5
4C3
100
AcDbEntity
  8
0
100
AcDbLine
 62
7
  6
CONTINUOUS
 10
1343.9390476697
 20
882.5576998
 11
1581.5269261484
 21
745.3503525813
  0
LINE
  5
4C4
100
AcDbEntity
  8
0
100
AcDbLine
 62
7
  6
CONTINUOUS
 10
1416.5901897732
 20
812.3275908086
 11
1430.5449420999
 21
809.2783652568
  0
LINE
  5
4C5
100
AcDbEntity
  8
0
100
AcDbLine
 62
7
  6
CONTINUOUS
 10
1550.5293308201
 20
751.4185143228
 11
1550.5293308201
 21
679.0747825407
  0
LINE
  5
4C6
100
AcDbEntity
  8
0
100
AcDbLine
 62
7
  6
CONTINUOUS
 10
1553.6293308201
 20
749.62825979
 11
1553.6293308201
 21
642.4583378889
  0
LINE
  5
4C7
100
AcDbEntity
  8
0
100
AcDbLine
 62
9
  6
CONTINUOUS
 10
1581.5269261484
 20
745.3503525813
 11
1575.5976581958
 21
741.9261916689
  0
LINE
  5
4C8
100
AcDbEntity
  8
7_ALL_ROUNDS
100
AcDbLine
 62
9
  6
CONTINUOUS
 10
1586.2362286699
 20
739.904481421
 11
1579.1331921017
 21
735.802467417
  0
LINE
  5
4C9
100
AcDbEntity
  8
0
100
AcDbLine
 62
9
  6
CONTINUOUS
 10
1690.0958546282
 20
773.042048346
 11
1449.1494050248
 21
912.1889753001
  0
LINE
  5
4CA
100
AcDbEntity
  8
0
100
AcDbLine
 62
7
  6
CONTINUOUS
 10
1450.5445811861
 20
912.0644850179
 11
1691.4910307895
 21
772.9175580637
  0
LINE
  5
4CB
100
AcDbEntity
  8
0
100
AcDbLine
 62
7
  6
CONTINUOUS
 10
1343.8431371676
 20
883.95205729
 11
1343.4506692923
 21
883.8844925725
  0
LINE
  5
4CC
100
AcDbEntity
  8
0
100
AcDbLine
 62
9
  6
CONTINUOUS
 10
1578.0997352681
 20
630.4869431644
 11
1578.0981491612
 21
630.4860260221
  0
LINE
  5
4CD
100
AcDbEntity
  8
7_ALL_ROUNDS
100
AcDbLine
 62
9
  6
CONTINUOUS
 10
1579.1331921017
 20
632.7740935446
 11
1674.7681417935
 21
688.0034168276
  0
LINE
  5
4CE
100
AcDbEntity
  8
7_ALL_ROUNDS
100
AcDbLine
 62
7
  6
CONTINUOUS
 10
1578.0981491612
 20
630.4860260221
 11
1673.733098853
 21
685.7153493051
  0
LINE
  5
4CF
100
AcDbEntity
  8
0
100
AcDbLine
 62
7
  6
CONTINUOUS
 10
1343.8431371676
 20
883.95205729
 11
1449.1494050248
 21
912.1889753001
  0
LINE
  5
4D0
100
AcDbEntity
  8
7_ALL_ROUNDS
100
AcDbLine
 62
7
  6
CONTINUOUS
 10
1343.450824714
 20
883.884585795
 11
1448.7284756565
 21
912.1138304397
  0
LINE
  5
4D1
100
AcDbEntity
  8
0
100
AcDbLine
 62
7
  6
CONTINUOUS
 10
1448.7284756565
 20
912.1138304397
 11
1448.7294087577
 21
912.1140804491
  0
LINE
  5
4D2
100
AcDbEntity
  8
0
100
AcDbLine
 62
7
  6
CONTINUOUS
 10
1449.1494050248
 20
912.1889753001
 11
1449.5365851831
 21
912.2606735148
  0
LINE
  5
4D3
100
AcDbEntity
  8
7_ALL_ROUNDS
100
AcDbLine
 62
7
  6
CONTINUOUS
 10
1449.5365851831
 20
912.2606735148
 11
1448.7294087577
 21
912.1140804491
  0
LINE
  5
4D4
100
AcDbEntity
  8
0
100
AcDbLine
 62
9
  6
CONTINUOUS
 10
1448.7294087577
 20
912.1140804491
 11
1449.1494050248
 21
912.1889753001
  0
LINE
  5
4D5
100
AcDbEntity
  8
7_ALL_ROUNDS
100
AcDbLine
 62
9
  6
CONTINUOUS
 10
1674.7681417935
 20
688.0034168276
 11
1691.1468470835
 21
768.0353096311
  0
LINE
  5
4D6
100
AcDbEntity
  8
7_ALL_ROUNDS
100
AcDbLine
 62
7
  6
CONTINUOUS
 10
1676.1310798354
 20
689.0427096228
 11
1692.5097851254
 21
769.0746024263
  0
LINE
  5
4D7
100
AcDbEntity
  8
0
100
AcDbLine
 62
9
  6
CONTINUOUS
 10
1692.5096541528
 20
769.0739637213
 11
1692.5097851254
 21
769.0746024263
  0
LINE
  5
4D8
100
AcDbEntity
  8
0
100
AcDbLine
 62
9
  6
CONTINUOUS
 10
1676.1309030004
 20
689.0418478614
 11
1676.1310798354
 21
689.0427096228
  0
LINE
  5
4D9
100
AcDbEntity
  8
0
100
AcDbLine
 62
7
  6
CONTINUOUS
 10
96.6082087938
 20
505.4684889459
 11
119.771195949
 21
419.0230440276
  0
LINE
  5
4DA
100
AcDbEntity
  8
7_ALL_ROUNDS
100
AcDbLine
 62
9
  6
CONTINUOUS
 10
100.8582824294
 20
506.6072927443
 11
124.0212695846
 21
420.1618478261
  0
LINE
  5
4DB
100
AcDbEntity
  8
0
100
AcDbLine
 62
9
  6
CONTINUOUS
 10
100.8582824294
 20
506.6072927443
 11
99.719478631
 21
510.85736638
  0
LINE
  5
4DC
100
AcDbEntity
  8
0
100
AcDbLine
 62
7
  6
CONTINUOUS
 10
124.0212695846
 20
415.7618478261
 11
261.6443808931
 21
415.7618478261
  0
LINE
  5
4DD
100
AcDbEntity
  8
7_ALL_ROUNDS
100
AcDbLine
 62
9
  6
CONTINUOUS
 10
124.0212695846
 20
420.1618478261
 11
259.2695124756
 21
420.1618478261
  0
LINE
  5
4DE
100
AcDbEntity
  8
0
100
AcDbLine
 62
9
  6
CONTINUOUS
 10
124.0212695846
 20
420.1618478261
 11
124.0212695846
 21
415.7618478261
  0
LINE
  5
4DF
100
AcDbEntity
  8
0
100
AcDbLine
 62
9
  6
CONTINUOUS
 10
124.0212695846
 20
420.1618478261
 11
119.771195949
 21
419.0230440276
  0
LINE
  5
4E0
100
AcDbEntity
  8
7_ALL_ROUNDS
100
AcDbLine
 62
9
  6
CONTINUOUS
 10
269.1847280789
 20
428.8881473592
 11
274.1371293098
 21
428.1998726698
  0
LINE
  5
4E1
100
AcDbEntity
  8
3_ALL_AXES
100
AcDbLine
 62
7
  6
CENTER
 10
192.6533825999
 20
478.2389863143
 11
182.4932825999
 21
478.2389863143
  0
LINE
  5
4E2
100
AcDbEntity
  8
3_ALL_AXES
100
AcDbLine
 62
7
  6
CENTER
 10
192.6533825999
 20
478.2389863143
 11
202.8134825999
 21
478.2389863143
  0
LINE
  5
4E3
100
AcDbEntity
  8
3_ALL_AXES
100
AcDbLine
 62
7
  6
CENTER
 10
192.6533825999
 20
478.2389863143
 11
192.6533825999
 21
468.0788863143
  0
LINE
  5
4E4
100
AcDbEntity
  8
3_ALL_AXES
100
AcDbLine
 62
7
  6
CENTER
 10
192.6533825999
 20
478.2389863143
 11
192.6533825999
 21
488.3990863143
  0
LINE
  5
4E5
100
AcDbEntity
  8
7_ALL_ROUNDS
100
AcDbLine
 62
9
  6
CONTINUOUS
 10
269.1847280789
 20
428.8881473592
 11
273.2118445918
 21
425.9246473016
  0
LINE
  5
4E6
100
AcDbEntity
  8
7_ALL_ROUNDS
100
AcDbLine
 62
9
  6
CONTINUOUS
 10
269.1847280789
 20
537.6355482929
 11
273.2118445802
 21
540.5990483664
  0
LINE
  5
4E7
100
AcDbEntity
  8
7_ALL_ROUNDS
100
AcDbLine
 62
9
  6
CONTINUOUS
 10
259.2695124756
 20
420.1618478261
 11
261.6974006504
 21
415.790880083
  0
LINE
  5
4E8
100
AcDbEntity
  8
7_ALL_ROUNDS
100
AcDbLine
 62
9
  6
CONTINUOUS
 10
259.2695124756
 20
546.3618478261
 11
261.6974006323
 21
550.7328155792
  0
LINE
  5
4E9
100
AcDbEntity
  8
7_ALL_ROUNDS
100
AcDbLine
 62
9
  6
CONTINUOUS
 10
249.2243018269
 20
546.3618478261
 11
100.8582824294
 21
506.6072927443
  0
LINE
  5
4EA
100
AcDbEntity
  8
0
100
AcDbLine
 62
9
  6
CONTINUOUS
 10
100.8582824294
 20
506.6072927443
 11
96.6082087938
 21
505.4684889459
  0
LINE
  5
4EB
100
AcDbEntity
  8
0
100
AcDbLine
 62
7
  6
CONTINUOUS
 10
99.719478631
 20
510.85736638
 11
250.8842613221
 21
551.3618478261
  0
LINE
  5
4EC
100
AcDbEntity
  8
7_ALL_ROUNDS
100
AcDbLine
 62
9
  6
CONTINUOUS
 10
269.1847280789
 20
537.6355482929
 11
274.1371293068
 21
538.3238230041
  0
LINE
  5
4ED
100
AcDbEntity
  8
7_ALL_ROUNDS
100
AcDbLine
 62
9
  6
CONTINUOUS
 10
259.2695124756
 20
546.3618478261
 11
249.2243018269
 21
546.3618478261
  0
LINE
  5
4EE
100
AcDbEntity
  8
0
100
AcDbLine
 62
7
  6
CONTINUOUS
 10
259.2695124756
 20
551.3618478261
 11
250.8842613221
 21
551.3618478261
  0
LINE
  5
4EF
100
AcDbEntity
  8
0
100
AcDbLine
 62
9
  6
CONTINUOUS
 10
259.2695124756
 20
420.1618478261
 11
259.2695124756
 21
415.7618478261
  0
LINE
  5
4F0
100
AcDbEntity
  8
7_ALL_ROUNDS
100
AcDbLine
 62
9
  6
CONTINUOUS
 10
259.2695124756
 20
546.3618478261
 11
259.2695124756
 21
551.3618478261
  0
LINE
  5
4F1
100
AcDbEntity
  8
0
100
AcDbLine
 62
7
  6
CONTINUOUS
 10
248.6450308375
 20
550.7618478261
 11
249.2243018269
 21
546.3618478261
  0
LINE
  5
4F2
100
AcDbEntity
  8
7_ALL_ROUNDS
100
AcDbLine
 62
7
  6
CONTINUOUS
 10
1196.7345651695
 20
330.3172718265
 11
1228.9574666898
 21
450.5747774675
  0
LINE
  5
4F3
100
AcDbEntity
  8
0
100
AcDbLine
 62
7
  6
CONTINUOUS
 10
1198.1702475626
 20
325.5325818887
 11
1232.6319528813
 21
454.1454170537
  0
LWPOLYLINE
  5
4F4
100
AcDbEntity
  8
0
100
AcDbPolyline
 62
2
  6
CONTINUOUS
 90
5
 70
0
 10
1219.9791218674
 20
266.9719123657
 10
1236.193575399
 20
266.9719123657
 10
1236.193575399
 20
285.2599123657
 10
1219.9791218674
 20
285.2599123657
 10
1219.9791218674
 20
266.9719123657
  0
LINE
  5
4F5
100
AcDbEntity
  8
0
100
AcDbLine
 62
7
  6
CONTINUOUS
 10
1524.8561859155
 20
237.3610044539
 11
1200.3051082823
 21
324.3242036083
  0
LINE
  5
4F6
100
AcDbEntity
  8
0
100
AcDbLine
 62
9
  6
CONTINUOUS
 10
1207.2301619277
 20
359.3446426115
 11
1536.3691330376
 21
271.152121105
  0
LINE
  5
4F7
100
AcDbEntity
  8
0
100
AcDbLine
 62
9
  6
CONTINUOUS
 10
1205.7944795346
 20
364.1293325493
 11
1540.0048154306
 21
274.5779429438
  0
LINE
  5
4F8
100
AcDbEntity
  8
0
100
AcDbLine
 62
7
  6
CONTINUOUS
 10
1439.9530211879
 20
312.6534195056
 11
1504.6647785818
 21
295.3139563711
  0
LINE
  5
4F9
100
AcDbEntity
  8
0
100
AcDbLine
 62
7
  6
CONTINUOUS
 10
1500.1226363919
 20
298.9388013971
 11
1445.6990503238
 21
313.5215573332
  0
LINE
  5
4FA
100
AcDbEntity
  8
0
100
AcDbLine
 62
7
  6
CONTINUOUS
 10
1444.9926281102
 20
314.7451760596
 11
1445.9576743708
 21
314.4865926934
  0
LINE
  5
4FB
100
AcDbEntity
  8
0
100
AcDbLine
 62
7
  6
CONTINUOUS
 10
1501.3462329935
 20
299.6452881588
 11
1500.3811727207
 21
299.9038752796
  0
LINE
  5
4FC
100
AcDbEntity
  8
0
100
AcDbLine
 62
7
  6
CONTINUOUS
 10
1500.2194985524
 20
300.1839031533
 11
1446.2377200113
 21
314.6482771194
  0
LINE
  5
4FD
100
AcDbEntity
  8
0
100
AcDbLine
 62
9
  6
CONTINUOUS
 10
1501.7271283251
 20
301.0668088884
 11
1500.5412170312
 21
301.3845728619
  0
LINE
  5
4FE
100
AcDbEntity
  8
0
100
AcDbLine
 62
9
  6
CONTINUOUS
 10
1445.3735271963
 20
316.1667108015
 11
1446.5594384901
 21
315.848946828
  0
LINE
  5
4FF
100
AcDbEntity
  8
0
100
AcDbLine
 62
7
  6
CONTINUOUS
 10
1459.5670298434
 20
315.1588189165
 11
1488.9312485216
 21
307.2907002353
  0
LINE
  5
500
100
AcDbEntity
  8
0
100
AcDbLine
 62
7
  6
CONTINUOUS
 10
1459.7354848259
 20
315.9419024843
 11
1489.1769040112
 21
308.0530979896
  0
LINE
  5
501
100
AcDbEntity
  8
0
100
AcDbLine
 62
7
  6
CONTINUOUS
 10
1508.6958108468
 20
303.8885594882
 11
1507.2742789701
 21
304.2694578066
  0
LINE
  5
502
100
AcDbEntity
  8
0
100
AcDbLine
 62
7
  6
CONTINUOUS
 10
1442.1708782782
 20
321.7138614465
 11
1440.7493566414
 21
322.0947570211
  0
LINE
  5
503
100
AcDbEntity
  8
0
100
AcDbLine
 62
7
  6
CONTINUOUS
 10
1484.6245829054
 20
310.6912171207
 11
1484.2517992131
 21
310.7911042101
  0
LINE
  5
504
100
AcDbEntity
  8
0
100
AcDbLine
 62
7
  6
CONTINUOUS
 10
1480.0904634002
 20
311.9061307806
 11
1479.3448960155
 21
312.1059049592
  0
LINE
  5
505
100
AcDbEntity
  8
0
100
AcDbLine
 62
7
  6
CONTINUOUS
 10
1475.1835602027
 20
313.2209315297
 11
1474.437992818
 21
313.4207057083
  0
LINE
  5
506
100
AcDbEntity
  8
0
100
AcDbLine
 62
7
  6
CONTINUOUS
 10
1470.2766570051
 20
314.5357322788
 11
1469.5310896204
 21
314.7355064574
  0
LINE
  5
507
100
AcDbEntity
  8
0
100
AcDbLine
 62
7
  6
CONTINUOUS
 10
1465.3697538076
 20
315.8505330279
 11
1464.9969701152
 21
315.9504201172
  0
LINE
  5
508
100
AcDbEntity
  8
0
100
AcDbLine
 62
7
  6
CONTINUOUS
 10
1440.0428699824
 20
323.3183503777
 11
1441.0079374618
 21
323.0597901538
  0
LINE
  5
509
100
AcDbEntity
  8
0
100
AcDbLine
 62
7
  6
CONTINUOUS
 10
1509.9194326792
 20
304.5949818332
 11
1508.9543917929
 21
304.8535850508
  0
LINE
  5
50A
100
AcDbEntity
  8
0
100
AcDbLine
 62
7
  6
CONTINUOUS
 10
1508.7927126522
 20
305.1336506216
 11
1507.5920429435
 21
305.4553691004
  0
LINE
  5
50B
100
AcDbEntity
  8
0
100
AcDbLine
 62
7
  6
CONTINUOUS
 10
1441.287972543
 20
323.2214912191
 11
1442.4886422517
 21
322.8997727403
  0
LINE
  5
50C
100
AcDbEntity
  8
3_AXES_OTHER
100
AcDbLine
 62
7
  6
CENTER
 10
1350.5288201786
 20
371.0941893209
 11
1346.1910129827
 21
354.9052724723
  0
LINE
  5
50D
100
AcDbEntity
  8
3_AXES_OTHER
100
AcDbLine
 62
7
  6
CENTER
 10
1350.5288201786
 20
371.0941893209
 11
1354.8666273745
 21
387.2831061695
  0
LINE
  5
50E
100
AcDbEntity
  8
0
100
AcDbLine
 62
7
  6
CONTINUOUS
 10
1466.5252965766
 20
321.6542121215
 11
1486.1529093668
 21
316.395009125
  0
LINE
  5
50F
100
AcDbEntity
  8
0
100
AcDbLine
 62
7
  6
CONTINUOUS
 10
1491.2733382765
 20
315.8770971826
 11
1461.8319190912
 21
323.7659016773
  0
LINE
  5
510
100
AcDbEntity
  8
0
100
AcDbLine
 62
7
  6
CONTINUOUS
 10
1492.0370770628
 20
318.8818101508
 11
1462.6728583846
 21
326.749928832
  0
LINE
  5
511
100
AcDbEntity
  8
0
100
AcDbLine
 62
7
  6
CONTINUOUS
 10
1373.0360047088
 20
292.8166065871
 11
1372.914668995
 21
293.3513411996
  0
LINE
  5
512
100
AcDbEntity
  8
0
100
AcDbLine
 62
7
  6
CONTINUOUS
 10
1377.0552425953
 20
307.8166065871
 11
1376.9339068815
 21
308.3513411996
  0
LINE
  5
513
100
AcDbEntity
  8
3_AXES_OTHER
100
AcDbLine
 62
7
  6
CENTER
 10
1418.1436280188
 20
352.9768561637
 11
1401.9547111702
 21
357.3146633596
  0
LINE
  5
514
100
AcDbEntity
  8
3_AXES_OTHER
100
AcDbLine
 62
7
  6
CENTER
 10
1350.5288201786
 20
371.0941893209
 11
1334.33990333
 21
375.4319965168
  0
LINE
  5
515
100
AcDbEntity
  8
3_AXES_OTHER
100
AcDbLine
 62
7
  6
CENTER
 10
1350.5288201786
 20
371.0941893209
 11
1401.9547111702
 21
357.3146633596
  0
LINE
  5
516
100
AcDbEntity
  8
3_AXES_OTHER
100
AcDbLine
 62
7
  6
CENTER
 10
1418.1436280188
 20
352.9768561637
 11
1434.3325448674
 21
348.6390489678
  0
LINE
  5
517
100
AcDbEntity
  8
0
100
AcDbLine
 62
7
  6
CONTINUOUS
 10
1520.4100771221
 20
348.4902450735
 11
1519.2094074135
 21
348.8119635523
  0
LINE
  5
518
100
AcDbEntity
  8
0
100
AcDbLine
 62
7
  6
CONTINUOUS
 10
1452.905337013
 20
366.578085671
 11
1454.1060067216
 21
366.2563671922
  0
LINE
  5
519
100
AcDbEntity
  8
0
100
AcDbLine
 62
7
  6
CONTINUOUS
 10
1521.6551796827
 20
348.3933859149
 11
1520.6901122478
 21
348.6519461479
  0
LINE
  5
51A
100
AcDbEntity
  8
0
100
AcDbLine
 62
7
  6
CONTINUOUS
 10
1451.7786169859
 20
367.1167544594
 11
1452.7436234648
 21
366.8581817527
  0
LINE
  5
51B
100
AcDbEntity
  8
0
100
AcDbLine
 62
7
  6
CONTINUOUS
 10
1453.0022388757
 20
367.8231767891
 11
1454.4237706951
 21
367.4422784861
  0
LINE
  5
51C
100
AcDbEntity
  8
0
100
AcDbLine
 62
7
  6
CONTINUOUS
 10
1519.527171387
 20
349.9978748462
 11
1520.948693063
 21
349.616979261
  0
LINE
  5
51D
100
AcDbEntity
  8
0
100
AcDbLine
 62
9
  6
CONTINUOUS
 10
1516.3245224689
 20
355.5450254911
 11
1515.138611175
 21
355.8627894646
  0
LINE
  5
51E
100
AcDbEntity
  8
0
100
AcDbLine
 62
9
  6
CONTINUOUS
 10
1459.9709213401
 20
370.6449274042
 11
1461.1568326339
 21
370.3271634307
  0
LINE
  5
51F
100
AcDbEntity
  8
0
100
AcDbLine
 62
7
  6
CONTINUOUS
 10
1363.9047280836
 20
311.842499136
 11
1363.5322809777
 21
311.4400732727
  0
LINE
  5
520
100
AcDbEntity
  8
0
100
AcDbLine
 62
7
  6
CONTINUOUS
 10
1515.4603296538
 20
357.0634591733
 11
1461.4785511127
 21
371.5278331393
  0
LINE
  5
521
100
AcDbEntity
  8
0
100
AcDbLine
 62
7
  6
CONTINUOUS
 10
1460.3518166717
 20
372.0664481342
 11
1461.3168769441
 21
371.8078610136
  0
LINE
  5
522
100
AcDbEntity
  8
0
100
AcDbLine
 62
7
  6
CONTINUOUS
 10
1516.7054215548
 20
356.9665602325
 11
1515.7403752937
 21
357.2251435988
  0
LINE
  5
523
100
AcDbEntity
  8
0
100
AcDbLine
 62
7
  6
CONTINUOUS
 10
1461.5754132732
 20
372.7729348956
 11
1515.9989993414
 21
358.1901789594
  0
LINE
  5
524
100
AcDbEntity
  8
0
100
AcDbLine
 62
7
  6
CONTINUOUS
 10
1521.7450284773
 20
359.058316787
 11
1457.0332710833
 21
376.3977799215
  0
LINE
  5
525
100
AcDbEntity
  8
3_AXES_OTHER
100
AcDbLine
 62
7
  6
CENTER
 10
1418.1436280188
 20
352.9768561637
 11
1413.8058208229
 21
336.7879393151
  0
LINE
  5
526
100
AcDbEntity
  8
3_AXES_OTHER
100
AcDbLine
 62
7
  6
CENTER
 10
1418.1436280188
 20
352.9768561637
 11
1422.4814352147
 21
369.1657730123
  0
LINE
  5
527
100
AcDbEntity
  8
0
100
AcDbLine
 62
7
  6
CONTINUOUS
 10
1359.8854901972
 20
296.842499136
 11
1359.5130430912
 21
296.4400732727
  0
LINE
  5
528
100
AcDbEntity
  8
0
100
AcDbLine
 62
9
  6
CONTINUOUS
 10
1228.9574666898
 20
450.5747774675
 11
1563.1678025858
 21
361.023387862
  0
LINE
  5
529
100
AcDbEntity
  8
0
100
AcDbLine
 62
7
  6
CONTINUOUS
 10
1232.6319528813
 20
454.1454170537
 11
1561.7709239913
 21
365.9528955472
  0
LINE
  5
52A
100
AcDbEntity
  8
0
100
AcDbLine
 62
7
  6
CONTINUOUS
 10
1452.7436433559
 20
366.8581764229
 11
1452.905337013
 21
366.578085671
  0
LINE
  5
52B
100
AcDbEntity
  8
0
100
AcDbLine
 62
7
  6
CONTINUOUS
 10
1450.9104793992
 20
372.8627844945
 11
1436.4180257609
 21
318.7762111897
  0
LINE
  5
52C
100
AcDbEntity
  8
0
100
AcDbLine
 62
7
  6
CONTINUOUS
 10
1440.0428707868
 20
323.3183533796
 11
1451.7786172267
 21
367.116755358
  0
LINE
  5
52D
100
AcDbEntity
  8
0
100
AcDbLine
 62
7
  6
CONTINUOUS
 10
1453.0022359537
 20
367.823177572
 11
1452.7436433559
 21
366.8581764229
  0
LINE
  5
52E
100
AcDbEntity
  8
0
100
AcDbLine
 62
7
  6
CONTINUOUS
 10
1440.7493575481
 20
322.0947567781
 11
1441.0079446688
 21
323.0598170505
  0
LINE
  5
52F
100
AcDbEntity
  8
0
100
AcDbLine
 62
7
  6
CONTINUOUS
 10
1441.287972543
 20
323.2214912191
 11
1452.905337013
 21
366.578085671
  0
LINE
  5
530
100
AcDbEntity
  8
0
100
AcDbLine
 62
9
  6
CONTINUOUS
 10
1454.4237706951
 20
367.4422784861
 11
1454.1060067216
 21
366.2563671922
  0
LINE
  5
531
100
AcDbEntity
  8
0
100
AcDbLine
 62
9
  6
CONTINUOUS
 10
1442.1708782782
 20
321.7138614465
 11
1442.4886422517
 21
322.8997727403
  0
LINE
  5
532
100
AcDbEntity
  8
0
100
AcDbLine
 62
7
  6
CONTINUOUS
 10
1441.0079374618
 20
323.0597901538
 11
1441.287972543
 21
323.2214912191
  0
LINE
  5
533
100
AcDbEntity
  8
0
100
AcDbLine
 62
7
  6
CONTINUOUS
 10
1500.3811996176
 20
299.9038680726
 11
1500.2194985524
 21
300.1839031533
  0
LINE
  5
534
100
AcDbEntity
  8
0
100
AcDbLine
 62
7
  6
CONTINUOUS
 10
1461.3168500474
 20
371.8078682206
 11
1461.4785511127
 21
371.5278331393
  0
LINE
  5
535
100
AcDbEntity
  8
0
100
AcDbLine
 62
7
  6
CONTINUOUS
 10
1508.9543971157
 20
304.8536049159
 11
1508.7927126522
 21
305.1336506216
  0
LINE
  5
536
100
AcDbEntity
  8
0
100
AcDbLine
 62
7
  6
CONTINUOUS
 10
1444.9926288917
 20
314.7451789762
 11
1445.3735271963
 21
316.1667108015
  0
LINE
  5
537
100
AcDbEntity
  8
0
100
AcDbLine
 62
7
  6
CONTINUOUS
 10
1459.9709213401
 20
370.6449274042
 11
1460.3518169147
 21
372.066449041
  0
LINE
  5
538
100
AcDbEntity
  8
0
100
AcDbLine
 62
7
  6
CONTINUOUS
 10
1461.5754102713
 20
372.7729356999
 11
1461.3168500474
 21
371.8078682206
  0
LINE
  5
539
100
AcDbEntity
  8
0
100
AcDbLine
 62
7
  6
CONTINUOUS
 10
1445.699051223
 20
313.5215570923
 11
1445.95765448
 21
314.4865980231
  0
LINE
  5
53A
100
AcDbEntity
  8
0
100
AcDbLine
 62
7
  6
CONTINUOUS
 10
1461.4785511127
 20
371.5278331393
 11
1461.1568326339
 21
370.3271634307
  0
LINE
  5
53B
100
AcDbEntity
  8
0
100
AcDbLine
 62
7
  6
CONTINUOUS
 10
1446.2377200113
 20
314.6482771194
 11
1446.5594384901
 21
315.848946828
  0
LINE
  5
53C
100
AcDbEntity
  8
0
100
AcDbLine
 62
7
  6
CONTINUOUS
 10
1461.4481601477
 20
326.0428489753
 11
1458.8599499866
 21
316.3835171534
  0
LINE
  5
53D
100
AcDbEntity
  8
0
100
AcDbLine
 62
7
  6
CONTINUOUS
 10
1461.8319190912
 20
323.7659016773
 11
1459.7354848259
 21
315.9419024843
  0
LINE
  5
53E
100
AcDbEntity
  8
0
100
AcDbLine
 62
7
  6
CONTINUOUS
 10
1515.7403752937
 20
357.2251435988
 11
1515.4603296538
 21
357.0634591733
  0
LINE
  5
53F
100
AcDbEntity
  8
0
100
AcDbLine
 62
7
  6
CONTINUOUS
 10
1445.9576743708
 20
314.4865926934
 11
1446.2377200113
 21
314.6482771194
  0
LINE
  5
540
100
AcDbEntity
  8
0
100
AcDbLine
 62
7
  6
CONTINUOUS
 10
1520.6901122478
 20
348.6519461479
 11
1520.4100771221
 21
348.4902450735
  0
LINE
  5
541
100
AcDbEntity
  8
0
100
AcDbLine
 62
7
  6
CONTINUOUS
 10
1464.9969701152
 20
315.9504201172
 11
1466.5252965766
 21
321.6542121215
  0
LINE
  5
542
100
AcDbEntity
  8
0
100
AcDbLine
 62
7
  6
CONTINUOUS
 10
1467.7351226636
 20
319.0601304652
 11
1467.1075198331
 21
316.7178848147
  0
LINE
  5
543
100
AcDbEntity
  8
0
100
AcDbLine
 62
7
  6
CONTINUOUS
 10
1486.1529093668
 20
316.395009125
 11
1484.6245829054
 21
310.6912171207
  0
LINE
  5
544
100
AcDbEntity
  8
0
100
AcDbLine
 62
7
  6
CONTINUOUS
 10
1489.1769040112
 20
308.0530979896
 11
1491.2733382765
 21
315.8770971826
  0
LINE
  5
545
100
AcDbEntity
  8
0
100
AcDbLine
 62
7
  6
CONTINUOUS
 10
1490.1559467584
 20
307.9977800921
 11
1492.7441569195
 21
317.657111914
  0
LINE
  5
546
100
AcDbEntity
  8
0
100
AcDbLine
 62
7
  6
CONTINUOUS
 10
1515.4603296538
 20
357.0634591733
 11
1515.138611175
 21
355.8627894646
  0
LINE
  5
547
100
AcDbEntity
  8
0
100
AcDbLine
 62
7
  6
CONTINUOUS
 10
1500.2194985524
 20
300.1839031533
 11
1500.5412170312
 21
301.3845728619
  0
LINE
  5
548
100
AcDbEntity
  8
0
100
AcDbLine
 62
7
  6
CONTINUOUS
 10
1500.1226393939
 20
298.9388005927
 11
1500.3811996176
 21
299.9038680726
  0
LINE
  5
549
100
AcDbEntity
  8
0
100
AcDbLine
 62
7
  6
CONTINUOUS
 10
1515.9989984422
 20
358.1901792003
 11
1515.7403951848
 21
357.225138269
  0
LINE
  5
54A
100
AcDbEntity
  8
0
100
AcDbLine
 62
7
  6
CONTINUOUS
 10
1516.7054207733
 20
356.9665573159
 11
1516.3245224689
 21
355.5450254911
  0
LINE
  5
54B
100
AcDbEntity
  8
0
100
AcDbLine
 62
7
  6
CONTINUOUS
 10
1501.7271283251
 20
301.0668088884
 11
1501.3462327506
 21
299.6452872521
  0
LINE
  5
54C
100
AcDbEntity
  8
0
100
AcDbLine
 62
9
  6
CONTINUOUS
 10
1519.527171387
 20
349.9978748462
 11
1519.2094074135
 21
348.8119635523
  0
LINE
  5
54D
100
AcDbEntity
  8
0
100
AcDbLine
 62
9
  6
CONTINUOUS
 10
1507.2742789701
 20
304.2694578066
 11
1507.5920429435
 21
305.4553691004
  0
LINE
  5
54E
100
AcDbEntity
  8
0
100
AcDbLine
 62
7
  6
CONTINUOUS
 10
1508.7927126522
 20
305.1336506216
 11
1520.4100771221
 21
348.4902450735
  0
LINE
  5
54F
100
AcDbEntity
  8
0
100
AcDbLine
 62
7
  6
CONTINUOUS
 10
1520.9486921562
 20
349.616979504
 11
1520.6901050461
 21
348.6519192708
  0
LINE
  5
550
100
AcDbEntity
  8
0
100
AcDbLine
 62
7
  6
CONTINUOUS
 10
1508.6958137633
 20
303.8885587067
 11
1508.9543971157
 21
304.8536049159
  0
LINE
  5
551
100
AcDbEntity
  8
0
100
AcDbLine
 62
7
  6
CONTINUOUS
 10
1521.6551788784
 20
348.393382913
 11
1509.9194324383
 21
304.594980934
  0
LINE
  5
552
100
AcDbEntity
  8
0
100
AcDbLine
 62
7
  6
CONTINUOUS
 10
1510.7875702659
 20
298.8489517981
 11
1525.2800239043
 21
352.9355251029
  0
LINE
  5
553
100
AcDbEntity
  8
0
100
AcDbLine
 62
7
  6
CONTINUOUS
 10
1561.7709239913
 20
365.9528955472
 11
1527.3092186725
 21
237.3400603822
  0
LINE
  5
554
100
AcDbEntity
  8
7_ALL_ROUNDS
100
AcDbLine
 62
7
  6
CONTINUOUS
 10
1563.1678025858
 20
361.023387862
 11
1530.9449010656
 21
240.7658822211
  0
LINE
  5
555
100
AcDbEntity
  8
7_ALL_ROUNDS
100
AcDbLine
 62
7
  6
CONTINUOUS
 10
1068.3889344399
 20
687.7896325697
 11
903.5811586974
 21
731.9497429863
  0
LINE
  5
556
100
AcDbEntity
  8
0
100
AcDbLine
 62
7
  6
CONTINUOUS
 10
1073.318442125
 20
689.1865111643
 11
920.1428162828
 21
730.2297964089
  0
LINE
  5
557
100
AcDbEntity
  8
0
100
AcDbLine
 62
9
  6
CONTINUOUS
 10
918.5182469743
 20
733.1237431473
 11
910.6947011395
 21
735.2200559357
  0
LINE
  5
558
100
AcDbEntity
  8
7_ALL_ROUNDS
100
AcDbLine
 62
9
  6
CONTINUOUS
 10
910.6947011395
 20
735.2200559357
 11
900.0456247915
 21
738.0734673433
  0
LINE
  5
559
100
AcDbEntity
  8
0
100
AcDbLine
 62
7
  6
CONTINUOUS
 10
908.9985086274
 20
749.5114239443
 11
903.5048435172
 21
750.9834470741
  0
LINE
  5
55A
100
AcDbEntity
  8
0
100
AcDbLine
 62
7
  6
CONTINUOUS
 10
987.0088239459
 20
1062.6245449764
 11
985.3078055323
 21
1056.2762578323
  0
LINE
  5
55B
100
AcDbEntity
  8
0
100
AcDbLine
 62
7
  6
CONTINUOUS
 10
903.5048434402
 20
750.9834470947
 11
900.0456247915
 21
738.0734673433
  0
LINE
  5
55C
100
AcDbEntity
  8
7_ALL_ROUNDS
100
AcDbLine
 62
9
  6
CONTINUOUS
 10
900.3770280577
 20
737.9846681057
 11
903.8362467064
 21
750.8946478571
  0
LINE
  5
55D
100
AcDbEntity
  8
7_ALL_ROUNDS
100
AcDbLine
 62
9
  6
CONTINUOUS
 10
985.6392087986
 20
1056.1874585947
 11
987.3402272121
 21
1062.5357457388
  0
LINE
  5
55E
100
AcDbEntity
  8
0
100
AcDbLine
 62
7
  6
CONTINUOUS
 10
990.8014707196
 20
1054.8042346819
 11
956.0886195776
 21
925.2541105444
  0
LINE
  5
55F
100
AcDbEntity
  8
0
100
AcDbLine
 62
7
  6
CONTINUOUS
 10
911.9301503024
 20
760.4524596249
 11
908.9985086274
 21
749.5114239443
  0
LINE
  5
560
100
AcDbEntity
  8
0
100
AcDbLine
 62
7
  6
CONTINUOUS
 10
957.1122337698
 20
922.8688170928
 11
914.0092729223
 21
762.0063772534
  0
LINE
  5
561
100
AcDbEntity
  8
7_ALL_ROUNDS
100
AcDbLine
 62
9
  6
CONTINUOUS
 10
908.5867086963
 20
735.7848908085
 11
995.5499078507
 21
1060.3359684416
  0
LINE
  5
562
100
AcDbEntity
  8
7_ALL_ROUNDS
100
AcDbLine
 62
9
  6
CONTINUOUS
 10
910.6947011395
 20
735.2200559357
 11
997.6579002939
 21
1059.7711335688
  0
LINE
  5
563
100
AcDbEntity
  8
0
100
AcDbLine
 62
7
  6
CONTINUOUS
 10
1005.4814461288
 20
1057.6748207804
 11
918.5182469743
 21
733.1237431473
  0
LINE
  5
564
100
AcDbEntity
  8
3_AXES_OTHER
100
AcDbLine
 62
7
  6
CENTER
 10
1032.4132040354
 20
876.5320796897
 11
1028.0753968395
 21
860.3431628411
  0
LINE
  5
565
100
AcDbEntity
  8
3_AXES_OTHER
100
AcDbLine
 62
7
  6
CENTER
 10
1032.4132040354
 20
876.5320796897
 11
1036.7510112314
 21
892.7209965383
  0
LINE
  5
566
100
AcDbEntity
  8
3_AXES_OTHER
100
AcDbLine
 62
7
  6
CENTER
 10
1090.3687536128
 20
861.0029369835
 11
1074.1798367642
 21
865.3407441794
  0
LINE
  5
567
100
AcDbEntity
  8
3_AXES_OTHER
100
AcDbLine
 62
7
  6
CENTER
 10
1032.4132040354
 20
876.5320796897
 11
1016.2242871868
 21
880.8698868856
  0
LINE
  5
568
100
AcDbEntity
  8
3_AXES_OTHER
100
AcDbLine
 62
7
  6
CENTER
 10
1032.4132040354
 20
876.5320796897
 11
1074.1798367642
 21
865.3407441794
  0
LINE
  5
569
100
AcDbEntity
  8
3_AXES_OTHER
100
AcDbLine
 62
7
  6
CENTER
 10
1090.3687536128
 20
861.0029369835
 11
1106.5576704614
 21
856.6651297876
  0
LINE
  5
56A
100
AcDbEntity
  8
3_AXES_OTHER
100
AcDbLine
 62
7
  6
CENTER
 10
1090.3687536128
 20
861.0029369835
 11
1086.0309464169
 21
844.8140201349
  0
LINE
  5
56B
100
AcDbEntity
  8
3_AXES_OTHER
100
AcDbLine
 62
7
  6
CENTER
 10
1090.3687536128
 20
861.0029369835
 11
1094.7065608087
 21
877.1918538321
  0
LWPOLYLINE
  5
56C
100
AcDbEntity
  8
0
100
AcDbPolyline
 62
2
  6
CONTINUOUS
 90
5
 70
0
 10
903.0322903704
 20
940.7541488395
 10
919.246743902
 20
940.7541488395
 10
919.246743902
 20
959.0421488395
 10
903.0322903704
 20
959.0421488395
 10
903.0322903704
 20
940.7541488395
  0
LINE
  5
56D
100
AcDbEntity
  8
0
100
AcDbLine
 62
9
  6
CONTINUOUS
 10
1068.3889344399
 20
687.7896325697
 11
1157.9403240454
 21
1021.9999684657
  0
LINE
  5
56E
100
AcDbEntity
  8
0
100
AcDbLine
 62
7
  6
CONTINUOUS
 10
1073.318442125
 20
689.1865111643
 11
1161.5109636316
 21
1018.3254822743
  0
LINE
  5
56F
100
AcDbEntity
  8
0
100
AcDbLine
 62
7
  6
CONTINUOUS
 10
990.8014707196
 20
1054.8042346819
 11
985.3078056093
 21
1056.2762578116
  0
LINE
  5
570
100
AcDbEntity
  8
7_ALL_ROUNDS
100
AcDbLine
 62
9
  6
CONTINUOUS
 10
987.0088239459
 20
1062.6245449764
 11
997.6579002939
 21
1059.7711335688
  0
LINE
  5
571
100
AcDbEntity
  8
0
100
AcDbLine
 62
9
  6
CONTINUOUS
 10
997.6579002939
 20
1059.7711335688
 11
1005.4814461288
 21
1057.6748207804
  0
LINE
  5
572
100
AcDbEntity
  8
0
100
AcDbLine
 62
7
  6
CONTINUOUS
 10
1008.3353377894
 20
1059.3687675188
 11
1161.5109636316
 21
1018.3254822743
  0
LINE
  5
573
100
AcDbEntity
  8
7_ALL_ROUNDS
100
AcDbLine
 62
7
  6
CONTINUOUS
 10
993.1325483029
 20
1066.1600788823
 11
1157.9403240454
 21
1021.9999684657
  0
LINE
  5
574
100
AcDbEntity
  8
7_ALL_ROUNDS
100
AcDbLine
 62
7
  6
CONTINUOUS
 10
392.6124456522
 20
146.2438391731
 11
392.6124456522
 21
318.3305875812
  0
LINE
  5
575
100
AcDbEntity
  8
0
100
AcDbLine
 62
7
  6
CONTINUOUS
 10
395.2375772348
 20
141.8438391731
 11
395.2375772348
 21
304.6550692193
  0
LINE
  5
576
100
AcDbEntity
  8
0
100
AcDbLine
 62
9
  6
CONTINUOUS
 10
397.6124456522
 20
307.0299376367
 11
397.6124456522
 21
307.0829573961
  0
LINE
  5
577
100
AcDbEntity
  8
7_ALL_ROUNDS
100
AcDbLine
 62
9
  6
CONTINUOUS
 10
397.6124456522
 20
307.0829573961
 11
397.6124456522
 21
323.3305875812
  0
LINE
  5
578
100
AcDbEntity
  8
0
100
AcDbLine
 62
7
  6
CONTINUOUS
 10
404.1846761189
 20
323.3305875812
 11
404.1846761189
 21
311.0305875812
  0
LINE
  5
579
100
AcDbEntity
  8
0
100
AcDbLine
 62
7
  6
CONTINUOUS
 10
427.1159366652
 20
161.0461847908
 11
427.1159366652
 21
146.5537311524
  0
LINE
  5
57A
100
AcDbEntity
  8
0
100
AcDbLine
 62
7
  6
CONTINUOUS
 10
429.4416751877
 20
148.5159000491
 11
429.4416751877
 21
160.2516464891
  0
LINE
  5
57B
100
AcDbEntity
  8
0
100
AcDbLine
 62
9
  6
CONTINUOUS
 10
431.9124456522
 20
148.257326538
 11
431.9124456522
 21
160.5102189549
  0
LINE
  5
57C
100
AcDbEntity
  8
0
100
AcDbLine
 62
9
  6
CONTINUOUS
 10
432.1151751409
 20
145.8436477987
 11
432.1151751409
 21
145.2598330238
  0
LINE
  5
57D
100
AcDbEntity
  8
0
100
AcDbLine
 62
7
  6
CONTINUOUS
 10
429.9710624881
 20
160.2277175905
 11
429.9823432852
 21
160.4772865678
  0
LINE
  5
57E
100
AcDbEntity
  8
0
100
AcDbLine
 62
7
  6
CONTINUOUS
 10
436.4416751877
 20
146.7041773701
 11
436.4416751877
 21
147.0850756745
  0
LINE
  5
57F
100
AcDbEntity
  8
0
100
AcDbLine
 62
7
  6
CONTINUOUS
 10
436.4416751877
 20
161.6824698183
 11
436.4416751877
 21
162.0633653928
  0
LINE
  5
580
100
AcDbEntity
  8
0
100
AcDbLine
 62
7
  6
CONTINUOUS
 10
436.4413831269
 20
161.6691575195
 11
436.4416751877
 21
161.6824698183
  0
LINE
  5
581
100
AcDbEntity
  8
0
100
AcDbLine
 62
9
  6
CONTINUOUS
 10
436.4416751877
 20
147.0850756745
 11
437.1312188175
 21
162.3400829193
  0
LINE
  5
582
100
AcDbEntity
  8
0
100
AcDbLine
 62
7
  6
CONTINUOUS
 10
437.1167113107
 20
161.6382293471
 11
437.1484358882
 21
162.3400829193
  0
LWPOLYLINE
  5
583
100
AcDbEntity
  8
0
100
AcDbPolyline
 62
2
  6
CONTINUOUS
 90
5
 70
0
 10
623.6313764717
 20
111.3276014877
 10
639.8458300033
 20
111.3276014877
 10
639.8458300033
 20
129.6156014877
 10
623.6313764717
 20
129.6156014877
 10
623.6313764717
 20
111.3276014877
  0
LINE
  5
584
100
AcDbEntity
  8
0
100
AcDbLine
 62
7
  6
CONTINUOUS
 10
395.2375772348
 20
141.8438391731
 11
735.9873140696
 21
141.8438391731
  0
LINE
  5
585
100
AcDbEntity
  8
0
100
AcDbLine
 62
9
  6
CONTINUOUS
 10
735.9873140696
 20
141.9937655374
 11
395.2375772348
 21
141.9937655374
  0
LINE
  5
586
100
AcDbEntity
  8
0
100
AcDbLine
 62
7
  6
CONTINUOUS
 10
432.1151751409
 20
145.2598330238
 11
499.1097161634
 21
145.2598330238
  0
LINE
  5
587
100
AcDbEntity
  8
0
100
AcDbLine
 62
7
  6
CONTINUOUS
 10
432.1151751409
 20
145.8436477987
 11
499.1097161634
 21
145.8436477987
  0
LINE
  5
588
100
AcDbEntity
  8
0
100
AcDbLine
 62
7
  6
CONTINUOUS
 10
493.7841647872
 20
146.4455932223
 11
437.4407224784
 21
146.4455932223
  0
LINE
  5
589
100
AcDbEntity
  8
0
100
AcDbLine
 62
7
  6
CONTINUOUS
 10
500.7841236845
 20
148.257326538
 11
499.3124456522
 21
148.257326538
  0
LINE
  5
58A
100
AcDbEntity
  8
0
100
AcDbLine
 62
7
  6
CONTINUOUS
 10
431.9124456522
 20
148.257326538
 11
430.4407781211
 21
148.257326538
  0
LINE
  5
58B
100
AcDbEntity
  8
0
100
AcDbLine
 62
7
  6
CONTINUOUS
 10
494.1081825235
 20
161.6343029073
 11
494.0764579434
 21
162.3355211384
  0
LINE
  5
58C
100
AcDbEntity
  8
0
100
AcDbLine
 62
9
  6
CONTINUOUS
 10
494.7832161166
 20
147.0850756745
 11
494.0936724868
 21
162.3400829193
  0
LINE
  5
58D
100
AcDbEntity
  8
0
100
AcDbLine
 62
7
  6
CONTINUOUS
 10
501.253829047
 20
160.2271227641
 11
501.2425591761
 21
160.4762029838
  0
LINE
  5
58E
100
AcDbEntity
  8
0
100
AcDbLine
 62
7
  6
CONTINUOUS
 10
494.7832161166
 20
161.6824698183
 11
494.7835081775
 21
161.6691575195
  0
LINE
  5
58F
100
AcDbEntity
  8
0
100
AcDbLine
 62
7
  6
CONTINUOUS
 10
494.7832161166
 20
162.0633681229
 11
494.7832161166
 21
161.6824698183
  0
LINE
  5
590
100
AcDbEntity
  8
0
100
AcDbLine
 62
7
  6
CONTINUOUS
 10
494.7832161166
 20
147.0850756745
 11
494.7832161166
 21
146.7041800999
  0
LINE
  5
591
100
AcDbEntity
  8
0
100
AcDbLine
 62
9
  6
CONTINUOUS
 10
499.1097161634
 20
145.8436477987
 11
499.1097161634
 21
145.2598330238
  0
LINE
  5
592
100
AcDbEntity
  8
0
100
AcDbLine
 62
9
  6
CONTINUOUS
 10
499.3124456522
 20
148.257326538
 11
499.3124456522
 21
160.5102189549
  0
LINE
  5
593
100
AcDbEntity
  8
0
100
AcDbLine
 62
7
  6
CONTINUOUS
 10
430.4407675605
 20
160.5102189549
 11
431.9124456522
 21
160.5102189549
  0
LINE
  5
594
100
AcDbEntity
  8
0
100
AcDbLine
 62
7
  6
CONTINUOUS
 10
499.3124456522
 20
160.5102189549
 11
500.7841131427
 21
160.5102189549
  0
LINE
  5
595
100
AcDbEntity
  8
0
100
AcDbLine
 62
7
  6
CONTINUOUS
 10
437.4407265171
 20
162.3219522706
 11
493.784168826
 21
162.3219522706
  0
LINE
  5
596
100
AcDbEntity
  8
0
100
AcDbLine
 62
7
  6
CONTINUOUS
 10
499.1097161634
 20
162.3400829193
 11
432.1151751409
 21
162.3400829193
  0
LINE
  5
597
100
AcDbEntity
  8
0
100
AcDbLine
 62
7
  6
CONTINUOUS
 10
501.7832161166
 20
160.2516454438
 11
501.7832161166
 21
148.5158990039
  0
LINE
  5
598
100
AcDbEntity
  8
0
100
AcDbLine
 62
7
  6
CONTINUOUS
 10
504.1089546392
 20
146.5537311524
 11
504.1089546392
 21
161.0461847908
  0
LINE
  5
599
100
AcDbEntity
  8
0
100
AcDbLine
 62
9
  6
CONTINUOUS
 10
735.9873140696
 20
165.1567526926
 11
395.2375772348
 21
165.1567526926
  0
LINE
  5
59A
100
AcDbEntity
  8
0
100
AcDbLine
 62
9
  6
CONTINUOUS
 10
392.6124456522
 20
169.4068263283
 11
738.6124456522
 21
169.4068263283
  0
LINE
  5
59B
100
AcDbEntity
  8
0
100
AcDbLine
 62
7
  6
CONTINUOUS
 10
537.6124456831
 20
153.7201760568
 11
537.3568448817
 21
154.2052860357
  0
LINE
  5
59C
100
AcDbEntity
  8
3_AXES_OTHER
100
AcDbLine
 62
7
  6
CENTER
 10
565.6124456522
 20
191.8869940417
 11
548.8524456522
 21
191.8869940417
  0
LINE
  5
59D
100
AcDbEntity
  8
3_AXES_OTHER
100
AcDbLine
 62
7
  6
CENTER
 10
565.6124456522
 20
191.8869940417
 11
582.3724456522
 21
191.8869940417
  0
LINE
  5
59E
100
AcDbEntity
  8
3_AXES_OTHER
100
AcDbLine
 62
7
  6
CENTER
 10
565.6124456522
 20
251.8869940417
 11
565.6124456522
 21
235.1269940417
  0
LINE
  5
59F
100
AcDbEntity
  8
3_AXES_OTHER
100
AcDbLine
 62
7
  6
CENTER
 10
565.6124456522
 20
191.8869940417
 11
565.6124456522
 21
175.1269940417
  0
LINE
  5
5A0
100
AcDbEntity
  8
3_AXES_OTHER
100
AcDbLine
 62
7
  6
CENTER
 10
565.6124456522
 20
191.8869940417
 11
565.6124456522
 21
235.1269940417
  0
LINE
  5
5A1
100
AcDbEntity
  8
3_AXES_OTHER
100
AcDbLine
 62
7
  6
CENTER
 10
565.6124456522
 20
251.8869940417
 11
565.6124456522
 21
268.6469940417
  0
LINE
  5
5A2
100
AcDbEntity
  8
0
100
AcDbLine
 62
7
  6
CONTINUOUS
 10
523.8680464221
 20
154.2052860352
 11
523.6124456212
 21
153.7201760963
  0
LINE
  5
5A3
100
AcDbEntity
  8
0
100
AcDbLine
 62
7
  6
CONTINUOUS
 10
607.6124456831
 20
153.7201760568
 11
607.3568448817
 21
154.2052860357
  0
LINE
  5
5A4
100
AcDbEntity
  8
3_AXES_OTHER
100
AcDbLine
 62
7
  6
CENTER
 10
565.6124456522
 20
251.8869940417
 11
548.8524456522
 21
251.8869940417
  0
LINE
  5
5A5
100
AcDbEntity
  8
3_AXES_OTHER
100
AcDbLine
 62
7
  6
CENTER
 10
565.6124456522
 20
251.8869940417
 11
582.3724456522
 21
251.8869940417
  0
LINE
  5
5A6
100
AcDbEntity
  8
0
100
AcDbLine
 62
7
  6
CONTINUOUS
 10
721.2200979192
 20
323.3306280036
 11
720.2470511259
 21
322.3575812104
  0
LINE
  5
5A7
100
AcDbEntity
  8
0
100
AcDbLine
 62
7
  6
CONTINUOUS
 10
593.8680464221
 20
154.2052860352
 11
593.6124456212
 21
153.7201760963
  0
LINE
  5
5A8
100
AcDbEntity
  8
0
100
AcDbLine
 62
9
  6
CONTINUOUS
 10
738.6124456522
 20
304.6550692193
 11
735.9873140696
 21
304.6550692193
  0
LINE
  5
5A9
100
AcDbEntity
  8
0
100
AcDbLine
 62
9
  6
CONTINUOUS
 10
392.6124456522
 20
304.6550692193
 11
395.2375772348
 21
304.6550692193
  0
LINE
  5
5AA
100
AcDbEntity
  8
0
100
AcDbLine
 62
7
  6
CONTINUOUS
 10
397.6124456522
 20
307.0299376367
 11
733.6124456522
 21
307.0299376367
  0
LINE
  5
5AB
100
AcDbEntity
  8
7_ALL_ROUNDS
100
AcDbLine
 62
9
  6
CONTINUOUS
 10
733.6124456522
 20
307.0829573961
 11
397.6124456522
 21
307.0829573961
  0
LINE
  5
5AC
100
AcDbEntity
  8
0
100
AcDbLine
 62
7
  6
CONTINUOUS
 10
404.1846761189
 20
311.0305875812
 11
720.2470511259
 21
311.0305875812
  0
LINE
  5
5AD
100
AcDbEntity
  8
7_ALL_ROUNDS
100
AcDbLine
 62
9
  6
CONTINUOUS
 10
733.6124456522
 20
318.5974013225
 11
720.2470511259
 21
318.5974013225
  0
LINE
  5
5AE
100
AcDbEntity
  8
7_ALL_ROUNDS
100
AcDbLine
 62
9
  6
CONTINUOUS
 10
404.1846761189
 20
318.5974013225
 11
397.6124456522
 21
318.5974013225
  0
LINE
  5
5AF
100
AcDbEntity
  8
7_ALL_ROUNDS
100
AcDbLine
 62
9
  6
CONTINUOUS
 10
733.6124456522
 20
319.5226860535
 11
720.2470511259
 21
319.5226860535
  0
LINE
  5
5B0
100
AcDbEntity
  8
7_ALL_ROUNDS
100
AcDbLine
 62
9
  6
CONTINUOUS
 10
404.1846761189
 20
319.5226860535
 11
397.6124456522
 21
319.5226860535
  0
LINE
  5
5B1
100
AcDbEntity
  8
0
100
AcDbLine
 62
7
  6
CONTINUOUS
 10
397.6124456522
 20
323.3305875812
 11
404.1846761189
 21
323.3305875812
  0
LINE
  5
5B2
100
AcDbEntity
  8
0
100
AcDbLine
 62
7
  6
CONTINUOUS
 10
721.2200574967
 20
323.3305875812
 11
733.6124456522
 21
323.3305875812
  0
LINE
  5
5B3
100
AcDbEntity
  8
0
100
AcDbLine
 62
7
  6
CONTINUOUS
 10
720.2470511259
 20
322.3575812104
 11
720.2470511259
 21
311.0305875812
  0
LINE
  5
5B4
100
AcDbEntity
  8
7_ALL_ROUNDS
100
AcDbLine
 62
9
  6
CONTINUOUS
 10
733.6124456522
 20
323.3305875812
 11
733.6124456522
 21
307.0829573961
  0
LINE
  5
5B5
100
AcDbEntity
  8
0
100
AcDbLine
 62
9
  6
CONTINUOUS
 10
733.6124456522
 20
307.0829573961
 11
733.6124456522
 21
307.0299376367
  0
LINE
  5
5B6
100
AcDbEntity
  8
0
100
AcDbLine
 62
7
  6
CONTINUOUS
 10
735.9873140696
 20
304.6550692193
 11
735.9873140696
 21
141.8438391731
  0
LINE
  5
5B7
100
AcDbEntity
  8
7_ALL_ROUNDS
100
AcDbLine
 62
7
  6
CONTINUOUS
 10
738.6124456522
 20
318.3305875812
 11
738.6124456522
 21
146.2438391731
  0
LWPOLYLINE
  5
5B8
100
AcDbEntity
  8
0
100
AcDbPolyline
 62
7
  6
CONTINUOUS
 90
2
 70
1
 43
1.0
 10
721.7239201033
 20
37.6187110479
 42
1.0
 10
731.8839201033
 20
37.6187110479
 42
1.0
  0
LWPOLYLINE
  5
5B9
100
AcDbEntity
  8
0
100
AcDbPolyline
 62
7
  6
CONTINUOUS
 90
2
 70
1
 43
1.0
 10
724.2639201033
 20
37.6187110479
 42
1.0
 10
729.3439201033
 20
37.6187110479
 42
1.0
  0
ARC
  5
5BA
100
AcDbEntity
  8
0
100
AcDbCircle
 62
7
  6
CONTINUOUS
 10
663.8099079962
 20
455.661506991
 40
23.6507449967
100
AcDbArc
 50
261.7316066437
 51
262.5338984516
  0
ARC
  5
5BB
100
AcDbEntity
  8
0
100
AcDbCircle
 62
7
  6
CONTINUOUS
 10
583.4149833084
 20
455.6615069893
 40
23.650744995
100
AcDbArc
 50
277.4661015484
 51
278.2683933563
  0
ARC
  5
5BC
100
AcDbEntity
  8
0
100
AcDbCircle
 62
7
  6
CONTINUOUS
 10
583.4149833084
 20
501.8621886631
 40
23.6507449947
100
AcDbArc
 50
81.7316066437
 51
82.5338984516
  0
ARC
  5
5BD
100
AcDbEntity
  8
0
100
AcDbCircle
 62
7
  6
CONTINUOUS
 10
663.8099079956
 20
501.8621886651
 40
23.6507449927
100
AcDbArc
 50
97.4661015484
 51
98.2683933563
  0
ARC
  5
5BE
100
AcDbEntity
  8
0
100
AcDbCircle
 62
7
  6
CONTINUOUS
 10
663.7983916624
 20
501.9509800633
 40
23.5612099485
100
AcDbArc
 50
95.531194686
 51
97.466390496
  0
ARC
  5
5BF
100
AcDbEntity
  8
0
100
AcDbCircle
 62
7
  6
CONTINUOUS
 10
663.7983916623
 20
455.5727155882
 40
23.5612099478
100
AcDbArc
 50
262.533609504
 51
264.468805314
  0
ARC
  5
5C0
100
AcDbEntity
  8
0
100
AcDbCircle
 62
7
  6
CONTINUOUS
 10
583.426499642
 20
455.5727155881
 40
23.5612099477
100
AcDbArc
 50
275.531194686
 51
277.466390496
  0
ARC
  5
5C1
100
AcDbEntity
  8
0
100
AcDbCircle
 62
7
  6
CONTINUOUS
 10
583.426499642
 20
501.9509800634
 40
23.5612099484
100
AcDbArc
 50
82.533609504
 51
84.468805314
  0
CIRCLE
  5
5C2
100
AcDbEntity
  8
0
100
AcDbCircle
 62
7
  6
CONTINUOUS
 10
482.6924456522
 20
483.2618478261
 40
9.75
  0
ARC
  5
5C3
100
AcDbEntity
  8
7_ALL_ROUNDS
100
AcDbCircle
 62
9
  6
CONTINUOUS
 10
397.6125706849
 20
421.4783652565
 40
5.6874851748
100
AcDbArc
 50
254.2418168587
 51
269.9987404192
  0
ARC
  5
5C4
100
AcDbEntity
  8
7_ALL_ROUNDS
100
AcDbCircle
 62
9
  6
CONTINUOUS
 10
733.6123205633
 20
421.4783647508
 40
5.6874846602
100
AcDbArc
 50
270.0012601469
 51
285.7584558371
  0
ARC
  5
5C5
100
AcDbEntity
  8
0
100
AcDbCircle
 62
7
  6
CONTINUOUS
 10
397.6124456522
 20
420.1618478261
 40
5.0
100
AcDbArc
 50
180.0
 51
241.6423634237
  0
ARC
  5
5C6
100
AcDbEntity
  8
7_ALL_ROUNDS
100
AcDbCircle
 62
7
  6
CONTINUOUS
 10
397.6124456522
 20
546.3618478261
 40
5.0
100
AcDbArc
 50
90.0
 51
180.0
  0
ARC
  5
5C7
100
AcDbEntity
  8
0
100
AcDbCircle
 62
7
  6
CONTINUOUS
 10
733.6124456522
 20
420.1618478261
 40
5.0
100
AcDbArc
 50
298.3576365763
 51
360.0
  0
ARC
  5
5C8
100
AcDbEntity
  8
7_ALL_ROUNDS
100
AcDbCircle
 62
7
  6
CONTINUOUS
 10
733.6124456522
 20
546.3618478261
 40
5.0
100
AcDbArc
 50
0.0
 51
90.0
  0
ARC
  5
5C9
100
AcDbEntity
  8
7_ALL_ROUNDS
100
AcDbCircle
 62
7
  6
CONTINUOUS
 10
397.6124456522
 20
701.2615773819
 40
5.0
100
AcDbArc
 50
180.0
 51
270.0
  0
ARC
  5
5CA
100
AcDbEntity
  8
7_ALL_ROUNDS
100
AcDbCircle
 62
7
  6
CONTINUOUS
 10
397.6124456522
 20
873.34832579
 40
5.0
100
AcDbArc
 50
118.3576408383
 51
180.0
  0
ARC
  5
5CB
100
AcDbEntity
  8
7_ALL_ROUNDS
100
AcDbCircle
 62
7
  6
CONTINUOUS
 10
733.6124456522
 20
873.34832579
 40
5.0
100
AcDbArc
 50
0.0
 51
61.6423591621
  0
ARC
  5
5CC
100
AcDbEntity
  8
7_ALL_ROUNDS
100
AcDbCircle
 62
7
  6
CONTINUOUS
 10
733.6124456522
 20
701.2615773819
 40
5.0
100
AcDbArc
 50
270.0
 51
360.0
  0
ARC
  5
5CD
100
AcDbEntity
  8
7_ALL_ROUNDS
100
AcDbCircle
 62
9
  6
CONTINUOUS
 10
733.6763192345
 20
705.0321625181
 40
4.9379787079
100
AcDbArc
 50
323.7281547033
 51
329.7548124552
  0
ARC
  5
5CE
100
AcDbEntity
  8
7_ALL_ROUNDS
100
AcDbCircle
 62
9
  6
CONTINUOUS
 10
397.5485720537
 20
705.0321625095
 40
4.9379786898
100
AcDbArc
 50
210.2451872057
 51
216.2718481426
  0
ARC
  5
5CF
100
AcDbEntity
  8
7_ALL_ROUNDS
100
AcDbCircle
 62
7
  6
CONTINUOUS
 10
1242.7545243928
 20
483.2618478261
 40
400.0
100
AcDbArc
 50
172.0878297548
 51
187.9121702452
  0
ARC
  5
5D0
100
AcDbEntity
  8
7_ALL_ROUNDS
100
AcDbCircle
 62
9
  6
CONTINUOUS
 10
1242.7545243928
 20
483.2618478261
 40
395.0
100
AcDbArc
 50
172.0878297548
 51
187.9121702452
  0
ARC
  5
5D1
100
AcDbEntity
  8
0
100
AcDbCircle
 62
7
  6
CONTINUOUS
 10
876.4829494508
 20
519.2618478261
 40
36.0
100
AcDbArc
 50
128.1677752252
 51
143.6511555181
  0
ARC
  5
5D2
100
AcDbEntity
  8
7_ALL_ROUNDS
100
AcDbCircle
 62
7
  6
CONTINUOUS
 10
876.4829494508
 20
519.2618478261
 40
36.0
100
AcDbArc
 50
119.0503244374
 51
143.6511555181
  0
ARC
  5
5D3
100
AcDbEntity
  8
7_ALL_ROUNDS
100
AcDbCircle
 62
7
  6
CONTINUOUS
 10
876.4829494508
 20
447.2618478261
 40
36.0
100
AcDbArc
 50
216.3488444819
 51
240.9496755626
  0
ARC
  5
5D4
100
AcDbEntity
  8
0
100
AcDbCircle
 62
7
  6
CONTINUOUS
 10
876.4829494508
 20
447.2618478261
 40
36.0
100
AcDbArc
 50
223.6564650959
 51
225.617437436
  0
ARC
  5
5D5
100
AcDbEntity
  8
7_ALL_ROUNDS
100
AcDbCircle
 62
9
  6
CONTINUOUS
 10
876.4829494508
 20
519.2618478261
 40
31.0
100
AcDbArc
 50
119.0503244374
 51
143.6511555181
  0
ARC
  5
5D6
100
AcDbEntity
  8
7_ALL_ROUNDS
100
AcDbCircle
 62
9
  6
CONTINUOUS
 10
876.4829494508
 20
447.2618478261
 40
31.0
100
AcDbArc
 50
216.3488444819
 51
240.9496755626
  0
CIRCLE
  5
5D7
100
AcDbEntity
  8
0
100
AcDbCircle
 62
7
  6
CONTINUOUS
 10
932.755110825
 20
477.5569847889
 40
9.0
  0
CIRCLE
  5
5D8
100
AcDbEntity
  8
0
100
AcDbCircle
 62
7
  6
CONTINUOUS
 10
932.755110825
 20
477.5569847889
 40
8.0
  0
ARC
  5
5D9
100
AcDbEntity
  8
7_ALL_ROUNDS
100
AcDbCircle
 62
7
  6
CONTINUOUS
 10
851.5148271514
 20
537.6355482929
 40
5.0
100
AcDbArc
 50
143.6511555181
 51
172.0878297548
  0
ARC
  5
5DA
100
AcDbEntity
  8
0
100
AcDbCircle
 62
7
  6
CONTINUOUS
 10
851.5148271514
 20
537.6355482929
 40
5.0
100
AcDbArc
 50
143.6511555181
 51
172.0878297548
  0
ARC
  5
5DB
100
AcDbEntity
  8
7_ALL_ROUNDS
100
AcDbCircle
 62
7
  6
CONTINUOUS
 10
851.5148271514
 20
428.8881473592
 40
5.0
100
AcDbArc
 50
187.9121702452
 51
216.3488444819
  0
ARC
  5
5DC
100
AcDbEntity
  8
0
100
AcDbCircle
 62
7
  6
CONTINUOUS
 10
851.5148271514
 20
428.8881473592
 40
5.0
100
AcDbArc
 50
187.9121702452
 51
216.3488444819
  0
ARC
  5
5DD
100
AcDbEntity
  8
0
100
AcDbCircle
 62
7
  6
CONTINUOUS
 10
861.4300427547
 20
420.1618478261
 40
5.0
100
AcDbArc
 50
240.9496755626
 51
241.6423634237
  0
ARC
  5
5DE
100
AcDbEntity
  8
7_ALL_ROUNDS
100
AcDbCircle
 62
7
  6
CONTINUOUS
 10
861.4300427547
 20
546.3618478261
 40
5.0
100
AcDbArc
 50
90.0
 51
119.0503244374
  0
ARC
  5
5DF
100
AcDbEntity
  8
0
100
AcDbCircle
 62
7
  6
CONTINUOUS
 10
1019.8412728009
 20
506.6072927443
 40
4.4
100
AcDbArc
 50
345.0
 51
75.0
  0
ARC
  5
5E0
100
AcDbEntity
  8
0
100
AcDbCircle
 62
7
  6
CONTINUOUS
 10
996.6782856457
 20
420.1618478261
 40
4.4
100
AcDbArc
 50
270.0
 51
345.0
  0
ARC
  5
5E1
100
AcDbEntity
  8
0
100
AcDbCircle
 62
7
  6
CONTINUOUS
 10
1992.9830070326
 20
681.3575409175
 40
440.1202362281
100
AcDbArc
 50
173.5670699562
 51
176.617887128
  0
ARC
  5
5E2
100
AcDbEntity
  8
0
100
AcDbCircle
 62
7
  6
CONTINUOUS
 10
1876.1444054785
 20
681.9251023928
 40
323.1426451482
100
AcDbArc
 50
183.5714293279
 51
187.3179688509
  0
ARC
  5
5E3
100
AcDbEntity
  8
0
100
AcDbCircle
 62
7
  6
CONTINUOUS
 10
1612.4975080484
 20
706.7043694215
 40
62.0153776257
100
AcDbArc
 50
145.0947602317
 51
155.0094213958
  0
ARC
  5
5E4
100
AcDbEntity
  8
0
100
AcDbCircle
 62
7
  6
CONTINUOUS
 10
1389.0076594031
 20
835.7700837976
 40
62.0153776257
100
AcDbArc
 50
145.0947602317
 51
155.0094213958
  0
ARC
  5
5E5
100
AcDbEntity
  8
7_ALL_ROUNDS
100
AcDbCircle
 62
9
  6
CONTINUOUS
 10
1621.2806335017
 20
701.6354965506
 40
61.2459666854
100
AcDbArc
 50
140.7076216313
 51
155.0753602314
  0
ARC
  5
5E6
100
AcDbEntity
  8
7_ALL_ROUNDS
100
AcDbCircle
 62
7
  6
CONTINUOUS
 10
1378.8252190726
 20
841.6534045222
 40
57.7383968965
100
AcDbArc
 50
140.7009135635
 51
155.0706734703
  0
ARC
  5
5E7
100
AcDbEntity
  8
7_ALL_ROUNDS
100
AcDbCircle
 62
9
  6
CONTINUOUS
 10
1619.9494847808
 20
702.4037542948
 40
52.7393950125
100
AcDbArc
 50
140.7075959686
 51
155.0753858941
  0
ARC
  5
5E8
100
AcDbEntity
  8
0
100
AcDbCircle
 62
7
  6
CONTINUOUS
 10
1483.1118118763
 20
760.8449176493
 40
31.2678988036
100
AcDbArc
 50
182.5324308419
 51
185.1432062478
  0
ARC
  5
5E9
100
AcDbEntity
  8
0
100
AcDbCircle
 62
7
  6
CONTINUOUS
 10
1629.700135154
 20
705.8586890629
 40
6.495417874
100
AcDbArc
 50
183.065238912
 51
187.1114102126
  0
ARC
  5
5EA
100
AcDbEntity
  8
0
100
AcDbCircle
 62
7
  6
CONTINUOUS
 10
1632.0671036861
 20
710.2677214951
 40
6.302521633
100
AcDbArc
 50
112.3982597482
 51
115.8295373803
  0
ARC
  5
5EB
100
AcDbEntity
  8
7_ALL_ROUNDS
100
AcDbCircle
 62
7
  6
CONTINUOUS
 10
1338.0097797171
 20
875.051590636
 40
5.0
100
AcDbArc
 50
119.9947208612
 51
140.6353141883
  0
ARC
  5
5EC
100
AcDbEntity
  8
7_ALL_ROUNDS
100
AcDbCircle
 62
7
  6
CONTINUOUS
 10
1330.9986635271
 20
863.8786001601
 40
5.0
100
AcDbArc
 50
155.0184090106
 51
173.5846644382
  0
ARC
  5
5ED
100
AcDbEntity
  8
7_ALL_ROUNDS
100
AcDbCircle
 62
7
  6
CONTINUOUS
 10
1330.9986635271
 20
775.098347537
 40
5.0
100
AcDbArc
 50
187.3330361972
 51
225.2565811401
  0
ARC
  5
5EE
100
AcDbEntity
  8
7_ALL_ROUNDS
100
AcDbCircle
 62
7
  6
CONTINUOUS
 10
1687.6113131775
 20
770.0770856314
 40
5.0
100
AcDbArc
 50
348.4265259421
 51
24.4190502273
  0
ARC
  5
5EF
100
AcDbEntity
  8
7_ALL_ROUNDS
100
AcDbCircle
 62
7
  6
CONTINUOUS
 10
1671.2326078876
 20
690.0451928279
 40
5.0
100
AcDbArc
 50
299.9893746146
 51
348.4239164351
  0
ARC
  5
5F0
100
AcDbEntity
  8
7_ALL_ROUNDS
100
AcDbCircle
 62
7
  6
CONTINUOUS
 10
1575.5976581958
 20
634.8158695449
 40
5.0
100
AcDbArc
 50
266.3296852111
 51
300.0274918561
  0
ARC
  5
5F1
100
AcDbEntity
  8
7_ALL_ROUNDS
100
AcDbCircle
 62
9
  6
CONTINUOUS
 10
1328.1519145673
 20
774.7290180071
 40
2.1292472003
100
AcDbArc
 50
187.3431604708
 51
194.7189848122
  0
ARC
  5
5F2
100
AcDbEntity
  8
0
100
AcDbCircle
 62
7
  6
CONTINUOUS
 10
1344.0010427705
 20
881.8358262894
 40
2.1212916899
100
AcDbArc
 50
105.0325893053
 51
119.9690711809
  0
ARC
  5
5F3
100
AcDbEntity
  8
0
100
AcDbCircle
 62
7
  6
CONTINUOUS
 10
-122.0549691625
 20
483.2618478261
 40
400.0
100
AcDbArc
 50
352.0878297548
 51
356.0028214199
  0
ARC
  5
5F4
100
AcDbEntity
  8
0
100
AcDbCircle
 62
7
  6
CONTINUOUS
 10
-122.0549691625
 20
483.2618478261
 40
400.0
100
AcDbArc
 50
3.9971785801
 51
7.9121702452
  0
ARC
  5
5F5
100
AcDbEntity
  8
7_ALL_ROUNDS
100
AcDbCircle
 62
7
  6
CONTINUOUS
 10
-122.0549691625
 20
483.2618478261
 40
400.0
100
AcDbArc
 50
352.0878297548
 51
7.9121702452
  0
ARC
  5
5F6
100
AcDbEntity
  8
0
100
AcDbCircle
 62
7
  6
CONTINUOUS
 10
-122.0549691625
 20
483.2618478261
 40
400.0
100
AcDbArc
 50
359.551704519
 51
3.8774469939
  0
ARC
  5
5F7
100
AcDbEntity
  8
7_ALL_ROUNDS
100
AcDbCircle
 62
9
  6
CONTINUOUS
 10
-122.0549691625
 20
483.2618478261
 40
395.0
100
AcDbArc
 50
352.0878297548
 51
7.9121702452
  0
ARC
  5
5F8
100
AcDbEntity
  8
0
100
AcDbCircle
 62
7
  6
CONTINUOUS
 10
244.2166057796
 20
519.2618478261
 40
36.0
100
AcDbArc
 50
36.3488444819
 51
51.8322247535
  0
ARC
  5
5F9
100
AcDbEntity
  8
7_ALL_ROUNDS
100
AcDbCircle
 62
7
  6
CONTINUOUS
 10
244.2166057796
 20
519.2618478261
 40
36.0
100
AcDbArc
 50
36.3488444819
 51
60.9496755626
  0
ARC
  5
5FA
100
AcDbEntity
  8
7_ALL_ROUNDS
100
AcDbCircle
 62
7
  6
CONTINUOUS
 10
244.2166057796
 20
447.2618478261
 40
36.0
100
AcDbArc
 50
299.0503244374
 51
323.6511555181
  0
ARC
  5
5FB
100
AcDbEntity
  8
0
100
AcDbCircle
 62
7
  6
CONTINUOUS
 10
244.2166057796
 20
447.2618478261
 40
36.0
100
AcDbArc
 50
308.1677752259
 51
316.3435348932
  0
ARC
  5
5FC
100
AcDbEntity
  8
7_ALL_ROUNDS
100
AcDbCircle
 62
9
  6
CONTINUOUS
 10
244.2166057796
 20
519.2618478261
 40
31.0
100
AcDbArc
 50
36.3488444819
 51
60.9496755626
  0
ARC
  5
5FD
100
AcDbEntity
  8
7_ALL_ROUNDS
100
AcDbCircle
 62
9
  6
CONTINUOUS
 10
244.2166057796
 20
447.2618478261
 40
31.0
100
AcDbArc
 50
299.0503244374
 51
323.6511555181
  0
CIRCLE
  5
5FE
100
AcDbEntity
  8
0
100
AcDbCircle
 62
7
  6
CONTINUOUS
 10
187.9444444054
 20
477.5569847889
 40
9.0
  0
CIRCLE
  5
5FF
100
AcDbEntity
  8
0
100
AcDbCircle
 62
7
  6
CONTINUOUS
 10
187.9444444054
 20
477.5569847889
 40
8.0
  0
ARC
  5
600
100
AcDbEntity
  8
7_ALL_ROUNDS
100
AcDbCircle
 62
7
  6
CONTINUOUS
 10
269.1847280789
 20
537.6355482929
 40
5.0
100
AcDbArc
 50
7.9121702452
 51
36.3488444819
  0
ARC
  5
601
100
AcDbEntity
  8
7_ALL_ROUNDS
100
AcDbCircle
 62
7
  6
CONTINUOUS
 10
269.1847280789
 20
428.8881473592
 40
5.0
100
AcDbArc
 50
323.6511555181
 51
352.0878297548
  0
ARC
  5
602
100
AcDbEntity
  8
0
100
AcDbCircle
 62
7
  6
CONTINUOUS
 10
259.2695124756
 20
420.1618478261
 40
5.0
100
AcDbArc
 50
298.3576365763
 51
299.0503244374
  0
ARC
  5
603
100
AcDbEntity
  8
7_ALL_ROUNDS
100
AcDbCircle
 62
7
  6
CONTINUOUS
 10
259.2695124756
 20
546.3618478261
 40
5.0
100
AcDbArc
 50
60.9496755626
 51
90.0
  0
ARC
  5
604
100
AcDbEntity
  8
0
100
AcDbCircle
 62
7
  6
CONTINUOUS
 10
124.0212695846
 20
420.1618478261
 40
4.4
100
AcDbArc
 50
195.0
 51
270.0
  0
ARC
  5
605
100
AcDbEntity
  8
0
100
AcDbCircle
 62
7
  6
CONTINUOUS
 10
100.8582824294
 20
506.6072927443
 40
4.4
100
AcDbArc
 50
105.0
 51
195.0
  0
ARC
  5
606
100
AcDbEntity
  8
7_ALL_ROUNDS
100
AcDbCircle
 62
7
  6
CONTINUOUS
 10
1201.564194301
 20
329.023176601
 40
5.0
100
AcDbArc
 50
165.0
 51
230.6498835466
  0
ARC
  5
607
100
AcDbEntity
  8
0
100
AcDbCircle
 62
7
  6
CONTINUOUS
 10
1360.421549102
 20
296.5966329888
 40
0.437028752
100
AcDbArc
 50
162.6773470337
 51
164.9991374236
  0
ARC
  5
608
100
AcDbEntity
  8
0
100
AcDbCircle
 62
7
  6
CONTINUOUS
 10
1364.4407869884
 20
311.5966329888
 40
0.437028752
100
AcDbArc
 50
162.6773470337
 51
164.9991374236
  0
ARC
  5
609
100
AcDbEntity
  8
0
100
AcDbCircle
 62
7
  6
CONTINUOUS
 10
1372.3274954028
 20
293.4064443305
 40
0.4370286475
100
AcDbArc
 50
345.0008577558
 51
347.3226491291
  0
ARC
  5
60A
100
AcDbEntity
  8
0
100
AcDbCircle
 62
7
  6
CONTINUOUS
 10
1376.3467332902
 20
308.4064443303
 40
0.4370286466
100
AcDbArc
 50
345.0008577534
 51
347.3226491313
  0
CIRCLE
  5
60B
100
AcDbEntity
  8
0
100
AcDbCircle
 62
7
  6
CONTINUOUS
 10
1350.5288201786
 20
371.0941893209
 40
7.0
  0
CIRCLE
  5
60C
100
AcDbEntity
  8
0
100
AcDbCircle
 62
7
  6
CONTINUOUS
 10
1350.5288201786
 20
371.0941893209
 40
6.6
  0
ARC
  5
60D
100
AcDbEntity
  8
0
100
AcDbCircle
 62
7
  6
CONTINUOUS
 10
1233.7870958213
 20
449.280682242
 40
5.0
100
AcDbArc
 50
103.3576365763
 51
165.0
  0
ARC
  5
60E
100
AcDbEntity
  8
0
100
AcDbCircle
 62
7
  6
CONTINUOUS
 10
1506.1020281066
 20
299.894558025
 40
5.7569752501
100
AcDbArc
 50
75.0
 51
165.0
  0
ARC
  5
60F
100
AcDbEntity
  8
0
100
AcDbCircle
 62
7
  6
CONTINUOUS
 10
1440.9986274147
 20
317.3389616649
 40
5.7569752501
100
AcDbArc
 50
345.0
 51
75.0
  0
ARC
  5
610
100
AcDbEntity
  8
7_ALL_ROUNDS
100
AcDbCircle
 62
7
  6
CONTINUOUS
 10
1526.1152719341
 20
242.0599774466
 40
5.0
100
AcDbArc
 50
279.3501164534
 51
345.0
  0
ARC
  5
611
100
AcDbEntity
  8
0
100
AcDbCircle
 62
7
  6
CONTINUOUS
 10
1441.2465507219
 20
317.482100253
 40
4.9989259298
100
AcDbArc
 50
164.9965505634
 51
255.0034494366
  0
ARC
  5
612
100
AcDbEntity
  8
0
100
AcDbCircle
 62
7
  6
CONTINUOUS
 10
1505.9588895185
 20
300.1424813321
 40
4.9989259298
100
AcDbArc
 50
254.9965505634
 51
345.0034494366
  0
ARC
  5
613
100
AcDbEntity
  8
0
100
AcDbCircle
 62
9
  6
CONTINUOUS
 10
1526.344168016
 20
242.0374277079
 40
4.7801503412
100
AcDbArc
 50
312.7069051283
 51
315.6504570581
  0
ARC
  5
614
100
AcDbEntity
  8
0
100
AcDbCircle
 62
9
  6
CONTINUOUS
 10
1526.362676307
 20
242.01969122
 40
4.7545168751
100
AcDbArc
 50
315.6473869588
 51
327.9433150228
  0
ARC
  5
615
100
AcDbEntity
  8
0
100
AcDbCircle
 62
9
  6
CONTINUOUS
 10
1526.4014132792
 20
241.9884131835
 40
4.7050890766
100
AcDbArc
 50
328.0157573318
 51
344.9399281179
  0
ARC
  5
616
100
AcDbEntity
  8
0
100
AcDbCircle
 62
7
  6
CONTINUOUS
 10
1506.1020281066
 20
299.894558025
 40
4.5292295355
100
AcDbArc
 50
75.0
 51
165.0
  0
ARC
  5
617
100
AcDbEntity
  8
0
100
AcDbCircle
 62
7
  6
CONTINUOUS
 10
1440.9986274147
 20
317.3389616649
 40
4.5292295355
100
AcDbArc
 50
345.0
 51
75.0
  0
ARC
  5
618
100
AcDbEntity
  8
0
100
AcDbCircle
 62
7
  6
CONTINUOUS
 10
1468.0974693268
 20
317.7078343084
 40
3.3
100
AcDbArc
 50
214.2509456225
 51
295.7490543775
  0
ARC
  5
619
100
AcDbEntity
  8
0
100
AcDbCircle
 62
7
  6
CONTINUOUS
 10
1473.0043725243
 20
316.3930335593
 40
3.3
100
AcDbArc
 50
214.2509456225
 51
295.7490543775
  0
ARC
  5
61A
100
AcDbEntity
  8
0
100
AcDbCircle
 62
7
  6
CONTINUOUS
 10
1477.9112757219
 20
315.0782328102
 40
3.3
100
AcDbArc
 50
214.2509456225
 51
295.7490543775
  0
ARC
  5
61B
100
AcDbEntity
  8
0
100
AcDbCircle
 62
7
  6
CONTINUOUS
 10
1482.8181789194
 20
313.763432061
 40
3.3
100
AcDbArc
 50
214.2509456225
 51
295.7490543775
  0
CIRCLE
  5
61C
100
AcDbEntity
  8
0
100
AcDbCircle
 62
7
  6
CONTINUOUS
 10
1473.0043725243
 20
316.3930335593
 40
1.4
  0
CIRCLE
  5
61D
100
AcDbEntity
  8
0
100
AcDbCircle
 62
7
  6
CONTINUOUS
 10
1477.9112757219
 20
315.0782328102
 40
1.4
  0
CIRCLE
  5
61E
100
AcDbEntity
  8
0
100
AcDbCircle
 62
7
  6
CONTINUOUS
 10
1482.8181789194
 20
313.763432061
 40
1.4
  0
ARC
  5
61F
100
AcDbEntity
  8
0
100
AcDbCircle
 62
7
  6
CONTINUOUS
 10
1468.0974693268
 20
317.7078343084
 40
1.4
100
AcDbArc
 50
225.0
 51
105.0
  0
CIRCLE
  5
620
100
AcDbEntity
  8
0
100
AcDbCircle
 62
7
  6
CONTINUOUS
 10
1487.725082117
 20
312.4486313119
 40
1.25
  0
CIRCLE
  5
621
100
AcDbEntity
  8
0
100
AcDbCircle
 62
7
  6
CONTINUOUS
 10
1463.1905661292
 20
319.0226350575
 40
1.25
  0
ARC
  5
622
100
AcDbEntity
  8
0
100
AcDbCircle
 62
7
  6
CONTINUOUS
 10
1489.1900672783
 20
308.2565920739
 40
0.9999670957
100
AcDbArc
 50
254.9995119304
 51
344.9952728751
  0
ARC
  5
623
100
AcDbEntity
  8
0
100
AcDbCircle
 62
7
  6
CONTINUOUS
 10
1491.7782863754
 20
317.9159317865
 40
0.9999468158
100
AcDbArc
 50
344.999134366
 51
75.000865634
  0
ARC
  5
624
100
AcDbEntity
  8
0
100
AcDbCircle
 62
7
  6
CONTINUOUS
 10
1462.414038512
 20
325.7840582879
 40
0.9999468158
100
AcDbArc
 50
74.999134366
 51
165.000865634
  0
ARC
  5
625
100
AcDbEntity
  8
0
100
AcDbCircle
 62
7
  6
CONTINUOUS
 10
1459.8257075041
 20
316.1246713907
 40
0.9998382128
100
AcDbArc
 50
164.9960248455
 51
254.9691644962
  0
ARC
  5
626
100
AcDbEntity
  8
0
100
AcDbCircle
 62
7
  6
CONTINUOUS
 10
1500.3816931593
 20
299.9029739053
 40
0.9983681858
100
AcDbArc
 50
254.9607792458
 51
345.0421825276
  0
ARC
  5
627
100
AcDbEntity
  8
0
100
AcDbCircle
 62
7
  6
CONTINUOUS
 10
1441.0070432951
 20
323.0592966123
 40
0.9983681858
100
AcDbArc
 50
164.9607792504
 51
255.0421824964
  0
ARC
  5
628
100
AcDbEntity
  8
0
100
AcDbCircle
 62
7
  6
CONTINUOUS
 10
1445.9567809106
 20
314.4860768802
 40
0.9983601614
100
AcDbArc
 50
164.9579618235
 51
255.0394496989
  0
ARC
  5
629
100
AcDbEntity
  8
0
100
AcDbCircle
 62
7
  6
CONTINUOUS
 10
1508.9549128914
 20
304.8527115209
 40
0.9983601613
100
AcDbArc
 50
254.957964877
 51
345.0394497
  0
CIRCLE
  5
62A
100
AcDbEntity
  8
0
100
AcDbCircle
 62
7
  6
CONTINUOUS
 10
1418.1436280188
 20
352.9768561637
 40
7.0
  0
CIRCLE
  5
62B
100
AcDbEntity
  8
0
100
AcDbCircle
 62
7
  6
CONTINUOUS
 10
1418.1436280188
 20
352.9768561637
 40
6.6
  0
ARC
  5
62C
100
AcDbEntity
  8
0
100
AcDbCircle
 62
7
  6
CONTINUOUS
 10
1455.5960215585
 20
371.8171782676
 40
5.7569752501
100
AcDbArc
 50
255.0
 51
345.0
  0
ARC
  5
62D
100
AcDbEntity
  8
0
100
AcDbCircle
 62
7
  6
CONTINUOUS
 10
1520.6994222504
 20
354.3727746277
 40
5.7569752501
100
AcDbArc
 50
165.0
 51
255.0
  0
ARC
  5
62E
100
AcDbEntity
  8
0
100
AcDbCircle
 62
7
  6
CONTINUOUS
 10
1558.3381734544
 20
362.3174830876
 40
5.0
100
AcDbArc
 50
345.0
 51
46.6423634237
  0
ARC
  5
62F
100
AcDbEntity
  8
0
100
AcDbCircle
 62
7
  6
CONTINUOUS
 10
1520.4514986897
 20
354.2296358932
 40
4.9989259298
100
AcDbArc
 50
344.996552937
 51
75.0034470629
  0
ARC
  5
630
100
AcDbEntity
  8
0
100
AcDbCircle
 62
7
  6
CONTINUOUS
 10
1455.7391602931
 20
371.5692547069
 40
4.9989259298
100
AcDbArc
 50
74.9965529371
 51
165.0034470629
  0
ARC
  5
631
100
AcDbEntity
  8
0
100
AcDbCircle
 62
7
  6
CONTINUOUS
 10
1520.6994222504
 20
354.3727746277
 40
4.5292295355
100
AcDbArc
 50
165.0
 51
255.0
  0
ARC
  5
632
100
AcDbEntity
  8
0
100
AcDbCircle
 62
7
  6
CONTINUOUS
 10
1455.5960215585
 20
371.8171782676
 40
4.5292295355
100
AcDbArc
 50
255.0
 51
345.0
  0
ARC
  5
633
100
AcDbEntity
  8
0
100
AcDbCircle
 62
7
  6
CONTINUOUS
 10
1520.6910063702
 20
348.6524396804
 40
0.9983681857
100
AcDbArc
 50
344.9607792459
 51
75.0421801751
  0
ARC
  5
634
100
AcDbEntity
  8
0
100
AcDbCircle
 62
7
  6
CONTINUOUS
 10
1461.3163565059
 20
371.8087623872
 40
0.9983681859
100
AcDbArc
 50
74.9607792528
 51
165.0421824941
  0
ARC
  5
635
100
AcDbEntity
  8
0
100
AcDbCircle
 62
7
  6
CONTINUOUS
 10
1515.7412687545
 20
357.2256594125
 40
0.9983601613
100
AcDbArc
 50
344.9579617921
 51
75.0394497001
  0
ARC
  5
636
100
AcDbEntity
  8
0
100
AcDbCircle
 62
7
  6
CONTINUOUS
 10
1452.7431367737
 20
366.8590247719
 40
0.9983601612
100
AcDbArc
 50
74.9579614657
 51
165.0394497442
  0
CIRCLE
  5
637
100
AcDbEntity
  8
0
100
AcDbCircle
 62
7
  6
CONTINUOUS
 10
1090.3687536128
 20
861.0029369835
 40
7.0
  0
CIRCLE
  5
638
100
AcDbEntity
  8
0
100
AcDbCircle
 62
7
  6
CONTINUOUS
 10
1032.4132040354
 20
876.5320796897
 40
7.0
  0
CIRCLE
  5
639
100
AcDbEntity
  8
0
100
AcDbCircle
 62
7
  6
CONTINUOUS
 10
1090.3687536128
 20
861.0029369835
 40
6.6
  0
CIRCLE
  5
63A
100
AcDbEntity
  8
0
100
AcDbCircle
 62
7
  6
CONTINUOUS
 10
1032.4132040354
 20
876.5320796897
 40
6.6
  0
ARC
  5
63B
100
AcDbEntity
  8
7_ALL_ROUNDS
100
AcDbCircle
 62
7
  6
CONTINUOUS
 10
991.8384530774
 20
1061.3304497509
 40
5.0
100
AcDbArc
 50
75.0
 51
165.0
  0
ARC
  5
63C
100
AcDbEntity
  8
7_ALL_ROUNDS
100
AcDbCircle
 62
7
  6
CONTINUOUS
 10
904.8752539229
 20
736.7793721177
 40
5.0
100
AcDbArc
 50
165.0
 51
255.0
  0
ARC
  5
63D
100
AcDbEntity
  8
0
100
AcDbCircle
 62
7
  6
CONTINUOUS
 10
1156.6462288199
 20
1017.1703393343
 40
5.0
100
AcDbArc
 50
13.3576365763
 51
75.0
  0
ARC
  5
63E
100
AcDbEntity
  8
0
100
AcDbCircle
 62
7
  6
CONTINUOUS
 10
1069.6830296654
 20
692.6192617012
 40
5.0
100
AcDbArc
 50
255.0
 51
316.6423634237
  0
CIRCLE
  5
63F
100
AcDbEntity
  8
0
100
AcDbCircle
 62
7
  6
CONTINUOUS
 10
565.6124456522
 20
251.8869940417
 40
7.0
  0
CIRCLE
  5
640
100
AcDbEntity
  8
0
100
AcDbCircle
 62
7
  6
CONTINUOUS
 10
565.6124456522
 20
191.8869940417
 40
7.0
  0
CIRCLE
  5
641
100
AcDbEntity
  8
0
100
AcDbCircle
 62
7
  6
CONTINUOUS
 10
565.6124456522
 20
251.8869940417
 40
6.6
  0
CIRCLE
  5
642
100
AcDbEntity
  8
0
100
AcDbCircle
 62
7
  6
CONTINUOUS
 10
565.6124456522
 20
191.8869940417
 40
6.6
  0
ARC
  5
643
100
AcDbEntity
  8
7_ALL_ROUNDS
100
AcDbCircle
 62
7
  6
CONTINUOUS
 10
397.6124456522
 20
318.3305875812
 40
5.0
100
AcDbArc
 50
90.0
 51
180.0
  0
ARC
  5
644
100
AcDbEntity
  8
7_ALL_ROUNDS
100
AcDbCircle
 62
7
  6
CONTINUOUS
 10
397.6124456522
 20
146.2438391731
 40
5.0
100
AcDbArc
 50
180.0
 51
241.6423591617
  0
ARC
  5
645
100
AcDbEntity
  8
7_ALL_ROUNDS
100
AcDbCircle
 62
7
  6
CONTINUOUS
 10
733.6124456522
 20
146.2438391731
 40
5.0
100
AcDbArc
 50
298.3576408379
 51
360.0
  0
ARC
  5
646
100
AcDbEntity
  8
7_ALL_ROUNDS
100
AcDbCircle
 62
7
  6
CONTINUOUS
 10
733.6124456522
 20
318.3305875812
 40
5.0
100
AcDbArc
 50
0.0
 51
90.0
  0
ARC
  5
647
100
AcDbEntity
  8
7_ALL_ROUNDS
100
AcDbCircle
 62
9
  6
CONTINUOUS
 10
397.5485720737
 20
314.5600024428
 40
4.9379787123
100
AcDbArc
 50
143.7281540361
 51
149.7548125355
  0
ARC
  5
648
100
AcDbEntity
  8
7_ALL_ROUNDS
100
AcDbCircle
 62
9
  6
CONTINUOUS
 10
733.6763192462
 20
314.560002451
 40
4.9379786949
100
AcDbArc
 50
30.2451872032
 51
36.2718481562
  0
ARC
  5
649
100
AcDbEntity
  8
0
100
AcDbCircle
 62
9
  6
CONTINUOUS
 10
733.9096258203
 20
146.248310874
 40
4.7028219578
100
AcDbArc
 50
343.8997145296
 51
359.9455200241
  0
ARC
  5
64A
100
AcDbEntity
  8
0
100
AcDbCircle
 62
7
  6
CONTINUOUS
 10
397.6124456522
 20
304.6550692193
 40
2.3748684174
100
AcDbArc
 50
90.0
 51
180.0
  0
ARC
  5
64B
100
AcDbEntity
  8
0
100
AcDbCircle
 62
7
  6
CONTINUOUS
 10
733.6124456522
 20
304.6550692193
 40
2.3748684174
100
AcDbArc
 50
0.0
 51
90.0
  0
ARC
  5
64C
100
AcDbEntity
  8
0
100
AcDbCircle
 62
7
  6
CONTINUOUS
 10
524.4494744039
 20
154.1065398277
 40
0.4370287518
100
AcDbArc
 50
177.6773470339
 51
179.999137425
  0
ARC
  5
64D
100
AcDbEntity
  8
0
100
AcDbCircle
 62
7
  6
CONTINUOUS
 10
594.4494744039
 20
154.1065398277
 40
0.4370287518
100
AcDbArc
 50
177.6773470339
 51
179.999137425
  0
ARC
  5
64E
100
AcDbEntity
  8
0
100
AcDbCircle
 62
7
  6
CONTINUOUS
 10
606.7754170057
 20
154.1065398645
 40
0.4370286465
100
AcDbArc
 50
0.0008577526
 51
2.3226491311
  0
ARC
  5
64F
100
AcDbEntity
  8
0
100
AcDbCircle
 62
7
  6
CONTINUOUS
 10
536.7754170057
 20
154.1065398645
 40
0.4370286465
100
AcDbArc
 50
0.0008577526
 51
2.322649131
  0
SPLINE
  5
650
100
AcDbEntity
  8
0
100
AcDbSpline
 62
7
  6
CONTINUOUS
 70
0
 71
3
 72
13
 73
9
 74
0
 42
0.0000001
 43
0.0000001
 44
0.0000000001
 40
0.0
 40
0.0
 40
0.0
 40
0.0
 40
0.2870479552
 40
0.5535684775
 40
0.6755022723
 40
0.7893312129
 40
0.8965440684
 40
1.0
 40
1.0
 40
1.0
 40
1.0
 10
621.5015719905
 20
478.7618478261
 30
0.0
 10
621.5015719905
 20
485.0673922948
 30
0.0
 10
619.8596373126
 20
497.2895804894
 30
0.0
 10
613.6266308844
 20
511.0752224591
 30
0.0
 10
606.4406131875
 20
519.5368273295
 30
0.0
 10
600.4127553359
 20
524.1662019278
 30
0.0
 10
593.8126350634
 20
527.0521790157
 30
0.0
 10
589.1612978187
 20
527.7116977746
 30
0.0
 10
586.8886950514
 20
527.7116977746
 30
0.0
  0
SPLINE
  5
651
100
AcDbEntity
  8
0
100
AcDbSpline
 62
7
  6
CONTINUOUS
 70
0
 71
3
 72
13
 73
9
 74
0
 42
0.0000001
 43
0.0000001
 44
0.0000000001
 40
0.0
 40
0.0
 40
0.0
 40
0.0
 40
0.2870471576
 40
0.5535677965
 40
0.6755016528
 40
0.7893308311
 40
0.8965439163
 40
1.0
 40
1.0
 40
1.0
 40
1.0
 10
553.8314530309
 20
478.7618478261
 30
0.0
 10
553.8314530309
 20
472.7397107733
 30
0.0
 10
555.3996356097
 20
461.0668450075
 30
0.0
 10
561.3524922972
 20
447.9007868953
 30
0.0
 10
568.2155247293
 20
439.8194438741
 30
0.0
 10
573.9724468596
 20
435.3980790972
 30
0.0
 10
580.2759271946
 20
432.6417502929
 30
0.0
 10
584.7182268943
 20
432.0118478261
 30
0.0
 10
586.8886950514
 20
432.0118478261
 30
0.0
  0
SPLINE
  5
652
100
AcDbEntity
  8
0
100
AcDbSpline
 62
7
  6
CONTINUOUS
 70
0
 71
3
 72
13
 73
9
 74
0
 42
0.0000001
 43
0.0000001
 44
0.0000000001
 40
0.0
 40
0.0
 40
0.0
 40
0.0
 40
0.2870479552
 40
0.5535684775
 40
0.6755022723
 40
0.7893312129
 40
0.8965440684
 40
1.0
 40
1.0
 40
1.0
 40
1.0
 10
625.7233193139
 20
478.7618478261
 30
0.0
 10
625.7233193139
 20
485.0673922948
 30
0.0
 10
627.3652539918
 20
497.2895804894
 30
0.0
 10
633.5982604199
 20
511.0752224591
 30
0.0
 10
640.7842781169
 20
519.5368273295
 30
0.0
 10
646.8121359684
 20
524.1662019278
 30
0.0
 10
653.4122562409
 20
527.0521790157
 30
0.0
 10
658.0635934857
 20
527.7116977746
 30
0.0
 10
660.336196253
 20
527.7116977746
 30
0.0
  0
SPLINE
  5
653
100
AcDbEntity
  8
0
100
AcDbSpline
 62
7
  6
CONTINUOUS
 70
0
 71
3
 72
13
 73
9
 74
0
 42
0.0000001
 43
0.0000001
 44
0.0000000001
 40
0.0
 40
0.0
 40
0.0
 40
0.0
 40
0.2870471576
 40
0.5535677965
 40
0.6755016528
 40
0.7893308311
 40
0.8965439163
 40
1.0
 40
1.0
 40
1.0
 40
1.0
 10
693.3934382734
 20
478.7618478261
 30
0.0
 10
693.3934382734
 20
472.7397107733
 30
0.0
 10
691.8252556947
 20
461.0668450075
 30
0.0
 10
685.8723990071
 20
447.9007868953
 30
0.0
 10
679.009366575
 20
439.8194438741
 30
0.0
 10
673.2524444447
 20
435.3980790972
 30
0.0
 10
666.9489641097
 20
432.6417502929
 30
0.0
 10
662.5066644101
 20
432.0118478261
 30
0.0
 10
660.336196253
 20
432.0118478261
 30
0.0
  0
SPLINE
  5
654
100
AcDbEntity
  8
0
100
AcDbSpline
 62
7
  6
CONTINUOUS
 70
0
 71
3
 72
13
 73
9
 74
0
 42
0.0000001
 43
0.0000001
 44
0.0000000001
 40
0.0
 40
0.0
 40
0.0
 40
0.0
 40
0.1034560837
 40
0.2106691689
 40
0.3244983472
 40
0.4464322035
 40
0.7129528424
 40
1.0
 40
1.0
 40
1.0
 40
1.0
 10
660.336196253
 20
525.5118478261
 30
0.0
 10
662.5066644101
 20
525.5118478261
 30
0.0
 10
666.9489641097
 20
524.8819453593
 30
0.0
 10
673.2524444447
 20
522.125616555
 30
0.0
 10
679.009366575
 20
517.704251778
 30
0.0
 10
685.8723990071
 20
509.6229087568
 30
0.0
 10
691.8252556947
 20
496.4568506447
 30
0.0
 10
693.3934382734
 20
484.7839848789
 30
0.0
 10
693.3934382734
 20
478.7618478261
 30
0.0
  0
SPLINE
  5
655
100
AcDbEntity
  8
0
100
AcDbSpline
 62
7
  6
CONTINUOUS
 70
0
 71
3
 72
13
 73
9
 74
0
 42
0.0000001
 43
0.0000001
 44
0.0000000001
 40
0.0
 40
0.0
 40
0.0
 40
0.0
 40
0.1034559316
 40
0.2106687871
 40
0.3244977277
 40
0.4464315225
 40
0.7129520448
 40
1.0
 40
1.0
 40
1.0
 40
1.0
 10
660.336196253
 20
429.8119978775
 30
0.0
 10
658.0635934857
 20
429.8119978775
 30
0.0
 10
653.4122562409
 20
430.4715166365
 30
0.0
 10
646.8121359684
 20
433.3574937244
 30
0.0
 10
640.7842781169
 20
437.9868683227
 30
0.0
 10
633.5982604199
 20
446.4484731931
 30
0.0
 10
627.3652539918
 20
460.2341151628
 30
0.0
 10
625.7233193139
 20
472.4563033574
 30
0.0
 10
625.7233193139
 20
478.7618478261
 30
0.0
  0
SPLINE
  5
656
100
AcDbEntity
  8
0
100
AcDbSpline
 62
7
  6
CONTINUOUS
 70
0
 71
3
 72
13
 73
9
 74
0
 42
0.0000001
 43
0.0000001
 44
0.0000000001
 40
0.0
 40
0.0
 40
0.0
 40
0.0
 40
0.1034560837
 40
0.2106691689
 40
0.3244983472
 40
0.4464322035
 40
0.7129528424
 40
1.0
 40
1.0
 40
1.0
 40
1.0
 10
586.8886950514
 20
525.5118478261
 30
0.0
 10
584.7182268943
 20
525.5118478261
 30
0.0
 10
580.2759271946
 20
524.8819453593
 30
0.0
 10
573.9724468596
 20
522.125616555
 30
0.0
 10
568.2155247293
 20
517.704251778
 30
0.0
 10
561.3524922972
 20
509.6229087568
 30
0.0
 10
555.3996356097
 20
496.4568506447
 30
0.0
 10
553.8314530309
 20
484.7839848789
 30
0.0
 10
553.8314530309
 20
478.7618478261
 30
0.0
  0
SPLINE
  5
657
100
AcDbEntity
  8
0
100
AcDbSpline
 62
7
  6
CONTINUOUS
 70
0
 71
3
 72
13
 73
9
 74
0
 42
0.0000001
 43
0.0000001
 44
0.0000000001
 40
0.0
 40
0.0
 40
0.0
 40
0.0
 40
0.1034559316
 40
0.2106687871
 40
0.3244977277
 40
0.4464315225
 40
0.7129520448
 40
1.0
 40
1.0
 40
1.0
 40
1.0
 10
586.8886950514
 20
429.8119978775
 30
0.0
 10
589.1612978187
 20
429.8119978775
 30
0.0
 10
593.8126350634
 20
430.4715166365
 30
0.0
 10
600.4127553359
 20
433.3574937244
 30
0.0
 10
606.4406131875
 20
437.9868683227
 30
0.0
 10
613.6266308844
 20
446.4484731931
 30
0.0
 10
619.8596373126
 20
460.2341151628
 30
0.0
 10
621.5015719905
 20
472.4563033574
 30
0.0
 10
621.5015719905
 20
478.7618478261
 30
0.0
  0
SPLINE
  5
658
100
AcDbEntity
  8
0
100
AcDbSpline
 62
7
  6
CONTINUOUS
 70
0
 71
3
 72
17
 73
13
 74
0
 42
0.0000001
 43
0.0000001
 44
0.0000000001
 40
0.0
 40
0.0
 40
0.0
 40
0.0
 40
0.1437189926
 40
0.2771516815
 40
0.3945253089
 40
0.448203121
 40
0.5
 40
0.551796879
 40
0.6054746911
 40
0.7228483185
 40
0.8562810074
 40
1.0
 40
1.0
 40
1.0
 40
1.0
 10
589.5345437375
 20
478.7618478261
 30
0.0
 10
589.5345437375
 20
480.9855126538
 30
0.0
 10
588.9498022045
 20
485.3005270954
 30
0.0
 10
586.4090108405
 20
490.9513709926
 30
0.0
 10
582.9634355129
 20
494.3960887553
 30
0.0
 10
579.7691910951
 20
495.7908487464
 30
0.0
 10
577.3286113698
 20
496.1379642972
 30
0.0
 10
574.8880316444
 20
495.7908487464
 30
0.0
 10
571.6937872266
 20
494.3960887553
 30
0.0
 10
568.248211899
 20
490.9513709926
 30
0.0
 10
565.707420535
 20
485.3005270954
 30
0.0
 10
565.122679002
 20
480.9855126538
 30
0.0
 10
565.122679002
 20
478.7618478261
 30
0.0
  0
SPLINE
  5
659
100
AcDbEntity
  8
0
100
AcDbSpline
 62
7
  6
CONTINUOUS
 70
0
 71
3
 72
17
 73
13
 74
0
 42
0.0000001
 43
0.0000001
 44
0.0000000001
 40
0.0
 40
0.0
 40
0.0
 40
0.0
 40
0.1437189926
 40
0.2771516815
 40
0.3945253089
 40
0.448203121
 40
0.5
 40
0.551796879
 40
0.6054746911
 40
0.7228483185
 40
0.8562810074
 40
1.0
 40
1.0
 40
1.0
 40
1.0
 10
589.5345437375
 20
478.7618478261
 30
0.0
 10
589.5345437375
 20
476.5381829983
 30
0.0
 10
588.9498022045
 20
472.2231685568
 30
0.0
 10
586.4090108405
 20
466.5723246596
 30
0.0
 10
582.9634355129
 20
463.1276068968
 30
0.0
 10
579.7691910951
 20
461.7328469058
 30
0.0
 10
577.3286113698
 20
461.385731355
 30
0.0
 10
574.8880316444
 20
461.7328469058
 30
0.0
 10
571.6937872266
 20
463.1276068968
 30
0.0
 10
568.248211899
 20
466.5723246596
 30
0.0
 10
565.707420535
 20
472.2231685568
 30
0.0
 10
565.122679002
 20
476.5381829983
 30
0.0
 10
565.122679002
 20
478.7618478261
 30
0.0
  0
SPLINE
  5
65A
100
AcDbEntity
  8
0
100
AcDbSpline
 62
7
  6
CONTINUOUS
 70
0
 71
3
 72
13
 73
9
 74
0
 42
0.0000001
 43
0.0000001
 44
0.0000000001
 40
0.0
 40
0.0
 40
0.0
 40
0.0
 40
0.2870479552
 40
0.5535684775
 40
0.6755022723
 40
0.7893312129
 40
0.8965440684
 40
1.0
 40
1.0
 40
1.0
 40
1.0
 10
694.949073192
 20
478.7618478261
 30
0.0
 10
694.949073192
 20
472.4563033574
 30
0.0
 10
693.3071385141
 20
460.2341151628
 30
0.0
 10
687.074132086
 20
446.4484731931
 30
0.0
 10
679.888114389
 20
437.9868683227
 30
0.0
 10
673.8602565375
 20
433.3574937244
 30
0.0
 10
667.260136265
 20
430.4715166365
 30
0.0
 10
662.6087990202
 20
429.8119978775
 30
0.0
 10
660.336196253
 20
429.8119978775
 30
0.0
  0
SPLINE
  5
65B
100
AcDbEntity
  8
0
100
AcDbSpline
 62
7
  6
CONTINUOUS
 70
0
 71
3
 72
13
 73
9
 74
0
 42
0.0000001
 43
0.0000001
 44
0.0000000001
 40
0.0
 40
0.0
 40
0.0
 40
0.0
 40
0.2870471576
 40
0.5535677965
 40
0.6755016528
 40
0.7893308311
 40
0.8965439163
 40
1.0
 40
1.0
 40
1.0
 40
1.0
 10
627.2789542325
 20
478.7618478261
 30
0.0
 10
627.2789542325
 20
484.7839848789
 30
0.0
 10
628.8471368112
 20
496.4568506447
 30
0.0
 10
634.7999934988
 20
509.6229087568
 30
0.0
 10
641.6630259309
 20
517.704251778
 30
0.0
 10
647.4199480612
 20
522.125616555
 30
0.0
 10
653.7234283962
 20
524.8819453593
 30
0.0
 10
658.1657280958
 20
525.5118478261
 30
0.0
 10
660.336196253
 20
525.5118478261
 30
0.0
  0
SPLINE
  5
65C
100
AcDbEntity
  8
0
100
AcDbSpline
 62
7
  6
CONTINUOUS
 70
0
 71
3
 72
13
 73
9
 74
0
 42
0.0000001
 43
0.0000001
 44
0.0000000001
 40
0.0
 40
0.0
 40
0.0
 40
0.0
 40
0.2839886602
 40
0.5500488193
 40
0.6728860084
 40
0.7880712813
 40
0.8964450891
 40
1.0
 40
1.0
 40
1.0
 40
1.0
 10
630.7296353247
 20
478.7618478261
 30
0.0
 10
630.7296353247
 20
484.402944456
 30
0.0
 10
632.1145048475
 20
495.3779737208
 30
0.0
 10
637.3542981936
 20
507.9112981806
 30
0.0
 10
643.4313184944
 20
515.9309687182
 30
0.0
 10
648.5792108208
 20
520.5684642374
 30
0.0
 10
654.2710609726
 20
523.8127560941
 30
0.0
 10
658.3730724816
 20
524.9712821932
 30
0.0
 10
660.4086868595
 20
525.2670905768
 30
0.0
  0
SPLINE
  5
65D
100
AcDbEntity
  8
0
100
AcDbSpline
 62
7
  6
CONTINUOUS
 70
0
 71
3
 72
19
 73
15
 74
0
 42
0.0000001
 43
0.0000001
 44
0.0000000001
 40
0.0
 40
0.0
 40
0.0
 40
0.0
 40
0.1435239776
 40
0.2767842387
 40
0.3377511361
 40
0.3946656065
 40
0.4482720342
 40
0.5
 40
0.5517279658
 40
0.6053343935
 40
0.6622488639
 40
0.7232157613
 40
0.8564760224
 40
1.0
 40
1.0
 40
1.0
 40
1.0
 10
634.7954993165
 20
478.7618478261
 30
0.0
 10
634.7954993165
 20
484.0433048888
 30
0.0
 10
636.1708259334
 20
494.2804798832
 30
0.0
 10
641.3913182154
 20
505.827187151
 30
0.0
 10
647.4106248206
 20
512.9145375021
 30
0.0
 10
652.4584860575
 20
516.7920524873
 30
0.0
 10
657.9901595748
 20
519.2093162382
 30
0.0
 10
663.7868773451
 20
520.0329994822
 30
0.0
 10
669.5835951155
 20
519.2093162382
 30
0.0
 10
675.1152686328
 20
516.7920524873
 30
0.0
 10
680.1631298697
 20
512.9145375021
 30
0.0
 10
686.1824364749
 20
505.827187151
 30
0.0
 10
691.4029287568
 20
494.2804798832
 30
0.0
 10
692.7782553738
 20
484.0433048888
 30
0.0
 10
692.7782553738
 20
478.7618478261
 30
0.0
  0
SPLINE
  5
65E
100
AcDbEntity
  8
0
100
AcDbSpline
 62
7
  6
CONTINUOUS
 70
0
 71
3
 72
19
 73
15
 74
0
 42
0.0000001
 43
0.0000001
 44
0.0000000001
 40
0.0
 40
0.0
 40
0.0
 40
0.0
 40
0.1435239776
 40
0.2767842387
 40
0.3377511361
 40
0.3946656065
 40
0.4482720342
 40
0.5
 40
0.5517279658
 40
0.6053343935
 40
0.6622488639
 40
0.7232157613
 40
0.8564760224
 40
1.0
 40
1.0
 40
1.0
 40
1.0
 10
692.7782553738
 20
478.7618478261
 30
0.0
 10
692.7782553738
 20
473.4803907634
 30
0.0
 10
691.4029287568
 20
463.243215769
 30
0.0
 10
686.1824364749
 20
451.6965085012
 30
0.0
 10
680.1631298697
 20
444.6091581501
 30
0.0
 10
675.1152686328
 20
440.7316431648
 30
0.0
 10
669.5835951155
 20
438.314379414
 30
0.0
 10
663.7868773451
 20
437.49069617
 30
0.0
 10
657.9901595748
 20
438.314379414
 30
0.0
 10
652.4584860575
 20
440.7316431648
 30
0.0
 10
647.4106248206
 20
444.6091581501
 30
0.0
 10
641.3913182154
 20
451.6965085012
 30
0.0
 10
636.1708259334
 20
463.243215769
 30
0.0
 10
634.7954993165
 20
473.4803907634
 30
0.0
 10
634.7954993165
 20
478.7618478261
 30
0.0
  0
SPLINE
  5
65F
100
AcDbEntity
  8
0
100
AcDbSpline
 62
7
  6
CONTINUOUS
 70
0
 71
3
 72
17
 73
13
 74
0
 42
0.0000001
 43
0.0000001
 44
0.0000000001
 40
0.0
 40
0.0
 40
0.0
 40
0.0
 40
0.1437189926
 40
0.2771516815
 40
0.3945253089
 40
0.448203121
 40
0.5
 40
0.551796879
 40
0.6054746911
 40
0.7228483185
 40
0.8562810074
 40
1.0
 40
1.0
 40
1.0
 40
1.0
 10
657.6903475668
 20
478.7618478261
 30
0.0
 10
657.6903475668
 20
480.9855126538
 30
0.0
 10
658.2750890998
 20
485.3005270954
 30
0.0
 10
660.8158804639
 20
490.9513709926
 30
0.0
 10
664.2614557915
 20
494.3960887553
 30
0.0
 10
667.4557002092
 20
495.7908487464
 30
0.0
 10
669.8962799346
 20
496.1379642972
 30
0.0
 10
672.33685966
 20
495.7908487464
 30
0.0
 10
675.5311040777
 20
494.3960887553
 30
0.0
 10
678.9766794053
 20
490.9513709926
 30
0.0
 10
681.5174707693
 20
485.3005270954
 30
0.0
 10
682.1022123024
 20
480.9855126538
 30
0.0
 10
682.1022123024
 20
478.7618478261
 30
0.0
  0
SPLINE
  5
660
100
AcDbEntity
  8
0
100
AcDbSpline
 62
7
  6
CONTINUOUS
 70
0
 71
3
 72
17
 73
13
 74
0
 42
0.0000001
 43
0.0000001
 44
0.0000000001
 40
0.0
 40
0.0
 40
0.0
 40
0.0
 40
0.1437189926
 40
0.2771516815
 40
0.3945253089
 40
0.448203121
 40
0.5
 40
0.551796879
 40
0.6054746911
 40
0.7228483185
 40
0.8562810074
 40
1.0
 40
1.0
 40
1.0
 40
1.0
 10
657.6903475668
 20
478.7618478261
 30
0.0
 10
657.6903475668
 20
476.5381829983
 30
0.0
 10
658.2750890998
 20
472.2231685568
 30
0.0
 10
660.8158804639
 20
466.5723246596
 30
0.0
 10
664.2614557915
 20
463.1276068968
 30
0.0
 10
667.4557002092
 20
461.7328469058
 30
0.0
 10
669.8962799346
 20
461.385731355
 30
0.0
 10
672.33685966
 20
461.7328469058
 30
0.0
 10
675.5311040777
 20
463.1276068968
 30
0.0
 10
678.9766794053
 20
466.5723246596
 30
0.0
 10
681.5174707693
 20
472.2231685568
 30
0.0
 10
682.1022123024
 20
476.5381829983
 30
0.0
 10
682.1022123024
 20
478.7618478261
 30
0.0
  0
SPLINE
  5
661
100
AcDbEntity
  8
0
100
AcDbSpline
 62
7
  6
CONTINUOUS
 70
0
 71
3
 72
13
 73
9
 74
0
 42
0.0000001
 43
0.0000001
 44
0.0000000001
 40
0.0
 40
0.0
 40
0.0
 40
0.0
 40
0.1035549109
 40
0.2119287187
 40
0.3271139916
 40
0.4499511807
 40
0.7160113398
 40
1.0
 40
1.0
 40
1.0
 40
1.0
 10
660.4086868595
 20
432.2566050754
 30
0.0
 10
658.3730724816
 20
432.552413459
 30
0.0
 10
654.2710609726
 20
433.7109395581
 30
0.0
 10
648.5792108208
 20
436.9552314147
 30
0.0
 10
643.4313184944
 20
441.592726934
 30
0.0
 10
637.3542981936
 20
449.6123974716
 30
0.0
 10
632.1145048475
 20
462.1457219314
 30
0.0
 10
630.7296353247
 20
473.1207511962
 30
0.0
 10
630.7296353247
 20
478.7618478261
 30
0.0
  0
SPLINE
  5
662
100
AcDbEntity
  8
0
100
AcDbSpline
 62
7
  6
CONTINUOUS
 70
0
 71
3
 72
13
 73
9
 74
0
 42
0.0000001
 43
0.0000001
 44
0.0000000001
 40
0.0
 40
0.0
 40
0.0
 40
0.0
 40
0.1034560837
 40
0.2106691689
 40
0.3244983472
 40
0.4464322035
 40
0.7129528424
 40
1.0
 40
1.0
 40
1.0
 40
1.0
 10
660.336196253
 20
432.0118478261
 30
0.0
 10
658.1657280958
 20
432.0118478261
 30
0.0
 10
653.7234283962
 20
432.6417502929
 30
0.0
 10
647.4199480612
 20
435.3980790972
 30
0.0
 10
641.6630259309
 20
439.8194438741
 30
0.0
 10
634.7999934988
 20
447.9007868953
 30
0.0
 10
628.8471368112
 20
461.0668450075
 30
0.0
 10
627.2789542325
 20
472.7397107733
 30
0.0
 10
627.2789542325
 20
478.7618478261
 30
0.0
  0
SPLINE
  5
663
100
AcDbEntity
  8
0
100
AcDbSpline
 62
7
  6
CONTINUOUS
 70
0
 71
3
 72
13
 73
9
 74
0
 42
0.0000001
 43
0.0000001
 44
0.0000000001
 40
0.0
 40
0.0
 40
0.0
 40
0.0
 40
0.1034560837
 40
0.2106691689
 40
0.3244983472
 40
0.4464322035
 40
0.7129528424
 40
1.0
 40
1.0
 40
1.0
 40
1.0
 10
662.5282272746
 20
527.7118478261
 30
0.0
 10
664.8008351097
 20
527.7118478261
 30
0.0
 10
669.452184207
 20
527.0523028903
 30
0.0
 10
676.0522989107
 20
524.1662644951
 30
0.0
 10
682.0801350236
 20
519.5368354934
 30
0.0
 10
689.2661336878
 20
511.0751939771
 30
0.0
 10
695.4991248077
 20
497.2895566597
 30
0.0
 10
697.1411042137
 20
485.0673795637
 30
0.0
 10
697.1411042137
 20
478.7618478261
 30
0.0
  0
SPLINE
  5
664
100
AcDbEntity
  8
0
100
AcDbSpline
 62
7
  6
CONTINUOUS
 70
0
 71
3
 72
13
 73
9
 74
0
 42
0.0000001
 43
0.0000001
 44
0.0000000001
 40
0.0
 40
0.0
 40
0.0
 40
0.0
 40
0.1034559316
 40
0.2106687871
 40
0.3244977277
 40
0.4464315225
 40
0.7129520448
 40
1.0
 40
1.0
 40
1.0
 40
1.0
 10
660.336196253
 20
527.7116977746
 30
0.0
 10
662.6087990202
 20
527.7116977746
 30
0.0
 10
667.260136265
 20
527.0521790157
 30
0.0
 10
673.8602565375
 20
524.1662019278
 30
0.0
 10
679.888114389
 20
519.5368273295
 30
0.0
 10
687.074132086
 20
511.0752224591
 30
0.0
 10
693.3071385141
 20
497.2895804894
 30
0.0
 10
694.949073192
 20
485.0673922948
 30
0.0
 10
694.949073192
 20
478.7618478261
 30
0.0
  0
SPLINE
  5
665
100
AcDbEntity
  8
0
100
AcDbSpline
 62
7
  6
CONTINUOUS
 70
0
 71
3
 72
13
 73
9
 74
0
 42
0.0000001
 43
0.0000001
 44
0.0000000001
 40
0.0
 40
0.0
 40
0.0
 40
0.0
 40
0.1034560837
 40
0.2106691689
 40
0.3244983472
 40
0.4464322035
 40
0.7129528424
 40
1.0
 40
1.0
 40
1.0
 40
1.0
 10
586.8886950514
 20
432.0118478261
 30
0.0
 10
589.0591632085
 20
432.0118478261
 30
0.0
 10
593.5014629082
 20
432.6417502929
 30
0.0
 10
599.8049432432
 20
435.3980790972
 30
0.0
 10
605.5618653735
 20
439.8194438741
 30
0.0
 10
612.4248978056
 20
447.9007868953
 30
0.0
 10
618.3777544931
 20
461.0668450075
 30
0.0
 10
619.9459370719
 20
472.7397107733
 30
0.0
 10
619.9459370719
 20
478.7618478261
 30
0.0
  0
SPLINE
  5
666
100
AcDbEntity
  8
0
100
AcDbSpline
 62
7
  6
CONTINUOUS
 70
0
 71
3
 72
13
 73
9
 74
0
 42
0.0000001
 43
0.0000001
 44
0.0000000001
 40
0.0
 40
0.0
 40
0.0
 40
0.0
 40
0.1035549109
 40
0.2119287187
 40
0.3271139916
 40
0.4499511807
 40
0.7160113398
 40
1.0
 40
1.0
 40
1.0
 40
1.0
 10
586.8162044448
 20
432.2566050754
 30
0.0
 10
588.8518188228
 20
432.552413459
 30
0.0
 10
592.9538303318
 20
433.7109395581
 30
0.0
 10
598.6456804836
 20
436.9552314147
 30
0.0
 10
603.79357281
 20
441.592726934
 30
0.0
 10
609.8705931107
 20
449.6123974716
 30
0.0
 10
615.1103864568
 20
462.1457219314
 30
0.0
 10
616.4952559797
 20
473.1207511962
 30
0.0
 10
616.4952559797
 20
478.7618478261
 30
0.0
  0
SPLINE
  5
667
100
AcDbEntity
  8
0
100
AcDbSpline
 62
7
  6
CONTINUOUS
 70
0
 71
3
 72
13
 73
9
 74
0
 42
0.0000001
 43
0.0000001
 44
0.0000000001
 40
0.0
 40
0.0
 40
0.0
 40
0.0
 40
0.1034559316
 40
0.2106687871
 40
0.3244977277
 40
0.4464315225
 40
0.7129520448
 40
1.0
 40
1.0
 40
1.0
 40
1.0
 10
586.8886950514
 20
527.7116977746
 30
0.0
 10
584.6160922841
 20
527.7116977746
 30
0.0
 10
579.9647550394
 20
527.0521790157
 30
0.0
 10
573.3646347669
 20
524.1662019278
 30
0.0
 10
567.3367769153
 20
519.5368273295
 30
0.0
 10
560.1507592184
 20
511.0752224591
 30
0.0
 10
553.9177527902
 20
497.2895804894
 30
0.0
 10
552.2758181123
 20
485.0673922948
 30
0.0
 10
552.2758181123
 20
478.7618478261
 30
0.0
  0
SPLINE
  5
668
100
AcDbEntity
  8
0
100
AcDbSpline
 62
7
  6
CONTINUOUS
 70
0
 71
3
 72
13
 73
9
 74
0
 42
0.0000001
 43
0.0000001
 44
0.0000000001
 40
0.0
 40
0.0
 40
0.0
 40
0.0
 40
0.1034560837
 40
0.2106691689
 40
0.3244983472
 40
0.4464322035
 40
0.7129528424
 40
1.0
 40
1.0
 40
1.0
 40
1.0
 10
584.6966640297
 20
527.7118478261
 30
0.0
 10
582.4240561946
 20
527.7118478261
 30
0.0
 10
577.7727070973
 20
527.0523028903
 30
0.0
 10
571.1725923936
 20
524.1662644951
 30
0.0
 10
565.1447562807
 20
519.5368354934
 30
0.0
 10
557.9587576165
 20
511.0751939771
 30
0.0
 10
551.7257664966
 20
497.2895566597
 30
0.0
 10
550.0837870906
 20
485.0673795637
 30
0.0
 10
550.0837870906
 20
478.7618478261
 30
0.0
  0
SPLINE
  5
669
100
AcDbEntity
  8
0
100
AcDbSpline
 62
7
  6
CONTINUOUS
 70
0
 71
3
 72
13
 73
9
 74
0
 42
0.0000001
 43
0.0000001
 44
0.0000000001
 40
0.0
 40
0.0
 40
0.0
 40
0.0
 40
0.2870471576
 40
0.5535677965
 40
0.6755016528
 40
0.7893308311
 40
0.8965439163
 40
1.0
 40
1.0
 40
1.0
 40
1.0
 10
697.1411042137
 20
478.7618478261
 30
0.0
 10
697.1411042137
 20
472.4563160885
 30
0.0
 10
695.4991248077
 20
460.2341389925
 30
0.0
 10
689.2661336878
 20
446.4485016751
 30
0.0
 10
682.0801350236
 20
437.9868601588
 30
0.0
 10
676.0522989107
 20
433.357431157
 30
0.0
 10
669.452184207
 20
430.4713927619
 30
0.0
 10
664.8008351097
 20
429.8118478261
 30
0.0
 10
662.5282272746
 20
429.8118478261
 30
0.0
  0
SPLINE
  5
66A
100
AcDbEntity
  8
0
100
AcDbSpline
 62
7
  6
CONTINUOUS
 70
0
 71
3
 72
13
 73
9
 74
0
 42
0.0000001
 43
0.0000001
 44
0.0000000001
 40
0.0
 40
0.0
 40
0.0
 40
0.0
 40
0.2870471576
 40
0.5535677965
 40
0.6755016528
 40
0.7893308311
 40
0.8965439163
 40
1.0
 40
1.0
 40
1.0
 40
1.0
 10
550.0837870906
 20
478.7618478261
 30
0.0
 10
550.0837870906
 20
472.4563160885
 30
0.0
 10
551.7257664966
 20
460.2341389925
 30
0.0
 10
557.9587576165
 20
446.4485016751
 30
0.0
 10
565.1447562807
 20
437.9868601588
 30
0.0
 10
571.1725923936
 20
433.357431157
 30
0.0
 10
577.7727070973
 20
430.4713927619
 30
0.0
 10
582.4240561946
 20
429.8118478261
 30
0.0
 10
584.6966640297
 20
429.8118478261
 30
0.0
  0
SPLINE
  5
66B
100
AcDbEntity
  8
7_ALL_ROUNDS
100
AcDbSpline
 62
9
  6
CONTINUOUS
 70
0
 71
3
 72
11
 73
7
 74
0
 42
0.0000001
 43
0.0000001
 44
0.0000000001
 40
0.0
 40
0.0
 40
0.0
 40
0.0
 40
0.2343492665
 40
0.4781202453
 40
0.7346849611
 40
1.0
 40
1.0
 40
1.0
 40
1.0
 10
392.6124456522
 20
546.3618478261
 30
0.0
 10
392.6124456522
 20
546.9337321301
 30
0.0
 10
392.8865418005
 20
548.1152927479
 30
0.0
 10
394.0238245109
 20
549.5645924947
 30
0.0
 10
395.680012738
 20
550.514720774
 30
0.0
 10
396.9649953373
 20
550.7328155792
 30
0.0
 10
397.6124456522
 20
550.7328155792
 30
0.0
  0
SPLINE
  5
66C
100
AcDbEntity
  8
7_ALL_ROUNDS
100
AcDbSpline
 62
9
  6
CONTINUOUS
 70
0
 71
3
 72
11
 73
7
 74
0
 42
0.0000001
 43
0.0000001
 44
0.0000000001
 40
0.0
 40
0.0
 40
0.0
 40
0.0
 40
0.1894096726
 40
0.418774952
 40
0.6949387519
 40
1.0
 40
1.0
 40
1.0
 40
1.0
 10
392.6124456522
 20
537.6355482929
 30
0.0
 10
392.6124456522
 20
538.0343438092
 30
0.0
 10
392.9491611862
 20
538.9199871731
 30
0.0
 10
394.1249668023
 20
539.8565214902
 30
0.0
 10
395.7401881022
 20
540.4621632392
 30
0.0
 10
396.9701497428
 20
540.5990483664
 30
0.0
 10
397.6124456522
 20
540.5990483664
 30
0.0
  0
SPLINE
  5
66D
100
AcDbEntity
  8
7_ALL_ROUNDS
100
AcDbSpline
 62
9
  6
CONTINUOUS
 70
0
 71
3
 72
12
 73
8
 74
0
 42
0.0000001
 43
0.0000001
 44
0.0000000001
 40
0.0
 40
0.0
 40
0.0
 40
0.0
 40
0.0321975348
 40
0.0931380258
 40
0.3089918692
 40
0.6266281346
 40
1.0
 40
1.0
 40
1.0
 40
1.0
 10
392.6124456522
 20
537.6355482929
 30
0.0
 10
392.6124456522
 20
537.6905760038
 30
0.0
 10
392.7502284402
 20
537.8183644602
 30
0.0
 10
393.233141014
 20
537.9864302961
 30
0.0
 10
394.2538044213
 20
538.1679737582
 30
0.0
 10
395.7905538298
 20
538.292514566
 30
0.0
 10
396.974328504
 20
538.3238230041
 30
0.0
 10
397.6124456522
 20
538.3238230041
 30
0.0
  0
SPLINE
  5
66E
100
AcDbEntity
  8
7_ALL_ROUNDS
100
AcDbSpline
 62
9
  6
CONTINUOUS
 70
0
 71
3
 72
12
 73
8
 74
0
 42
0.0000001
 43
0.0000001
 44
0.0000000001
 40
0.0
 40
0.0
 40
0.0
 40
0.0
 40
0.0321975347
 40
0.0931380258
 40
0.3089918687
 40
0.6266281352
 40
1.0
 40
1.0
 40
1.0
 40
1.0
 10
392.6124456522
 20
428.8881473592
 30
0.0
 10
392.6124456522
 20
428.8331196484
 30
0.0
 10
392.75022844
 20
428.705331192
 30
0.0
 10
393.2331410131
 20
428.5372653561
 30
0.0
 10
394.2538044217
 20
428.3557218973
 30
0.0
 10
395.7905538293
 20
428.2311810722
 30
0.0
 10
396.9743285052
 20
428.1998726698
 30
0.0
 10
397.6124456522
 20
428.1998726698
 30
0.0
  0
SPLINE
  5
66F
100
AcDbEntity
  8
7_ALL_ROUNDS
100
AcDbSpline
 62
9
  6
CONTINUOUS
 70
0
 71
3
 72
11
 73
7
 74
0
 42
0.0000001
 43
0.0000001
 44
0.0000000001
 40
0.0
 40
0.0
 40
0.0
 40
0.0
 40
0.1894096651
 40
0.4187749352
 40
0.6949387179
 40
1.0
 40
1.0
 40
1.0
 40
1.0
 10
392.6124456522
 20
428.8881473592
 30
0.0
 10
392.6124456522
 20
428.4893518588
 30
0.0
 10
392.9491611562
 20
427.6037085266
 30
0.0
 10
394.1249666992
 20
426.6671742388
 30
0.0
 10
395.7401879849
 20
426.0615324033
 30
0.0
 10
396.9701496711
 20
425.9246473016
 30
0.0
 10
397.6124456522
 20
425.9246473016
 30
0.0
  0
SPLINE
  5
670
100
AcDbEntity
  8
7_ALL_ROUNDS
100
AcDbSpline
 62
9
  6
CONTINUOUS
 70
0
 71
3
 72
10
 73
6
 74
0
 42
0.0000001
 43
0.0000001
 44
0.0000000001
 40
0.0
 40
0.0
 40
0.0
 40
0.0
 40
0.2389490983
 40
0.4844547236
 40
1.0
 40
1.0
 40
1.0
 40
1.0
 10
392.6124456522
 20
420.1618478261
 30
0.0
 10
392.6124456522
 20
419.7042365652
 30
0.0
 10
392.785301025
 20
418.7680949686
 30
0.0
 10
393.772113173
 20
417.0923645469
 30
0.0
 10
395.1181087503
 20
416.2739963268
 30
0.0
 10
396.0679753616
 20
416.0046359153
 30
0.0
  0
SPLINE
  5
671
100
AcDbEntity
  8
7_ALL_ROUNDS
100
AcDbSpline
 62
9
  6
CONTINUOUS
 70
0
 71
3
 72
10
 73
6
 74
0
 42
0.0000001
 43
0.0000001
 44
0.0000000001
 40
0.0
 40
0.0
 40
0.0
 40
0.0
 40
0.2389491541
 40
0.4844547857
 40
1.0
 40
1.0
 40
1.0
 40
1.0
 10
738.6124456522
 20
420.1618478261
 30
0.0
 10
738.6124456522
 20
419.7042385442
 30
0.0
 10
738.4395918417
 20
418.7681011533
 30
0.0
 10
737.4527880838
 20
417.0923763704
 30
0.0
 10
736.1068026682
 20
416.274006984
 30
0.0
 10
735.1569417987
 20
416.0046432563
 30
0.0
  0
SPLINE
  5
672
100
AcDbEntity
  8
7_ALL_ROUNDS
100
AcDbSpline
 62
9
  6
CONTINUOUS
 70
0
 71
3
 72
11
 73
7
 74
0
 42
0.0000001
 43
0.0000001
 44
0.0000000001
 40
0.0
 40
0.0
 40
0.0
 40
0.0
 40
0.1894096714
 40
0.4187749492
 40
0.6949387463
 40
1.0
 40
1.0
 40
1.0
 40
1.0
 10
738.6124456522
 20
428.8881473592
 30
0.0
 10
738.6124456522
 20
428.4893518456
 30
0.0
 10
738.275730123
 20
427.6037084873
 30
0.0
 10
737.0999245193
 20
426.6671741738
 30
0.0
 10
735.4847032208
 20
426.0615324138
 30
0.0
 10
734.2547415733
 20
425.9246472848
 30
0.0
 10
733.6124456522
 20
425.9246472848
 30
0.0
  0
SPLINE
  5
673
100
AcDbEntity
  8
7_ALL_ROUNDS
100
AcDbSpline
 62
9
  6
CONTINUOUS
 70
0
 71
3
 72
12
 73
8
 74
0
 42
0.0000001
 43
0.0000001
 44
0.0000000001
 40
0.0
 40
0.0
 40
0.0
 40
0.0
 40
0.0321975348
 40
0.0931380258
 40
0.3089918692
 40
0.6266281347
 40
1.0
 40
1.0
 40
1.0
 40
1.0
 10
738.6124456522
 20
428.8881473592
 30
0.0
 10
738.6124456522
 20
428.8331196484
 30
0.0
 10
738.474662864
 20
428.7053311921
 30
0.0
 10
737.9917502907
 20
428.5372653553
 30
0.0
 10
736.9710868823
 20
428.3557219003
 30
0.0
 10
735.4343374758
 20
428.231181063
 30
0.0
 10
734.2505627999
 20
428.1998726833
 30
0.0
 10
733.6124456522
 20
428.1998726833
 30
0.0
  0
SPLINE
  5
674
100
AcDbEntity
  8
7_ALL_ROUNDS
100
AcDbSpline
 62
9
  6
CONTINUOUS
 70
0
 71
3
 72
12
 73
8
 74
0
 42
0.0000001
 43
0.0000001
 44
0.0000000001
 40
0.0
 40
0.0
 40
0.0
 40
0.0
 40
0.0321975347
 40
0.0931380257
 40
0.3089918687
 40
0.6266281351
 40
1.0
 40
1.0
 40
1.0
 40
1.0
 10
738.6124456522
 20
537.6355482929
 30
0.0
 10
738.6124456522
 20
537.6905760037
 30
0.0
 10
738.4746628644
 20
537.8183644601
 30
0.0
 10
737.9917502914
 20
537.986430296
 30
0.0
 10
736.9710868832
 20
538.1679737548
 30
0.0
 10
735.4343374755
 20
538.29251458
 30
0.0
 10
734.2505627994
 20
538.3238229824
 30
0.0
 10
733.6124456522
 20
538.3238229824
 30
0.0
  0
SPLINE
  5
675
100
AcDbEntity
  8
7_ALL_ROUNDS
100
AcDbSpline
 62
9
  6
CONTINUOUS
 70
0
 71
3
 72
11
 73
7
 74
0
 42
0.0000001
 43
0.0000001
 44
0.0000000001
 40
0.0
 40
0.0
 40
0.0
 40
0.0
 40
0.189409665
 40
0.4187749351
 40
0.6949387175
 40
1.0
 40
1.0
 40
1.0
 40
1.0
 10
738.6124456522
 20
537.6355482929
 30
0.0
 10
738.6124456522
 20
538.0343437933
 30
0.0
 10
738.2757301477
 20
538.9199871246
 30
0.0
 10
737.0999246069
 20
539.8565214182
 30
0.0
 10
735.4847033153
 20
540.4621632306
 30
0.0
 10
734.2547416345
 20
540.5990483792
 30
0.0
 10
733.6124456522
 20
540.5990483792
 30
0.0
  0
SPLINE
  5
676
100
AcDbEntity
  8
7_ALL_ROUNDS
100
AcDbSpline
 62
9
  6
CONTINUOUS
 70
0
 71
3
 72
11
 73
7
 74
0
 42
0.0000001
 43
0.0000001
 44
0.0000000001
 40
0.0
 40
0.0
 40
0.0
 40
0.0
 40
0.2343492741
 40
0.4781202597
 40
0.7346849871
 40
1.0
 40
1.0
 40
1.0
 40
1.0
 10
738.6124456522
 20
546.3618478261
 30
0.0
 10
738.6124456522
 20
546.9337321484
 30
0.0
 10
738.3383494841
 20
548.1152928
 30
0.0
 10
737.2010667133
 20
549.564592585
 30
0.0
 10
735.5448784598
 20
550.5147207874
 30
0.0
 10
734.2598959033
 20
550.7328155686
 30
0.0
 10
733.6124456522
 20
550.7328155686
 30
0.0
  0
SPLINE
  5
677
100
AcDbEntity
  8
0
100
AcDbSpline
 62
7
  6
CONTINUOUS
 70
0
 71
3
 72
13
 73
9
 74
0
 42
0.0000001
 43
0.0000001
 44
0.0000000001
 40
0.0
 40
0.0
 40
0.0
 40
0.0
 40
0.2870479552
 40
0.5535684775
 40
0.6755022723
 40
0.7893312129
 40
0.8965440684
 40
1.0
 40
1.0
 40
1.0
 40
1.0
 10
552.2758181123
 20
478.7618478261
 30
0.0
 10
552.2758181123
 20
472.4563033574
 30
0.0
 10
553.9177527902
 20
460.2341151628
 30
0.0
 10
560.1507592184
 20
446.4484731931
 30
0.0
 10
567.3367769153
 20
437.9868683227
 30
0.0
 10
573.3646347669
 20
433.3574937244
 30
0.0
 10
579.9647550394
 20
430.4715166365
 30
0.0
 10
584.6160922841
 20
429.8119978775
 30
0.0
 10
586.8886950514
 20
429.8119978775
 30
0.0
  0
SPLINE
  5
678
100
AcDbEntity
  8
0
100
AcDbSpline
 62
7
  6
CONTINUOUS
 70
0
 71
3
 72
13
 73
9
 74
0
 42
0.0000001
 43
0.0000001
 44
0.0000000001
 40
0.0
 40
0.0
 40
0.0
 40
0.0
 40
0.2870471576
 40
0.5535677965
 40
0.6755016528
 40
0.7893308311
 40
0.8965439163
 40
1.0
 40
1.0
 40
1.0
 40
1.0
 10
619.9459370719
 20
478.7618478261
 30
0.0
 10
619.9459370719
 20
484.7839848789
 30
0.0
 10
618.3777544931
 20
496.4568506447
 30
0.0
 10
612.4248978056
 20
509.6229087568
 30
0.0
 10
605.5618653735
 20
517.704251778
 30
0.0
 10
599.8049432432
 20
522.125616555
 30
0.0
 10
593.5014629082
 20
524.8819453593
 30
0.0
 10
589.0591632085
 20
525.5118478261
 30
0.0
 10
586.8886950514
 20
525.5118478261
 30
0.0
  0
SPLINE
  5
679
100
AcDbEntity
  8
0
100
AcDbSpline
 62
7
  6
CONTINUOUS
 70
0
 71
3
 72
13
 73
9
 74
0
 42
0.0000001
 43
0.0000001
 44
0.0000000001
 40
0.0
 40
0.0
 40
0.0
 40
0.0
 40
0.2839886602
 40
0.5500488193
 40
0.6728860084
 40
0.7880712813
 40
0.8964450891
 40
1.0
 40
1.0
 40
1.0
 40
1.0
 10
616.4952559797
 20
478.7618478261
 30
0.0
 10
616.4952559797
 20
484.402944456
 30
0.0
 10
615.1103864568
 20
495.3779737208
 30
0.0
 10
609.8705931107
 20
507.9112981806
 30
0.0
 10
603.79357281
 20
515.9309687182
 30
0.0
 10
598.6456804836
 20
520.5684642374
 30
0.0
 10
592.9538303318
 20
523.8127560941
 30
0.0
 10
588.8518188228
 20
524.9712821932
 30
0.0
 10
586.8162044448
 20
525.2670905768
 30
0.0
  0
SPLINE
  5
67A
100
AcDbEntity
  8
0
100
AcDbSpline
 62
7
  6
CONTINUOUS
 70
0
 71
3
 72
19
 73
15
 74
0
 42
0.0000001
 43
0.0000001
 44
0.0000000001
 40
0.0
 40
0.0
 40
0.0
 40
0.0
 40
0.1435239776
 40
0.2767842387
 40
0.3377511361
 40
0.3946656065
 40
0.4482720342
 40
0.5
 40
0.5517279658
 40
0.6053343935
 40
0.6622488639
 40
0.7232157613
 40
0.8564760224
 40
1.0
 40
1.0
 40
1.0
 40
1.0
 10
612.4293919879
 20
478.7618478261
 30
0.0
 10
612.4293919879
 20
484.0433048888
 30
0.0
 10
611.0540653709
 20
494.2804798832
 30
0.0
 10
605.833573089
 20
505.827187151
 30
0.0
 10
599.8142664837
 20
512.9145375021
 30
0.0
 10
594.7664052468
 20
516.7920524873
 30
0.0
 10
589.2347317295
 20
519.2093162382
 30
0.0
 10
583.4380139592
 20
520.0329994822
 30
0.0
 10
577.6412961889
 20
519.2093162382
 30
0.0
 10
572.1096226716
 20
516.7920524873
 30
0.0
 10
567.0617614347
 20
512.9145375021
 30
0.0
 10
561.0424548294
 20
505.827187151
 30
0.0
 10
555.8219625475
 20
494.2804798832
 30
0.0
 10
554.4466359306
 20
484.0433048888
 30
0.0
 10
554.4466359306
 20
478.7618478261
 30
0.0
  0
SPLINE
  5
67B
100
AcDbEntity
  8
0
100
AcDbSpline
 62
7
  6
CONTINUOUS
 70
0
 71
3
 72
19
 73
15
 74
0
 42
0.0000001
 43
0.0000001
 44
0.0000000001
 40
0.0
 40
0.0
 40
0.0
 40
0.0
 40
0.1435239776
 40
0.2767842387
 40
0.3377511361
 40
0.3946656065
 40
0.4482720342
 40
0.5
 40
0.5517279658
 40
0.6053343935
 40
0.6622488639
 40
0.7232157613
 40
0.8564760224
 40
1.0
 40
1.0
 40
1.0
 40
1.0
 10
554.4466359306
 20
478.7618478261
 30
0.0
 10
554.4466359306
 20
473.4803907634
 30
0.0
 10
555.8219625475
 20
463.243215769
 30
0.0
 10
561.0424548294
 20
451.6965085012
 30
0.0
 10
567.0617614347
 20
444.6091581501
 30
0.0
 10
572.1096226716
 20
440.7316431648
 30
0.0
 10
577.6412961889
 20
438.314379414
 30
0.0
 10
583.4380139592
 20
437.49069617
 30
0.0
 10
589.2347317295
 20
438.314379414
 30
0.0
 10
594.7664052468
 20
440.7316431648
 30
0.0
 10
599.8142664837
 20
444.6091581501
 30
0.0
 10
605.833573089
 20
451.6965085012
 30
0.0
 10
611.0540653709
 20
463.243215769
 30
0.0
 10
612.4293919879
 20
473.4803907634
 30
0.0
 10
612.4293919879
 20
478.7618478261
 30
0.0
  0
SPLINE
  5
67C
100
AcDbEntity
  8
7_ALL_ROUNDS
100
AcDbSpline
 62
9
  6
CONTINUOUS
 70
0
 71
3
 72
11
 73
7
 74
0
 42
0.0000001
 43
0.0000001
 44
0.0000000001
 40
0.0
 40
0.0
 40
0.0
 40
0.0
 40
0.1681586052
 40
0.3925265591
 40
0.6780496727
 40
1.0
 40
1.0
 40
1.0
 40
1.0
 10
392.6124456522
 20
714.9370957438
 30
0.0
 10
392.6124456522
 20
714.6023736946
 30
0.0
 10
392.9930213
 20
713.8341092479
 30
0.0
 10
394.1641245779
 20
713.1070512576
 30
0.0
 10
395.7573813975
 20
712.6175882596
 30
0.0
 10
396.9715990349
 20
712.5092075871
 30
0.0
 10
397.6124456522
 20
712.5092075871
 30
0.0
  0
SPLINE
  5
67D
100
AcDbEntity
  8
7_ALL_ROUNDS
100
AcDbSpline
 62
9
  6
CONTINUOUS
 70
0
 71
3
 72
9
 73
5
 74
0
 42
0.0000001
 43
0.0000001
 44
0.0000000001
 40
0.0
 40
0.0
 40
0.0
 40
0.0
 40
0.4893335318
 40
1.0
 40
1.0
 40
1.0
 40
1.0
 10
392.6124456522
 20
705.0218801405
 30
0.0
 10
392.6124456522
 20
704.6194474783
 30
0.0
 10
392.7706530431
 20
703.7905066377
 30
0.0
 10
393.2095794346
 20
703.0742731389
 30
0.0
 10
393.4809043148
 20
702.7537055883
 30
0.0
  0
SPLINE
  5
67E
100
AcDbEntity
  8
7_ALL_ROUNDS
100
AcDbSpline
 62
9
  6
CONTINUOUS
 70
0
 71
3
 72
9
 73
5
 74
0
 42
0.0000001
 43
0.0000001
 44
0.0000000001
 40
0.0
 40
0.0
 40
0.0
 40
0.0
 40
0.4813303844
 40
1.0
 40
1.0
 40
1.0
 40
1.0
 10
393.4809043148
 20
702.7537055883
 30
0.0
 10
393.9571364374
 20
702.191042242
 30
0.0
 10
395.2703006565
 20
701.2852758142
 30
0.0
 10
396.8181134271
 20
700.9947636393
 30
0.0
 10
397.6124456522
 20
700.9947636393
 30
0.0
  0
SPLINE
  5
67F
100
AcDbEntity
  8
7_ALL_ROUNDS
100
AcDbSpline
 62
9
  6
CONTINUOUS
 70
0
 71
3
 72
8
 73
4
 74
0
 42
0.0000001
 43
0.0000001
 44
0.0000000001
 40
0.0
 40
0.0
 40
0.0
 40
0.0
 40
1.0
 40
1.0
 40
1.0
 40
1.0
 10
392.6124456522
 20
705.0218801405
 30
0.0
 10
392.6124456522
 20
704.1665195384
 30
0.0
 10
392.8519060464
 20
703.2838172304
 30
0.0
 10
393.2827617942
 20
702.5448956619
 30
0.0
  0
SPLINE
  5
680
100
AcDbEntity
  8
7_ALL_ROUNDS
100
AcDbSpline
 62
9
  6
CONTINUOUS
 70
0
 71
3
 72
9
 73
5
 74
0
 42
0.0000001
 43
0.0000001
 44
0.0000000001
 40
0.0
 40
0.0
 40
0.0
 40
0.0
 40
0.4990785587
 40
1.0
 40
1.0
 40
1.0
 40
1.0
 10
393.5674794852
 20
702.1107697762
 30
0.0
 10
394.0259946595
 20
701.4860458475
 30
0.0
 10
395.2596019708
 20
700.4382405993
 30
0.0
 10
396.8346543972
 20
700.0694789127
 30
0.0
 10
397.6124456522
 20
700.0694789127
 30
0.0
  0
SPLINE
  5
681
100
AcDbEntity
  8
0
100
AcDbSpline
 62
9
  6
CONTINUOUS
 70
0
 71
3
 72
11
 73
7
 74
0
 42
0.0000001
 43
0.0000001
 44
0.0000000001
 40
0.0
 40
0.0
 40
0.0
 40
0.0
 40
0.1300094601
 40
0.336254738
 40
0.6304730117
 40
1.0
 40
1.0
 40
1.0
 40
1.0
 10
392.6124456522
 20
873.34832579
 30
0.0
 10
392.6124456522
 20
873.4776722576
 30
0.0
 10
392.8286098374
 20
873.7864782017
 30
0.0
 10
393.3921237449
 20
874.06128209
 30
0.0
 10
394.2219426594
 20
874.3220869965
 30
0.0
 10
394.8734702645
 20
874.4362654024
 30
0.0
 10
395.2375772348
 20
874.4871295885
 30
0.0
  0
SPLINE
  5
682
100
AcDbEntity
  8
0
100
AcDbSpline
 62
7
  6
CONTINUOUS
 70
0
 71
3
 72
11
 73
7
 74
0
 42
0.0000001
 43
0.0000001
 44
0.0000000001
 40
0.0
 40
0.0
 40
0.0
 40
0.0
 40
0.3989005082
 40
0.7080174173
 40
0.9086837825
 40
1.0
 40
1.0
 40
1.0
 40
1.0
 10
395.2375772348
 20
725.5615773819
 30
0.0
 10
394.8745605882
 20
725.535781967
 30
0.0
 10
394.2380411474
 20
725.4811052171
 30
0.0
 10
393.3946311105
 20
725.3426957375
 30
0.0
 10
392.9076562095
 20
725.2281500086
 30
0.0
 10
392.6124456522
 20
725.0656176232
 30
0.0
 10
392.6124456522
 20
724.9823063926
 30
0.0
  0
SPLINE
  5
683
100
AcDbEntity
  8
7_ALL_ROUNDS
100
AcDbSpline
 62
9
  6
CONTINUOUS
 70
0
 71
3
 72
8
 73
4
 74
0
 42
0.0000001
 43
0.0000001
 44
0.0000000001
 40
0.0
 40
0.0
 40
0.0
 40
0.0
 40
1.0
 40
1.0
 40
1.0
 40
1.0
 10
738.6124456522
 20
705.0218801405
 30
0.0
 10
738.6124456522
 20
704.1665195287
 30
0.0
 10
738.3729852518
 20
703.2838172103
 30
0.0
 10
737.9421294948
 20
702.5448956361
 30
0.0
  0
SPLINE
  5
684
100
AcDbEntity
  8
7_ALL_ROUNDS
100
AcDbSpline
 62
9
  6
CONTINUOUS
 70
0
 71
3
 72
9
 73
5
 74
0
 42
0.0000001
 43
0.0000001
 44
0.0000000001
 40
0.0
 40
0.0
 40
0.0
 40
0.0
 40
0.4990785587
 40
1.0
 40
1.0
 40
1.0
 40
1.0
 10
737.6574119626
 20
702.1107699718
 30
0.0
 10
737.1988967962
 20
701.4860459886
 30
0.0
 10
735.965289453
 20
700.4382406413
 30
0.0
 10
734.3902369465
 20
700.0694789096
 30
0.0
 10
733.6124456522
 20
700.0694789096
 30
0.0
  0
SPLINE
  5
685
100
AcDbEntity
  8
7_ALL_ROUNDS
100
AcDbSpline
 62
9
  6
CONTINUOUS
 70
0
 71
3
 72
9
 73
5
 74
0
 42
0.0000001
 43
0.0000001
 44
0.0000000001
 40
0.0
 40
0.0
 40
0.0
 40
0.0
 40
0.4893335173
 40
1.0
 40
1.0
 40
1.0
 40
1.0
 10
738.6124456522
 20
705.0218801405
 30
0.0
 10
738.6124456522
 20
704.6194470626
 30
0.0
 10
738.4542379236
 20
703.7905053304
 30
0.0
 10
738.0153106632
 20
703.0742712791
 30
0.0
 10
737.743985273
 20
702.7537035599
 30
0.0
  0
SPLINE
  5
686
100
AcDbEntity
  8
7_ALL_ROUNDS
100
AcDbSpline
 62
9
  6
CONTINUOUS
 70
0
 71
3
 72
9
 73
5
 74
0
 42
0.0000001
 43
0.0000001
 44
0.0000000001
 40
0.0
 40
0.0
 40
0.0
 40
0.0
 40
0.4813303723
 40
1.0
 40
1.0
 40
1.0
 40
1.0
 10
737.743985273
 20
702.7537035599
 30
0.0
 10
737.267753054
 20
702.1910408616
 30
0.0
 10
735.9545893508
 20
701.2852754688
 30
0.0
 10
734.4067774501
 20
700.9947636487
 30
0.0
 10
733.6124456522
 20
700.9947636487
 30
0.0
  0
SPLINE
  5
687
100
AcDbEntity
  8
7_ALL_ROUNDS
100
AcDbSpline
 62
9
  6
CONTINUOUS
 70
0
 71
3
 72
11
 73
7
 74
0
 42
0.0000001
 43
0.0000001
 44
0.0000000001
 40
0.0
 40
0.0
 40
0.0
 40
0.0
 40
0.1681586111
 40
0.3925265735
 40
0.6780497033
 40
1.0
 40
1.0
 40
1.0
 40
1.0
 10
738.6124456522
 20
714.9370957438
 30
0.0
 10
738.6124456522
 20
714.6023736829
 30
0.0
 10
738.2318699753
 20
713.8341092131
 30
0.0
 10
737.0607666366
 20
713.107051203
 30
0.0
 10
735.4675098097
 20
712.6175882729
 30
0.0
 10
734.2532922085
 20
712.509207568
 30
0.0
 10
733.6124456522
 20
712.509207568
 30
0.0
  0
SPLINE
  5
688
100
AcDbEntity
  8
0
100
AcDbSpline
 62
7
  6
CONTINUOUS
 70
0
 71
3
 72
11
 73
7
 74
0
 42
0.0000001
 43
0.0000001
 44
0.0000000001
 40
0.0
 40
0.0
 40
0.0
 40
0.0
 40
0.3989005082
 40
0.7080174173
 40
0.9086837825
 40
1.0
 40
1.0
 40
1.0
 40
1.0
 10
735.9873140696
 20
725.5615773819
 30
0.0
 10
736.3503307161
 20
725.535781967
 30
0.0
 10
736.986850157
 20
725.4811052171
 30
0.0
 10
737.8302601939
 20
725.3426957375
 30
0.0
 10
738.3172350949
 20
725.2281500086
 30
0.0
 10
738.6124456522
 20
725.0656176232
 30
0.0
 10
738.6124456522
 20
724.9823063926
 30
0.0
  0
SPLINE
  5
689
100
AcDbEntity
  8
0
100
AcDbSpline
 62
9
  6
CONTINUOUS
 70
0
 71
3
 72
11
 73
7
 74
0
 42
0.0000001
 43
0.0000001
 44
0.0000000001
 40
0.0
 40
0.0
 40
0.0
 40
0.0
 40
0.1300094551
 40
0.3362547421
 40
0.6304729685
 40
1.0
 40
1.0
 40
1.0
 40
1.0
 10
738.6124456522
 20
873.34832579
 30
0.0
 10
738.6124456522
 20
873.4776722526
 30
0.0
 10
738.3962814728
 20
873.7864782036
 30
0.0
 10
737.8327675978
 20
874.0612820704
 30
0.0
 10
737.0029486843
 20
874.322086986
 30
0.0
 10
736.3514210825
 20
874.4362653965
 30
0.0
 10
735.9873140696
 20
874.4871295885
 30
0.0
  0
SPLINE
  5
68A
100
AcDbEntity
  8
0
100
AcDbSpline
 62
7
  6
CONTINUOUS
 70
0
 71
3
 72
15
 73
11
 74
0
 42
0.0000001
 43
0.0000001
 44
0.0000000001
 40
0.0
 40
0.0
 40
0.0
 40
0.0
 40
0.1230049411
 40
0.2471697766
 40
0.3730052704
 40
0.4999999999
 40
0.6269947294
 40
0.7528302233
 40
0.8769950589
 40
1.0
 40
1.0
 40
1.0
 40
1.0
 10
558.6124456212
 20
851.6912540323
 30
0.0
 10
558.6124456113
 20
850.8105659621
 30
0.0
 10
558.9814559835
 20
849.0205940076
 30
0.0
 10
560.5477903501
 20
846.7733317447
 30
0.0
 10
562.8765855677
 20
845.2774944414
 30
0.0
 10
565.6124455744
 20
844.7552907389
 30
0.0
 10
568.3483055925
 20
845.277494384
 30
0.0
 10
570.6771008433
 20
846.7733316382
 30
0.0
 10
572.2434352603
 20
849.0205938675
 30
0.0
 10
572.6124456732
 20
850.8105658145
 30
0.0
 10
572.6124456831
 20
851.691253885
 30
0.0
  0
SPLINE
  5
68B
100
AcDbEntity
  8
0
100
AcDbSpline
 62
7
  6
CONTINUOUS
 70
0
 71
3
 72
15
 73
11
 74
0
 42
0.0000001
 43
0.0000001
 44
0.0000000001
 40
0.0
 40
0.0
 40
0.0
 40
0.0
 40
0.1230049411
 40
0.2471697766
 40
0.3730052704
 40
0.4999999999
 40
0.6269947294
 40
0.7528302233
 40
0.8769950589
 40
1.0
 40
1.0
 40
1.0
 40
1.0
 10
572.6124456831
 20
851.691253885
 30
0.0
 10
572.6124456931
 20
852.5719419552
 30
0.0
 10
572.2434353208
 20
854.3619139097
 30
0.0
 10
570.6771009543
 20
856.6091761726
 30
0.0
 10
568.3483057366
 20
858.1050134759
 30
0.0
 10
565.61244573
 20
858.6272171784
 30
0.0
 10
562.8765857119
 20
858.1050135332
 30
0.0
 10
560.547790461
 20
856.6091762791
 30
0.0
 10
558.981456044
 20
854.3619140497
 30
0.0
 10
558.6124456312
 20
852.5719421027
 30
0.0
 10
558.6124456212
 20
851.6912540323
 30
0.0
  0
SPLINE
  5
68C
100
AcDbEntity
  8
0
100
AcDbSpline
 62
7
  6
CONTINUOUS
 70
0
 71
3
 72
15
 73
11
 74
0
 42
0.0000001
 43
0.0000001
 44
0.0000000001
 40
0.0
 40
0.0
 40
0.0
 40
0.0
 40
0.1230049411
 40
0.2471697766
 40
0.3730052704
 40
0.4999999999
 40
0.6269947294
 40
0.7528302233
 40
0.8769950589
 40
1.0
 40
1.0
 40
1.0
 40
1.0
 10
572.6124456831
 20
793.7357043076
 30
0.0
 10
572.6124456931
 20
794.6163923778
 30
0.0
 10
572.2434353208
 20
796.4063643323
 30
0.0
 10
570.6771009543
 20
798.6536265952
 30
0.0
 10
568.3483057366
 20
800.1494638986
 30
0.0
 10
565.61244573
 20
800.671667601
 30
0.0
 10
562.8765857119
 20
800.1494639559
 30
0.0
 10
560.547790461
 20
798.6536267017
 30
0.0
 10
558.981456044
 20
796.4063644724
 30
0.0
 10
558.6124456312
 20
794.6163925254
 30
0.0
 10
558.6124456212
 20
793.7357044549
 30
0.0
  0
SPLINE
  5
68D
100
AcDbEntity
  8
0
100
AcDbSpline
 62
7
  6
CONTINUOUS
 70
0
 71
3
 72
15
 73
11
 74
0
 42
0.0000001
 43
0.0000001
 44
0.0000000001
 40
0.0
 40
0.0
 40
0.0
 40
0.0
 40
0.1230049411
 40
0.2471697766
 40
0.3730052704
 40
0.4999999999
 40
0.6269947294
 40
0.7528302233
 40
0.8769950589
 40
1.0
 40
1.0
 40
1.0
 40
1.0
 10
558.6124456212
 20
793.7357044549
 30
0.0
 10
558.6124456113
 20
792.8550163847
 30
0.0
 10
558.9814559835
 20
791.0650444302
 30
0.0
 10
560.5477903501
 20
788.8177821673
 30
0.0
 10
562.8765855677
 20
787.321944864
 30
0.0
 10
565.6124455744
 20
786.7997411616
 30
0.0
 10
568.3483055925
 20
787.3219448067
 30
0.0
 10
570.6771008433
 20
788.8177820608
 30
0.0
 10
572.2434352603
 20
791.0650442902
 30
0.0
 10
572.6124456732
 20
792.8550162372
 30
0.0
 10
572.6124456831
 20
793.7357043076
 30
0.0
  0
SPLINE
  5
68E
100
AcDbEntity
  8
0
100
AcDbSpline
 62
7
  6
CONTINUOUS
 70
0
 71
3
 72
15
 73
11
 74
0
 42
0.0000001
 43
0.0000001
 44
0.0000000001
 40
0.0
 40
0.0
 40
0.0
 40
0.0
 40
0.1230049381
 40
0.2471697746
 40
0.3730052696
 40
0.5
 40
0.6269947304
 40
0.7528302255
 40
0.876995062
 40
1.0
 40
1.0
 40
1.0
 40
1.0
 10
572.2124456522
 20
851.5877263406
 30
0.0
 10
572.2124456164
 20
850.7573633233
 30
0.0
 10
571.8645216457
 20
849.0696754889
 30
0.0
 10
570.3876920484
 20
846.9508282299
 30
0.0
 10
568.1919708285
 20
845.5404673454
 30
0.0
 10
565.6124456521
 20
845.0481038745
 30
0.0
 10
563.0329204769
 20
845.5404673455
 30
0.0
 10
560.837199251
 20
846.9508282292
 30
0.0
 10
559.3603696713
 20
849.0696754919
 30
0.0
 10
559.0124456692
 20
850.7573633242
 30
0.0
 10
559.0124456522
 20
851.5877263406
 30
0.0
  0
SPLINE
  5
68F
100
AcDbEntity
  8
0
100
AcDbSpline
 62
7
  6
CONTINUOUS
 70
0
 71
3
 72
15
 73
11
 74
0
 42
0.0000001
 43
0.0000001
 44
0.0000000001
 40
0.0
 40
0.0
 40
0.0
 40
0.0
 40
0.1230049381
 40
0.2471697746
 40
0.3730052696
 40
0.5
 40
0.6269947304
 40
0.7528302255
 40
0.876995062
 40
1.0
 40
1.0
 40
1.0
 40
1.0
 10
559.0124456522
 20
851.5877263406
 30
0.0
 10
559.012445688
 20
852.4180893579
 30
0.0
 10
559.3603696586
 20
854.1057771923
 30
0.0
 10
560.8371992559
 20
856.2246244513
 30
0.0
 10
563.0329204759
 20
857.6349853358
 30
0.0
 10
565.6124456523
 20
858.1273488067
 30
0.0
 10
568.1919708274
 20
857.6349853356
 30
0.0
 10
570.3876920534
 20
856.2246244519
 30
0.0
 10
571.864521633
 20
854.1057771892
 30
0.0
 10
572.2124456351
 20
852.418089357
 30
0.0
 10
572.2124456522
 20
851.5877263406
 30
0.0
  0
SPLINE
  5
690
100
AcDbEntity
  8
0
100
AcDbSpline
 62
7
  6
CONTINUOUS
 70
0
 71
3
 72
15
 73
11
 74
0
 42
0.0000001
 43
0.0000001
 44
0.0000000001
 40
0.0
 40
0.0
 40
0.0
 40
0.0
 40
0.1230049381
 40
0.2471697746
 40
0.3730052696
 40
0.5
 40
0.6269947304
 40
0.7528302255
 40
0.876995062
 40
1.0
 40
1.0
 40
1.0
 40
1.0
 10
559.0124456522
 20
793.6321767632
 30
0.0
 10
559.012445688
 20
794.4625397806
 30
0.0
 10
559.3603696586
 20
796.150227615
 30
0.0
 10
560.8371992559
 20
798.2690748739
 30
0.0
 10
563.0329204759
 20
799.6794357585
 30
0.0
 10
565.6124456523
 20
800.1717992293
 30
0.0
 10
568.1919708274
 20
799.6794357583
 30
0.0
 10
570.3876920534
 20
798.2690748746
 30
0.0
 10
571.864521633
 20
796.1502276119
 30
0.0
 10
572.2124456351
 20
794.4625397796
 30
0.0
 10
572.2124456522
 20
793.6321767632
 30
0.0
  0
SPLINE
  5
691
100
AcDbEntity
  8
0
100
AcDbSpline
 62
7
  6
CONTINUOUS
 70
0
 71
3
 72
15
 73
11
 74
0
 42
0.0000001
 43
0.0000001
 44
0.0000000001
 40
0.0
 40
0.0
 40
0.0
 40
0.0
 40
0.1230049381
 40
0.2471697746
 40
0.3730052696
 40
0.5
 40
0.6269947304
 40
0.7528302255
 40
0.876995062
 40
1.0
 40
1.0
 40
1.0
 40
1.0
 10
572.2124456522
 20
793.6321767632
 30
0.0
 10
572.2124456164
 20
792.8018137459
 30
0.0
 10
571.8645216457
 20
791.1141259115
 30
0.0
 10
570.3876920484
 20
788.9952786526
 30
0.0
 10
568.1919708285
 20
787.584917768
 30
0.0
 10
565.6124456521
 20
787.0925542972
 30
0.0
 10
563.0329204769
 20
787.5849177682
 30
0.0
 10
560.837199251
 20
788.9952786519
 30
0.0
 10
559.3603696713
 20
791.1141259146
 30
0.0
 10
559.0124456692
 20
792.8018137468
 30
0.0
 10
559.0124456522
 20
793.6321767632
 30
0.0
  0
SPLINE
  5
692
100
AcDbEntity
  8
0
100
AcDbSpline
 62
7
  6
CONTINUOUS
 70
0
 71
3
 72
11
 73
7
 74
0
 42
0.0000001
 43
0.0000001
 44
0.0000000001
 40
0.0
 40
0.0
 40
0.0
 40
0.0
 40
0.2372287559
 40
0.5000003298
 40
0.7627877543
 40
1.0
 40
1.0
 40
1.0
 40
1.0
 10
1623.2036703721
 20
705.081654981
 30
0.0
 10
1623.2036704147
 20
706.1250960188
 30
0.0
 10
1623.5952142517
 20
708.325733117
 30
0.0
 10
1624.959681608
 20
711.4180320632
 30
0.0
 10
1626.9561338796
 20
714.1452356077
 30
0.0
 10
1628.6664283662
 20
715.5843242251
 30
0.0
 10
1629.5701312362
 20
716.1058017217
 30
0.0
  0
SPLINE
  5
693
100
AcDbEntity
  8
0
100
AcDbSpline
 62
7
  6
CONTINUOUS
 70
0
 71
3
 72
11
 73
7
 74
0
 42
0.0000001
 43
0.0000001
 44
0.0000000001
 40
0.0
 40
0.0
 40
0.0
 40
0.0
 40
0.2065658553
 40
0.4769714988
 40
0.7602049078
 40
1.0
 40
1.0
 40
1.0
 40
1.0
 10
1547.114137953
 20
838.2950372233
 30
0.0
 10
1547.6404194329
 20
837.6501571263
 30
0.0
 10
1549.3081706915
 20
836.5712691985
 30
0.0
 10
1552.200856625
 20
835.5491251337
 30
0.0
 10
1555.3792266636
 20
835.0695093353
 30
0.0
 10
1557.5199574813
 20
835.1845741245
 30
0.0
 10
1558.4532590237
 20
835.4348304363
 30
0.0
  0
SPLINE
  5
694
100
AcDbEntity
  8
0
100
AcDbSpline
 62
7
  6
CONTINUOUS
 70
0
 71
3
 72
9
 73
5
 74
0
 42
0.0000001
 43
0.0000001
 44
0.0000000001
 40
0.0
 40
0.0
 40
0.0
 40
0.0
 40
0.2615509684
 40
1.0
 40
1.0
 40
1.0
 40
1.0
 10
1556.2881795173
 20
732.9039581232
 30
0.0
 10
1556.2022262879
 20
732.7194659751
 30
0.0
 10
1555.8993957936
 20
732.0028241306
 30
0.0
 10
1555.6981746196
 20
731.2396790265
 30
0.0
 10
1555.6339044095
 20
730.6686428346
 30
0.0
  0
SPLINE
  5
695
100
AcDbEntity
  8
0
100
AcDbSpline
 62
7
  6
CONTINUOUS
 70
0
 71
3
 72
9
 73
5
 74
0
 42
0.0000001
 43
0.0000001
 44
0.0000000001
 40
0.0
 40
0.0
 40
0.0
 40
0.0
 40
0.2780146212
 40
1.0
 40
1.0
 40
1.0
 40
1.0
 10
1555.6339044095
 20
640.7645895453
 30
0.0
 10
1555.6533247131
 20
640.6144720529
 30
0.0
 10
1555.7535643052
 20
640.080957491
 30
0.0
 10
1556.0090255322
 20
639.5617233031
 30
0.0
 10
1556.2881795173
 20
639.2849639196
 30
0.0
  0
SPLINE
  5
696
100
AcDbEntity
  8
0
100
AcDbSpline
 62
7
  6
CONTINUOUS
 70
0
 71
3
 72
9
 73
5
 74
0
 42
0.0000001
 43
0.0000001
 44
0.0000000001
 40
0.0
 40
0.0
 40
0.0
 40
0.0
 40
0.2526471506
 40
1.0
 40
1.0
 40
1.0
 40
1.0
 10
1556.2881795173
 20
639.2849639196
 30
0.0
 10
1556.4767714128
 20
639.0979897781
 30
0.0
 10
1557.245941515
 20
638.3812377937
 30
0.0
 10
1558.1070713633
 20
637.7627834293
 30
0.0
 10
1558.7873525596
 20
637.3699187303
 30
0.0
  0
SPLINE
  5
697
100
AcDbEntity
  8
0
100
AcDbSpline
 62
7
  6
CONTINUOUS
 70
0
 71
3
 72
11
 73
7
 74
0
 42
0.0000001
 43
0.0000001
 44
0.0000000001
 40
0.0
 40
0.0
 40
0.0
 40
0.0
 40
0.2065658553
 40
0.4769714988
 40
0.7602049078
 40
1.0
 40
1.0
 40
1.0
 40
1.0
 10
1506.1333758395
 20
827.3064185652
 30
0.0
 10
1506.6596573194
 20
826.6615384682
 30
0.0
 10
1508.327408578
 20
825.5826505404
 30
0.0
 10
1511.2200945114
 20
824.5605064756
 30
0.0
 10
1514.3984645501
 20
824.0808906771
 30
0.0
 10
1516.5391953677
 20
824.1959554664
 30
0.0
 10
1517.4724969101
 20
824.4462117781
 30
0.0
  0
SPLINE
  5
698
100
AcDbEntity
  8
7_ALL_ROUNDS
100
AcDbSpline
 62
7
  6
CONTINUOUS
 70
0
 71
3
 72
9
 73
5
 74
0
 42
0.0000001
 43
0.0000001
 44
0.0000000001
 40
0.0
 40
0.0
 40
0.0
 40
0.0
 40
0.5167011442
 40
1.0
 40
1.0
 40
1.0
 40
1.0
 10
1326.0300346354
 20
864.4378200959
 30
0.0
 10
1324.2935921895
 20
849.009653908
 30
0.0
 10
1322.4460019684
 20
818.9526985863
 30
0.0
 10
1324.1768486327
 20
788.8587638274
 30
0.0
 10
1326.0399853596
 20
774.4568564372
 30
0.0
  0
SPLINE
  5
699
100
AcDbEntity
  8
7_ALL_ROUNDS
100
AcDbSpline
 62
7
  6
CONTINUOUS
 70
0
 71
3
 72
8
 73
4
 74
0
 42
0.0000001
 43
0.0000001
 44
0.0000000001
 40
0.0
 40
0.0
 40
0.0
 40
0.0
 40
1.0
 40
1.0
 40
1.0
 40
1.0
 10
1327.4783916226
 20
771.5476172292
 30
0.0
 10
1328.4239738169
 20
770.6101463026
 30
0.0
 10
1329.49719214
 20
769.7853323882
 30
0.0
 10
1330.6502571673
 20
769.119435649
 30
0.0
  0
SPLINE
  5
69A
100
AcDbEntity
  8
0
100
AcDbSpline
 62
7
  6
CONTINUOUS
 70
0
 71
3
 72
18
 73
14
 74
0
 42
0.0000001
 43
0.0000001
 44
0.0000000001
 40
0.0
 40
0.0
 40
0.0
 40
0.0
 40
0.0560761527
 40
0.1131128805
 40
0.1718962015
 40
0.2329078754
 40
0.3613374495
 40
0.496429631
 40
0.6324942932
 40
0.763419296
 40
0.8854111896
 40
0.9434332026
 40
1.0
 40
1.0
 40
1.0
 40
1.0
 10
1449.6441046593
 20
758.0174513529
 30
0.0
 10
1449.6441046593
 20
755.4959902958
 30
0.0
 10
1450.2418343417
 20
750.3908846073
 30
0.0
 10
1452.8838536572
 20
743.0617108284
 30
0.0
 10
1457.1634976396
 20
736.2887696191
 30
0.0
 10
1464.9442933778
 20
728.1971464134
 30
0.0
 10
1477.8847448149
 20
720.7676731927
 30
0.0
 10
1495.7748551918
 20
717.1872919801
 30
0.0
 10
1514.0396661354
 20
719.113790003
 30
0.0
 10
1530.3097404317
 20
726.32924068
 30
0.0
 10
1540.5933227182
 20
736.3697930076
 30
0.0
 10
1545.5378790464
 20
745.8709743512
 30
0.0
 10
1546.8625409703
 20
750.9056359251
 30
0.0
 10
1547.2193379643
 20
753.4240093065
 30
0.0
  0
SPLINE
  5
69B
100
AcDbEntity
  8
0
100
AcDbSpline
 62
7
  6
CONTINUOUS
 70
0
 71
3
 72
11
 73
7
 74
0
 42
0.0000001
 43
0.0000001
 44
0.0000000001
 40
0.0
 40
0.0
 40
0.0
 40
0.0
 40
0.2697924951
 40
0.5253079921
 40
0.7669609451
 40
1.0
 40
1.0
 40
1.0
 40
1.0
 10
1479.1531767721
 20
792.7269972084
 30
0.0
 10
1475.2074566383
 20
791.2540054815
 30
0.0
 10
1467.8283806615
 20
787.4409274684
 30
0.0
 10
1458.930532071
 20
779.1908187904
 30
0.0
 10
1453.1826885388
 20
769.1245367461
 30
0.0
 10
1451.8441046593
 20
761.6553970705
 30
0.0
 10
1451.8441046593
 20
758.0174513529
 30
0.0
  0
SPLINE
  5
69C
100
AcDbEntity
  8
0
100
AcDbSpline
 62
7
  6
CONTINUOUS
 70
0
 71
3
 72
9
 73
5
 74
0
 42
0.0000001
 43
0.0000001
 44
0.0000000001
 40
0.0
 40
0.0
 40
0.0
 40
0.0
 40
0.2662992177
 40
1.0
 40
1.0
 40
1.0
 40
1.0
 10
1449.5365647357
 20
912.2606048083
 30
0.0
 10
1449.6281014564
 20
912.269618222
 30
0.0
 10
1449.9731650474
 20
912.2825332117
 30
0.0
 10
1450.3251408895
 20
912.1912419177
 30
0.0
 10
1450.5445702731
 20
912.0644661238
 30
0.0
  0
SPLINE
  5
69D
100
AcDbEntity
  8
0
100
AcDbSpline
 62
7
  6
CONTINUOUS
 70
0
 71
3
 72
9
 73
5
 74
0
 42
0.0000001
 43
0.0000001
 44
0.0000000001
 40
0.0
 40
0.0
 40
0.0
 40
0.0
 40
0.2660778429
 40
1.0
 40
1.0
 40
1.0
 40
1.0
 10
1692.1640414369
 20
772.1441184439
 30
0.0
 10
1692.1261317026
 20
772.2276707839
 30
0.0
 10
1691.9647474628
 20
772.5323043127
 30
0.0
 10
1691.7101508028
 20
772.7909349125
 30
0.0
 10
1691.4910197523
 20
772.9175389546
 30
0.0
  0
SPLINE
  5
69E
100
AcDbEntity
  8
7_ALL_ROUNDS
100
AcDbSpline
 62
7
  6
CONTINUOUS
 70
0
 71
3
 72
9
 73
5
 74
0
 42
0.0000001
 43
0.0000001
 44
0.0000000001
 40
0.0
 40
0.0
 40
0.0
 40
0.0
 40
0.4973237268
 40
1.0
 40
1.0
 40
1.0
 40
1.0
 10
1568.238135646
 20
631.9120884303
 30
0.0
 10
1569.2994453131
 20
631.2991805457
 30
0.0
 10
1571.5911539549
 20
630.3223285528
 30
0.0
 10
1574.0430437086
 20
629.904890624
 30
0.0
 10
1575.2792956448
 20
629.82601531
 30
0.0
  0
SPLINE
  5
69F
100
AcDbEntity
  8
0
100
AcDbSpline
 62
7
  6
CONTINUOUS
 70
0
 71
3
 72
9
 73
5
 74
0
 42
0.0000001
 43
0.0000001
 44
0.0000000001
 40
0.0
 40
0.0
 40
0.0
 40
0.0
 40
0.7474491913
 40
1.0
 40
1.0
 40
1.0
 40
1.0
 10
1335.2975039142
 20
766.4356331064
 30
0.0
 10
1335.9652927422
 20
766.0499827925
 30
0.0
 10
1336.9124105367
 20
765.6196827684
 30
0.0
 10
1337.8978210958
 20
765.3133955323
 30
0.0
 10
1338.1488761804
 20
765.2436688313
 30
0.0
  0
SPLINE
  5
6A0
100
AcDbEntity
  8
7_ALL_ROUNDS
100
AcDbSpline
 62
9
  6
CONTINUOUS
 70
0
 71
3
 72
9
 73
5
 74
0
 42
0.0000001
 43
0.0000001
 44
0.0000000001
 40
0.0
 40
0.0
 40
0.0
 40
0.0
 40
0.4934128954
 40
1.0
 40
1.0
 40
1.0
 40
1.0
 10
1572.1220759117
 20
635.8492243179
 30
0.0
 10
1573.0314700303
 20
634.9476310432
 30
0.0
 10
1575.2271244632
 20
633.4367055464
 30
0.0
 10
1577.8210950855
 20
632.8578079246
 30
0.0
 10
1579.1331921017
 20
632.7740935446
 30
0.0
  0
SPLINE
  5
6A1
100
AcDbEntity
  8
0
100
AcDbSpline
 62
7
  6
CONTINUOUS
 70
0
 71
3
 72
11
 73
7
 74
0
 42
0.0000001
 43
0.0000001
 44
0.0000000001
 40
0.0
 40
0.0
 40
0.0
 40
0.0
 40
0.2252915668
 40
0.4326416033
 40
0.6808803902
 40
1.0
 40
1.0
 40
1.0
 40
1.0
 10
1506.1513671798
 20
827.3543976726
 30
0.0
 10
1506.0348295939
 20
827.5730077615
 30
0.0
 10
1505.8781823548
 20
828.0543325785
 30
0.0
 10
1506.1527153293
 20
828.8038837338
 30
0.0
 10
1506.8531970244
 20
829.3367489254
 30
0.0
 10
1507.443706167
 20
829.5512558123
 30
0.0
 10
1507.7826396355
 20
829.6421377453
 30
0.0
  0
SPLINE
  5
6A2
100
AcDbEntity
  8
7_ALL_ROUNDS
100
AcDbSpline
 62
9
  6
CONTINUOUS
 70
0
 71
3
 72
9
 73
5
 74
0
 42
0.0000001
 43
0.0000001
 44
0.0000000001
 40
0.0
 40
0.0
 40
0.0
 40
0.0
 40
0.517234046
 40
1.0
 40
1.0
 40
1.0
 40
1.0
 10
1572.1220759117
 20
724.6294769411
 30
0.0
 10
1570.4070388635
 20
709.3914961718
 30
0.0
 10
1568.5819281683
 20
679.7358798798
 30
0.0
 10
1570.2858292174
 20
650.04327377
 30
0.0
 10
1572.1220759117
 20
635.8492243179
 30
0.0
  0
SPLINE
  5
6A3
100
AcDbEntity
  8
0
100
AcDbSpline
 62
7
  6
CONTINUOUS
 70
0
 71
3
 72
11
 73
7
 74
0
 42
0.0000001
 43
0.0000001
 44
0.0000000001
 40
0.0
 40
0.0
 40
0.0
 40
0.0
 40
0.2753693948
 40
0.4999973228
 40
0.7246067453
 40
1.0
 40
1.0
 40
1.0
 40
1.0
 10
1629.5701312362
 20
716.1058017217
 30
0.0
 10
1630.3142345429
 20
716.5351830401
 30
0.0
 10
1631.8017120383
 20
717.1520790411
 30
0.0
 10
1634.2060880963
 20
716.788938922
 30
0.0
 10
1635.7225996416
 20
714.8879870913
 30
0.0
 10
1635.9315924482
 20
713.2912260687
 30
0.0
 10
1635.9315924335
 20
712.432048582
 30
0.0
  0
SPLINE
  5
6A4
100
AcDbEntity
  8
7_ALL_ROUNDS
100
AcDbSpline
 62
9
  6
CONTINUOUS
 70
0
 71
3
 72
9
 73
5
 74
0
 42
0.0000001
 43
0.0000001
 44
0.0000000001
 40
0.0
 40
0.0
 40
0.0
 40
0.0
 40
0.2328285458
 40
1.0
 40
1.0
 40
1.0
 40
1.0
 10
1575.5976581958
 20
741.9261916689
 30
0.0
 10
1575.4437459234
 20
741.8373071069
 30
0.0
 10
1574.8043978282
 20
741.4181640988
 30
0.0
 10
1574.2523502143
 20
740.8739627571
 30
0.0
 10
1573.880882002
 20
740.4212154816
 30
0.0
  0
SPLINE
  5
6A5
100
AcDbEntity
  8
7_ALL_ROUNDS
100
AcDbSpline
 62
9
  6
CONTINUOUS
 70
0
 71
3
 72
9
 73
5
 74
0
 42
0.0000001
 43
0.0000001
 44
0.0000000001
 40
0.0
 40
0.0
 40
0.0
 40
0.0
 40
0.2660534603
 40
1.0
 40
1.0
 40
1.0
 40
1.0
 10
1336.2930035233
 20
877.6285627003
 30
0.0
 10
1336.4217937474
 20
877.7855328559
 30
0.0
 10
1336.9277374966
 20
878.3563240283
 30
0.0
 10
1337.5247300424
 20
878.8534219922
 30
0.0
 10
1338.0097797171
 20
879.1335388877
 30
0.0
  0
SPLINE
  5
6A6
100
AcDbEntity
  8
0
100
AcDbSpline
 62
7
  6
CONTINUOUS
 70
0
 71
3
 72
11
 73
7
 74
0
 42
0.0000001
 43
0.0000001
 44
0.0000000001
 40
0.0
 40
0.0
 40
0.0
 40
0.0
 40
0.2607791022
 40
0.4836026958
 40
0.716943604
 40
1.0
 40
1.0
 40
1.0
 40
1.0
 10
1629.6655763799
 20
716.0947658173
 30
0.0
 10
1630.2639611886
 20
716.3409987742
 30
0.0
 10
1631.4752191397
 20
716.6438433278
 30
0.0
 10
1633.2772646444
 20
716.0496326826
 30
0.0
 10
1634.3528020041
 20
714.4355600492
 30
0.0
 10
1634.5173788832
 20
713.1343913248
 30
0.0
 10
1634.5173788711
 20
712.432048582
 30
0.0
  0
SPLINE
  5
6A7
100
AcDbEntity
  8
0
100
AcDbSpline
 62
7
  6
CONTINUOUS
 70
0
 71
3
 72
11
 73
7
 74
0
 42
0.0000001
 43
0.0000001
 44
0.0000000001
 40
0.0
 40
0.0
 40
0.0
 40
0.0
 40
0.2252915668
 40
0.4326416033
 40
0.6808803902
 40
1.0
 40
1.0
 40
1.0
 40
1.0
 10
1547.1321292933
 20
838.3430163307
 30
0.0
 10
1547.0155917074
 20
838.5616264197
 30
0.0
 10
1546.8589444684
 20
839.0429512366
 30
0.0
 10
1547.1334774428
 20
839.7925023919
 30
0.0
 10
1547.8339591379
 20
840.3253675835
 30
0.0
 10
1548.4244682806
 20
840.5398744704
 30
0.0
 10
1548.763401749
 20
840.6307564034
 30
0.0
  0
SPLINE
  5
6A8
100
AcDbEntity
  8
0
100
AcDbSpline
 62
7
  6
CONTINUOUS
 70
0
 71
3
 72
17
 73
13
 74
0
 42
0.0000001
 43
0.0000001
 44
0.0000000001
 40
0.0
 40
0.0
 40
0.0
 40
0.0
 40
0.08079857
 40
0.1152415647
 40
0.152178571
 40
0.1958742935
 40
0.2483187449
 40
0.3791376442
 40
0.5365296892
 40
0.7044206368
 40
0.8644509774
 40
1.0
 40
1.0
 40
1.0
 40
1.0
 10
1559.3769948472
 20
835.7834615797
 30
0.0
 10
1559.738383763
 20
835.9721821932
 30
0.0
 10
1560.250360418
 20
836.3647481676
 30
0.0
 10
1560.4274197445
 20
837.140999881
 30
0.0
 10
1560.2887992169
 20
837.7210485695
 30
0.0
 10
1559.9254087862
 20
838.2949168733
 30
0.0
 10
1559.1088852752
 20
839.1069596696
 30
0.0
 10
1557.6170591325
 20
840.0011409339
 30
0.0
 10
1555.4570813234
 20
840.8143420184
 30
0.0
 10
1553.0532158626
 20
841.3320320485
 30
0.0
 10
1550.7135262316
 20
841.4892254484
 30
0.0
 10
1549.2143875279
 20
841.3289434353
 30
0.0
 10
1548.5537641475
 20
841.1518032902
 30
0.0
  0
SPLINE
  5
6A9
100
AcDbEntity
  8
7_ALL_ROUNDS
100
AcDbSpline
 62
9
  6
CONTINUOUS
 70
0
 71
3
 72
9
 73
5
 74
0
 42
0.0000001
 43
0.0000001
 44
0.0000000001
 40
0.0
 40
0.0
 40
0.0
 40
0.0
 40
0.4491549742
 40
1.0
 40
1.0
 40
1.0
 40
1.0
 10
1335.5102949211
 20
879.3817466362
 30
0.0
 10
1335.8475594027
 20
879.5762406229
 30
0.0
 10
1336.7701893135
 20
879.7158687963
 30
0.0
 10
1337.5963044372
 20
879.3723214664
 30
0.0
 10
1338.0097797171
 20
879.1335388877
 30
0.0
  0
SPLINE
  5
6AA
100
AcDbEntity
  8
7_ALL_ROUNDS
100
AcDbSpline
 62
9
  6
CONTINUOUS
 70
0
 71
3
 72
11
 73
7
 74
0
 42
0.0000001
 43
0.0000001
 44
0.0000000001
 40
0.0
 40
0.0
 40
0.0
 40
0.0
 40
0.0920459868
 40
0.2905236768
 40
0.5982682538
 40
1.0
 40
1.0
 40
1.0
 40
1.0
 10
1326.4663944722
 20
865.9901434733
 30
0.0
 10
1326.4380930042
 20
865.9291634598
 30
0.0
 10
1326.58690519
 20
865.7095005396
 30
0.0
 10
1326.8992165992
 20
865.4559496427
 30
0.0
 10
1327.4562252969
 20
865.0627601794
 30
0.0
 10
1327.8969763516
 20
864.8002118989
 30
0.0
 10
1328.1510621404
 20
864.6534769843
 30
0.0
  0
SPLINE
  5
6AB
100
AcDbEntity
  8
7_ALL_ROUNDS
100
AcDbSpline
 62
9
  6
CONTINUOUS
 70
0
 71
3
 72
10
 73
6
 74
0
 42
0.0000001
 43
0.0000001
 44
0.0000000001
 40
0.0
 40
0.0
 40
0.0
 40
0.0
 40
0.1268687831
 40
0.3302355367
 40
1.0
 40
1.0
 40
1.0
 40
1.0
 10
1334.1443482882
 20
878.2230837332
 30
0.0
 10
1334.206577089
 20
878.2987401473
 30
0.0
 10
1334.4834084439
 20
878.3750395171
 30
0.0
 10
1335.2342465687
 20
878.1996797326
 30
0.0
 10
1335.8451646434
 20
877.8871903338
 30
0.0
 10
1336.2930035375
 20
877.6285627176
 30
0.0
  0
SPLINE
  5
6AC
100
AcDbEntity
  8
0
100
AcDbSpline
 62
7
  6
CONTINUOUS
 70
0
 71
3
 72
11
 73
7
 74
0
 42
0.0000001
 43
0.0000001
 44
0.0000000001
 40
0.0
 40
0.0
 40
0.0
 40
0.0
 40
0.268666381
 40
0.5235465169
 40
0.7656429585
 40
1.0
 40
1.0
 40
1.0
 40
1.0
 10
1475.2520288249
 20
794.9337835904
 30
0.0
 10
1471.4983701151
 20
793.2714511435
 30
0.0
 10
1464.5214957925
 20
789.1665188715
 30
0.0
 10
1456.2004551194
 20
780.7383839038
 30
0.0
 10
1450.8760056676
 20
770.7208374516
 30
0.0
 10
1449.6441046593
 20
763.3887295783
 30
0.0
 10
1449.6441046593
 20
759.8077058856
 30
0.0
  0
SPLINE
  5
6AD
100
AcDbEntity
  8
7_ALL_ROUNDS
100
AcDbSpline
 62
9
  6
CONTINUOUS
 70
0
 71
3
 72
9
 73
5
 74
0
 42
0.0000001
 43
0.0000001
 44
0.0000000001
 40
0.0
 40
0.0
 40
0.0
 40
0.0
 40
0.4241216162
 40
1.0
 40
1.0
 40
1.0
 40
1.0
 10
1326.0301605801
 20
864.4373221158
 30
0.0
 10
1325.9894677934
 20
864.0723131423
 30
0.0
 10
1326.3408599963
 20
863.1812457643
 30
0.0
 10
1327.0649415891
 20
862.6675530936
 30
0.0
 10
1327.4967870357
 20
862.4181617167
 30
0.0
  0
SPLINE
  5
6AE
100
AcDbEntity
  8
0
100
AcDbSpline
 62
7
  6
CONTINUOUS
 70
0
 71
3
 72
18
 73
14
 74
0
 42
0.0000001
 43
0.0000001
 44
0.0000000001
 40
0.0
 40
0.0
 40
0.0
 40
0.0
 40
0.1383402092
 40
0.2915756875
 40
0.4448282965
 40
0.5831799537
 40
0.6436773137
 40
0.6977952974
 40
0.7464700837
 40
0.791925731
 40
0.8373795147
 40
0.8860343728
 40
1.0
 40
1.0
 40
1.0
 40
1.0
 10
1635.9315924335
 20
712.432048582
 30
0.0
 10
1635.9315923909
 20
711.3888849052
 30
0.0
 10
1635.540183941
 20
709.1888286649
 30
0.0
 10
1634.1766503267
 20
706.0972024285
 30
0.0
 10
1632.179794508
 20
703.3702405648
 30
0.0
 10
1630.1186999905
 20
701.632579802
 30
0.0
 10
1628.3873771658
 20
700.8072211895
 30
0.0
 10
1627.1796551859
 20
700.5156876941
 30
0.0
 10
1626.0461480873
 20
700.5441587155
 30
0.0
 10
1625.0371069219
 20
700.9096077396
 30
0.0
 10
1624.2157176957
 20
701.6005262025
 30
0.0
 10
1623.3860180718
 20
702.9568159832
 30
0.0
 10
1623.2036703573
 20
704.2222894835
 30
0.0
 10
1623.2036703721
 20
705.081654981
 30
0.0
  0
SPLINE
  5
6AF
100
AcDbEntity
  8
7_ALL_ROUNDS
100
AcDbSpline
 62
9
  6
CONTINUOUS
 70
0
 71
3
 72
9
 73
5
 74
0
 42
0.0000001
 43
0.0000001
 44
0.0000000001
 40
0.0
 40
0.0
 40
0.0
 40
0.0
 40
0.4697782318
 40
1.0
 40
1.0
 40
1.0
 40
1.0
 10
1326.0925415573
 20
774.1880222163
 30
0.0
 10
1326.1812177609
 20
773.8505052146
 30
0.0
 10
1326.5556028984
 20
773.1759270227
 30
0.0
 10
1327.1557064647
 20
772.7110829357
 30
0.0
 10
1327.4967870336
 20
772.5141084085
 30
0.0
  0
SPLINE
  5
6B0
100
AcDbEntity
  8
7_ALL_ROUNDS
100
AcDbSpline
 62
9
  6
CONTINUOUS
 70
0
 71
3
 72
9
 73
5
 74
0
 42
0.0000001
 43
0.0000001
 44
0.0000000001
 40
0.0
 40
0.0
 40
0.0
 40
0.0
 40
0.2509646634
 40
1.0
 40
1.0
 40
1.0
 40
1.0
 10
1328.1510621414
 20
864.6534769864
 30
0.0
 10
1328.6930076412
 20
865.8167222785
 30
0.0
 10
1330.998312478
 20
870.3821163846
 30
0.0
 10
1333.8635397631
 20
874.6675203641
 30
0.0
 10
1336.2930035233
 20
877.6285627003
 30
0.0
  0
SPLINE
  5
6B1
100
AcDbEntity
  8
0
100
AcDbSpline
 62
7
  6
CONTINUOUS
 70
0
 71
3
 72
11
 73
7
 74
0
 42
0.0000001
 43
0.0000001
 44
0.0000000001
 40
0.0
 40
0.0
 40
0.0
 40
0.0
 40
0.2693523039
 40
0.5246064085
 40
0.7664283339
 40
1.0
 40
1.0
 40
1.0
 40
1.0
 10
1477.0124510184
 20
793.8859979736
 30
0.0
 10
1473.0345829301
 20
792.2908524845
 30
0.0
 10
1465.6144132804
 20
788.2455441754
 30
0.0
 10
1456.7066914803
 20
779.6860731744
 30
0.0
 10
1450.9752731393
 20
769.3555606408
 30
0.0
 10
1449.6441046593
 20
761.7339116444
 30
0.0
 10
1449.6441046593
 20
758.0174513529
 30
0.0
  0
SPLINE
  5
6B2
100
AcDbEntity
  8
7_ALL_ROUNDS
100
AcDbSpline
 62
9
  6
CONTINUOUS
 70
0
 71
3
 72
9
 73
5
 74
0
 42
0.0000001
 43
0.0000001
 44
0.0000000001
 40
0.0
 40
0.0
 40
0.0
 40
0.0
 40
0.2615509684
 40
1.0
 40
1.0
 40
1.0
 40
1.0
 10
1565.7389406201
 20
727.4461297677
 30
0.0
 10
1565.6529873905
 20
727.2616376196
 30
0.0
 10
1565.3501568962
 20
726.544995775
 30
0.0
 10
1565.1489357233
 20
725.7818506708
 30
0.0
 10
1565.0846655122
 20
725.210814479
 30
0.0
  0
SPLINE
  5
6B3
100
AcDbEntity
  8
0
100
AcDbSpline
 62
7
  6
CONTINUOUS
 70
0
 71
3
 72
18
 73
14
 74
0
 42
0.0000001
 43
0.0000001
 44
0.0000000001
 40
0.0
 40
0.0
 40
0.0
 40
0.0
 40
0.0561319207
 40
0.1132390527
 40
0.1721217781
 40
0.2332611089
 40
0.361986041
 40
0.4973152115
 40
0.6334066643
 40
0.7640818769
 40
0.8856576449
 40
0.9435131778
 40
1.0
 40
1.0
 40
1.0
 40
1.0
 10
1451.8441046593
 20
758.0174513529
 30
0.0
 10
1451.8441046593
 20
755.5887146039
 30
0.0
 10
1452.4249367291
 20
750.6704377703
 30
0.0
 10
1454.9916873409
 20
743.615171897
 30
0.0
 10
1459.1467999954
 20
737.1049191623
 30
0.0
 10
1466.696021559
 20
729.3458612177
 30
0.0
 10
1479.2297843055
 20
722.2739273929
 30
0.0
 10
1496.5036145904
 20
718.9828352503
 30
0.0
 10
1514.062339418
 20
721.0409867465
 30
0.0
 10
1529.5935399365
 20
728.2133280904
 30
0.0
 10
1539.2654375334
 20
738.0654324349
 30
0.0
 10
1543.7649834552
 20
747.3088050366
 30
0.0
 10
1544.8903993902
 20
752.1806312711
 30
0.0
 10
1545.1571696755
 20
754.6101215523
 30
0.0
  0
SPLINE
  5
6B4
100
AcDbEntity
  8
7_ALL_ROUNDS
100
AcDbSpline
 62
9
  6
CONTINUOUS
 70
0
 71
3
 72
9
 73
5
 74
0
 42
0.0000001
 43
0.0000001
 44
0.0000000001
 40
0.0
 40
0.0
 40
0.0
 40
0.0
 40
0.2369420089
 40
1.0
 40
1.0
 40
1.0
 40
1.0
 10
1327.4967870336
 20
862.4181616978
 30
0.0
 10
1327.5174123482
 20
862.6014161318
 30
0.0
 10
1327.641955551
 20
863.3704649219
 30
0.0
 10
1327.9002591408
 20
864.1151471928
 30
0.0
 10
1328.1510621414
 20
864.6534769864
 30
0.0
  0
SPLINE
  5
6B5
100
AcDbEntity
  8
0
100
AcDbSpline
 62
7
  6
CONTINUOUS
 70
0
 71
3
 72
17
 73
13
 74
0
 42
0.0000001
 43
0.0000001
 44
0.0000000001
 40
0.0
 40
0.0
 40
0.0
 40
0.0
 40
0.0561211943
 40
0.1134315956
 40
0.2334191861
 40
0.3622178765
 40
0.4970589743
 40
0.6325938507
 40
0.7631959477
 40
0.8852950634
 40
0.9434165651
 40
1.0
 40
1.0
 40
1.0
 40
1.0
 10
1451.969805519
 20
758.0418950604
 30
0.0
 10
1452.1782944961
 20
755.7250405618
 30
0.0
 10
1453.1296944566
 20
751.0737632849
 30
0.0
 10
1457.0878357821
 20
742.1758788508
 30
0.0
 10
1465.7829879694
 20
732.4673752761
 30
0.0
 10
1480.075738734
 20
724.8933907691
 30
0.0
 10
1496.5942458509
 20
721.8762242391
 30
0.0
 10
1513.352611313
 20
723.7528502662
 30
0.0
 10
1528.3370069068
 20
730.3021743495
 30
0.0
 10
1537.9810480195
 20
739.3306523849
 30
0.0
 10
1542.8605691701
 20
747.9167263581
 30
0.0
 10
1544.303350885
 20
752.4941745527
 30
0.0
 10
1544.7548564125
 20
754.7956810221
 30
0.0
  0
SPLINE
  5
6B6
100
AcDbEntity
  8
0
100
AcDbSpline
 62
7
  6
CONTINUOUS
 70
0
 71
3
 72
11
 73
7
 74
0
 42
0.0000001
 43
0.0000001
 44
0.0000000001
 40
0.0
 40
0.0
 40
0.0
 40
0.0
 40
0.2698066412
 40
0.5253321257
 40
0.7669767875
 40
1.0
 40
1.0
 40
1.0
 40
1.0
 10
1481.5804148786
 20
791.2896253111
 30
0.0
 10
1478.1154478465
 20
789.9996227606
 30
0.0
 10
1471.6352056671
 20
786.6567416917
 30
0.0
 10
1463.8194623637
 20
779.4195610414
 30
0.0
 10
1458.7701849799
 20
770.5851879942
 30
0.0
 10
1457.5941046593
 20
764.0289049889
 30
0.0
 10
1457.5941046593
 20
760.8356584883
 30
0.0
  0
SPLINE
  5
6B7
100
AcDbEntity
  8
0
100
AcDbSpline
 62
7
  6
CONTINUOUS
 70
0
 71
3
 72
18
 73
14
 74
0
 42
0.0000001
 43
0.0000001
 44
0.0000000001
 40
0.0
 40
0.0
 40
0.0
 40
0.0
 40
0.0561352061
 40
0.1132485462
 40
0.1721382823
 40
0.2332871647
 40
0.3620340123
 40
0.4973804855
 40
0.6334730971
 40
0.7641287538
 40
0.8856733329
 40
0.9435154549
 40
1.0
 40
1.0
 40
1.0
 40
1.0
 10
1457.5941046593
 20
760.8356584883
 30
0.0
 10
1457.5941046593
 20
758.7043214879
 30
0.0
 10
1458.1041851106
 20
754.388170074
 30
0.0
 10
1460.3579955327
 20
748.1969886045
 30
0.0
 10
1464.0065721482
 20
742.4847298389
 30
0.0
 10
1470.6350062791
 20
735.6779532428
 30
0.0
 10
1481.6386981825
 20
729.4774601024
 30
0.0
 10
1496.8002165571
 20
726.5997237877
 30
0.0
 10
1512.2066722698
 20
728.4192269273
 30
0.0
 10
1525.8269094559
 20
734.727907462
 30
0.0
 10
1534.298968735
 20
743.3854765842
 30
0.0
 10
1538.2304768732
 20
751.5029105457
 30
0.0
 10
1539.208029963
 20
755.7796999984
 30
0.0
 10
1539.437126921
 20
757.9120289202
 30
0.0
  0
SPLINE
  5
6B8
100
AcDbEntity
  8
0
100
AcDbSpline
 62
7
  6
CONTINUOUS
 70
0
 71
3
 72
9
 73
5
 74
0
 42
0.0000001
 43
0.0000001
 44
0.0000000001
 40
0.0
 40
0.0
 40
0.0
 40
0.0
 40
0.2615509684
 40
1.0
 40
1.0
 40
1.0
 40
1.0
 10
1332.7983308719
 20
861.9696724993
 30
0.0
 10
1332.7123776425
 20
861.7851803512
 30
0.0
 10
1332.4095471482
 20
861.0685385067
 30
0.0
 10
1332.2083259742
 20
860.3053934026
 30
0.0
 10
1332.1440557641
 20
859.7343572107
 30
0.0
  0
SPLINE
  5
6B9
100
AcDbEntity
  8
7_ALL_ROUNDS
100
AcDbSpline
 62
9
  6
CONTINUOUS
 70
0
 71
3
 72
9
 73
5
 74
0
 42
0.0000001
 43
0.0000001
 44
0.0000000001
 40
0.0
 40
0.0
 40
0.0
 40
0.0
 40
0.517234046
 40
1.0
 40
1.0
 40
1.0
 40
1.0
 10
1565.0846655122
 20
725.210814479
 30
0.0
 10
1563.3479191345
 20
709.7799478782
 30
0.0
 10
1561.4997057721
 20
679.7489440383
 30
0.0
 10
1563.2251751887
 20
649.6804821549
 30
0.0
 10
1565.0846655122
 20
635.3067611898
 30
0.0
  0
SPLINE
  5
6BA
100
AcDbEntity
  8
0
100
AcDbSpline
 62
7
  6
CONTINUOUS
 70
0
 71
3
 72
9
 73
5
 74
0
 42
0.0000001
 43
0.0000001
 44
0.0000000001
 40
0.0
 40
0.0
 40
0.0
 40
0.0
 40
0.4922762827
 40
1.0
 40
1.0
 40
1.0
 40
1.0
 10
1515.8558997552
 20
765.8252711216
 30
0.0
 10
1515.8558997552
 20
767.0547984271
 30
0.0
 10
1515.4460783141
 20
769.5678408383
 30
0.0
 10
1514.2819547088
 20
771.8247939205
 30
0.0
 10
1513.5506327433
 20
772.8607811767
 30
0.0
  0
SPLINE
  5
6BB
100
AcDbEntity
  8
0
100
AcDbSpline
 62
7
  6
CONTINUOUS
 70
0
 71
3
 72
12
 73
8
 74
0
 42
0.0000001
 43
0.0000001
 44
0.0000000001
 40
0.0
 40
0.0
 40
0.0
 40
0.0
 40
0.2712048319
 40
0.5327843826
 40
0.7740095518
 40
0.8882709188
 40
1.0
 40
1.0
 40
1.0
 40
1.0
 10
1501.6826966933
 20
779.6901669886
 30
0.0
 10
1499.2120992332
 20
780.0567857261
 30
0.0
 10
1494.1859775409
 20
779.9034635758
 30
0.0
 10
1487.4356520848
 20
777.1649109961
 30
0.0
 10
1483.3046981183
 20
772.9501689663
 30
0.0
 10
1481.6173732339
 20
768.9458512394
 30
0.0
 10
1481.3323095634
 20
766.8542360657
 30
0.0
 10
1481.3323095634
 20
765.8252711216
 30
0.0
  0
SPLINE
  5
6BC
100
AcDbEntity
  8
0
100
AcDbSpline
 62
7
  6
CONTINUOUS
 70
0
 71
3
 72
15
 73
11
 74
0
 42
0.0000001
 43
0.0000001
 44
0.0000000001
 40
0.0
 40
0.0
 40
0.0
 40
0.0
 40
0.1131432799
 40
0.2335633346
 40
0.3635892567
 40
0.5
 40
0.6364107433
 40
0.7664366654
 40
0.8868567201
 40
1.0
 40
1.0
 40
1.0
 40
1.0
 10
1515.8558997552
 20
765.8252711216
 30
0.0
 10
1515.8558997552
 20
763.974997142
 30
0.0
 10
1514.8792977599
 20
760.1057945795
 30
0.0
 10
1510.9187076385
 20
755.4483769537
 30
0.0
 10
1505.2121143128
 20
752.4244817225
 30
0.0
 10
1498.5941046593
 20
751.3788533249
 30
0.0
 10
1491.9760950058
 20
752.4244817225
 30
0.0
 10
1486.2695016801
 20
755.4483769537
 30
0.0
 10
1482.3089115587
 20
760.1057945795
 30
0.0
 10
1481.3323095634
 20
763.974997142
 30
0.0
 10
1481.3323095634
 20
765.8252711216
 30
0.0
  0
SPLINE
  5
6BD
100
AcDbEntity
  8
0
100
AcDbSpline
 62
7
  6
CONTINUOUS
 70
0
 71
3
 72
11
 73
7
 74
0
 42
0.0000001
 43
0.0000001
 44
0.0000000001
 40
0.0
 40
0.0
 40
0.0
 40
0.0
 40
0.3113685887
 40
0.5455418475
 40
0.7502967046
 40
1.0
 40
1.0
 40
1.0
 40
1.0
 10
1548.5537641475
 20
841.1518032902
 30
0.0
 10
1548.1520938553
 20
841.0440990582
 30
0.0
 10
1547.4636585338
 20
840.792292043
 30
0.0
 10
1546.6690060906
 20
840.0870488166
 30
0.0
 10
1546.5605745958
 20
839.0942679856
 30
0.0
 10
1546.9032765722
 20
838.5534166514
 30
0.0
 10
1547.114137953
 20
838.2950372233
 30
0.0
  0
SPLINE
  5
6BE
100
AcDbEntity
  8
7_ALL_ROUNDS
100
AcDbSpline
 62
9
  6
CONTINUOUS
 70
0
 71
3
 72
9
 73
5
 74
0
 42
0.0000001
 43
0.0000001
 44
0.0000000001
 40
0.0
 40
0.0
 40
0.0
 40
0.0
 40
0.482765954
 40
1.0
 40
1.0
 40
1.0
 40
1.0
 10
1327.4967870336
 20
772.5141084085
 30
0.0
 10
1325.6372967101
 20
786.8878293736
 30
0.0
 10
1323.9118272934
 20
816.956291257
 30
0.0
 10
1325.7600406558
 20
846.9872950969
 30
0.0
 10
1327.4967870336
 20
862.4181616978
 30
0.0
  0
SPLINE
  5
6BF
100
AcDbEntity
  8
0
100
AcDbSpline
 62
7
  6
CONTINUOUS
 70
0
 71
3
 72
11
 73
7
 74
0
 42
0.0000001
 43
0.0000001
 44
0.0000000001
 40
0.0
 40
0.0
 40
0.0
 40
0.0
 40
0.3113685887
 40
0.5455418475
 40
0.7502967046
 40
1.0
 40
1.0
 40
1.0
 40
1.0
 10
1507.5730020339
 20
830.1631846321
 30
0.0
 10
1507.1713317418
 20
830.0554804001
 30
0.0
 10
1506.4828964203
 20
829.8036733848
 30
0.0
 10
1505.688243977
 20
829.0984301585
 30
0.0
 10
1505.5798124823
 20
828.1056493275
 30
0.0
 10
1505.9225144587
 20
827.5647979932
 30
0.0
 10
1506.1333758395
 20
827.3064185652
 30
0.0
  0
SPLINE
  5
6C0
100
AcDbEntity
  8
0
100
AcDbSpline
 62
7
  6
CONTINUOUS
 70
0
 71
3
 72
17
 73
13
 74
0
 42
0.0000001
 43
0.0000001
 44
0.0000000001
 40
0.0
 40
0.0
 40
0.0
 40
0.0
 40
0.1342385056
 40
0.292530182
 40
0.4593657153
 40
0.6174460161
 40
0.7512608779
 40
0.8058934551
 40
0.851855516
 40
0.8904391278
 40
0.9249289761
 40
1.0
 40
1.0
 40
1.0
 40
1.0
 10
1548.763401749
 20
840.6307564034
 30
0.0
 10
1549.367858322
 20
840.7928359141
 30
0.0
 10
1550.7373971876
 20
840.9448713598
 30
0.0
 10
1552.8807555246
 20
840.815080181
 30
0.0
 10
1555.0958496653
 20
840.3599309195
 30
0.0
 10
1557.1136060533
 20
839.6332948933
 30
0.0
 10
1558.5326424202
 20
838.828228957
 30
0.0
 10
1559.3475567471
 20
838.0929494056
 30
0.0
 10
1559.7387613891
 20
837.568258646
 30
0.0
 10
1559.9375705907
 20
837.03866206
 30
0.0
 10
1559.90397374
 20
836.324917444
 30
0.0
 10
1559.5080296025
 20
835.9083537444
 30
0.0
 10
1559.2163340153
 20
835.7149722985
 30
0.0
  0
SPLINE
  5
6C1
100
AcDbEntity
  8
0
100
AcDbSpline
 62
7
  6
CONTINUOUS
 70
0
 71
3
 72
17
 73
13
 74
0
 42
0.0000001
 43
0.0000001
 44
0.0000000001
 40
0.0
 40
0.0
 40
0.0
 40
0.0
 40
0.1342385056
 40
0.292530182
 40
0.4593657153
 40
0.6174460161
 40
0.7512608779
 40
0.8058934551
 40
0.851855516
 40
0.8904391278
 40
0.9249289761
 40
1.0
 40
1.0
 40
1.0
 40
1.0
 10
1507.7826396355
 20
829.6421377453
 30
0.0
 10
1508.3870962085
 20
829.804217256
 30
0.0
 10
1509.756635074
 20
829.9562527017
 30
0.0
 10
1511.8999934111
 20
829.8264615229
 30
0.0
 10
1514.1150875518
 20
829.3713122614
 30
0.0
 10
1516.1328439398
 20
828.6446762352
 30
0.0
 10
1517.5518803066
 20
827.8396102989
 30
0.0
 10
1518.3667946336
 20
827.1043307475
 30
0.0
 10
1518.7579992756
 20
826.5796399879
 30
0.0
 10
1518.9568084772
 20
826.0500434019
 30
0.0
 10
1518.9232116264
 20
825.3362987859
 30
0.0
 10
1518.527267489
 20
824.9197350863
 30
0.0
 10
1518.2355719017
 20
824.7263536404
 30
0.0
  0
SPLINE
  5
6C2
100
AcDbEntity
  8
0
100
AcDbSpline
 62
7
  6
CONTINUOUS
 70
0
 71
3
 72
17
 73
13
 74
0
 42
0.0000001
 43
0.0000001
 44
0.0000000001
 40
0.0
 40
0.0
 40
0.0
 40
0.0
 40
0.137986719
 40
0.2907842392
 40
0.4448990318
 40
0.5181225139
 40
0.5866818739
 40
0.7056918924
 40
0.8023718948
 40
0.8474111442
 40
0.8938749372
 40
1.0
 40
1.0
 40
1.0
 40
1.0
 10
1634.5173788711
 20
712.432048582
 30
0.0
 10
1634.5173788349
 20
711.5468234721
 30
0.0
 10
1634.1993787264
 20
709.6796284726
 30
0.0
 10
1633.079113981
 20
707.0347611155
 30
0.0
 10
1631.6722742997
 20
705.0163820787
 30
0.0
 10
1630.3299235926
 20
703.6670011237
 30
0.0
 10
1629.0030800508
 20
702.6441483407
 30
0.0
 10
1627.3329771359
 20
701.8243171153
 30
0.0
 10
1625.5615364958
 20
701.8283578054
 30
0.0
 10
1624.4891189974
 20
702.4330340581
 30
0.0
 10
1623.6303262609
 20
703.3911339582
 30
0.0
 10
1623.3394254714
 20
704.3790333071
 30
0.0
 10
1623.2546845584
 20
705.0545622214
 30
0.0
  0
SPLINE
  5
6C3
100
AcDbEntity
  8
0
100
AcDbSpline
 62
9
  6
CONTINUOUS
 70
0
 71
3
 72
9
 73
5
 74
0
 42
0.0000001
 43
0.0000001
 44
0.0000000001
 40
0.0
 40
0.0
 40
0.0
 40
0.0
 40
0.3199600112
 40
1.0
 40
1.0
 40
1.0
 40
1.0
 10
1691.1468470835
 20
768.0353096311
 30
0.0
 10
1691.327488744
 20
768.0837470495
 30
0.0
 10
1691.8697947077
 20
768.2577143917
 30
0.0
 10
1692.4295634528
 20
768.6846190728
 30
0.0
 10
1692.5096278715
 20
769.0739691042
 30
0.0
  0
SPLINE
  5
6C4
100
AcDbEntity
  8
0
100
AcDbSpline
 62
9
  6
CONTINUOUS
 70
0
 71
3
 72
9
 73
5
 74
0
 42
0.0000001
 43
0.0000001
 44
0.0000000001
 40
0.0
 40
0.0
 40
0.0
 40
0.0
 40
0.3199480203
 40
1.0
 40
1.0
 40
1.0
 40
1.0
 10
1674.7681417935
 20
688.0034168276
 30
0.0
 10
1674.9487563794
 20
688.0518469862
 30
0.0
 10
1675.4910057471
 20
688.225801932
 30
0.0
 10
1676.050713319
 20
688.6525620452
 30
0.0
 10
1676.1308765692
 20
689.0418532762
 30
0.0
  0
SPLINE
  5
6C5
100
AcDbEntity
  8
0
100
AcDbSpline
 62
9
  6
CONTINUOUS
 70
0
 71
3
 72
9
 73
5
 74
0
 42
0.0000001
 43
0.0000001
 44
0.0000000001
 40
0.0
 40
0.0
 40
0.0
 40
0.0
 40
0.5508017765
 40
1.0
 40
1.0
 40
1.0
 40
1.0
 10
1674.7681417935
 20
688.0034168276
 30
0.0
 10
1674.7681417935
 20
687.5260813468
 30
0.0
 10
1674.6522687464
 20
686.6391790288
 30
0.0
 10
1674.070223363
 20
685.9100002766
 30
0.0
 10
1673.7331042406
 20
685.7153399755
 30
0.0
  0
SPLINE
  5
6C6
100
AcDbEntity
  8
0
100
AcDbSpline
 62
9
  6
CONTINUOUS
 70
0
 71
3
 72
9
 73
5
 74
0
 42
0.0000001
 43
0.0000001
 44
0.0000000001
 40
0.0
 40
0.0
 40
0.0
 40
0.0
 40
0.5507821965
 40
1.0
 40
1.0
 40
1.0
 40
1.0
 10
1579.1331921017
 20
632.7740935446
 30
0.0
 10
1579.1331921017
 20
632.2970957773
 30
0.0
 10
1579.0174470371
 20
631.410857711
 30
0.0
 10
1578.4364326556
 20
630.6818441569
 30
0.0
 10
1578.0997406926
 20
630.486933779
 30
0.0
  0
SPLINE
  5
6C7
100
AcDbEntity
  8
7_ALL_ROUNDS
100
AcDbSpline
 62
9
  6
CONTINUOUS
 70
0
 71
3
 72
8
 73
4
 74
0
 42
0.0000001
 43
0.0000001
 44
0.0000000001
 40
0.0
 40
0.0
 40
0.0
 40
0.0
 40
1.0
 40
1.0
 40
1.0
 40
1.0
 10
1579.1331921017
 20
632.7740935446
 30
0.0
 10
1578.9586233908
 20
632.3104292849
 30
0.0
 10
1578.722982848
 20
631.8640887676
 30
0.0
 10
1578.4295791312
 20
631.4648732374
 30
0.0
  0
SPLINE
  5
6C8
100
AcDbEntity
  8
7_ALL_ROUNDS
100
AcDbSpline
 62
9
  6
CONTINUOUS
 70
0
 71
3
 72
9
 73
5
 74
0
 42
0.0000001
 43
0.0000001
 44
0.0000000001
 40
0.0
 40
0.0
 40
0.0
 40
0.0
 40
0.2576294484
 40
1.0
 40
1.0
 40
1.0
 40
1.0
 10
1578.4295791312
 20
631.4648732374
 30
0.0
 10
1578.358862076
 20
631.3686530974
 30
0.0
 10
1578.0709800658
 20
631.0053476504
 30
0.0
 10
1577.7283040613
 20
630.6842941458
 30
0.0
 10
1577.4487203857
 20
630.483716344
 30
0.0
  0
SPLINE
  5
6C9
100
AcDbEntity
  8
7_ALL_ROUNDS
100
AcDbSpline
 62
9
  6
CONTINUOUS
 70
0
 71
3
 72
9
 73
5
 74
0
 42
0.0000001
 43
0.0000001
 44
0.0000000001
 40
0.0
 40
0.0
 40
0.0
 40
0.0
 40
0.2613757141
 40
1.0
 40
1.0
 40
1.0
 40
1.0
 10
1577.4487203857
 20
630.483716344
 30
0.0
 10
1577.2864672685
 20
630.367313362
 30
0.0
 10
1576.6345673119
 20
629.9680201335
 30
0.0
 10
1575.8424518922
 20
629.7900514341
 30
0.0
 10
1575.2792931142
 20
629.82597517
 30
0.0
  0
SPLINE
  5
6CA
100
AcDbEntity
  8
7_ALL_ROUNDS
100
AcDbSpline
 62
9
  6
CONTINUOUS
 70
0
 71
3
 72
11
 73
7
 74
0
 42
0.0000001
 43
0.0000001
 44
0.0000000001
 40
0.0
 40
0.0
 40
0.0
 40
0.0
 40
0.2683209864
 40
0.5300823032
 40
0.7745462755
 40
1.0
 40
1.0
 40
1.0
 40
1.0
 10
1572.1220759117
 20
635.8492243179
 30
0.0
 10
1571.7488653202
 20
635.3166085605
 30
0.0
 10
1570.8368593013
 20
634.3761796482
 30
0.0
 10
1569.1477301969
 20
633.4854624274
 30
0.0
 10
1567.3518087267
 20
633.2294246037
 30
0.0
 10
1566.2121545709
 20
633.5538538157
 30
0.0
 10
1565.7389406196
 20
633.8271355645
 30
0.0
  0
SPLINE
  5
6CB
100
AcDbEntity
  8
7_ALL_ROUNDS
100
AcDbSpline
 62
9
  6
CONTINUOUS
 70
0
 71
3
 72
9
 73
5
 74
0
 42
0.0000001
 43
0.0000001
 44
0.0000000001
 40
0.0
 40
0.0
 40
0.0
 40
0.0
 40
0.5088007661
 40
1.0
 40
1.0
 40
1.0
 40
1.0
 10
1572.1220759117
 20
635.8492243179
 30
0.0
 10
1571.1241681648
 20
635.1128099267
 30
0.0
 10
1568.6859178937
 20
634.3366788065
 30
0.0
 10
1566.1214967695
 20
634.7079896321
 30
0.0
 10
1565.0846655109
 20
635.3067612
 30
0.0
  0
SPLINE
  5
6CC
100
AcDbEntity
  8
7_ALL_ROUNDS
100
AcDbSpline
 62
9
  6
CONTINUOUS
 70
0
 71
3
 72
10
 73
6
 74
0
 42
0.0000001
 43
0.0000001
 44
0.0000000001
 40
0.0
 40
0.0
 40
0.0
 40
0.0
 40
0.2294649656
 40
0.4925797671
 40
1.0
 40
1.0
 40
1.0
 40
1.0
 10
1572.1220759117
 20
724.6294769411
 30
0.0
 10
1571.6116084467
 20
724.4165892733
 30
0.0
 10
1570.4343871752
 20
724.1524945179
 30
0.0
 10
1568.0242577722
 20
724.134925328
 30
0.0
 10
1566.1437778939
 20
724.59917553
 30
0.0
 10
1565.0846655122
 20
725.210814479
 30
0.0
  0
SPLINE
  5
6CD
100
AcDbEntity
  8
7_ALL_ROUNDS
100
AcDbSpline
 62
9
  6
CONTINUOUS
 70
0
 71
3
 72
10
 73
6
 74
0
 42
0.0000001
 43
0.0000001
 44
0.0000000001
 40
0.0
 40
0.0
 40
0.0
 40
0.0
 40
0.2049414134
 40
0.4663774231
 40
1.0
 40
1.0
 40
1.0
 40
1.0
 10
1572.1220759117
 20
724.6294769411
 30
0.0
 10
1571.6614202709
 20
724.754828538
 30
0.0
 10
1570.6338826773
 20
725.1138987985
 30
0.0
 10
1568.4828605898
 20
726.0068853101
 30
0.0
 10
1566.8153926652
 20
726.8244771531
 30
0.0
 10
1565.7389406258
 20
727.4461297799
 30
0.0
  0
SPLINE
  5
6CE
100
AcDbEntity
  8
7_ALL_ROUNDS
100
AcDbSpline
 62
9
  6
CONTINUOUS
 70
0
 71
3
 72
10
 73
6
 74
0
 42
0.0000001
 43
0.0000001
 44
0.0000000001
 40
0.0
 40
0.0
 40
0.0
 40
0.0
 40
0.209075669
 40
0.4707475133
 40
1.0
 40
1.0
 40
1.0
 40
1.0
 10
1579.1331921017
 20
735.802467417
 30
0.0
 10
1578.8614885743
 20
736.2103088132
 30
0.0
 10
1578.1422082423
 20
737.0551382629
 30
0.0
 10
1576.446224393
 20
738.671489642
 30
0.0
 10
1574.9551425001
 20
739.8008284743
 30
0.0
 10
1573.8808820027
 20
740.4212154824
 30
0.0
  0
SPLINE
  5
6CF
100
AcDbEntity
  8
7_ALL_ROUNDS
100
AcDbSpline
 62
9
  6
CONTINUOUS
 70
0
 71
3
 72
9
 73
5
 74
0
 42
0.0000001
 43
0.0000001
 44
0.0000000001
 40
0.0
 40
0.0
 40
0.0
 40
0.0
 40
0.4999746649
 40
1.0
 40
1.0
 40
1.0
 40
1.0
 10
1579.1331921017
 20
735.802467417
 30
0.0
 10
1579.1331921017
 20
737.0141298936
 30
0.0
 10
1578.3048465712
 20
739.4066593757
 30
0.0
 10
1576.6470263304
 20
741.3201800499
 30
0.0
 10
1575.5976582071
 20
741.9261916755
 30
0.0
  0
SPLINE
  5
6D0
100
AcDbEntity
  8
0
100
AcDbSpline
 62
7
  6
CONTINUOUS
 70
0
 71
3
 72
9
 73
5
 74
0
 42
0.0000001
 43
0.0000001
 44
0.0000000001
 40
0.0
 40
0.0
 40
0.0
 40
0.0
 40
0.517234046
 40
1.0
 40
1.0
 40
1.0
 40
1.0
 10
1332.1440557641
 20
859.7343572107
 30
0.0
 10
1330.4073093863
 20
844.3034906099
 30
0.0
 10
1328.5590960239
 20
814.27248677
 30
0.0
 10
1330.2845654406
 20
784.2040248866
 30
0.0
 10
1332.1440557641
 20
769.8303039215
 30
0.0
  0
SPLINE
  5
6D1
100
AcDbEntity
  8
7_ALL_ROUNDS
100
AcDbSpline
 62
9
  6
CONTINUOUS
 70
0
 71
3
 72
9
 73
5
 74
0
 42
0.0000001
 43
0.0000001
 44
0.0000000001
 40
0.0
 40
0.0
 40
0.0
 40
0.0
 40
0.2780146212
 40
1.0
 40
1.0
 40
1.0
 40
1.0
 10
1565.0846655122
 20
635.3067611898
 30
0.0
 10
1565.1040858156
 20
635.1566436973
 30
0.0
 10
1565.2043254079
 20
634.6231291352
 30
0.0
 10
1565.4597866359
 20
634.1038949486
 30
0.0
 10
1565.7389406201
 20
633.827135564
 30
0.0
  0
SPLINE
  5
6D2
100
AcDbEntity
  8
0
100
AcDbSpline
 62
7
  6
CONTINUOUS
 70
0
 71
3
 72
9
 73
5
 74
0
 42
0.0000001
 43
0.0000001
 44
0.0000000001
 40
0.0
 40
0.0
 40
0.0
 40
0.0
 40
0.2570285722
 40
1.0
 40
1.0
 40
1.0
 40
1.0
 10
1584.7895867711
 20
744.8051303358
 30
0.0
 10
1585.0549782821
 20
744.4503868071
 30
0.0
 10
1585.9512654971
 20
742.9786189317
 30
0.0
 10
1586.3724585232
 20
741.1778455882
 30
0.0
 10
1586.2362286699
 20
739.904481421
 30
0.0
  0
SPLINE
  5
6D3
100
AcDbEntity
  8
0
100
AcDbSpline
 62
7
  6
CONTINUOUS
 70
0
 71
3
 72
9
 73
5
 74
0
 42
0.0000001
 43
0.0000001
 44
0.0000000001
 40
0.0
 40
0.0
 40
0.0
 40
0.0
 40
0.2345243388
 40
1.0
 40
1.0
 40
1.0
 40
1.0
 10
1691.4910197523
 20
772.9175389546
 30
0.0
 10
1691.3947010992
 20
772.9731875301
 30
0.0
 10
1690.9560416669
 20
773.1643115607
 30
0.0
 10
1690.446543756
 20
773.1360824462
 30
0.0
 10
1690.0958546282
 20
773.042048346
 30
0.0
  0
SPLINE
  5
6D4
100
AcDbEntity
  8
0
100
AcDbSpline
 62
9
  6
CONTINUOUS
 70
0
 71
3
 72
9
 73
5
 74
0
 42
0.0000001
 43
0.0000001
 44
0.0000000001
 40
0.0
 40
0.0
 40
0.0
 40
0.0
 40
0.2441223091
 40
1.0
 40
1.0
 40
1.0
 40
1.0
 10
1691.1468470835
 20
768.0353096311
 30
0.0
 10
1691.2315180267
 20
768.4490404927
 30
0.0
 10
1691.3808705887
 20
770.1791313113
 30
0.0
 10
1690.8331368613
 20
771.962138784
 30
0.0
 10
1690.0958546282
 20
773.042048346
 30
0.0
  0
SPLINE
  5
6D5
100
AcDbEntity
  8
7_ALL_ROUNDS
100
AcDbSpline
 62
9
  6
CONTINUOUS
 70
0
 71
3
 72
9
 73
5
 74
0
 42
0.0000001
 43
0.0000001
 44
0.0000000001
 40
0.0
 40
0.0
 40
0.0
 40
0.0
 40
0.2366468808
 40
1.0
 40
1.0
 40
1.0
 40
1.0
 10
1328.1510621414
 20
771.0344827828
 30
0.0
 10
1328.092554593
 20
771.0924884499
 30
0.0
 10
1327.8623035342
 20
771.354803814
 30
0.0
 10
1327.7061091504
 20
771.6768463938
 30
0.0
 10
1327.6247495931
 20
771.9298459467
 30
0.0
  0
SPLINE
  5
6D6
100
AcDbEntity
  8
7_ALL_ROUNDS
100
AcDbSpline
 62
9
  6
CONTINUOUS
 70
0
 71
3
 72
8
 73
4
 74
0
 42
0.0000001
 43
0.0000001
 44
0.0000000001
 40
0.0
 40
0.0
 40
0.0
 40
0.0
 40
1.0
 40
1.0
 40
1.0
 40
1.0
 10
1327.6247495931
 20
771.9298459467
 30
0.0
 10
1327.5637143951
 20
772.1196439043
 30
0.0
 10
1327.5223659019
 20
772.3163856693
 30
0.0
 10
1327.4967870336
 20
772.5141084085
 30
0.0
  0
SPLINE
  5
6D7
100
AcDbEntity
  8
0
100
AcDbSpline
 62
7
  6
CONTINUOUS
 70
0
 71
3
 72
9
 73
5
 74
0
 42
0.0000001
 43
0.0000001
 44
0.0000000001
 40
0.0
 40
0.0
 40
0.0
 40
0.0
 40
0.2780146212
 40
1.0
 40
1.0
 40
1.0
 40
1.0
 10
1332.1440557641
 20
769.8303039215
 30
0.0
 10
1332.1634760677
 20
769.680186429
 30
0.0
 10
1332.2637156598
 20
769.1466718671
 30
0.0
 10
1332.5191768867
 20
768.6274376792
 30
0.0
 10
1332.7983308719
 20
768.3506782957
 30
0.0
  0
SPLINE
  5
6D8
100
AcDbEntity
  8
0
100
AcDbSpline
 62
7
  6
CONTINUOUS
 70
0
 71
3
 72
17
 73
13
 74
0
 42
0.0000001
 43
0.0000001
 44
0.0000000001
 40
0.0
 40
0.0
 40
0.0
 40
0.0
 40
0.08079857
 40
0.1152415647
 40
0.152178571
 40
0.1958742935
 40
0.2483187449
 40
0.3791376442
 40
0.5365296892
 40
0.7044206368
 40
0.8644509774
 40
1.0
 40
1.0
 40
1.0
 40
1.0
 10
1518.3962327337
 20
824.7948429216
 30
0.0
 10
1518.7576216494
 20
824.9835635351
 30
0.0
 10
1519.2695983045
 20
825.3761295095
 30
0.0
 10
1519.4466576309
 20
826.1523812228
 30
0.0
 10
1519.3080371034
 20
826.7324299114
 30
0.0
 10
1518.9446466726
 20
827.3062982152
 30
0.0
 10
1518.1281231617
 20
828.1183410115
 30
0.0
 10
1516.6362970189
 20
829.0125222758
 30
0.0
 10
1514.4763192098
 20
829.8257233603
 30
0.0
 10
1512.0724537491
 20
830.3434133904
 30
0.0
 10
1509.7327641181
 20
830.5006067903
 30
0.0
 10
1508.2336254144
 20
830.3403247772
 30
0.0
 10
1507.5730020339
 20
830.1631846321
 30
0.0
  0
SPLINE
  5
6D9
100
AcDbEntity
  8
0
100
AcDbSpline
 62
7
  6
CONTINUOUS
 70
0
 71
3
 72
9
 73
5
 74
0
 42
0.0000001
 43
0.0000001
 44
0.0000000001
 40
0.0
 40
0.0
 40
0.0
 40
0.0
 40
0.2526471506
 40
1.0
 40
1.0
 40
1.0
 40
1.0
 10
1332.7983308719
 20
768.3506782957
 30
0.0
 10
1332.9869227674
 20
768.1637041542
 30
0.0
 10
1333.7560928696
 20
767.4469521698
 30
0.0
 10
1334.6172227178
 20
766.8284978054
 30
0.0
 10
1335.2975039142
 20
766.4356331064
 30
0.0
  0
SPLINE
  5
6DA
100
AcDbEntity
  8
0
100
AcDbSpline
 62
7
  6
CONTINUOUS
 70
0
 71
3
 72
15
 73
11
 74
0
 42
0.0000001
 43
0.0000001
 44
0.0000000001
 40
0.0
 40
0.0
 40
0.0
 40
0.0
 40
0.078288535
 40
0.194270081
 40
0.3393372226
 40
0.5
 40
0.6606627775
 40
0.805729919
 40
0.921711465
 40
1.0
 40
1.0
 40
1.0
 40
1.0
 10
1372.9146395369
 20
293.3513468678
 30
0.0
 10
1372.7221305406
 20
293.6594483214
 30
0.0
 10
1372.0052300611
 20
294.2511121983
 30
0.0
 10
1370.6356563946
 20
295.0157918577
 30
0.0
 10
1368.8188168045
 20
295.7627702468
 30
0.0
 10
1366.7512359602
 20
296.4074535627
 30
0.0
 10
1364.6383167668
 20
296.8829318557
 30
0.0
 10
1362.6913983329
 20
297.1444493895
 30
0.0
 10
1361.122972916
 20
297.1670042117
 30
0.0
 10
1360.2062869505
 20
297.0130585035
 30
0.0
 10
1359.8855185428
 20
296.8424893157
 30
0.0
  0
SPLINE
  5
6DB
100
AcDbEntity
  8
0
100
AcDbSpline
 62
7
  6
CONTINUOUS
 70
0
 71
3
 72
15
 73
11
 74
0
 42
0.0000001
 43
0.0000001
 44
0.0000000001
 40
0.0
 40
0.0
 40
0.0
 40
0.0
 40
0.078288535
 40
0.194270081
 40
0.3393372226
 40
0.5
 40
0.6606627775
 40
0.805729919
 40
0.921711465
 40
1.0
 40
1.0
 40
1.0
 40
1.0
 10
1376.9338774234
 20
308.3513468678
 30
0.0
 10
1376.7413684271
 20
308.6594483214
 30
0.0
 10
1376.0244679476
 20
309.2511121983
 30
0.0
 10
1374.654894281
 20
310.0157918577
 30
0.0
 10
1372.838054691
 20
310.7627702468
 30
0.0
 10
1370.7704738467
 20
311.4074535627
 30
0.0
 10
1368.6575546532
 20
311.8829318557
 30
0.0
 10
1366.7106362193
 20
312.1444493895
 30
0.0
 10
1365.1422108025
 20
312.1670042117
 30
0.0
 10
1364.225524837
 20
312.0130585035
 30
0.0
 10
1363.9047564292
 20
311.8424893157
 30
0.0
  0
SPLINE
  5
6DC
100
AcDbEntity
  8
0
100
AcDbSpline
 62
7
  6
CONTINUOUS
 70
0
 71
3
 72
9
 73
5
 74
0
 42
0.0000001
 43
0.0000001
 44
0.0000000001
 40
0.0
 40
0.0
 40
0.0
 40
0.0
 40
0.4293392975
 40
1.0
 40
1.0
 40
1.0
 40
1.0
 10
1526.9276091318
 20
237.126406142
 30
0.0
 10
1526.6319900918
 20
237.0777192254
 30
0.0
 10
1525.9244013597
 20
237.1221693074
 30
0.0
 10
1525.2408352837
 20
237.2579379663
 30
0.0
 10
1524.8561859155
 20
237.3610044539
 30
0.0
  0
SPLINE
  5
6DD
100
AcDbEntity
  8
0
100
AcDbSpline
 62
7
  6
CONTINUOUS
 70
0
 71
3
 72
9
 73
5
 74
0
 42
0.0000001
 43
0.0000001
 44
0.0000000001
 40
0.0
 40
0.0
 40
0.0
 40
0.0
 40
0.5706607025
 40
1.0
 40
1.0
 40
1.0
 40
1.0
 10
1200.3051082823
 20
324.3242036083
 30
0.0
 10
1199.9204589141
 20
324.4272700959
 30
0.0
 10
1199.2605889977
 20
324.6514740263
 30
0.0
 10
1198.6255741392
 20
324.9667734921
 30
0.0
 10
1198.3939039991
 20
325.1567471187
 30
0.0
  0
SPLINE
  5
6DE
100
AcDbEntity
  8
0
100
AcDbSpline
 62
7
  6
CONTINUOUS
 70
0
 71
3
 72
8
 73
4
 74
0
 42
0.0000001
 43
0.0000001
 44
0.0000000001
 40
0.0
 40
0.0
 40
0.0
 40
0.0
 40
1.0
 40
1.0
 40
1.0
 40
1.0
 10
1372.740992047
 20
293.5693498996
 30
0.0
 10
1372.765064222
 20
293.4863931532
 30
0.0
 10
1372.772828192
 20
293.3948063989
 30
0.0
 10
1372.7538698921
 20
293.3105337803
 30
0.0
  0
SPLINE
  5
6DF
100
AcDbEntity
  8
0
100
AcDbSpline
 62
7
  6
CONTINUOUS
 70
0
 71
3
 72
19
 73
15
 74
0
 42
0.0000001
 43
0.0000001
 44
0.0000000001
 40
0.0
 40
0.0
 40
0.0
 40
0.0
 40
0.0583457853
 40
0.1062878937
 40
0.1671901205
 40
0.2395391515
 40
0.3210447918
 40
0.4999999961
 40
0.6789552011
 40
0.7604608423
 40
0.8328098745
 40
0.8937121026
 40
0.9416542124
 40
1.0
 40
1.0
 40
1.0
 40
1.0
 10
1359.5130430912
 20
296.4400732727
 30
0.0
 10
1359.4375943101
 20
296.1584946355
 30
0.0
 10
1359.8025782757
 20
295.6185078665
 30
0.0
 10
1360.4292044066
 20
295.1174199369
 30
0.0
 10
1361.2063063961
 20
294.6278893283
 30
0.0
 10
1362.1637087365
 20
294.1493878902
 30
0.0
 10
1363.6996347218
 20
293.5059400429
 30
0.0
 10
1365.7947526382
 20
292.8378094857
 30
0.0
 10
1367.9432432579
 20
292.3688685507
 30
0.0
 10
1369.5951181153
 20
292.1581477264
 30
0.0
 10
1370.6635035992
 20
292.0938409478
 30
0.0
 10
1371.581258988
 20
292.1292358839
 30
0.0
 10
1372.3744771274
 20
292.2498776901
 30
0.0
 10
1372.9605559249
 20
292.5350279393
 30
0.0
 10
1373.0360047088
 20
292.8166065871
 30
0.0
  0
SPLINE
  5
6E0
100
AcDbEntity
  8
0
100
AcDbSpline
 62
7
  6
CONTINUOUS
 70
0
 71
3
 72
19
 73
15
 74
0
 42
0.0000001
 43
0.0000001
 44
0.0000000001
 40
0.0
 40
0.0
 40
0.0
 40
0.0
 40
0.0583457853
 40
0.1062878937
 40
0.1671901205
 40
0.2395391515
 40
0.3210447918
 40
0.4999999961
 40
0.6789552011
 40
0.7604608423
 40
0.8328098745
 40
0.8937121026
 40
0.9416542124
 40
1.0
 40
1.0
 40
1.0
 40
1.0
 10
1363.5322809777
 20
311.4400732727
 30
0.0
 10
1363.4568321966
 20
311.1584946355
 30
0.0
 10
1363.8218161621
 20
310.6185078665
 30
0.0
 10
1364.4484422931
 20
310.1174199369
 30
0.0
 10
1365.2255442825
 20
309.6278893283
 30
0.0
 10
1366.182946623
 20
309.1493878902
 30
0.0
 10
1367.7188726083
 20
308.5059400429
 30
0.0
 10
1369.8139905247
 20
307.8378094857
 30
0.0
 10
1371.9624811444
 20
307.3688685507
 30
0.0
 10
1373.6143560018
 20
307.1581477264
 30
0.0
 10
1374.6827414856
 20
307.0938409478
 30
0.0
 10
1375.6004968745
 20
307.1292358839
 30
0.0
 10
1376.3937150138
 20
307.2498776901
 30
0.0
 10
1376.9797938113
 20
307.5350279393
 30
0.0
 10
1377.0552425953
 20
307.8166065871
 30
0.0
  0
SPLINE
  5
6E1
100
AcDbEntity
  8
0
100
AcDbSpline
 62
7
  6
CONTINUOUS
 70
0
 71
3
 72
8
 73
4
 74
0
 42
0.0000001
 43
0.0000001
 44
0.0000000001
 40
0.0
 40
0.0
 40
0.0
 40
0.0
 40
1.0
 40
1.0
 40
1.0
 40
1.0
 10
1360.0043425966
 20
296.7267593196
 30
0.0
 10
1360.0300605423
 20
296.809220697
 30
0.0
 10
1360.0825777136
 20
296.8846551671
 30
0.0
 10
1360.1449032013
 20
296.9444617309
 30
0.0
  0
SPLINE
  5
6E2
100
AcDbEntity
  8
0
100
AcDbSpline
 62
7
  6
CONTINUOUS
 70
0
 71
3
 72
9
 73
5
 74
0
 42
0.0000001
 43
0.0000001
 44
0.0000000001
 40
0.0
 40
0.0
 40
0.0
 40
0.0
 40
0.2188301747
 40
1.0
 40
1.0
 40
1.0
 40
1.0
 10
1372.7496343535
 20
293.2933393129
 30
0.0
 10
1372.7390423719
 20
293.2538095246
 30
0.0
 10
1372.6640788424
 20
293.0794152423
 30
0.0
 10
1372.497671141
 20
292.9626818421
 30
0.0
 10
1372.366841491
 20
292.89767613
 30
0.0
  0
SPLINE
  5
6E3
100
AcDbEntity
  8
0
100
AcDbSpline
 62
7
  6
CONTINUOUS
 70
0
 71
3
 72
15
 73
11
 74
0
 42
0.0000001
 43
0.0000001
 44
0.0000000001
 40
0.0
 40
0.0
 40
0.0
 40
0.0
 40
0.0793542602
 40
0.1956187949
 40
0.3402242864
 40
0.5000000157
 40
0.6597757427
 40
0.8043812273
 40
0.9206457516
 40
1.0
 40
1.0
 40
1.0
 40
1.0
 10
1372.366841491
 20
292.89767613
 30
0.0
 10
1372.0575574471
 20
292.7440012595
 30
0.0
 10
1371.1933972252
 20
292.6061700629
 30
0.0
 10
1369.7175547469
 20
292.6327935918
 30
0.0
 10
1367.8971981302
 20
292.8800600176
 30
0.0
 10
1365.9252041676
 20
293.3246621683
 30
0.0
 10
1363.9951062681
 20
293.9256224314
 30
0.0
 10
1362.2949980799
 20
294.6216617545
 30
0.0
 10
1361.0035693796
 20
295.3365263304
 30
0.0
 10
1360.3241003871
 20
295.8879717622
 30
0.0
 10
1360.1330900611
 20
296.1757001159
 30
0.0
  0
SPLINE
  5
6E4
100
AcDbEntity
  8
0
100
AcDbSpline
 62
7
  6
CONTINUOUS
 70
0
 71
3
 72
9
 73
5
 74
0
 42
0.0000001
 43
0.0000001
 44
0.0000000001
 40
0.0
 40
0.0
 40
0.0
 40
0.0
 40
0.2969045864
 40
1.0
 40
1.0
 40
1.0
 40
1.0
 10
1360.1330900611
 20
296.1757001159
 30
0.0
 10
1360.102488059
 20
296.2217974336
 30
0.0
 10
1360.0086281304
 20
296.3809445041
 30
0.0
 10
1359.9655011882
 20
296.5831883985
 30
0.0
 10
1359.9994134465
 20
296.7097507083
 30
0.0
  0
SPLINE
  5
6E5
100
AcDbEntity
  8
0
100
AcDbSpline
 62
7
  6
CONTINUOUS
 70
0
 71
3
 72
9
 73
5
 74
0
 42
0.0000001
 43
0.0000001
 44
0.0000000001
 40
0.0
 40
0.0
 40
0.0
 40
0.0
 40
0.2188301747
 40
1.0
 40
1.0
 40
1.0
 40
1.0
 10
1376.76887224
 20
308.2933393129
 30
0.0
 10
1376.7582802583
 20
308.2538095246
 30
0.0
 10
1376.6833167288
 20
308.0794152423
 30
0.0
 10
1376.5169090274
 20
307.9626818421
 30
0.0
 10
1376.3860793775
 20
307.89767613
 30
0.0
  0
SPLINE
  5
6E6
100
AcDbEntity
  8
0
100
AcDbSpline
 62
7
  6
CONTINUOUS
 70
0
 71
3
 72
15
 73
11
 74
0
 42
0.0000001
 43
0.0000001
 44
0.0000000001
 40
0.0
 40
0.0
 40
0.0
 40
0.0
 40
0.0793542602
 40
0.1956187949
 40
0.3402242864
 40
0.5000000157
 40
0.6597757427
 40
0.8043812273
 40
0.9206457516
 40
1.0
 40
1.0
 40
1.0
 40
1.0
 10
1376.3860793775
 20
307.89767613
 30
0.0
 10
1376.0767953336
 20
307.7440012595
 30
0.0
 10
1375.2126351117
 20
307.6061700629
 30
0.0
 10
1373.7367926334
 20
307.6327935918
 30
0.0
 10
1371.9164360167
 20
307.8800600176
 30
0.0
 10
1369.944442054
 20
308.3246621683
 30
0.0
 10
1368.0143441545
 20
308.9256224314
 30
0.0
 10
1366.3142359664
 20
309.6216617545
 30
0.0
 10
1365.0228072661
 20
310.3365263304
 30
0.0
 10
1364.3433382735
 20
310.8879717622
 30
0.0
 10
1364.1523279475
 20
311.1757001159
 30
0.0
  0
SPLINE
  5
6E7
100
AcDbEntity
  8
0
100
AcDbSpline
 62
7
  6
CONTINUOUS
 70
0
 71
3
 72
9
 73
5
 74
0
 42
0.0000001
 43
0.0000001
 44
0.0000000001
 40
0.0
 40
0.0
 40
0.0
 40
0.0
 40
0.2969045864
 40
1.0
 40
1.0
 40
1.0
 40
1.0
 10
1364.1523279475
 20
311.1757001159
 30
0.0
 10
1364.1217259455
 20
311.2217974336
 30
0.0
 10
1364.0278660169
 20
311.3809445041
 30
0.0
 10
1363.9847390747
 20
311.5831883985
 30
0.0
 10
1364.018651333
 20
311.7097507083
 30
0.0
  0
SPLINE
  5
6E8
100
AcDbEntity
  8
0
100
AcDbSpline
 62
7
  6
CONTINUOUS
 70
0
 71
3
 72
8
 73
4
 74
0
 42
0.0000001
 43
0.0000001
 44
0.0000000001
 40
0.0
 40
0.0
 40
0.0
 40
0.0
 40
1.0
 40
1.0
 40
1.0
 40
1.0
 10
1364.0235804831
 20
311.7267593196
 30
0.0
 10
1364.0492984288
 20
311.809220697
 30
0.0
 10
1364.1018156001
 20
311.8846551671
 30
0.0
 10
1364.1641410878
 20
311.9444617309
 30
0.0
  0
SPLINE
  5
6E9
100
AcDbEntity
  8
0
100
AcDbSpline
 62
9
  6
CONTINUOUS
 70
0
 71
3
 72
9
 73
5
 74
0
 42
0.0000001
 43
0.0000001
 44
0.0000000001
 40
0.0
 40
0.0
 40
0.0
 40
0.0
 40
0.4960374192
 40
1.0
 40
1.0
 40
1.0
 40
1.0
 10
1196.7345651695
 20
330.3172718265
 30
0.0
 10
1196.5125593074
 20
329.4887346696
 30
0.0
 10
1196.5400911269
 20
327.6567008066
 30
0.0
 10
1197.5280964383
 20
326.1217343085
 30
0.0
 10
1198.1702475626
 20
325.5325818887
 30
0.0
  0
SPLINE
  5
6EA
100
AcDbEntity
  8
0
100
AcDbSpline
 62
7
  6
CONTINUOUS
 70
0
 71
3
 72
9
 73
5
 74
0
 42
0.0000001
 43
0.0000001
 44
0.0000000001
 40
0.0
 40
0.0
 40
0.0
 40
0.0
 40
0.3427883013
 40
1.0
 40
1.0
 40
1.0
 40
1.0
 10
1198.3939039991
 20
325.1567471187
 30
0.0
 10
1198.3544348592
 20
325.1891125139
 30
0.0
 10
1198.247731799
 20
325.2837210407
 30
0.0
 10
1198.144919204
 20
325.4380551678
 30
0.0
 10
1198.1702475626
 20
325.5325818887
 30
0.0
  0
SPLINE
  5
6EB
100
AcDbEntity
  8
0
100
AcDbSpline
 62
9
  6
CONTINUOUS
 70
0
 71
3
 72
8
 73
4
 74
0
 42
0.0000001
 43
0.0000001
 44
0.0000000001
 40
0.0
 40
0.0
 40
0.0
 40
0.0
 40
1.0
 40
1.0
 40
1.0
 40
1.0
 10
1529.5862965471
 20
238.5248161619
 30
0.0
 10
1528.9575612515
 20
237.9444946746
 30
0.0
 10
1528.144440079
 20
237.5257652629
 30
0.0
 10
1527.3092186725
 20
237.3400603822
 30
0.0
  0
SPLINE
  5
6EC
100
AcDbEntity
  8
0
100
AcDbSpline
 62
7
  6
CONTINUOUS
 70
0
 71
3
 72
9
 73
5
 74
0
 42
0.0000001
 43
0.0000001
 44
0.0000000001
 40
0.0
 40
0.0
 40
0.0
 40
0.0
 40
0.1813183328
 40
1.0
 40
1.0
 40
1.0
 40
1.0
 10
1527.3092186725
 20
237.3400603822
 30
0.0
 10
1527.3021481756
 20
237.3136729284
 30
0.0
 10
1527.2194419473
 20
237.1800159023
 30
0.0
 10
1527.0493161263
 20
237.1464506503
 30
0.0
 10
1526.9276091318
 20
237.126406142
 30
0.0
  0
SPLINE
  5
6ED
100
AcDbEntity
  8
0
100
AcDbSpline
 62
9
  6
CONTINUOUS
 70
0
 71
3
 72
9
 73
5
 74
0
 42
0.0000001
 43
0.0000001
 44
0.0000000001
 40
0.0
 40
0.0
 40
0.0
 40
0.0
 40
0.4960378529
 40
1.0
 40
1.0
 40
1.0
 40
1.0
 10
1540.0048154306
 20
274.5779429438
 30
0.0
 10
1539.7828093746
 20
273.7494050629
 30
0.0
 10
1538.8429486581
 20
272.1765831678
 30
0.0
 10
1537.2198277015
 20
271.3412663422
 30
0.0
 10
1536.3691330376
 20
271.152121105
 30
0.0
  0
SPLINE
  5
6EE
100
AcDbEntity
  8
0
100
AcDbSpline
 62
9
  6
CONTINUOUS
 70
0
 71
3
 72
9
 73
5
 74
0
 42
0.0000001
 43
0.0000001
 44
0.0000000001
 40
0.0
 40
0.0
 40
0.0
 40
0.0
 40
0.4960378547
 40
1.0
 40
1.0
 40
1.0
 40
1.0
 10
1205.7944795346
 20
364.1293325493
 30
0.0
 10
1205.5724734778
 20
363.3007946655
 30
0.0
 10
1205.6000057886
 20
361.4687605896
 30
0.0
 10
1206.5880113586
 20
359.9337945218
 30
0.0
 10
1207.2301619277
 20
359.3446426115
 30
0.0
  0
SPLINE
  5
6EF
100
AcDbEntity
  8
0
100
AcDbSpline
 62
7
  6
CONTINUOUS
 70
0
 71
3
 72
8
 73
4
 74
0
 42
0.0000001
 43
0.0000001
 44
0.0000000001
 40
0.0
 40
0.0
 40
0.0
 40
0.0
 40
1.0
 40
1.0
 40
1.0
 40
1.0
 10
1376.7602299335
 20
308.5693498996
 30
0.0
 10
1376.7843021084
 20
308.4863931532
 30
0.0
 10
1376.7920660784
 20
308.3948063989
 30
0.0
 10
1376.7731077785
 20
308.3105337803
 30
0.0
  0
SPLINE
  5
6F0
100
AcDbEntity
  8
7_ALL_ROUNDS
100
AcDbSpline
 62
9
  6
CONTINUOUS
 70
0
 71
3
 72
11
 73
7
 74
0
 42
0.0000001
 43
0.0000001
 44
0.0000000001
 40
0.0
 40
0.0
 40
0.0
 40
0.0
 40
0.2417719145
 40
0.4884035456
 40
0.7418216087
 40
1.0
 40
1.0
 40
1.0
 40
1.0
 10
903.5811586974
 20
731.9497429863
 30
0.0
 10
902.9943511634
 20
732.1069775911
 30
0.0
 10
901.8638229722
 20
732.6863430768
 30
0.0
 10
900.6612158274
 20
734.1746788086
 30
0.0
 10
900.1016880256
 20
736.0427470265
 30
0.0
 10
900.2091236249
 20
737.3580402125
 30
0.0
 10
900.3770280625
 20
737.9846681044
 30
0.0
  0
SPLINE
  5
6F1
100
AcDbEntity
  8
7_ALL_ROUNDS
100
AcDbSpline
 62
9
  6
CONTINUOUS
 70
0
 71
3
 72
11
 73
7
 74
0
 42
0.0000001
 43
0.0000001
 44
0.0000000001
 40
0.0
 40
0.0
 40
0.0
 40
0.0
 40
0.2075401458
 40
0.4421028111
 40
0.7102883706
 40
1.0
 40
1.0
 40
1.0
 40
1.0
 10
910.650605914
 20
730.0554903137
 30
0.0
 10
910.2050195026
 20
730.1748848328
 30
0.0
 10
909.3243217542
 20
730.7287068303
 30
0.0
 10
908.5347307246
 20
732.1484058439
 30
0.0
 10
908.2564270339
 20
733.9149680767
 30
0.0
 10
908.4200422406
 20
735.1628831249
 30
0.0
 10
908.5867086971
 20
735.7848908083
 30
0.0
  0
SPLINE
  5
6F2
100
AcDbEntity
  8
7_ALL_ROUNDS
100
AcDbSpline
 62
9
  6
CONTINUOUS
 70
0
 71
3
 72
12
 73
8
 74
0
 42
0.0000001
 43
0.0000001
 44
0.0000000001
 40
0.0
 40
0.0
 40
0.0
 40
0.0
 40
0.1167140825
 40
0.212623058
 40
0.3344687698
 40
0.6419783362
 40
1.0
 40
1.0
 40
1.0
 40
1.0
 10
910.650605914
 20
730.0554903137
 30
0.0
 10
910.4494790238
 20
730.1093821015
 30
0.0
 10
910.2458274832
 20
730.5279649614
 30
0.0
 10
910.1594402438
 20
731.0947552743
 30
0.0
 10
910.1243243844
 20
732.043629881
 30
0.0
 10
910.2789235627
 20
733.4388524294
 30
0.0
 10
910.529387534
 20
734.603097101
 30
0.0
 10
910.6947011545
 20
735.2200559317
 30
0.0
  0
SPLINE
  5
6F3
100
AcDbEntity
  8
0
100
AcDbSpline
 62
7
  6
CONTINUOUS
 70
0
 71
3
 72
11
 73
7
 74
0
 42
0.0000001
 43
0.0000001
 44
0.0000000001
 40
0.0
 40
0.0
 40
0.0
 40
0.0
 40
0.3989005082
 40
0.7080174173
 40
0.9086837825
 40
1.0
 40
1.0
 40
1.0
 40
1.0
 10
920.1428162828
 20
730.2297964089
 30
0.0
 10
920.0737771185
 20
729.8724729099
 30
0.0
 10
919.9618474495
 20
729.2434909589
 30
0.0
 10
919.8772501601
 20
728.3929964127
 30
0.0
 10
919.861854459
 20
727.8929681629
 30
0.0
 10
919.9424425732
 20
727.5657501846
 30
0.0
 10
920.0229150424
 20
727.5441876515
 30
0.0
  0
SPLINE
  5
6F4
100
AcDbEntity
  8
7_ALL_ROUNDS
100
AcDbSpline
 62
9
  6
CONTINUOUS
 70
0
 71
3
 72
11
 73
7
 74
0
 42
0.0000001
 43
0.0000001
 44
0.0000000001
 40
0.0
 40
0.0
 40
0.0
 40
0.0
 40
0.207540139
 40
0.4421027969
 40
0.710288343
 40
1.0
 40
1.0
 40
1.0
 40
1.0
 10
1000.2019955195
 20
1064.2658262097
 30
0.0
 10
999.7564091227
 20
1064.3852207249
 30
0.0
 10
998.716791535
 20
1064.3459456948
 30
0.0
 10
997.3231361856
 20
1063.5112458489
 30
0.0
 10
996.1988369258
 20
1062.1205099646
 30
0.0
 10
995.7165743391
 20
1060.9579761801
 30
0.0
 10
995.5499078667
 20
1060.3359684373
 30
0.0
  0
SPLINE
  5
6F5
100
AcDbEntity
  8
7_ALL_ROUNDS
100
AcDbSpline
 62
9
  6
CONTINUOUS
 70
0
 71
3
 72
11
 73
7
 74
0
 42
0.0000001
 43
0.0000001
 44
0.0000000001
 40
0.0
 40
0.0
 40
0.0
 40
0.0
 40
0.2417719237
 40
0.4884035625
 40
0.7418216379
 40
1.0
 40
1.0
 40
1.0
 40
1.0
 10
993.1325483029
 20
1066.1600788823
 30
0.0
 10
992.5457407469
 20
1066.3173134931
 30
0.0
 10
991.2769918259
 20
1066.3808323483
 30
0.0
 10
989.4913355541
 20
1065.6931993161
 30
0.0
 10
988.0727362487
 20
1064.3551686169
 30
0.0
 10
987.5081316299
 20
1063.1623735599
 30
0.0
 10
987.3402272113
 20
1062.535745739
 30
0.0
  0
SPLINE
  5
6F6
100
AcDbEntity
  8
0
100
AcDbSpline
 62
7
  6
CONTINUOUS
 70
0
 71
3
 72
11
 73
7
 74
0
 42
0.0000001
 43
0.0000001
 44
0.0000000001
 40
0.0
 40
0.0
 40
0.0
 40
0.0
 40
0.3989005082
 40
0.7080174173
 40
0.9086837825
 40
1.0
 40
1.0
 40
1.0
 40
1.0
 10
1008.3353377894
 20
1059.3687675188
 30
0.0
 10
1008.4542098687
 20
1059.7127383284
 30
0.0
 10
1008.6717669074
 20
1060.3134175111
 30
0.0
 10
1009.0237507787
 20
1061.0922660385
 30
0.0
 10
1009.2604318354
 20
1061.533001056
 30
0.0
 10
1009.4938321786
 20
1061.7760860807
 30
0.0
 10
1009.5743046479
 20
1061.7545235475
 30
0.0
  0
SPLINE
  5
6F7
100
AcDbEntity
  8
7_ALL_ROUNDS
100
AcDbSpline
 62
9
  6
CONTINUOUS
 70
0
 71
3
 72
12
 73
8
 74
0
 42
0.0000001
 43
0.0000001
 44
0.0000000001
 40
0.0
 40
0.0
 40
0.0
 40
0.0
 40
0.116714082
 40
0.212623057
 40
0.3344687682
 40
0.6419783343
 40
1.0
 40
1.0
 40
1.0
 40
1.0
 10
1000.2019955195
 20
1064.2658262097
 30
0.0
 10
1000.0008686301
 20
1064.3197179973
 30
0.0
 10
999.6152097938
 20
1064.0590403793
 30
0.0
 10
999.2570010948
 20
1063.6113791916
 30
0.0
 10
998.7521525631
 20
1062.8071876111
 30
0.0
 10
998.1884281151
 20
1061.5215898449
 30
0.0
 10
997.8232139153
 20
1060.3880924029
 30
0.0
 10
997.6579002939
 20
1059.7711335688
 30
0.0
  0
SPLINE
  5
6F8
100
AcDbEntity
  8
0
100
AcDbSpline
 62
7
  6
CONTINUOUS
 70
0
 71
3
 72
15
 73
11
 74
0
 42
0.0000001
 43
0.0000001
 44
0.0000000001
 40
0.0
 40
0.0
 40
0.0
 40
0.0
 40
0.078288535
 40
0.194270081
 40
0.3393372226
 40
0.5
 40
0.6606627775
 40
0.805729919
 40
0.921711465
 40
1.0
 40
1.0
 40
1.0
 40
1.0
 10
537.3568149603
 20
154.2052838864
 30
0.0
 10
537.091123025
 20
154.453062043
 30
0.0
 10
536.2455164573
 20
154.8390179646
 30
0.0
 10
534.7246962225
 20
155.2231700479
 30
0.0
 10
532.7764317069
 20
155.4744630778
 30
0.0
 10
530.6124456512
 20
155.5620500426
 30
0.0
 10
528.4484595956
 20
155.4744630776
 30
0.0
 10
526.5001950803
 20
155.2231700476
 30
0.0
 10
524.979374846
 20
154.8390179642
 30
0.0
 10
524.1337682785
 20
154.4530620426
 30
0.0
 10
523.8680763435
 20
154.2052838859
 30
0.0
  0
SPLINE
  5
6F9
100
AcDbEntity
  8
0
100
AcDbSpline
 62
7
  6
CONTINUOUS
 70
0
 71
3
 72
15
 73
11
 74
0
 42
0.0000001
 43
0.0000001
 44
0.0000000001
 40
0.0
 40
0.0
 40
0.0
 40
0.0
 40
0.078288535
 40
0.194270081
 40
0.3393372226
 40
0.5
 40
0.6606627775
 40
0.805729919
 40
0.921711465
 40
1.0
 40
1.0
 40
1.0
 40
1.0
 10
607.3568149603
 20
154.2052838864
 30
0.0
 10
607.091123025
 20
154.453062043
 30
0.0
 10
606.2455164573
 20
154.8390179646
 30
0.0
 10
604.7246962225
 20
155.2231700479
 30
0.0
 10
602.7764317069
 20
155.4744630778
 30
0.0
 10
600.6124456512
 20
155.5620500426
 30
0.0
 10
598.4484595956
 20
155.4744630776
 30
0.0
 10
596.5001950803
 20
155.2231700476
 30
0.0
 10
594.979374846
 20
154.8390179642
 30
0.0
 10
594.1337682785
 20
154.4530620426
 30
0.0
 10
593.8680763435
 20
154.2052838859
 30
0.0
  0
SPLINE
  5
6FA
100
AcDbEntity
  8
0
100
AcDbSpline
 62
7
  6
CONTINUOUS
 70
0
 71
3
 72
12
 73
8
 74
0
 42
0.0000001
 43
0.0000001
 44
0.0000000001
 40
0.0
 40
0.0
 40
0.0
 40
0.0
 40
0.1182132528
 40
0.2147114901
 40
0.3367695428
 40
0.6435968022
 40
1.0
 40
1.0
 40
1.0
 40
1.0
 10
494.7835127338
 20
161.6691575331
 30
0.0
 10
494.791992971
 20
161.4787637028
 30
0.0
 10
495.1158180832
 20
161.2107148699
 30
0.0
 10
495.5949730965
 20
161.0022600307
 30
0.0
 10
496.4159169364
 20
160.7532725097
 30
0.0
 10
497.6667346268
 20
160.5631475749
 30
0.0
 10
498.7378548661
 20
160.5102189549
 30
0.0
 10
499.3124456522
 20
160.5102189549
 30
0.0
  0
SPLINE
  5
6FB
100
AcDbEntity
  8
0
100
AcDbSpline
 62
7
  6
CONTINUOUS
 70
0
 71
3
 72
12
 73
8
 74
0
 42
0.0000001
 43
0.0000001
 44
0.0000000001
 40
0.0
 40
0.0
 40
0.0
 40
0.0
 40
0.357985393
 40
0.6655714761
 40
0.7873928272
 40
0.883306373
 40
1.0
 40
1.0
 40
1.0
 40
1.0
 10
499.1097161634
 20
162.3400829193
 30
0.0
 10
499.7482815177
 20
162.3400829193
 30
0.0
 10
500.937556475
 20
162.2806093665
 30
0.0
 10
502.3251528535
 20
162.0691660153
 30
0.0
 10
503.2325028841
 20
161.7894523164
 30
0.0
 10
503.7574783248
 20
161.5593566142
 30
0.0
 10
504.1089546392
 20
161.2543399523
 30
0.0
 10
504.1089546392
 20
161.0461847908
 30
0.0
  0
SPLINE
  5
6FC
100
AcDbEntity
  8
0
100
AcDbSpline
 62
7
  6
CONTINUOUS
 70
0
 71
3
 72
12
 73
8
 74
0
 42
0.0000001
 43
0.0000001
 44
0.0000000001
 40
0.0
 40
0.0
 40
0.0
 40
0.0
 40
0.1166936272
 40
0.212607173
 40
0.3344285243
 40
0.6420146073
 40
1.0
 40
1.0
 40
1.0
 40
1.0
 10
427.1159366652
 20
161.0461847908
 30
0.0
 10
427.1159366652
 20
161.2543399526
 30
0.0
 10
427.4674129803
 20
161.5593566147
 30
0.0
 10
427.9923884217
 20
161.789452317
 30
0.0
 10
428.8997384527
 20
162.0691660157
 30
0.0
 10
430.2873348307
 20
162.2806093666
 30
0.0
 10
431.4766097873
 20
162.3400829193
 30
0.0
 10
432.1151751409
 20
162.3400829193
 30
0.0
  0
SPLINE
  5
6FD
100
AcDbEntity
  8
0
100
AcDbSpline
 62
7
  6
CONTINUOUS
 70
0
 71
3
 72
10
 73
6
 74
0
 42
0.0000001
 43
0.0000001
 44
0.0000000001
 40
0.0
 40
0.0
 40
0.0
 40
0.0
 40
0.6657675644
 40
0.8830601644
 40
1.0
 40
1.0
 40
1.0
 40
1.0
 10
493.784168826
 20
162.3219522706
 30
0.0
 10
494.0210980888
 20
162.3219522117
 30
0.0
 10
494.3447261366
 20
162.2912676646
 30
0.0
 10
494.6750067369
 20
162.1978634949
 30
0.0
 10
494.7832166148
 20
162.1049839518
 30
0.0
 10
494.7832161166
 20
162.0633681229
 30
0.0
  0
SPLINE
  5
6FE
100
AcDbEntity
  8
0
100
AcDbSpline
 62
7
  6
CONTINUOUS
 70
0
 71
3
 72
10
 73
6
 74
0
 42
0.0000001
 43
0.0000001
 44
0.0000000001
 40
0.0
 40
0.0
 40
0.0
 40
0.0
 40
0.1170556017
 40
0.3344167703
 40
1.0
 40
1.0
 40
1.0
 40
1.0
 10
436.4416751877
 20
162.0633653928
 30
0.0
 10
436.4416753435
 20
162.1050226177
 30
0.0
 10
436.5499932199
 20
162.197927315
 30
0.0
 10
436.8802727776
 20
162.2912569584
 30
0.0
 10
437.203861729
 20
162.3219524662
 30
0.0
 10
437.4407265171
 20
162.3219522706
 30
0.0
  0
SPLINE
  5
6FF
100
AcDbEntity
  8
0
100
AcDbSpline
 62
7
  6
CONTINUOUS
 70
0
 71
3
 72
12
 73
8
 74
0
 42
0.0000001
 43
0.0000001
 44
0.0000000001
 40
0.0
 40
0.0
 40
0.0
 40
0.0
 40
0.3564031978
 40
0.6632304572
 40
0.7852885099
 40
0.8817867472
 40
1.0
 40
1.0
 40
1.0
 40
1.0
 10
431.9124456522
 20
160.5102189549
 30
0.0
 10
432.4870364383
 20
160.5102189549
 30
0.0
 10
433.5581566776
 20
160.5631475749
 30
0.0
 10
434.808974368
 20
160.7532725097
 30
0.0
 10
435.6299182079
 20
161.0022600307
 30
0.0
 10
436.1090732211
 20
161.2107148699
 30
0.0
 10
436.4328983333
 20
161.4787637028
 30
0.0
 10
436.4413785706
 20
161.6691575331
 30
0.0
  0
SPLINE
  5
700
100
AcDbEntity
  8
0
100
AcDbSpline
 62
7
  6
CONTINUOUS
 70
0
 71
3
 72
10
 73
6
 74
0
 42
0.0000001
 43
0.0000001
 44
0.0000000001
 40
0.0
 40
0.0
 40
0.0
 40
0.0
 40
0.1170629778
 40
0.3344213495
 40
1.0
 40
1.0
 40
1.0
 40
1.0
 10
429.4416751877
 20
160.2516464891
 30
0.0
 10
429.4416753423
 20
160.2933074756
 30
0.0
 10
429.5500214565
 20
160.3861990169
 30
0.0
 10
429.8802922966
 20
160.4795352796
 30
0.0
 10
430.2038979401
 20
160.5102191448
 30
0.0
 10
430.4407675605
 20
160.5102189549
 30
0.0
  0
SPLINE
  5
701
100
AcDbEntity
  8
0
100
AcDbSpline
 62
7
  6
CONTINUOUS
 70
0
 71
3
 72
10
 73
6
 74
0
 42
0.0000001
 43
0.0000001
 44
0.0000000001
 40
0.0
 40
0.0
 40
0.0
 40
0.0
 40
0.6657627072
 40
0.8830560619
 40
1.0
 40
1.0
 40
1.0
 40
1.0
 10
500.7841131427
 20
160.5102189549
 30
0.0
 10
501.0210505709
 20
160.5102188955
 30
0.0
 10
501.3447010144
 20
160.4795455697
 30
0.0
 10
501.6749778478
 20
160.3861326316
 30
0.0
 10
501.7832166296
 20
160.2932644706
 30
0.0
 10
501.7832161166
 20
160.2516454438
 30
0.0
  0
SPLINE
  5
702
100
AcDbEntity
  8
0
100
AcDbSpline
 62
7
  6
CONTINUOUS
 70
0
 71
3
 72
12
 73
8
 74
0
 42
0.0000001
 43
0.0000001
 44
0.0000000001
 40
0.0
 40
0.0
 40
0.0
 40
0.0
 40
0.357985393
 40
0.6655714761
 40
0.7873928272
 40
0.883306373
 40
1.0
 40
1.0
 40
1.0
 40
1.0
 10
432.1151751409
 20
145.2598330238
 30
0.0
 10
431.4766097867
 20
145.2598330238
 30
0.0
 10
430.2873348294
 20
145.3193065767
 30
0.0
 10
428.8997384509
 20
145.5307499278
 30
0.0
 10
427.9923884203
 20
145.8104636268
 30
0.0
 10
427.4674129795
 20
146.0405593289
 30
0.0
 10
427.1159366652
 20
146.3455759909
 30
0.0
 10
427.1159366652
 20
146.5537311524
 30
0.0
  0
SPLINE
  5
703
100
AcDbEntity
  8
0
100
AcDbSpline
 62
7
  6
CONTINUOUS
 70
0
 71
3
 72
12
 73
8
 74
0
 42
0.0000001
 43
0.0000001
 44
0.0000000001
 40
0.0
 40
0.0
 40
0.0
 40
0.0
 40
0.1166936272
 40
0.212607173
 40
0.3344285243
 40
0.6420146073
 40
1.0
 40
1.0
 40
1.0
 40
1.0
 10
504.1089546392
 20
146.5537311524
 30
0.0
 10
504.1089546392
 20
146.3455759906
 30
0.0
 10
503.757478324
 20
146.0405593285
 30
0.0
 10
503.2325028826
 20
145.8104636262
 30
0.0
 10
502.3251528516
 20
145.5307499275
 30
0.0
 10
500.9375564737
 20
145.3193065765
 30
0.0
 10
499.7482815171
 20
145.2598330238
 30
0.0
 10
499.1097161634
 20
145.2598330238
 30
0.0
  0
SPLINE
  5
704
100
AcDbEntity
  8
0
100
AcDbSpline
 62
7
  6
CONTINUOUS
 70
0
 71
3
 72
10
 73
6
 74
0
 42
0.0000001
 43
0.0000001
 44
0.0000000001
 40
0.0
 40
0.0
 40
0.0
 40
0.0
 40
0.6033272506
 40
0.8370621235
 40
1.0
 40
1.0
 40
1.0
 40
1.0
 10
499.1097161634
 20
145.8436477987
 30
0.0
 10
500.0926987083
 20
145.8436477987
 30
0.0
 10
501.4678316623
 20
145.9327845489
 30
0.0
 10
503.0492232034
 20
146.3120061557
 30
0.0
 10
503.6566989702
 20
146.5723064614
 30
0.0
 10
503.8643356861
 20
146.7377184985
 30
0.0
  0
SPLINE
  5
705
100
AcDbEntity
  8
0
100
AcDbSpline
 62
7
  6
CONTINUOUS
 70
0
 71
3
 72
9
 73
5
 74
0
 42
0.0000001
 43
0.0000001
 44
0.0000000001
 40
0.0
 40
0.0
 40
0.0
 40
0.0
 40
0.3033110243
 40
1.0
 40
1.0
 40
1.0
 40
1.0
 10
503.8643356861
 20
146.7377184985
 30
0.0
 10
503.9020335666
 20
146.7677501967
 30
0.0
 10
504.0198448722
 20
146.871641814
 30
0.0
 10
504.1089546392
 20
147.0268380711
 30
0.0
 10
504.1089546392
 20
147.1375459272
 30
0.0
  0
SPLINE
  5
706
100
AcDbEntity
  8
0
100
AcDbSpline
 62
7
  6
CONTINUOUS
 70
0
 71
3
 72
9
 73
5
 74
0
 42
0.0000001
 43
0.0000001
 44
0.0000000001
 40
0.0
 40
0.0
 40
0.0
 40
0.0
 40
0.2143691174
 40
1.0
 40
1.0
 40
1.0
 40
1.0
 10
427.1159366652
 20
147.1375459272
 30
0.0
 10
427.1159366652
 20
147.1033273447
 30
0.0
 10
427.1416987542
 20
146.9428209661
 30
0.0
 10
427.2624694937
 20
146.8158579816
 30
0.0
 10
427.3605556187
 20
146.7377184981
 30
0.0
  0
SPLINE
  5
707
100
AcDbEntity
  8
0
100
AcDbSpline
 62
7
  6
CONTINUOUS
 70
0
 71
3
 72
10
 73
6
 74
0
 42
0.0000001
 43
0.0000001
 44
0.0000000001
 40
0.0
 40
0.0
 40
0.0
 40
0.0
 40
0.1629378763
 40
0.3966727491
 40
1.0
 40
1.0
 40
1.0
 40
1.0
 10
427.3605556187
 20
146.7377184981
 30
0.0
 10
427.5681923344
 20
146.5723064613
 30
0.0
 10
428.1756681006
 20
146.3120061559
 30
0.0
 10
429.7570596415
 20
145.9327845489
 30
0.0
 10
431.1321925957
 20
145.8436477987
 30
0.0
 10
432.1151751409
 20
145.8436477987
 30
0.0
  0
SPLINE
  5
708
100
AcDbEntity
  8
0
100
AcDbSpline
 62
7
  6
CONTINUOUS
 70
0
 71
3
 72
9
 73
5
 74
0
 42
0.0000001
 43
0.0000001
 44
0.0000000001
 40
0.0
 40
0.0
 40
0.0
 40
0.0
 40
0.2188301747
 40
1.0
 40
1.0
 40
1.0
 40
1.0
 10
537.2124456522
 20
154.1065464071
 30
0.0
 10
537.2124456456
 20
154.0656221571
 30
0.0
 10
537.185172998
 20
153.8777682267
 30
0.0
 10
537.0546483287
 20
153.7219429383
 30
0.0
 10
536.9451013073
 20
153.625291037
 30
0.0
  0
SPLINE
  5
709
100
AcDbEntity
  8
0
100
AcDbSpline
 62
7
  6
CONTINUOUS
 70
0
 71
3
 72
15
 73
11
 74
0
 42
0.0000001
 43
0.0000001
 44
0.0000000001
 40
0.0
 40
0.0
 40
0.0
 40
0.0
 40
0.0793542602
 40
0.1956187949
 40
0.3402242864
 40
0.5000000157
 40
0.6597757427
 40
0.8043812273
 40
0.9206457516
 40
1.0
 40
1.0
 40
1.0
 40
1.0
 10
536.9451013073
 20
153.625291037
 30
0.0
 10
536.6861298449
 20
153.3968039098
 30
0.0
 10
535.8870885072
 20
153.0400080739
 30
0.0
 10
534.4546434656
 20
152.6837482871
 30
0.0
 10
532.6323167362
 20
152.4514463525
 30
0.0
 10
530.6124453343
 20
152.3705094579
 30
0.0
 10
528.5925739645
 20
152.4514464014
 30
0.0
 10
526.7702473251
 20
152.6837483818
 30
0.0
 10
525.3378024237
 20
153.0400081949
 30
0.0
 10
524.5387611956
 20
153.3968040635
 30
0.0
 10
524.2797898109
 20
153.6252912011
 30
0.0
  0
SPLINE
  5
70A
100
AcDbEntity
  8
0
100
AcDbSpline
 62
7
  6
CONTINUOUS
 70
0
 71
3
 72
9
 73
5
 74
0
 42
0.0000001
 43
0.0000001
 44
0.0000000001
 40
0.0
 40
0.0
 40
0.0
 40
0.0
 40
0.2969045864
 40
1.0
 40
1.0
 40
1.0
 40
1.0
 10
524.2797898109
 20
153.6252912011
 30
0.0
 10
524.238299683
 20
153.6618974098
 30
0.0
 10
524.1064476611
 20
153.7913289383
 30
0.0
 10
524.0124456622
 20
153.9755194651
 30
0.0
 10
524.0124456522
 20
154.1065464071
 30
0.0
  0
SPLINE
  5
70B
100
AcDbEntity
  8
0
100
AcDbSpline
 62
7
  6
CONTINUOUS
 70
0
 71
3
 72
8
 73
4
 74
0
 42
0.0000001
 43
0.0000001
 44
0.0000000001
 40
0.0
 40
0.0
 40
0.0
 40
0.0
 40
1.0
 40
1.0
 40
1.0
 40
1.0
 10
524.012804693
 20
154.1242512219
 30
0.0
 10
524.016303746
 20
154.2105590902
 30
0.0
 10
524.0475075606
 20
154.2970156371
 30
0.0
 10
524.092230281
 20
154.370915365
 30
0.0
  0
SPLINE
  5
70C
100
AcDbEntity
  8
0
100
AcDbSpline
 62
7
  6
CONTINUOUS
 70
0
 71
3
 72
9
 73
5
 74
0
 42
0.0000001
 43
0.0000001
 44
0.0000000001
 40
0.0
 40
0.0
 40
0.0
 40
0.0
 40
0.2188301747
 40
1.0
 40
1.0
 40
1.0
 40
1.0
 10
607.2124456522
 20
154.1065464071
 30
0.0
 10
607.2124456456
 20
154.0656221571
 30
0.0
 10
607.185172998
 20
153.8777682267
 30
0.0
 10
607.0546483287
 20
153.7219429383
 30
0.0
 10
606.9451013073
 20
153.625291037
 30
0.0
  0
SPLINE
  5
70D
100
AcDbEntity
  8
0
100
AcDbSpline
 62
7
  6
CONTINUOUS
 70
0
 71
3
 72
15
 73
11
 74
0
 42
0.0000001
 43
0.0000001
 44
0.0000000001
 40
0.0
 40
0.0
 40
0.0
 40
0.0
 40
0.0793542602
 40
0.1956187949
 40
0.3402242864
 40
0.5000000157
 40
0.6597757427
 40
0.8043812273
 40
0.9206457516
 40
1.0
 40
1.0
 40
1.0
 40
1.0
 10
606.9451013073
 20
153.625291037
 30
0.0
 10
606.6861298449
 20
153.3968039098
 30
0.0
 10
605.8870885072
 20
153.0400080739
 30
0.0
 10
604.4546434656
 20
152.6837482871
 30
0.0
 10
602.6323167362
 20
152.4514463525
 30
0.0
 10
600.6124453343
 20
152.3705094579
 30
0.0
 10
598.5925739645
 20
152.4514464014
 30
0.0
 10
596.7702473251
 20
152.6837483818
 30
0.0
 10
595.3378024237
 20
153.0400081949
 30
0.0
 10
594.5387611956
 20
153.3968040635
 30
0.0
 10
594.2797898109
 20
153.6252912011
 30
0.0
  0
SPLINE
  5
70E
100
AcDbEntity
  8
0
100
AcDbSpline
 62
7
  6
CONTINUOUS
 70
0
 71
3
 72
9
 73
5
 74
0
 42
0.0000001
 43
0.0000001
 44
0.0000000001
 40
0.0
 40
0.0
 40
0.0
 40
0.0
 40
0.2969045864
 40
1.0
 40
1.0
 40
1.0
 40
1.0
 10
594.2797898109
 20
153.6252912011
 30
0.0
 10
594.238299683
 20
153.6618974098
 30
0.0
 10
594.1064476611
 20
153.7913289383
 30
0.0
 10
594.0124456622
 20
153.9755194651
 30
0.0
 10
594.0124456522
 20
154.1065464071
 30
0.0
  0
SPLINE
  5
70F
100
AcDbEntity
  8
0
100
AcDbSpline
 62
7
  6
CONTINUOUS
 70
0
 71
3
 72
8
 73
4
 74
0
 42
0.0000001
 43
0.0000001
 44
0.0000000001
 40
0.0
 40
0.0
 40
0.0
 40
0.0
 40
1.0
 40
1.0
 40
1.0
 40
1.0
 10
594.012804693
 20
154.1242512219
 30
0.0
 10
594.016303746
 20
154.2105590902
 30
0.0
 10
594.0475075606
 20
154.2970156371
 30
0.0
 10
594.092230281
 20
154.370915365
 30
0.0
  0
SPLINE
  5
710
100
AcDbEntity
  8
0
100
AcDbSpline
 62
7
  6
CONTINUOUS
 70
0
 71
3
 72
8
 73
4
 74
0
 42
0.0000001
 43
0.0000001
 44
0.0000000001
 40
0.0
 40
0.0
 40
0.0
 40
0.0
 40
1.0
 40
1.0
 40
1.0
 40
1.0
 10
607.1326610286
 20
154.3709153675
 30
0.0
 10
607.17738375
 20
154.297015641
 30
0.0
 10
607.2085875654
 20
154.2105590931
 30
0.0
 10
607.2120866126
 20
154.1242512252
 30
0.0
  0
SPLINE
  5
711
100
AcDbEntity
  8
0
100
AcDbSpline
 62
7
  6
CONTINUOUS
 70
0
 71
3
 72
10
 73
6
 74
0
 42
0.0000001
 43
0.0000001
 44
0.0000000001
 40
0.0
 40
0.0
 40
0.0
 40
0.0
 40
0.6657627083
 40
0.8830560616
 40
1.0
 40
1.0
 40
1.0
 40
1.0
 10
430.4407781211
 20
148.257326538
 30
0.0
 10
430.2038407014
 20
148.2573265973
 30
0.0
 10
429.880190271
 20
148.287999927
 30
0.0
 10
429.5499134499
 20
148.381412865
 30
0.0
 10
429.4416746748
 20
148.4742810237
 30
0.0
 10
429.4416751877
 20
148.5159000491
 30
0.0
  0
SPLINE
  5
712
100
AcDbEntity
  8
0
100
AcDbSpline
 62
7
  6
CONTINUOUS
 70
0
 71
3
 72
12
 73
8
 74
0
 42
0.0000001
 43
0.0000001
 44
0.0000000001
 40
0.0
 40
0.0
 40
0.0
 40
0.0
 40
0.1167139956
 40
0.2126228699
 40
0.334468453
 40
0.6419774178
 40
1.0
 40
1.0
 40
1.0
 40
1.0
 10
436.4416751877
 20
147.0850756745
 30
0.0
 10
436.4416751877
 20
147.273692472
 30
0.0
 10
436.1231701336
 20
147.5500201559
 30
0.0
 10
435.647493958
 20
147.7584913006
 30
0.0
 10
434.8254819699
 20
148.0116805449
 30
0.0
 10
433.5684441786
 20
148.2035201386
 30
0.0
 10
432.4910315581
 20
148.257326538
 30
0.0
 10
431.9124456522
 20
148.257326538
 30
0.0
  0
SPLINE
  5
713
100
AcDbEntity
  8
0
100
AcDbSpline
 62
7
  6
CONTINUOUS
 70
0
 71
3
 72
10
 73
6
 74
0
 42
0.0000001
 43
0.0000001
 44
0.0000000001
 40
0.0
 40
0.0
 40
0.0
 40
0.0
 40
0.6657675645
 40
0.8830601645
 40
1.0
 40
1.0
 40
1.0
 40
1.0
 10
437.4407224784
 20
146.4455932223
 30
0.0
 10
437.2037932155
 20
146.4455932812
 30
0.0
 10
436.8801651677
 20
146.4762778284
 30
0.0
 10
436.5498845672
 20
146.569681998
 30
0.0
 10
436.4416746895
 20
146.6625615412
 30
0.0
 10
436.4416751877
 20
146.7041773701
 30
0.0
  0
SPLINE
  5
714
100
AcDbEntity
  8
0
100
AcDbSpline
 62
7
  6
CONTINUOUS
 70
0
 71
3
 72
10
 73
6
 74
0
 42
0.0000001
 43
0.0000001
 44
0.0000000001
 40
0.0
 40
0.0
 40
0.0
 40
0.0
 40
0.1170556018
 40
0.3344167704
 40
1.0
 40
1.0
 40
1.0
 40
1.0
 10
494.7832161166
 20
146.7041800999
 30
0.0
 10
494.7832159609
 20
146.662522875
 30
0.0
 10
494.6748980842
 20
146.5696181779
 30
0.0
 10
494.3446185267
 20
146.4762885344
 30
0.0
 10
494.0210295753
 20
146.4455930267
 30
0.0
 10
493.7841647872
 20
146.4455932223
 30
0.0
  0
SPLINE
  5
715
100
AcDbEntity
  8
0
100
AcDbSpline
 62
7
  6
CONTINUOUS
 70
0
 71
3
 72
12
 73
8
 74
0
 42
0.0000001
 43
0.0000001
 44
0.0000000001
 40
0.0
 40
0.0
 40
0.0
 40
0.0
 40
0.3580225822
 40
0.665531547
 40
0.7873771301
 40
0.8832860044
 40
1.0
 40
1.0
 40
1.0
 40
1.0
 10
499.3124456522
 20
148.257326538
 30
0.0
 10
498.7338597463
 20
148.257326538
 30
0.0
 10
497.6564471258
 20
148.2035201386
 30
0.0
 10
496.3994093344
 20
148.0116805449
 30
0.0
 10
495.5773973463
 20
147.7584913006
 30
0.0
 10
495.1017211707
 20
147.5500201559
 30
0.0
 10
494.7832161166
 20
147.273692472
 30
0.0
 10
494.7832161166
 20
147.0850756745
 30
0.0
  0
SPLINE
  5
716
100
AcDbEntity
  8
0
100
AcDbSpline
 62
7
  6
CONTINUOUS
 70
0
 71
3
 72
10
 73
6
 74
0
 42
0.0000001
 43
0.0000001
 44
0.0000000001
 40
0.0
 40
0.0
 40
0.0
 40
0.0
 40
0.1170629772
 40
0.334421351
 40
1.0
 40
1.0
 40
1.0
 40
1.0
 10
501.7832161166
 20
148.5158990039
 30
0.0
 10
501.7832159621
 20
148.4742380154
 30
0.0
 10
501.6748698384
 20
148.3813464705
 30
0.0
 10
501.3445989801
 20
148.2880102077
 30
0.0
 10
501.0209933175
 20
148.2573263477
 30
0.0
 10
500.7841236845
 20
148.257326538
 30
0.0
  0
SPLINE
  5
717
100
AcDbEntity
  8
0
100
AcDbSpline
 62
7
  6
CONTINUOUS
 70
0
 71
3
 72
8
 73
4
 74
0
 42
0.0000001
 43
0.0000001
 44
0.0000000001
 40
0.0
 40
0.0
 40
0.0
 40
0.0
 40
1.0
 40
1.0
 40
1.0
 40
1.0
 10
537.1326610286
 20
154.3709153675
 30
0.0
 10
537.17738375
 20
154.297015641
 30
0.0
 10
537.2085875654
 20
154.2105590931
 30
0.0
 10
537.2120866126
 20
154.1242512252
 30
0.0
  0
SPLINE
  5
718
100
AcDbEntity
  8
7_ALL_ROUNDS
100
AcDbSpline
 62
9
  6
CONTINUOUS
 70
0
 71
3
 72
8
 73
4
 74
0
 42
0.0000001
 43
0.0000001
 44
0.0000000001
 40
0.0
 40
0.0
 40
0.0
 40
0.0
 40
1.0
 40
1.0
 40
1.0
 40
1.0
 10
392.6124456522
 20
314.5702848226
 30
0.0
 10
392.6124456522
 20
315.4256454322
 30
0.0
 10
392.8519060512
 20
316.3083477481
 30
0.0
 10
393.282761806
 20
317.047269321
 30
0.0
  0
SPLINE
  5
719
100
AcDbEntity
  8
7_ALL_ROUNDS
100
AcDbSpline
 62
9
  6
CONTINUOUS
 70
0
 71
3
 72
9
 73
5
 74
0
 42
0.0000001
 43
0.0000001
 44
0.0000000001
 40
0.0
 40
0.0
 40
0.0
 40
0.0
 40
0.4990785589
 40
1.0
 40
1.0
 40
1.0
 40
1.0
 10
393.567479376
 20
317.481395038
 30
0.0
 10
394.0259945443
 20
318.1061190085
 30
0.0
 10
395.2596018807
 20
319.153924331
 30
0.0
 10
396.8346543675
 20
319.5226860535
 30
0.0
 10
397.6124456522
 20
319.5226860535
 30
0.0
  0
SPLINE
  5
71A
100
AcDbEntity
  8
7_ALL_ROUNDS
100
AcDbSpline
 62
9
  6
CONTINUOUS
 70
0
 71
3
 72
9
 73
5
 74
0
 42
0.0000001
 43
0.0000001
 44
0.0000000001
 40
0.0
 40
0.0
 40
0.0
 40
0.0
 40
0.4893335174
 40
1.0
 40
1.0
 40
1.0
 40
1.0
 10
392.6124456522
 20
314.5702848226
 30
0.0
 10
392.6124456522
 20
314.9727179006
 30
0.0
 10
392.7706533807
 20
315.801659633
 30
0.0
 10
393.2095806414
 20
316.5178936841
 30
0.0
 10
393.4809060316
 20
316.8384614033
 30
0.0
  0
SPLINE
  5
71B
100
AcDbEntity
  8
7_ALL_ROUNDS
100
AcDbSpline
 62
9
  6
CONTINUOUS
 70
0
 71
3
 72
9
 73
5
 74
0
 42
0.0000001
 43
0.0000001
 44
0.0000000001
 40
0.0
 40
0.0
 40
0.0
 40
0.0
 40
0.4813303717
 40
1.0
 40
1.0
 40
1.0
 40
1.0
 10
393.4809060316
 20
316.8384614033
 30
0.0
 10
393.9571382501
 20
317.4011241015
 30
0.0
 10
395.2703019584
 20
318.3068894813
 30
0.0
 10
396.8181138528
 20
318.5974013355
 30
0.0
 10
397.6124456522
 20
318.5974013355
 30
0.0
  0
SPLINE
  5
71C
100
AcDbEntity
  8
7_ALL_ROUNDS
100
AcDbSpline
 62
9
  6
CONTINUOUS
 70
0
 71
3
 72
11
 73
7
 74
0
 42
0.0000001
 43
0.0000001
 44
0.0000000001
 40
0.0
 40
0.0
 40
0.0
 40
0.0
 40
0.1681586123
 40
0.3925265764
 40
0.6780497092
 40
1.0
 40
1.0
 40
1.0
 40
1.0
 10
392.6124456522
 20
304.6550692193
 30
0.0
 10
392.6124456522
 20
304.9897912826
 30
0.0
 10
392.9930213348
 20
305.7580557573
 30
0.0
 10
394.1641246858
 20
306.4851137698
 30
0.0
 10
395.7573815131
 20
306.9745766909
 30
0.0
 10
396.9715991077
 20
307.0829573941
 30
0.0
 10
397.6124456522
 20
307.0829573941
 30
0.0
  0
SPLINE
  5
71D
100
AcDbEntity
  8
0
100
AcDbSpline
 62
9
  6
CONTINUOUS
 70
0
 71
3
 72
9
 73
5
 74
0
 42
0.0000001
 43
0.0000001
 44
0.0000000001
 40
0.0
 40
0.0
 40
0.0
 40
0.0
 40
0.4960378547
 40
1.0
 40
1.0
 40
1.0
 40
1.0
 10
392.6124456522
 20
169.4068263283
 30
0.0
 10
392.6124456522
 20
168.5490607926
 30
0.0
 10
393.1132051324
 20
166.7865776505
 30
0.0
 10
394.4648236809
 20
165.5596289414
 30
0.0
 10
395.2375772348
 20
165.1567526926
 30
0.0
  0
SPLINE
  5
71E
100
AcDbEntity
  8
0
100
AcDbSpline
 62
7
  6
CONTINUOUS
 70
0
 71
3
 72
8
 73
4
 74
0
 42
0.0000001
 43
0.0000001
 44
0.0000000001
 40
0.0
 40
0.0
 40
0.0
 40
0.0
 40
1.0
 40
1.0
 40
1.0
 40
1.0
 10
429.4416751877
 20
148.5158992447
 30
0.0
 10
429.6181126968
 20
152.4192860114
 30
0.0
 10
429.7884654069
 20
156.3229544197
 30
0.0
 10
429.9721032197
 20
160.2260090694
 30
0.0
  0
SPLINE
  5
71F
100
AcDbEntity
  8
0
100
AcDbSpline
 62
7
  6
CONTINUOUS
 70
0
 71
3
 72
8
 73
4
 74
0
 42
0.0000001
 43
0.0000001
 44
0.0000000001
 40
0.0
 40
0.0
 40
0.0
 40
0.0
 40
1.0
 40
1.0
 40
1.0
 40
1.0
 10
430.4407790598
 20
148.257326538
 30
0.0
 10
430.4407790598
 20
152.3416199643
 30
0.0
 10
430.4524062078
 20
156.4259411412
 30
0.0
 10
430.4372098455
 20
160.510206297
 30
0.0
  0
SPLINE
  5
720
100
AcDbEntity
  8
0
100
AcDbSpline
 62
7
  6
CONTINUOUS
 70
0
 71
3
 72
9
 73
5
 74
0
 42
0.0000001
 43
0.0000001
 44
0.0000000001
 40
0.0
 40
0.0
 40
0.0
 40
0.0
 40
0.750508835
 40
1.0
 40
1.0
 40
1.0
 40
1.0
 10
436.4416751877
 20
146.7041765886
 30
0.0
 10
436.6104164136
 20
150.4372958748
 30
0.0
 10
436.8277221446
 20
155.4117621034
 30
0.0
 10
437.0655048263
 20
160.3852810159
 30
0.0
 10
437.1240504477
 20
161.6261662203
 30
0.0
  0
SPLINE
  5
721
100
AcDbEntity
  8
0
100
AcDbSpline
 62
7
  6
CONTINUOUS
 70
0
 71
3
 72
9
 73
5
 74
0
 42
0.0000001
 43
0.0000001
 44
0.0000000001
 40
0.0
 40
0.0
 40
0.0
 40
0.0
 40
0.4999937375
 40
1.0
 40
1.0
 40
1.0
 40
1.0
 10
437.4407234093
 20
146.4455932223
 30
0.0
 10
437.4407234093
 20
149.0946379944
 30
0.0
 10
437.4556282889
 20
154.3928020029
 30
0.0
 10
437.4307469191
 20
159.6909274042
 30
0.0
 10
437.4220224314
 20
162.3400241691
 30
0.0
  0
SPLINE
  5
722
100
AcDbEntity
  8
0
100
AcDbSpline
 62
7
  6
CONTINUOUS
 70
0
 71
3
 72
9
 73
5
 74
0
 42
0.0000001
 43
0.0000001
 44
0.0000000001
 40
0.0
 40
0.0
 40
0.0
 40
0.0
 40
0.4998604132
 40
1.0
 40
1.0
 40
1.0
 40
1.0
 10
493.7841678951
 20
146.4455932223
 30
0.0
 10
493.7841678951
 20
149.0942193177
 30
0.0
 10
493.7430244327
 20
154.3930125071
 30
0.0
 10
493.8117224209
 20
159.6915115174
 30
0.0
 10
493.8358297188
 20
162.3415072274
 30
0.0
  0
LINE
  5
723
100
AcDbEntity
  8
0
100
AcDbLine
 62
7
  6
CONTINUOUS
 10
494.7832161166
 20
146.7041803429
 11
494.1081825235
 21
161.6343029073
  0
SPLINE
  5
724
100
AcDbEntity
  8
0
100
AcDbSpline
 62
7
  6
CONTINUOUS
 70
0
 71
3
 72
8
 73
4
 74
0
 42
0.0000001
 43
0.0000001
 44
0.0000000001
 40
0.0
 40
0.0
 40
0.0
 40
0.0
 40
1.0
 40
1.0
 40
1.0
 40
1.0
 10
500.7841267095
 20
148.257326538
 30
0.0
 10
500.7841267095
 20
152.3417151997
 30
0.0
 10
500.7502863546
 20
156.4263391919
 30
0.0
 10
500.7945408013
 20
160.5104880976
 30
0.0
  0
LINE
  5
725
100
AcDbEntity
  8
0
100
AcDbLine
 62
7
  6
CONTINUOUS
 10
501.7832161166
 20
148.5158992447
 11
501.253829047
 21
160.2271227641
  0
SPLINE
  5
726
100
AcDbEntity
  8
0
100
AcDbSpline
 62
9
  6
CONTINUOUS
 70
0
 71
3
 72
9
 73
5
 74
0
 42
0.0000001
 43
0.0000001
 44
0.0000000001
 40
0.0
 40
0.0
 40
0.0
 40
0.0
 40
0.4966249385
 40
1.0
 40
1.0
 40
1.0
 40
1.0
 10
738.4279926252
 20
144.9441269209
 30
0.0
 10
738.2482820477
 20
144.3225329257
 30
0.0
 10
737.617461285
 20
143.1348241926
 30
0.0
 10
736.5688693479
 20
142.2969602724
 30
0.0
 10
735.9873140696
 20
141.9937655374
 30
0.0
  0
SPLINE
  5
727
100
AcDbEntity
  8
0
100
AcDbSpline
 62
9
  6
CONTINUOUS
 70
0
 71
3
 72
9
 73
5
 74
0
 42
0.0000001
 43
0.0000001
 44
0.0000000001
 40
0.0
 40
0.0
 40
0.0
 40
0.0
 40
0.4960378529
 40
1.0
 40
1.0
 40
1.0
 40
1.0
 10
738.6124456522
 20
169.4068263283
 30
0.0
 10
738.6124456522
 20
168.5490607956
 30
0.0
 10
738.111686174
 20
166.7865776538
 30
0.0
 10
736.7600676261
 20
165.5596289427
 30
0.0
 10
735.9873140696
 20
165.1567526926
 30
0.0
  0
SPLINE
  5
728
100
AcDbEntity
  8
7_ALL_ROUNDS
100
AcDbSpline
 62
9
  6
CONTINUOUS
 70
0
 71
3
 72
11
 73
7
 74
0
 42
0.0000001
 43
0.0000001
 44
0.0000000001
 40
0.0
 40
0.0
 40
0.0
 40
0.0
 40
0.1681586051
 40
0.3925265591
 40
0.6780496723
 40
1.0
 40
1.0
 40
1.0
 40
1.0
 10
738.6124456522
 20
304.6550692193
 30
0.0
 10
738.6124456522
 20
304.9897912685
 30
0.0
 10
738.2318700038
 20
305.7580557142
 30
0.0
 10
737.0607667282
 20
306.4851137113
 30
0.0
 10
735.4675099028
 20
306.9745766816
 30
0.0
 10
734.2532922707
 20
307.0829574101
 30
0.0
 10
733.6124456522
 20
307.0829574101
 30
0.0
  0
SPLINE
  5
729
100
AcDbEntity
  8
7_ALL_ROUNDS
100
AcDbSpline
 62
9
  6
CONTINUOUS
 70
0
 71
3
 72
9
 73
5
 74
0
 42
0.0000001
 43
0.0000001
 44
0.0000000001
 40
0.0
 40
0.0
 40
0.0
 40
0.0
 40
0.4893335294
 40
1.0
 40
1.0
 40
1.0
 40
1.0
 10
738.6124456522
 20
314.5702848226
 30
0.0
 10
738.6124456522
 20
314.9727175541
 30
0.0
 10
738.4542382051
 20
315.8016585432
 30
0.0
 10
738.0153116687
 20
316.517892134
 30
0.0
 10
737.7439867036
 20
316.8384597127
 30
0.0
  0
SPLINE
  5
72A
100
AcDbEntity
  8
7_ALL_ROUNDS
100
AcDbSpline
 62
9
  6
CONTINUOUS
 70
0
 71
3
 72
9
 73
5
 74
0
 42
0.0000001
 43
0.0000001
 44
0.0000000001
 40
0.0
 40
0.0
 40
0.0
 40
0.0
 40
0.4813303825
 40
1.0
 40
1.0
 40
1.0
 40
1.0
 10
737.7439867036
 20
316.8384597127
 30
0.0
 10
737.2677545649
 20
317.4011229513
 30
0.0
 10
735.9545904312
 20
318.3068892057
 30
0.0
 10
734.4067778059
 20
318.5974013231
 30
0.0
 10
733.6124456522
 20
318.5974013231
 30
0.0
  0
SPLINE
  5
72B
100
AcDbEntity
  8
7_ALL_ROUNDS
100
AcDbSpline
 62
9
  6
CONTINUOUS
 70
0
 71
3
 72
8
 73
4
 74
0
 42
0.0000001
 43
0.0000001
 44
0.0000000001
 40
0.0
 40
0.0
 40
0.0
 40
0.0
 40
1.0
 40
1.0
 40
1.0
 40
1.0
 10
738.6124456522
 20
314.5702848226
 30
0.0
 10
738.6124456522
 20
315.4256454247
 30
0.0
 10
738.3729852579
 20
316.3083477326
 30
0.0
 10
737.9421295102
 20
317.047269301
 30
0.0
  0
SPLINE
  5
72C
100
AcDbEntity
  8
7_ALL_ROUNDS
100
AcDbSpline
 62
9
  6
CONTINUOUS
 70
0
 71
3
 72
9
 73
5
 74
0
 42
0.0000001
 43
0.0000001
 44
0.0000000001
 40
0.0
 40
0.0
 40
0.0
 40
0.0
 40
0.4990785585
 40
1.0
 40
1.0
 40
1.0
 40
1.0
 10
737.6574118181
 20
317.4813951883
 30
0.0
 10
737.198896644
 20
318.1061191165
 30
0.0
 10
735.9652893314
 20
319.153924361
 30
0.0
 10
734.3902369073
 20
319.5226860554
 30
0.0
 10
733.6124456522
 20
319.5226860554
 30
0.0
  0
SPLINE
  5
72D
100
AcDbEntity
  8
0
100
AcDbSpline
 62
9
  6
CONTINUOUS
 70
0
 71
3
 72
9
 73
5
 74
0
 42
0.0000001
 43
0.0000001
 44
0.0000000001
 40
0.0
 40
0.0
 40
0.0
 40
0.0
 40
0.4960386606
 40
1.0
 40
1.0
 40
1.0
 40
1.0
 10
392.6124456522
 20
146.2438391731
 30
0.0
 10
392.6124456522
 20
145.3860722448
 30
0.0
 10
393.1132061142
 20
143.6235889585
 30
0.0
 10
394.4648249175
 20
142.3966411415
 30
0.0
 10
395.2375772348
 20
141.9937655374
 30
0.0
  0
SPLINE
  5
72E
100
AcDbEntity
  8
0
100
AcDbSpline
 62
7
  6
CONTINUOUS
 70
0
 71
3
 72
19
 73
15
 74
0
 42
0.0000001
 43
0.0000001
 44
0.0000000001
 40
0.0
 40
0.0
 40
0.0
 40
0.0
 40
0.0583457853
 40
0.1062878937
 40
0.1671901205
 40
0.2395391515
 40
0.3210447918
 40
0.4999999961
 40
0.6789552011
 40
0.7604608423
 40
0.8328098745
 40
0.8937121026
 40
0.9416542124
 40
1.0
 40
1.0
 40
1.0
 40
1.0
 10
523.6124456212
 20
153.7201760963
 30
0.0
 10
523.612445609
 20
153.4286644371
 30
0.0
 10
524.1047519074
 20
153.0015420725
 30
0.0
 10
524.8397173702
 20
152.6797110769
 30
0.0
 10
525.7170400961
 20
152.4079896141
 30
0.0
 10
526.7656650282
 20
152.1935866767
 30
0.0
 10
528.4157921621
 20
151.96959068
 30
0.0
 10
530.6124455794
 20
151.8664825379
 30
0.0
 10
532.8090990016
 20
151.9695906684
 30
0.0
 10
534.4592261507
 20
152.1935866553
 30
0.0
 10
535.507851101
 20
152.4079895878
 30
0.0
 10
536.3851738497
 20
152.679711044
 30
0.0
 10
537.1201393393
 20
153.0015420418
 30
0.0
 10
537.6124456709
 20
153.4286643865
 30
0.0
 10
537.6124456831
 20
153.7201760568
 30
0.0
  0
SPLINE
  5
72F
100
AcDbEntity
  8
0
100
AcDbSpline
 62
7
  6
CONTINUOUS
 70
0
 71
3
 72
19
 73
15
 74
0
 42
0.0000001
 43
0.0000001
 44
0.0000000001
 40
0.0
 40
0.0
 40
0.0
 40
0.0
 40
0.0583457853
 40
0.1062878937
 40
0.1671901205
 40
0.2395391515
 40
0.3210447918
 40
0.4999999961
 40
0.6789552011
 40
0.7604608423
 40
0.8328098745
 40
0.8937121026
 40
0.9416542124
 40
1.0
 40
1.0
 40
1.0
 40
1.0
 10
593.6124456212
 20
153.7201760963
 30
0.0
 10
593.612445609
 20
153.4286644371
 30
0.0
 10
594.1047519074
 20
153.0015420725
 30
0.0
 10
594.8397173702
 20
152.6797110769
 30
0.0
 10
595.7170400961
 20
152.4079896141
 30
0.0
 10
596.7656650282
 20
152.1935866767
 30
0.0
 10
598.4157921621
 20
151.96959068
 30
0.0
 10
600.6124455794
 20
151.8664825379
 30
0.0
 10
602.8090990016
 20
151.9695906684
 30
0.0
 10
604.4592261507
 20
152.1935866553
 30
0.0
 10
605.507851101
 20
152.4079895878
 30
0.0
 10
606.3851738497
 20
152.679711044
 30
0.0
 10
607.1201393393
 20
153.0015420418
 30
0.0
 10
607.6124456709
 20
153.4286643865
 30
0.0
 10
607.6124456831
 20
153.7201760568
 30
0.0
  0
ELLIPSE
  5
730
100
AcDbEntity
  8
0
100
AcDbEllipse
 62
7
  6
CONTINUOUS
 10
687.4916324388
 20
519.2618478261
 30
0.0
 11
36.0
 21
-0.0
 31
0.0
 40
1.0
 41
0.933239466
 42
1.002030294
  0
ELLIPSE
  5
731
100
AcDbEntity
  8
0
100
AcDbEllipse
 62
7
  6
CONTINUOUS
 10
321.2200574967
 20
483.2618478261
 30
0.0
 11
400.0
 21
-0.0
 31
0.0
 40
1.0
 41
-0.069763927
 42
0.069763927
  0
ELLIPSE
  5
732
100
AcDbEntity
  8
0
100
AcDbEllipse
 62
7
  6
CONTINUOUS
 10
559.7332588655
 20
519.2618478261
 30
0.0
 11
36.0
 21
-0.0
 31
0.0
 40
1.0
 41
2.1395623596
 42
2.2083531876
  0
ELLIPSE
  5
733
100
AcDbEntity
  8
0
100
AcDbEllipse
 62
7
  6
CONTINUOUS
 10
397.6124456522
 20
741.9826009353
 30
0.0
 11
0.0
 21
18.6602540378
 31
0.0
 40
0.2679491924
 41
-3.6365267799
 42
-3.1415926536
  0
ELLIPSE
  5
734
100
AcDbEntity
  8
0
100
AcDbEllipse
 62
7
  6
CONTINUOUS
 10
733.6124456522
 20
741.9826009353
 30
0.0
 11
0.0
 21
18.6602540378
 31
0.0
 40
0.2679491924
 41
-3.1415926536
 42
-2.6466585272
  0
ELLIPSE
  5
735
100
AcDbEntity
  8
0
100
AcDbEllipse
 62
7
  6
CONTINUOUS
 10
1463.2905185131
 20
792.8714867242
 30
0.0
 11
50.9116882454
 21
-0.0
 31
0.0
 40
0.5772746578
 41
2.1395623596
 42
2.2083531876
  0
ELLIPSE
  5
736
100
AcDbEntity
  8
0
100
AcDbEllipse
 62
7
  6
CONTINUOUS
 10
1357.1338398386
 20
886.095763319
 30
0.0
 11
13.646675057
 21
3.0149195827
 31
0.0
 40
0.2019734515
 41
9.147051404
 42
9.6419855304
  0
ELLIPSE
  5
737
100
AcDbEntity
  8
0
100
AcDbEllipse
 62
7
  6
CONTINUOUS
 10
1594.7217183172
 20
748.8884161003
 30
0.0
 11
13.646675057
 21
3.0149195827
 31
0.0
 40
0.2019734515
 41
-2.924385084
 42
-2.4294509577
  0
ELLIPSE
  5
738
100
AcDbEntity
  8
0
100
AcDbEllipse
 62
7
  6
CONTINUOUS
 10
944.7011991225
 20
773.8558216046
 30
0.0
 11
43.7136123325
 21
25.2380658474
 31
0.0
 40
0.1316524976
 41
2.2704620535
 42
2.3392528815
  0
ELLIPSE
  5
739
100
AcDbEntity
  8
0
100
AcDbEllipse
 62
7
  6
CONTINUOUS
 10
977.7674993746
 20
897.2609341637
 30
0.0
 11
-25.2380658474
 21
43.7136123325
 31
0.0
 40
0.1316524976
 41
0.8023397721
 42
0.8711306001
  0
ELLIPSE
  5
73A
100
AcDbEntity
  8
0
100
AcDbEllipse
 62
7
  6
CONTINUOUS
 10
937.1785010122
 20
728.1237431473
 30
0.0
 11
18.6602540378
 21
-5.0
 31
0.0
 40
0.2588190451
 41
-3.1415926536
 42
-2.6466585272
  0
ELLIPSE
  5
73B
100
AcDbEntity
  8
0
100
AcDbEllipse
 62
7
  6
CONTINUOUS
 10
1024.1417001666
 20
1052.6748207804
 30
0.0
 11
-18.6602540378
 21
5.0
 31
0.0
 40
0.2588190451
 41
-0.4949341263
 42
0.0
  0
ENDSEC
  0
SECTION
  2
OBJECTS
  0
DICTIONARY
  5
C
100
AcDbDictionary
280
0
281
1
  3
ACAD_GROUP
350
D
  3
ACAD_MLINESTYLE
350
17
  3
ACAD_LAYOUT
350
1A
  3
ACAD_PLOTSETTINGS
350
19
  3
ACAD_PLOTSTYLENAME
350
E
  0
DICTIONARY
  5
D
102
{ACAD_REACTORS
330
C
102
}
100
AcDbDictionary
280
0
281
1
  0
ACDBDICTIONARYWDFLT
  5
E
102
{ACAD_REACTORS
330
C
102
}
100
AcDbDictionary
281
1
  3
Normal
350
F
100
AcDbDictionaryWithDefault
340
F
  0
DICTIONARY
  5
17
102
{ACAD_REACTORS
330
C
102
}
100
AcDbDictionary
280
0
281
1
  3
Standard
350
18
  0
DICTIONARY
  5
19
102
{ACAD_REACTORS
330
C
102
}
100
AcDbDictionary
281
1
  0
DICTIONARY
  5
1A
102
{ACAD_REACTORS
330
C
102
}
100
AcDbDictionary
281
1
  3
Model
350
73C
  3
Layout1
350
73D
  0
ACDBPLACEHOLDER
  5
F
102
{ACAD_REACTORS
330
E
102
}
  0
MLINESTYLE
  5
18
102
{ACAD_REACTORS
330
17
102
}
100
AcDbMlineStyle
  2
STANDARD
 70
0
  3

 62
256
 51
90.0
 52
90.0
 71
2
 49
0.5
 62
256
  6
BYLAYER
 49
-0.5
 62
256
  6
BYLAYER
  0
LAYOUT
  5
73C
102
{ACAD_REACTORS
330
1A
102
}
100
AcDbPlotSettings
  1

  2
none_device
  4

  6

 40
0.0
 41
0.0
 42
0.0
 43
0.0
 44
431.8
 45
279.4
 46
0.0
 47
0.0
 48
0.0
 49
0.0
140
0.0
141
0.0
142
1.0
143
1.0
 70
1024
 72
1
 73
0
 74
0
  7

 75
0
147
1.0
148
0.0
149
0.0
100
AcDbLayout
  1
Model
 70
0
 71
0
 10
0.0
 20
0.0
 11
431.8
 21
279.4
 12
0.0
 22
0.0
 32
0.0
 14
0.0
 24
0.0
 34
0.0
 15
0.0
 25
0.0
 35
0.0
146
0.0
 13
0.0
 23
0.0
 33
0.0
 16
1.0
 26
0.0
 36
0.0
 17
0.0
 27
1.0
 37
0.0
 76
0
330
213
345
0
346
0
  0
LAYOUT
  5
73D
102
{ACAD_REACTORS
330
1A
102
}
100
AcDbPlotSettings
  1

  2
none_device
  4

  6

 40
0.0
 41
0.0
 42
0.0
 43
0.0
 44
431.8
 45
279.4
 46
0.0
 47
0.0
 48
0.0
 49
0.0
140
0.0
141
0.0
142
1.0
143
1.0
 70
0
 72
1
 73
0
 74
0
  7

 75
0
147
1.0
148
0.0
149
0.0
100
AcDbLayout
  1
Layout1
 70
0
 71
1
 10
0.0
 20
0.0
 11
431.8
 21
279.4
 12
0.0
 22
0.0
 32
0.0
 14
0.0
 24
0.0
 34
0.0
 15
0.0
 25
0.0
 35
0.0
146
0.0
 13
0.0
 23
0.0
 33
0.0
 16
1.0
 26
0.0
 36
0.0
 17
0.0
 27
1.0
 37
0.0
 76
0
330
214
345
0
346
0
  0
ENDSEC
  0
EOF
