  0
SECTION
  2
HEADER
  9
$ACADVER
  1
AC1015
  9
$ACADMAINTVER
 70
     6
  9
$DWGCODEPAGE
  3
ANSI_1252
  9
$INSBASE
 10
0.0
 20
0.0
 30
0.0
  9
$EXTMIN
 10
0.0
 20
0.0
 30
0.0
  9
$EXTMAX
 10
2590.8
 20
1676.4
 30
0.0
  9
$LIMMIN
 10
0.0
 20
0.0
  9
$LIMMAX
 10
2590.8
 20
1676.4
  9
$ORTHOMODE
 70
     0
  9
$REGENMODE
 70
     1
  9
$FILLMODE
 70
     1
  9
$QTEXTMODE
 70
     0
  9
$MIRRTEXT
 70
     1
  9
$LTSCALE
 40
6.0
  9
$ATTMODE
 70
     1
  9
$TEXTSIZE
 40
19.05
  9
$TRACEWID
 40
1.0
  9
$TEXTSTYLE
  7
STANDARD
  9
$CLAYER
  8
0
  9
$CELTYPE
  6
ByLayer
  9
$CECOLOR
 62
   256
  9
$CELTSCALE
 40
1.0
  9
$DISPSILH
 70
     0
  9
$DIMSCALE
 40
1.0
  9
$DIMASZ
 40
12.0
  9
$DIMEXO
 40
4.572
  9
$DIMDLI
 40
3.75
  9
$DIMRND
 40
0.0
  9
$DIMDLE
 40
0.0
  9
$DIMEXE
 40
4.572
  9
$DIMTP
 40
0.0
  9
$DIMTM
 40
0.0
  9
$DIMTXT
 40
19.05
  9
$DIMCEN
 40
2.5
  9
$DIMTSZ
 40
0.0
  9
$DIMTOL
 70
     0
  9
$DIMLIM
 70
     0
  9
$DIMTIH
 70
     1
  9
$DIMTOH
 70
     1
  9
$DIMSE1
 70
     0
  9
$DIMSE2
 70
     0
  9
$DIMTAD
 70
     0
  9
$DIMZIN
 70
     1
  9
$DIMBLK
  1

  9
$DIMASO
 70
     1
  9
$DIMSHO
 70
     1
  9
$DIMPOST
  1

  9
$DIMAPOST
  1

  9
$DIMALT
 70
     0
  9
$DIMALTD
 70
     3
  9
$DIMALTF
 40
0.0393700787
  9
$DIMLFAC
 40
1.0
  9
$DIMTOFL
 70
     1
  9
$DIMTVP
 40
0.0
  9
$DIMTIX
 70
     0
  9
$DIMSOXD
 70
     0
  9
$DIMSAH
 70
     0
  9
$DIMBLK1
  1

  9
$DIMBLK2
  1

  9
$DIMSTYLE
  2
ISO-25
  9
$DIMCLRD
 70
     0
  9
$DIMCLRE
 70
     0
  9
$DIMCLRT
 70
     0
  9
$DIMTFAC
 40
1.0
  9
$DIMGAP
 40
9.144
  9
$DIMJUST
 70
     0
  9
$DIMSD1
 70
     0
  9
$DIMSD2
 70
     0
  9
$DIMTOLJ
 70
     0
  9
$DIMTZIN
 70
     1
  9
$DIMALTZ
 70
     0
  9
$DIMALTTZ
 70
     0
  9
$DIMUPT
 70
     0
  9
$DIMDEC
 70
     2
  9
$DIMTDEC
 70
     2
  9
$DIMALTU
 70
     2
  9
$DIMALTTD
 70
     3
  9
$DIMTXSTY
  7
STANDARD
  9
$DIMAUNIT
 70
     0
  9
$DIMADEC
 70
     0
  9
$DIMALTRND
 40
0.0
  9
$DIMAZIN
 70
     0
  9
$DIMDSEP
 70
    44
  9
$DIMATFIT
 70
     3
  9
$DIMFRAC
 70
     0
  9
$DIMLDRBLK
  1

  9
$DIMLUNIT
 70
     2
  9
$DIMLWD
 70
    -2
  9
$DIMLWE
 70
    -2
  9
$DIMTMOVE
 70
     0
  9
$LUNITS
 70
     2
  9
$LUPREC
 70
     6
  9
$SKETCHINC
 40
1.0
  9
$FILLETRAD
 40
0.0
  9
$AUNITS
 70
     0
  9
$AUPREC
 70
     0
  9
$MENU
  1
.
  9
$ELEVATION
 40
0.0
  9
$PELEVATION
 40
0.0
  9
$THICKNESS
 40
0.0
  9
$LIMCHECK
 70
     0
  9
$CHAMFERA
 40
0.0
  9
$CHAMFERB
 40
0.0
  9
$CHAMFERC
 40
0.0
  9
$CHAMFERD
 40
0.0
  9
$SKPOLY
 70
     0
  9
$TDCREATE
 40
2460461.435711597
  9
$TDUCREATE
 40
2460461.727378264
  9
$TDUPDATE
 40
2460461.435716898
  9
$TDUUPDATE
 40
2460461.727383565
  9
$TDINDWG
 40
0.0000000116
  9
$TDUSRTIMER
 40
0.0000000116
  9
$USRTIMER
 70
     1
  9
$ANGBASE
 50
0.0
  9
$ANGDIR
 70
     0
  9
$PDMODE
 70
     0
  9
$PDSIZE
 40
-1.0
  9
$PLINEWID
 40
0.0
  9
$SPLFRAME
 70
     0
  9
$SPLINETYPE
 70
     6
  9
$SPLINESEGS
 70
     8
  9
$HANDSEED
  5
5D7
  9
$SURFTAB1
 70
     6
  9
$SURFTAB2
 70
     6
  9
$SURFTYPE
 70
     6
  9
$SURFU
 70
     6
  9
$SURFV
 70
     6
  9
$UCSBASE
  2

  9
$UCSNAME
  2

  9
$UCSORG
 10
0.0
 20
0.0
 30
0.0
  9
$UCSXDIR
 10
1.0
 20
0.0
 30
0.0
  9
$UCSYDIR
 10
0.0
 20
1.0
 30
0.0
  9
$UCSORTHOREF
  2

  9
$UCSORTHOVIEW
 70
     0
  9
$UCSORGTOP
 10
0.0
 20
0.0
 30
0.0
  9
$UCSORGBOTTOM
 10
0.0
 20
0.0
 30
0.0
  9
$UCSORGLEFT
 10
0.0
 20
0.0
 30
0.0
  9
$UCSORGRIGHT
 10
0.0
 20
0.0
 30
0.0
  9
$UCSORGFRONT
 10
0.0
 20
0.0
 30
0.0
  9
$UCSORGBACK
 10
0.0
 20
0.0
 30
0.0
  9
$PUCSBASE
  2

  9
$PUCSNAME
  2

  9
$PUCSORG
 10
0.0
 20
0.0
 30
0.0
  9
$PUCSXDIR
 10
1.0
 20
0.0
 30
0.0
  9
$PUCSYDIR
 10
0.0
 20
1.0
 30
0.0
  9
$PUCSORTHOREF
  2

  9
$PUCSORTHOVIEW
 70
     0
  9
$PUCSORGTOP
 10
0.0
 20
0.0
 30
0.0
  9
$PUCSORGBOTTOM
 10
0.0
 20
0.0
 30
0.0
  9
$PUCSORGLEFT
 10
0.0
 20
0.0
 30
0.0
  9
$PUCSORGRIGHT
 10
0.0
 20
0.0
 30
0.0
  9
$PUCSORGFRONT
 10
0.0
 20
0.0
 30
0.0
  9
$PUCSORGBACK
 10
0.0
 20
0.0
 30
0.0
  9
$USERI1
 70
     0
  9
$USERI2
 70
     0
  9
$USERI3
 70
     0
  9
$USERI4
 70
     0
  9
$USERI5
 70
     0
  9
$USERR1
 40
0.0
  9
$USERR2
 40
0.0
  9
$USERR3
 40
0.0
  9
$USERR4
 40
0.0
  9
$USERR5
 40
0.0
  9
$WORLDVIEW
 70
     1
  9
$SHADEDGE
 70
     3
  9
$SHADEDIF
 70
    70
  9
$TILEMODE
 70
     1
  9
$MAXACTVP
 70
    64
  9
$PINSBASE
 10
0.0
 20
0.0
 30
0.0
  9
$PLIMCHECK
 70
     0
  9
$PEXTMIN
 10
1.0000000000E+20
 20
1.0000000000E+20
 30
1.0000000000E+20
  9
$PEXTMAX
 10
-1.0000000000E+20
 20
-1.0000000000E+20
 30
-1.0000000000E+20
  9
$PLIMMIN
 10
0.0
 20
0.0
  9
$PLIMMAX
 10
420.0
 20
297.0
  9
$UNITMODE
 70
     0
  9
$VISRETAIN
 70
     1
  9
$PLINEGEN
 70
     0
  9
$PSLTSCALE
 70
     1
  9
$TREEDEPTH
 70
  3020
  9
$CMLSTYLE
  2
Standard
  9
$CMLJUST
 70
     0
  9
$CMLSCALE
 40
20.0
  9
$PROXYGRAPHICS
 70
     1
  9
$MEASUREMENT
 70
     1
  9
$CELWEIGHT
370
    -1
  9
$ENDCAPS
280
     0
  9
$JOINSTYLE
280
     0
  9
$LWDISPLAY
290
     1
  9
$INSUNITS
 70
     4
  9
$HYPERLINKBASE
  1

  9
$STYLESHEET
  1

  9
$XEDIT
290
     1
  9
$CEPSNTYPE
380
     0
  9
$PSTYLEMODE
290
     1
  9
$FINGERPRINTGUID
  2
{5b6758d3-07de-4b27-92aa-66a5a2ffcdbd}
  9
$VERSIONGUID
  2
{FAEB1C32-E019-11D5-929B-00C0DF256EC4}
  9
$EXTNAMES
290
     1
  9
$PSVPSCALE
 40
0.0
  9
$OLESTARTUP
290
     0
  0
ENDSEC
  0
SECTION
  2
CLASSES
  0
CLASS
  1
ACDBDICTIONARYWDFLT
  2
AcDbDictionaryWithDefault
  3
ObjectDBX Classes
 90
        0
280
     0
281
     0
  0
CLASS
  1
VISUALSTYLE
  2
AcDbVisualStyle
  3
ObjectDBX Classes
 90
     4095
280
     0
281
     0
  0
CLASS
  1
MATERIAL
  2
AcDbMaterial
  3
ObjectDBX Classes
 90
     1153
280
     0
281
     0
  0
CLASS
  1
SCALE
  2
AcDbScale
  3
ObjectDBX Classes
 90
     1153
280
     0
281
     0
  0
CLASS
  1
TABLESTYLE
  2
AcDbTableStyle
  3
ObjectDBX Classes
 90
     4095
280
     0
281
     0
  0
CLASS
  1
MLEADERSTYLE
  2
AcDbMLeaderStyle
  3
ACDB_MLEADERSTYLE_CLASS
 90
     4095
280
     0
281
     0
  0
CLASS
  1
SUN
  2
AcDbSun
  3
SCENEOE
 90
     1153
280
     0
281
     0
  0
CLASS
  1
ACDBPLACEHOLDER
  2
AcDbPlaceHolder
  3
ObjectDBX Classes
 90
        0
280
     0
281
     0
  0
CLASS
  1
LAYOUT
  2
AcDbLayout
  3
ObjectDBX Classes
 90
        0
280
     0
281
     0
  0
ENDSEC
  0
SECTION
  2
TABLES
  0
TABLE
  2
VPORT
  5
8
330
0
100
AcDbSymbolTable
 70
     1
  0
VPORT
  5
29
330
8
100
AcDbSymbolTableRecord
100
AcDbViewportTableRecord
  2
*Active
 70
     0
 10
0.0
 20
0.0
 11
1.0
 21
1.0
 12
1295.4
 22
838.2
 13
0.0
 23
0.0
 14
10.0
 24
10.0
 15
10.0
 25
10.0
 16
0.0
 26
0.0
 36
1.0
 17
0.0
 27
0.0
 37
0.0
 40
1676.4
 41
1.5454545455
 42
50.0
 43
0.0
 44
0.0
 50
0.0
 51
0.0
 71
     0
 72
  2000
 73
     1
 74
     3
 75
     0
 76
     0
 77
     0
 78
     0
281
     0
 65
     1
110
0.0
120
0.0
130
0.0
111
1.0
121
0.0
131
0.0
112
0.0
122
1.0
132
0.0
 79
     0
146
0.0
  0
ENDTAB
  0
TABLE
  2
LTYPE
  5
5
330
0
100
AcDbSymbolTable
 70
     6
  0
LTYPE
  5
14
330
5
100
AcDbSymbolTableRecord
100
AcDbLinetypeTableRecord
  2
ByBlock
 70
     0
  3

 72
    65
 73
     0
 40
0.0
  0
LTYPE
  5
15
330
5
100
AcDbSymbolTableRecord
100
AcDbLinetypeTableRecord
  2
ByLayer
 70
     0
  3

 72
    65
 73
     0
 40
0.0
  0
LTYPE
  5
16
330
5
100
AcDbSymbolTableRecord
100
AcDbLinetypeTableRecord
  2
Continuous
 70
     0
  3
Solid line
 72
    65
 73
     0
 40
0.0
  0
LTYPE
  5
5E
330
5
100
AcDbSymbolTableRecord
100
AcDbLinetypeTableRecord
  2
HIDDEN
 70
     0
  3
Hidden __ __ __ __ __ __ __ __ __ __ __ __ __ __
 72
    65
 73
     2
 40
1.905
 49
1.27
 74
     0
 49
-0.635
 74
     0
  0
LTYPE
  5
5F
330
5
100
AcDbSymbolTableRecord
100
AcDbLinetypeTableRecord
  2
PHANTOM
 70
     0
  3
Phantom ______  __  __  ______  __  __  ______
 72
    65
 73
     6
 40
12.7
 49
6.35
 74
     0
 49
-1.27
 74
     0
 49
1.27
 74
     0
 49
-1.27
 74
     0
 49
1.27
 74
     0
 49
-1.27
 74
     0
  0
LTYPE
  5
60
330
5
100
AcDbSymbolTableRecord
100
AcDbLinetypeTableRecord
  2
CENTER
 70
     0
  3
Center ____ _ ____ _ ____ _ ____ _ ____ _ ____
 72
    65
 73
     4
 40
10.16
 49
6.35
 74
     0
 49
-1.27
 74
     0
 49
1.27
 74
     0
 49
-1.27
 74
     0
  0
LTYPE
  5
61
330
5
100
AcDbSymbolTableRecord
100
AcDbLinetypeTableRecord
  2
CENTERX2
 70
     0
  3
Center (2x) ________  __  ________  __  _____
 72
    65
 73
     4
 40
20.32
 49
12.7
 74
     0
 49
-2.54
 74
     0
 49
2.54
 74
     0
 49
-2.54
 74
     0
  0
LTYPE
  5
62
330
5
100
AcDbSymbolTableRecord
100
AcDbLinetypeTableRecord
  2
DOT2
 70
     0
  3
Dot (.5x) ........................................
 72
    65
 73
     2
 40
0.635
 49
0.0
 74
     0
 49
-0.635
 74
     0
  0
ENDTAB
  0
TABLE
  2
LAYER
  5
2
330
0
100
AcDbSymbolTable
 70
     6
  0
LAYER
  5
10
330
2
100
AcDbSymbolTableRecord
100
AcDbLayerTableRecord
  2
0
 70
     0
 62
     7
  6
Continuous
370
    -3
390
F
  0
LAYER
  5
63
330
2
100
AcDbSymbolTableRecord
100
AcDbLayerTableRecord
  2
SLD-0
 70
     0
 62
   179
  6
Continuous
370
    -3
390
F
  0
LAYER
  5
64
330
2
100
AcDbSymbolTableRecord
100
AcDbLayerTableRecord
  2
WIRE_BOND
 70
     0
 62
     6
  6
Continuous
370
   100
390
F
  0
LAYER
  5
65
330
2
100
AcDbSymbolTableRecord
100
AcDbLayerTableRecord
  2
HIGHLIGHT-BLUE
 70
     0
 62
     5
  6
Continuous
370
    70
390
F
  0
LAYER
  5
66
330
2
100
AcDbSymbolTableRecord
100
AcDbLayerTableRecord
  2
MANUAL_DIM
 70
     0
 62
   114
  6
Continuous
370
    -3
390
F
  0
LAYER
  5
67
330
2
100
AcDbSymbolTableRecord
100
AcDbLayerTableRecord
  2
TORQUE_9-10
 70
     0
 62
   155
  6
Continuous
370
    -3
390
F
  0
ENDTAB
  0
TABLE
  2
STYLE
  5
3
330
0
100
AcDbSymbolTable
 70
     5
  0
STYLE
  5
11
330
3
100
AcDbSymbolTableRecord
100
AcDbTextStyleTableRecord
  2
STANDARD
 70
     0
 40
0.0
 41
1.0
 50
0.0
 71
     0
 42
19.05
  3
GOTHIC.TTF
  4

1001
ACAD
1000
CENTURY GOTHIC
1071
       34
  0
STYLE
  5
82
330
3
100
AcDbSymbolTableRecord
100
AcDbTextStyleTableRecord
  2
SLDTEXTSTYLE0
 70
     0
 40
0.0
 41
0.913
 50
0.0
 71
     0
 42
19.05
  3
GOTHIC.TTF
  4

1001
ACAD
1000
Century Gothic
1071
      290
  0
STYLE
  5
C2
330
3
100
AcDbSymbolTableRecord
100
AcDbTextStyleTableRecord
  2
SLDTEXTSTYLE1
 70
     0
 40
0.0
 41
0.87
 50
0.0
 71
     0
 42
19.05
  3
ARIALN.TTF
  4

1001
ACAD
1000
Arial Narrow
1071
      290
  0
STYLE
  5
CD
330
3
100
AcDbSymbolTableRecord
100
AcDbTextStyleTableRecord
  2
SLDTEXTSTYLE2
 70
     0
 40
0.0
 41
0.8969072165
 50
0.0
 71
     0
 42
19.05
  3
ARIALN.TTF
  4

1001
ACAD
1000
Arial Narrow
1071
      290
  0
STYLE
  5
D2
330
3
100
AcDbSymbolTableRecord
100
AcDbTextStyleTableRecord
  2
SLDTEXTSTYLE3
 70
     0
 40
0.0
 41
0.8969072165
 50
0.0
 71
     0
 42
19.05
  3
ARIALN.TTF
  4
bigfont
1001
ACAD
1000
Arial Narrow
1071
      290
  0
ENDTAB
  0
TABLE
  2
VIEW
  5
6
330
0
100
AcDbSymbolTable
 70
     0
  0
ENDTAB
  0
TABLE
  2
UCS
  5
7
330
0
100
AcDbSymbolTable
 70
     0
  0
ENDTAB
  0
TABLE
  2
APPID
  5
9
330
0
100
AcDbSymbolTable
 70
     1
  0
APPID
  5
12
330
9
100
AcDbSymbolTableRecord
100
AcDbRegAppTableRecord
  2
ACAD
 70
     0
  0
ENDTAB
  0
TABLE
  2
DIMSTYLE
  5
A
330
0
100
AcDbSymbolTable
 70
     7
100
AcDbDimStyleTable
  0
DIMSTYLE
105
27
330
A
100
AcDbSymbolTableRecord
100
AcDbDimStyleTableRecord
  2
ISO-25
 70
     0
 41
2.5
 42
0.625
 43
3.75
 44
1.25
 73
     0
 74
     0
 77
     1
 78
     8
140
2.5
141
2.5
143
0.0393700787
147
0.625
171
     3
172
     1
178
     0
271
     2
272
     2
274
     3
278
    44
283
     0
284
     8
340
11
  0
DIMSTYLE
105
1B7
102
{ACAD_REACTORS
330
1B6
330
203
330
217
330
27C
330
291
330
2A5
330
347
330
35B
330
3D3
330
415
330
429
330
4E1
330
50A
330
51E
330
533
330
547
330
55B
102
}
330
A
100
AcDbSymbolTableRecord
100
AcDbDimStyleTableRecord
  2
SLDDIMSTYLE0
 70
     0
 41
12.0
 44
0.0
 45
0.000000001
 78
    12
 79
     3
140
14.2875
143
0.0393700787
147
3.571875
148
0.000000001
170
     1
173
     1
178
     0
271
     1
272
     2
276
     2
284
    12
340
82
  0
DIMSTYLE
105
1CC
102
{ACAD_REACTORS
330
1CB
330
240
330
254
330
268
330
3BF
330
43E
330
570
102
}
330
A
100
AcDbSymbolTableRecord
100
AcDbDimStyleTableRecord
  2
SLDDIMSTYLE1
 70
     0
 41
12.0
 44
0.0
 45
0.000000001
 78
     4
 79
     1
140
14.2875
143
0.0393700787
147
3.571875
148
0.000000001
170
     1
173
     1
178
     0
271
     1
272
     2
276
     2
284
    12
340
82
  0
DIMSTYLE
105
22C
102
{ACAD_REACTORS
330
22B
330
4F6
102
}
330
A
100
AcDbSymbolTableRecord
100
AcDbDimStyleTableRecord
  2
SLDDIMSTYLE2
 70
     0
 41
12.0
 44
0.0
 45
0.000000001
 78
    12
 79
     3
140
14.2875
143
0.0393700787
147
3.571875
148
0.000000001
170
     1
172
     1
173
     1
178
     0
271
     1
272
     2
276
     2
284
    12
289
     0
340
82
  0
DIMSTYLE
105
2C3
330
A
100
AcDbSymbolTableRecord
100
AcDbDimStyleTableRecord
  2
SLDDIMSTYLE3
 70
     0
 41
12.0
 44
0.0
 45
0.000000001
146
12.0
147
0.0
173
     1
178
     0
271
     0
272
     0
276
     2
340
11
  0
DIMSTYLE
105
370
102
{ACAD_REACTORS
330
36F
102
}
330
A
100
AcDbSymbolTableRecord
100
AcDbDimStyleTableRecord
  2
SLDDIMSTYLE4
 70
     0
 41
12.0
 44
0.0
 78
    12
 79
     3
140
14.2875
144
6.0
147
3.571875
173
     1
178
     0
272
     2
276
     2
284
    12
340
82
  0
DIMSTYLE
105
4B9
102
{ACAD_REACTORS
330
4B8
330
4CD
102
}
330
A
100
AcDbSymbolTableRecord
100
AcDbDimStyleTableRecord
  2
SLDDIMSTYLE5
 70
     0
 41
12.0
 44
0.0
 45
0.000000001
 78
     4
 79
     1
140
14.2875
143
0.0393700787
147
3.571875
148
0.000000001
170
     1
173
     1
178
     0
271
     2
272
     2
276
     2
284
    12
340
82
  0
ENDTAB
  0
TABLE
  2
BLOCK_RECORD
  5
1
330
0
100
AcDbSymbolTable
 70
    58
  0
BLOCK_RECORD
  5
1F
330
1
100
AcDbSymbolTableRecord
100
AcDbBlockTableRecord
  2
*Model_Space
340
22
  0
BLOCK_RECORD
  5
1B
330
1
100
AcDbSymbolTableRecord
100
AcDbBlockTableRecord
  2
*Paper_Space
340
1E
  0
BLOCK_RECORD
  5
23
330
1
100
AcDbSymbolTableRecord
100
AcDbBlockTableRecord
  2
*Paper_Space0
340
26
  0
BLOCK_RECORD
  5
73
330
1
100
AcDbSymbolTableRecord
100
AcDbBlockTableRecord
  2
SW_NOTE_0
340
0
102
{BLKREFS
331
AE
102
}
  0
BLOCK_RECORD
  5
89
330
1
100
AcDbSymbolTableRecord
100
AcDbBlockTableRecord
  2
SW_SYMBOL_MOD_COM
340
0
102
{BLKREFS
331
95
331
1E6
331
37B
102
}
  0
BLOCK_RECORD
  5
99
330
1
100
AcDbSymbolTableRecord
100
AcDbBlockTableRecord
  2
SW_SYMBOL_GTOL_CONC
340
0
102
{BLKREFS
331
9E
331
A3
331
A8
102
}
  0
BLOCK_RECORD
  5
1B8
330
1
100
AcDbSymbolTableRecord
100
AcDbBlockTableRecord
  2
_D
340
0
  0
BLOCK_RECORD
  5
1CD
330
1
100
AcDbSymbolTableRecord
100
AcDbBlockTableRecord
  2
_D_1
340
0
  0
BLOCK_RECORD
  5
1E0
330
1
100
AcDbSymbolTableRecord
100
AcDbBlockTableRecord
  2
SW_SYMBOL_MOD_CL
340
0
102
{BLKREFS
331
1E5
102
}
  0
BLOCK_RECORD
  5
204
330
1
100
AcDbSymbolTableRecord
100
AcDbBlockTableRecord
  2
_D_2
340
0
  0
BLOCK_RECORD
  5
218
330
1
100
AcDbSymbolTableRecord
100
AcDbBlockTableRecord
  2
_D_3
340
0
  0
BLOCK_RECORD
  5
22D
330
1
100
AcDbSymbolTableRecord
100
AcDbBlockTableRecord
  2
_D_4
340
0
  0
BLOCK_RECORD
  5
241
330
1
100
AcDbSymbolTableRecord
100
AcDbBlockTableRecord
  2
_D_5
340
0
  0
BLOCK_RECORD
  5
255
330
1
100
AcDbSymbolTableRecord
100
AcDbBlockTableRecord
  2
_D_6
340
0
  0
BLOCK_RECORD
  5
269
330
1
100
AcDbSymbolTableRecord
100
AcDbBlockTableRecord
  2
_D_7
340
0
  0
BLOCK_RECORD
  5
27D
330
1
100
AcDbSymbolTableRecord
100
AcDbBlockTableRecord
  2
_D_8
340
0
  0
BLOCK_RECORD
  5
292
330
1
100
AcDbSymbolTableRecord
100
AcDbBlockTableRecord
  2
_D_9
340
0
  0
BLOCK_RECORD
  5
2A6
330
1
100
AcDbSymbolTableRecord
100
AcDbBlockTableRecord
  2
_D_10
340
0
  0
BLOCK_RECORD
  5
2BA
330
1
100
AcDbSymbolTableRecord
100
AcDbBlockTableRecord
  2
SW_NOTE_0_1
340
0
102
{BLKREFS
331
2C2
102
}
  0
BLOCK_RECORD
  5
2C5
330
1
100
AcDbSymbolTableRecord
100
AcDbBlockTableRecord
  2
SW_NOTE_0_2
340
0
102
{BLKREFS
331
2CD
102
}
  0
BLOCK_RECORD
  5
2D0
330
1
100
AcDbSymbolTableRecord
100
AcDbBlockTableRecord
  2
SW_NOTE_0_3
340
0
102
{BLKREFS
331
2D8
102
}
  0
BLOCK_RECORD
  5
2DB
330
1
100
AcDbSymbolTableRecord
100
AcDbBlockTableRecord
  2
SW_CENTERMARKSYMBOL_0
340
0
102
{BLKREFS
331
2E6
102
}
  0
BLOCK_RECORD
  5
2E7
330
1
100
AcDbSymbolTableRecord
100
AcDbBlockTableRecord
  2
SW_CENTERMARKSYMBOL_1
340
0
102
{BLKREFS
331
2F2
102
}
  0
BLOCK_RECORD
  5
2F3
330
1
100
AcDbSymbolTableRecord
100
AcDbBlockTableRecord
  2
SW_CENTERMARKSYMBOL_2
340
0
102
{BLKREFS
331
2FE
102
}
  0
BLOCK_RECORD
  5
2FF
330
1
100
AcDbSymbolTableRecord
100
AcDbBlockTableRecord
  2
SW_CENTERMARKSYMBOL_3
340
0
102
{BLKREFS
331
30A
102
}
  0
BLOCK_RECORD
  5
30B
330
1
100
AcDbSymbolTableRecord
100
AcDbBlockTableRecord
  2
SW_CENTERMARKSYMBOL_4
340
0
102
{BLKREFS
331
316
102
}
  0
BLOCK_RECORD
  5
317
330
1
100
AcDbSymbolTableRecord
100
AcDbBlockTableRecord
  2
SW_CENTERMARKSYMBOL_5
340
0
102
{BLKREFS
331
322
102
}
  0
BLOCK_RECORD
  5
323
330
1
100
AcDbSymbolTableRecord
100
AcDbBlockTableRecord
  2
SW_CENTERMARKSYMBOL_6
340
0
102
{BLKREFS
331
32E
102
}
  0
BLOCK_RECORD
  5
348
330
1
100
AcDbSymbolTableRecord
100
AcDbBlockTableRecord
  2
_D_11
340
0
  0
BLOCK_RECORD
  5
35C
330
1
100
AcDbSymbolTableRecord
100
AcDbBlockTableRecord
  2
_D_12
340
0
  0
BLOCK_RECORD
  5
371
330
1
100
AcDbSymbolTableRecord
100
AcDbBlockTableRecord
  2
_D_13
340
0
  0
BLOCK_RECORD
  5
37C
330
1
100
AcDbSymbolTableRecord
100
AcDbBlockTableRecord
  2
SW_NOTE_0_4
340
0
102
{BLKREFS
331
384
102
}
  0
BLOCK_RECORD
  5
386
330
1
100
AcDbSymbolTableRecord
100
AcDbBlockTableRecord
  2
SW_NOTE_0_5
340
0
102
{BLKREFS
331
38E
102
}
  0
BLOCK_RECORD
  5
390
330
1
100
AcDbSymbolTableRecord
100
AcDbBlockTableRecord
  2
SW_NOTE_0_6
340
0
102
{BLKREFS
331
398
102
}
  0
BLOCK_RECORD
  5
3C0
330
1
100
AcDbSymbolTableRecord
100
AcDbBlockTableRecord
  2
_D_14
340
0
  0
BLOCK_RECORD
  5
3D4
330
1
100
AcDbSymbolTableRecord
100
AcDbBlockTableRecord
  2
_D_15
340
0
  0
BLOCK_RECORD
  5
3E7
330
1
100
AcDbSymbolTableRecord
100
AcDbBlockTableRecord
  2
SW_NOTE_0_7
340
0
102
{BLKREFS
331
3EF
102
}
  0
BLOCK_RECORD
  5
416
330
1
100
AcDbSymbolTableRecord
100
AcDbBlockTableRecord
  2
_D_16
340
0
  0
BLOCK_RECORD
  5
42A
330
1
100
AcDbSymbolTableRecord
100
AcDbBlockTableRecord
  2
_D_17
340
0
  0
BLOCK_RECORD
  5
43F
330
1
100
AcDbSymbolTableRecord
100
AcDbBlockTableRecord
  2
_D_18
340
0
  0
BLOCK_RECORD
  5
453
330
1
100
AcDbSymbolTableRecord
100
AcDbBlockTableRecord
  2
SW_NOTE_0_8
340
0
102
{BLKREFS
331
45B
102
}
  0
BLOCK_RECORD
  5
45E
330
1
100
AcDbSymbolTableRecord
100
AcDbBlockTableRecord
  2
SW_CENTERMARKSYMBOL_7
340
0
102
{BLKREFS
331
469
102
}
  0
BLOCK_RECORD
  5
46A
330
1
100
AcDbSymbolTableRecord
100
AcDbBlockTableRecord
  2
SW_CENTERMARKSYMBOL_8
340
0
102
{BLKREFS
331
475
102
}
  0
BLOCK_RECORD
  5
4BA
330
1
100
AcDbSymbolTableRecord
100
AcDbBlockTableRecord
  2
_D_19
340
0
  0
BLOCK_RECORD
  5
4CE
330
1
100
AcDbSymbolTableRecord
100
AcDbBlockTableRecord
  2
_D_20
340
0
  0
BLOCK_RECORD
  5
4E2
330
1
100
AcDbSymbolTableRecord
100
AcDbBlockTableRecord
  2
_D_21
340
0
  0
BLOCK_RECORD
  5
4F7
330
1
100
AcDbSymbolTableRecord
100
AcDbBlockTableRecord
  2
_D_22
340
0
  0
BLOCK_RECORD
  5
50B
330
1
100
AcDbSymbolTableRecord
100
AcDbBlockTableRecord
  2
_D_23
340
0
  0
BLOCK_RECORD
  5
51F
330
1
100
AcDbSymbolTableRecord
100
AcDbBlockTableRecord
  2
_D_24
340
0
  0
BLOCK_RECORD
  5
534
330
1
100
AcDbSymbolTableRecord
100
AcDbBlockTableRecord
  2
_D_25
340
0
  0
BLOCK_RECORD
  5
548
330
1
100
AcDbSymbolTableRecord
100
AcDbBlockTableRecord
  2
_D_26
340
0
  0
BLOCK_RECORD
  5
55C
330
1
100
AcDbSymbolTableRecord
100
AcDbBlockTableRecord
  2
_D_27
340
0
  0
BLOCK_RECORD
  5
571
330
1
100
AcDbSymbolTableRecord
100
AcDbBlockTableRecord
  2
_D_28
340
0
  0
BLOCK_RECORD
  5
584
330
1
100
AcDbSymbolTableRecord
100
AcDbBlockTableRecord
  2
SW_NOTE_0_9
340
0
102
{BLKREFS
331
58C
102
}
  0
BLOCK_RECORD
  5
58E
330
1
100
AcDbSymbolTableRecord
100
AcDbBlockTableRecord
  2
SW_NOTE_0_10
340
0
102
{BLKREFS
331
596
102
}
  0
BLOCK_RECORD
  5
599
330
1
100
AcDbSymbolTableRecord
100
AcDbBlockTableRecord
  2
SW_CENTERMARKSYMBOL_9
340
0
102
{BLKREFS
331
5A4
102
}
  0
BLOCK_RECORD
  5
5A5
330
1
100
AcDbSymbolTableRecord
100
AcDbBlockTableRecord
  2
SW_CENTERMARKSYMBOL_10
340
0
102
{BLKREFS
331
5B0
102
}
  0
BLOCK_RECORD
  5
5B1
330
1
100
AcDbSymbolTableRecord
100
AcDbBlockTableRecord
  2
SW_CENTERMARKSYMBOL_11
340
0
102
{BLKREFS
331
5BC
102
}
  0
BLOCK_RECORD
  5
5BD
330
1
100
AcDbSymbolTableRecord
100
AcDbBlockTableRecord
  2
SW_CENTERMARKSYMBOL_12
340
0
102
{BLKREFS
331
5C8
102
}
  0
BLOCK_RECORD
  5
5C9
330
1
100
AcDbSymbolTableRecord
100
AcDbBlockTableRecord
  2
SW_CENTERMARKSYMBOL_13
340
0
102
{BLKREFS
331
5D4
102
}
  0
ENDTAB
  0
ENDSEC
  0
SECTION
  2
BLOCKS
  0
BLOCK
  5
20
330
1F
100
AcDbEntity
  8
0
100
AcDbBlockBegin
  2
*Model_Space
 70
     0
 10
0.0
 20
0.0
 30
0.0
  3
*Model_Space
  1

  0
ENDBLK
  5
21
330
1F
100
AcDbEntity
  8
0
100
AcDbBlockEnd
  0
BLOCK
  5
1C
330
1B
100
AcDbEntity
 67
     1
  8
0
100
AcDbBlockBegin
  2
*Paper_Space
 70
     0
 10
0.0
 20
0.0
 30
0.0
  3
*Paper_Space
  1

  0
ENDBLK
  5
1D
330
1B
100
AcDbEntity
 67
     1
  8
0
100
AcDbBlockEnd
  0
BLOCK
  5
24
330
23
100
AcDbEntity
  8
0
100
AcDbBlockBegin
  2
*Paper_Space0
 70
     0
 10
0.0
 20
0.0
 30
0.0
  3
*Paper_Space0
  1

  0
ENDBLK
  5
25
330
23
100
AcDbEntity
  8
0
100
AcDbBlockEnd
  0
BLOCK
  5
74
330
73
100
AcDbEntity
  8
0
100
AcDbBlockBegin
  2
SW_NOTE_0
 70
     0
 10
0.0
 20
0.0
 30
0.0
  3
SW_NOTE_0
  1

  0
LINE
  5
76
330
73
100
AcDbEntity
  8
0
  6
Continuous
 62
     0
370
     0
100
AcDbLine
 10
-6.3103126595
 20
-101.2246857863
 30
0.0
 11
-6.3103126595
 21
-78.0471854378
 31
0.0
  0
LINE
  5
77
330
73
100
AcDbEntity
  8
0
  6
Continuous
 62
     0
370
     0
100
AcDbLine
 10
-6.3103126595
 20
-78.0471854378
 30
0.0
 11
16.8671876891
 21
-78.0471854378
 31
0.0
  0
LINE
  5
78
330
73
100
AcDbEntity
  8
0
  6
Continuous
 62
     0
370
     0
100
AcDbLine
 10
16.8671876891
 20
-78.0471854378
 30
0.0
 11
16.8671876891
 21
-101.2246857863
 31
0.0
  0
LINE
  5
79
330
73
100
AcDbEntity
  8
0
  6
Continuous
 62
     0
370
     0
100
AcDbLine
 10
16.8671876891
 20
-101.2246857863
 30
0.0
 11
-6.3103126595
 21
-101.2246857863
 31
0.0
  0
LINE
  5
7A
330
73
100
AcDbEntity
  8
0
  6
Continuous
 62
     0
370
     0
100
AcDbLine
 10
-6.3103126595
 20
-155.246560229
 30
0.0
 11
-6.3103126595
 21
-132.0690598805
 31
0.0
  0
LINE
  5
7B
330
73
100
AcDbEntity
  8
0
  6
Continuous
 62
     0
370
     0
100
AcDbLine
 10
-6.3103126595
 20
-132.0690598805
 30
0.0
 11
16.8671876891
 21
-132.0690598805
 31
0.0
  0
LINE
  5
7C
330
73
100
AcDbEntity
  8
0
  6
Continuous
 62
     0
370
     0
100
AcDbLine
 10
16.8671876891
 20
-132.0690598805
 30
0.0
 11
16.8671876891
 21
-155.246560229
 31
0.0
  0
LINE
  5
7D
330
73
100
AcDbEntity
  8
0
  6
Continuous
 62
     0
370
     0
100
AcDbLine
 10
16.8671876891
 20
-155.246560229
 30
0.0
 11
-6.3103126595
 21
-155.246560229
 31
0.0
  0
LINE
  5
7E
330
73
100
AcDbEntity
  8
0
  6
Continuous
 62
     0
370
     0
100
AcDbLine
 10
-6.3103126595
 20
-209.2684346717
 30
0.0
 11
-6.3103126595
 21
-186.0909343231
 31
0.0
  0
LINE
  5
7F
330
73
100
AcDbEntity
  8
0
  6
Continuous
 62
     0
370
     0
100
AcDbLine
 10
-6.3103126595
 20
-186.0909343231
 30
0.0
 11
16.8671876891
 21
-186.0909343231
 31
0.0
  0
LINE
  5
80
330
73
100
AcDbEntity
  8
0
  6
Continuous
 62
     0
370
     0
100
AcDbLine
 10
16.8671876891
 20
-186.0909343231
 30
0.0
 11
16.8671876891
 21
-209.2684346717
 31
0.0
  0
LINE
  5
81
330
73
100
AcDbEntity
  8
0
  6
Continuous
 62
     0
370
     0
100
AcDbLine
 10
16.8671876891
 20
-209.2684346717
 30
0.0
 11
-6.3103126595
 21
-209.2684346717
 31
0.0
  0
MTEXT
  5
83
330
73
100
AcDbEntity
  8
0
  6
Continuous
 62
     0
370
     0
100
AcDbMText
 10
0.0
 20
18.2500488281
 30
0.0
 40
14.2875
 41
0.0
 71
     1
 72
     1
  1
NOTES: UNLESS OTHERWISE SPECIFIED
  7
SLDTEXTSTYLE0
 73
     1
 44
1.0
  0
MTEXT
  5
84
330
73
100
AcDbEntity
  8
0
  6
Continuous
 62
     0
370
     0
100
AcDbMText
 10
59.9999986589
 20
-6.7999505281
 30
0.0
 40
14.2875
 41
0.0
 71
     1
 72
     1
  1
NET WEIGHT APPROX. 11.9 KG [26.3 LBS].
  7
SLDTEXTSTYLE0
 73
     1
 44
1.0
  0
MTEXT
  5
85
330
73
100
AcDbEntity
  8
0
  6
Continuous
 62
     0
370
     0
100
AcDbMText
 10
0.0
 20
-6.7999505281
 30
0.0
 40
14.2875
 41
0.0
 71
     1
 72
     1
  1
1.
  7
SLDTEXTSTYLE0
 73
     1
 44
1.0
  0
MTEXT
  5
86
330
73
100
AcDbEntity
  8
0
  6
Continuous
 62
     0
370
     0
100
AcDbMText
 10
59.9999986589
 20
-31.8499498844
 30
0.0
 40
14.2875
 41
0.0
 71
     1
 72
     1
  1
PARTS ARE SYMMETRICAL ABOUT CENTER LINES UNLESS OTHERWISE NOTED.
  7
SLDTEXTSTYLE0
 73
     1
 44
1.0
  0
MTEXT
  5
87
330
73
100
AcDbEntity
  8
0
  6
Continuous
 62
     0
370
     0
100
AcDbMText
 10
0.0
 20
-31.8499498844
 30
0.0
 40
14.2875
 41
0.0
 71
     1
 72
     1
  1
2.
  7
SLDTEXTSTYLE0
 73
     1
 44
1.0
  0
MTEXT
  5
88
330
73
100
AcDbEntity
  8
0
  6
Continuous
 62
     0
370
     0
100
AcDbMText
 10
59.9999986589
 20
-56.8999492407
 30
0.0
 40
14.2875
 41
0.0
 71
     1
 72
     1
  1
SYMBOL 
  7
SLDTEXTSTYLE0
 73
     1
 44
1.0
  0
INSERT
  5
95
330
73
100
AcDbEntity
  8
0
  6
Continuous
 62
     0
370
     0
100
AcDbBlockReference
  2
SW_SYMBOL_MOD_COM
 10
148.0415761471
 20
-72.6741456067
 30
0.0
 41
0.0023657471
 42
0.0023657471
 43
0.0023657471
  0
MTEXT
  5
96
330
73
100
AcDbEntity
  8
0
  6
Continuous
 62
     0
370
     0
100
AcDbMText
 10
176.2920208275
 20
-56.8999492407
 30
0.0
 40
14.2875
 41
0.0
 71
     1
 72
     1
  1
INDICATES CENTER OF GRAVITY.
  7
SLDTEXTSTYLE0
 73
     1
 44
1.0
  0
MTEXT
  5
97
330
73
100
AcDbEntity
  8
0
  6
Continuous
 62
     0
370
     0
100
AcDbMText
 10
0.0
 20
-56.8999492407
 30
0.0
 40
14.2875
 41
0.0
 71
     1
 72
     1
  1
3.
  7
SLDTEXTSTYLE0
 73
     1
 44
1.0
  0
MTEXT
  5
98
330
73
100
AcDbEntity
  8
0
  6
Continuous
 62
     0
370
     0
100
AcDbMText
 10
59.9999986589
 20
-80.9108873673
 30
0.0
 40
14.2875
 41
0.0
 71
     1
 72
     1
  1
SYMBOL 
  7
SLDTEXTSTYLE0
 73
     1
 44
1.0
  0
INSERT
  5
9E
330
73
100
AcDbEntity
  8
0
  6
Continuous
 62
     0
370
     0
100
AcDbBlockReference
  2
SW_SYMBOL_GTOL_CONC
 10
139.8512497544
 20
-96.4377948839
 30
0.0
 41
0.0020277832
 42
0.0020277832
 43
0.0020277832
  0
MTEXT
  5
9F
330
73
100
AcDbEntity
  8
0
  6
Continuous
 62
     0
370
     0
100
AcDbMText
 10
164.0659198165
 20
-80.9108873673
 30
0.0
 40
14.2875
 41
0.0
 71
     1
 72
     1
  1
INDICATES SUSPENSION POINT.
  7
SLDTEXTSTYLE0
 73
     1
 44
1.0
  0
MTEXT
  5
A0
330
73
100
AcDbEntity
  8
0
  6
Continuous
 62
     0
370
     0
100
AcDbMText
 10
0.0
 20
-80.9108873673
 30
0.0
 40
14.2875
 41
0.0
 71
     1
 72
     1
  1
4
  7
SLDTEXTSTYLE0
 73
     1
 44
1.0
  0
MTEXT
  5
A1
330
73
100
AcDbEntity
  8
0
  6
Continuous
 62
     0
370
     0
100
AcDbMText
 10
60.0
 20
-110.9218236834
 30
0.0
 40
14.2875
 41
0.0
 71
     1
 72
     1
  1
12 TOTAL: M6-1 THD
  7
SLDTEXTSTYLE0
 73
     1
 44
1.0
  0
MTEXT
  5
A2
330
73
100
AcDbEntity
  8
0
  6
Continuous
 62
     0
370
     0
100
AcDbMText
 10
59.9999986589
 20
-134.93276181
 30
0.0
 40
14.2875
 41
0.0
 71
     1
 72
     1
  1
SYMBOL 
  7
SLDTEXTSTYLE0
 73
     1
 44
1.0
  0
INSERT
  5
A3
330
73
100
AcDbEntity
  8
0
  6
Continuous
 62
     0
370
     0
100
AcDbBlockReference
  2
SW_SYMBOL_GTOL_CONC
 10
139.8512497544
 20
-150.4596693266
 30
0.0
 41
0.0020277832
 42
0.0020277832
 43
0.0020277832
  0
MTEXT
  5
A4
330
73
100
AcDbEntity
  8
0
  6
Continuous
 62
     0
370
     0
100
AcDbMText
 10
164.0659198165
 20
-134.93276181
 30
0.0
 40
14.2875
 41
0.0
 71
     1
 72
     1
  1
INDICATES SUSPENSION POINT.
  7
SLDTEXTSTYLE0
 73
     1
 44
1.0
  0
MTEXT
  5
A5
330
73
100
AcDbEntity
  8
0
  6
Continuous
 62
     0
370
     0
100
AcDbMText
 10
0.0
 20
-134.93276181
 30
0.0
 40
14.2875
 41
0.0
 71
     1
 72
     1
  1
5
  7
SLDTEXTSTYLE0
 73
     1
 44
1.0
  0
MTEXT
  5
A6
330
73
100
AcDbEntity
  8
0
  6
Continuous
 62
     0
370
     0
100
AcDbMText
 10
60.0
 20
-164.9436981261
 30
0.0
 40
14.2875
 41
0.0
 71
     1
 72
     1
  1
2 TOTAL: M8-1.25 THD
  7
SLDTEXTSTYLE0
 73
     1
 44
1.0
  0
MTEXT
  5
A7
330
73
100
AcDbEntity
  8
0
  6
Continuous
 62
     0
370
     0
100
AcDbMText
 10
59.9999986589
 20
-188.9546362527
 30
0.0
 40
14.2875
 41
0.0
 71
     1
 72
     1
  1
SYMBOL 
  7
SLDTEXTSTYLE0
 73
     1
 44
1.0
  0
INSERT
  5
A8
330
73
100
AcDbEntity
  8
0
  6
Continuous
 62
     0
370
     0
100
AcDbBlockReference
  2
SW_SYMBOL_GTOL_CONC
 10
139.8512497544
 20
-204.4815437693
 30
0.0
 41
0.0020277832
 42
0.0020277832
 43
0.0020277832
  0
MTEXT
  5
A9
330
73
100
AcDbEntity
  8
0
  6
Continuous
 62
     0
370
     0
100
AcDbMText
 10
164.0659198165
 20
-188.9546362527
 30
0.0
 40
14.2875
 41
0.0
 71
     1
 72
     1
  1
INDICATES SUSPENSION POINT.
  7
SLDTEXTSTYLE0
 73
     1
 44
1.0
  0
MTEXT
  5
AA
330
73
100
AcDbEntity
  8
0
  6
Continuous
 62
     0
370
     0
100
AcDbMText
 10
0.0
 20
-188.9546362527
 30
0.0
 40
14.2875
 41
0.0
 71
     1
 72
     1
  1
6
  7
SLDTEXTSTYLE0
 73
     1
 44
1.0
  0
MTEXT
  5
AB
330
73
100
AcDbEntity
  8
0
  6
Continuous
 62
     0
370
     0
100
AcDbMText
 10
60.0
 20
-218.9655725688
 30
0.0
 40
14.2875
 41
0.0
 71
     1
 72
     1
  1
9 TOTAL: M10-1.5 THD
  7
SLDTEXTSTYLE0
 73
     1
 44
1.0
  0
MTEXT
  5
AC
330
73
100
AcDbEntity
  8
0
  6
Continuous
 62
     0
370
     0
100
AcDbMText
 10
59.9999986589
 20
-244.015571925
 30
0.0
 40
14.2875
 41
0.0
 71
     1
 72
     1
  1
GRILLE NOT SHOWN FOR CLARITY.
  7
SLDTEXTSTYLE0
 73
     1
 44
1.0
  0
MTEXT
  5
AD
330
73
100
AcDbEntity
  8
0
  6
Continuous
 62
     0
370
     0
100
AcDbMText
 10
0.0
 20
-244.015571925
 30
0.0
 40
14.2875
 41
0.0
 71
     1
 72
     1
  1
7.
  7
SLDTEXTSTYLE0
 73
     1
 44
1.0
  0
ENDBLK
  5
75
330
73
100
AcDbEntity
  8
0
100
AcDbBlockEnd
  0
BLOCK
  5
8A
330
89
100
AcDbEntity
  8
0
100
AcDbBlockBegin
  2
SW_SYMBOL_MOD_COM
 70
     0
 10
0.0
 20
0.0
 30
0.0
  3
SW_SYMBOL_MOD_COM
  1

  0
CIRCLE
  5
8C
330
89
100
AcDbEntity
  8
0
  6
Continuous
 62
     0
370
     0
100
AcDbCircle
 10
3000.0
 20
3000.0
 30
0.0
 40
3000.0
  0
LINE
  5
8D
330
89
100
AcDbEntity
  8
0
  6
Continuous
 62
     0
370
     0
100
AcDbLine
 10
7500.0
 20
3000.0
 30
0.0
 11
9000.0
 21
3000.0
 31
0.0
  0
LINE
  5
8E
330
89
100
AcDbEntity
  8
0
  6
Continuous
 62
     0
370
     0
100
AcDbLine
 10
3000.0
 20
9000.0
 30
0.0
 11
3000.0
 21
7500.0
 31
0.0
  0
LINE
  5
8F
330
89
100
AcDbEntity
  8
0
  6
Continuous
 62
     0
370
     0
100
AcDbLine
 10
-3000.0
 20
3000.0
 30
0.0
 11
-1500.0
 21
3000.0
 31
0.0
  0
LINE
  5
90
330
89
100
AcDbEntity
  8
0
  6
Continuous
 62
     0
370
     0
100
AcDbLine
 10
3000.0
 20
-3000.0
 30
0.0
 11
3000.0
 21
-1500.0
 31
0.0
  0
SOLID
  5
91
330
89
100
AcDbEntity
  8
0
  6
Continuous
 62
     0
370
     0
100
AcDbTrace
 10
3000.0
 20
3000.0
 30
0.0
 11
0.0
 21
3000.0
 31
0.0
 12
3000.0
 22
6000.0
 32
0.0
 13
3000.0
 23
6000.0
 33
0.0
  0
SOLID
  5
92
330
89
100
AcDbEntity
  8
0
  6
Continuous
 62
     0
370
     0
100
AcDbTrace
 10
3000.0
 20
3000.0
 30
0.0
 11
6000.0
 21
3000.0
 31
0.0
 12
3000.0
 22
0.0
 32
0.0
 13
3000.0
 23
0.0
 33
0.0
  0
HATCH
  5
93
330
89
100
AcDbEntity
  8
0
  6
Continuous
 62
     0
100
AcDbHatch
 10
0.0
 20
0.0
 30
0.0
210
0.0
220
0.0
230
1.0
  2
SOLID
 70
     1
 71
     0
 91
        1
 92
        0
 93
        2
 72
     2
 10
3000.0
 20
3000.0
 40
3000.0
 50
90.0000000000002
 51
180.0000000000012
 73
     1
 72
     1
 10
0.0
 20
2999.999999999979
 11
2999.99999999999
 21
6000.0
 97
        0
 75
     0
 76
     1
 98
        1
 10
0.0
 20
0.0
  0
HATCH
  5
94
330
89
100
AcDbEntity
  8
0
  6
Continuous
 62
     0
100
AcDbHatch
 10
0.0
 20
0.0
 30
0.0
210
0.0
220
0.0
230
1.0
  2
SOLID
 70
     1
 71
     0
 91
        1
 92
        0
 93
        2
 72
     2
 10
3000.0
 20
3000.0
 40
3000.0
 50
270.0000000000014
 51
360.0000000000016
 73
     1
 72
     1
 10
6000.0
 20
3000.000000000042
 11
3000.000000000032
 21
0.0
 97
        0
 75
     0
 76
     1
 98
        1
 10
0.0
 20
0.0
  0
ENDBLK
  5
8B
330
89
100
AcDbEntity
  8
0
100
AcDbBlockEnd
  0
BLOCK
  5
9A
330
99
100
AcDbEntity
  8
0
100
AcDbBlockBegin
  2
SW_SYMBOL_GTOL_CONC
 70
     0
 10
0.0
 20
0.0
 30
0.0
  3
SW_SYMBOL_GTOL_CONC
  1

  0
CIRCLE
  5
9C
330
99
100
AcDbEntity
  8
0
  6
Continuous
 62
     0
370
     0
100
AcDbCircle
 10
4500.0
 20
3000.0
 30
0.0
 40
4500.0
  0
CIRCLE
  5
9D
330
99
100
AcDbEntity
  8
0
  6
Continuous
 62
     0
370
     0
100
AcDbCircle
 10
4500.0
 20
3000.0
 30
0.0
 40
3000.0
  0
ENDBLK
  5
9B
330
99
100
AcDbEntity
  8
0
100
AcDbBlockEnd
  0
BLOCK
  5
1B9
330
1B8
100
AcDbEntity
  8
0
100
AcDbBlockBegin
  2
_D
 70
     0
 10
0.0
 20
0.0
 30
0.0
  3
_D
  1

  0
SOLID
  5
1BB
330
1B8
100
AcDbEntity
  8
SLD-0
100
AcDbTrace
 10
1282.8973793588
 20
544.3272204903
 30
0.0
 11
1284.3973793588
 21
556.3272204903
 31
0.0
 12
1281.3973793588
 22
556.3272204903
 32
0.0
 13
1281.3973793588
 23
556.3272204903
 33
0.0
  0
SOLID
  5
1BC
330
1B8
100
AcDbEntity
  8
SLD-0
100
AcDbTrace
 10
1282.8973793588
 20
752.6772204903
 30
0.0
 11
1281.3973793588
 21
740.6772204903
 31
0.0
 12
1284.3973793588
 22
740.6772204903
 32
0.0
 13
1284.3973793588
 23
740.6772204903
 33
0.0
  0
LINE
  5
1BD
330
1B8
100
AcDbEntity
  8
SLD-0
100
AcDbLine
 10
1264.4294622518
 20
648.5022232842
 30
0.0
 11
1260.0836808491
 21
648.5022232842
 31
0.0
  0
LINE
  5
1BE
330
1B8
100
AcDbEntity
  8
SLD-0
100
AcDbLine
 10
1260.0836808491
 20
648.5022232842
 30
0.0
 11
1260.0836808491
 21
625.800972895
 31
0.0
  0
LINE
  5
1BF
330
1B8
100
AcDbEntity
  8
SLD-0
100
AcDbLine
 10
1260.0836808491
 20
625.800972895
 30
0.0
 11
1264.4294622518
 21
625.800972895
 31
0.0
  0
LINE
  5
1C0
330
1B8
100
AcDbEntity
  8
SLD-0
100
AcDbLine
 10
1301.3652964659
 20
648.5022232842
 30
0.0
 11
1305.7110778685
 21
648.5022232842
 31
0.0
  0
LINE
  5
1C1
330
1B8
100
AcDbEntity
  8
SLD-0
100
AcDbLine
 10
1305.7110778685
 20
648.5022232842
 30
0.0
 11
1305.7110778685
 21
625.800972895
 31
0.0
  0
LINE
  5
1C2
330
1B8
100
AcDbEntity
  8
SLD-0
100
AcDbLine
 10
1305.7110778685
 20
625.800972895
 30
0.0
 11
1301.3652964659
 21
625.800972895
 31
0.0
  0
LINE
  5
1C3
330
1B8
100
AcDbEntity
  8
SLD-0
100
AcDbLine
 10
1196.9083443812
 20
544.3272204903
 30
0.0
 11
1287.4693793588
 21
544.3272204903
 31
0.0
  0
LINE
  5
1C4
330
1B8
100
AcDbEntity
  8
SLD-0
100
AcDbLine
 10
1068.3799647441
 20
752.6772204903
 30
0.0
 11
1287.4693793588
 21
752.6772204903
 31
0.0
  0
LINE
  5
1C5
330
1B8
100
AcDbEntity
  8
SLD-0
100
AcDbLine
 10
1282.8973793588
 20
544.3272204903
 30
0.0
 11
1282.8973793588
 21
622.9037820336
 31
0.0
  0
LINE
  5
1C6
330
1B8
100
AcDbEntity
  8
SLD-0
100
AcDbLine
 10
1282.8973793588
 20
752.6772204903
 30
0.0
 11
1282.8973793588
 21
674.1006589469
 31
0.0
  0
MTEXT
  5
1C7
330
1B8
100
AcDbEntity
  8
SLD-0
100
AcDbMText
 10
1250.4726910196
 20
669.6494580843
 30
0.0
 40
14.2875
 41
0.0
 71
     1
 72
     1
  1
 
  7
SLDTEXTSTYLE0
 73
     1
 44
1.0
  0
MTEXT
  5
1C8
330
1B8
100
AcDbEntity
  8
SLD-0
100
AcDbMText
 10
1259.1510243877
 20
669.6494594813
 30
0.0
 40
14.2875
 41
0.0
 71
     1
 72
     1
  1
208.4
  7
SLDTEXTSTYLE0
 73
     1
 44
1.0
  0
MTEXT
  5
1C9
330
1B8
100
AcDbEntity
  8
SLD-0
100
AcDbMText
 10
1264.4294622518
 20
644.0510224216
 30
0.0
 40
14.2875
 41
0.0
 71
     1
 72
     1
  1
8.20
  7
SLDTEXTSTYLE0
 73
     1
 44
1.0
  0
MTEXT
  5
1CA
330
1B8
100
AcDbEntity
  8
SLD-0
100
AcDbMText
 10
1310.0568578742
 20
669.6494580843
 30
0.0
 40
14.2875
 41
0.0
 71
     1
 72
     1
  1
 
  7
SLDTEXTSTYLE0
 73
     1
 44
1.0
  0
ENDBLK
  5
1BA
330
1B8
100
AcDbEntity
  8
0
100
AcDbBlockEnd
  0
BLOCK
  5
1CE
330
1CD
100
AcDbEntity
  8
0
100
AcDbBlockBegin
  2
_D_1
 70
     0
 10
0.0
 20
0.0
 30
0.0
  3
_D_1
  1

  0
SOLID
  5
1D0
330
1CD
100
AcDbEntity
  8
SLD-0
100
AcDbTrace
 10
906.2973793588
 20
1037.2958908431
 30
0.0
 11
918.2973793588
 21
1035.7958908431
 31
0.0
 12
918.2973793588
 22
1038.7958908431
 32
0.0
 13
918.2973793588
 23
1038.7958908431
 33
0.0
  0
SOLID
  5
1D1
330
1CD
100
AcDbEntity
  8
SLD-0
100
AcDbTrace
 10
1186.2973793588
 20
1037.2958908431
 30
0.0
 11
1174.2973793588
 21
1038.7958908431
 31
0.0
 12
1174.2973793588
 22
1035.7958908431
 32
0.0
 13
1174.2973793588
 23
1035.7958908431
 33
0.0
  0
LINE
  5
1D2
330
1CD
100
AcDbEntity
  8
SLD-0
100
AcDbLine
 10
1022.5510257847
 20
1037.2958936371
 30
0.0
 11
1018.2052443821
 21
1037.2958936371
 31
0.0
  0
LINE
  5
1D3
330
1CD
100
AcDbEntity
  8
SLD-0
100
AcDbLine
 10
1018.2052443821
 20
1037.2958936371
 30
0.0
 11
1018.2052443821
 21
1014.5946432479
 31
0.0
  0
LINE
  5
1D4
330
1CD
100
AcDbEntity
  8
SLD-0
100
AcDbLine
 10
1018.2052443821
 20
1014.5946432479
 30
0.0
 11
1022.5510257847
 21
1014.5946432479
 31
0.0
  0
LINE
  5
1D5
330
1CD
100
AcDbEntity
  8
SLD-0
100
AcDbLine
 10
1070.0437329329
 20
1037.2958936371
 30
0.0
 11
1074.3895143356
 21
1037.2958936371
 31
0.0
  0
LINE
  5
1D6
330
1CD
100
AcDbEntity
  8
SLD-0
100
AcDbLine
 10
1074.3895143356
 20
1037.2958936371
 30
0.0
 11
1074.3895143356
 21
1014.5946432479
 31
0.0
  0
LINE
  5
1D7
330
1CD
100
AcDbEntity
  8
SLD-0
100
AcDbLine
 10
1074.3895143356
 20
1014.5946432479
 30
0.0
 11
1070.0437329329
 21
1014.5946432479
 31
0.0
  0
LINE
  5
1D8
330
1CD
100
AcDbEntity
  8
SLD-0
100
AcDbLine
 10
906.2973793588
 20
967.5502498999
 30
0.0
 11
906.2973793588
 21
1041.8678908431
 31
0.0
  0
LINE
  5
1D9
330
1CD
100
AcDbEntity
  8
SLD-0
100
AcDbLine
 10
1186.2973793588
 20
966.1634969242
 30
0.0
 11
1186.2973793588
 21
1041.8678908431
 31
0.0
  0
LINE
  5
1DA
330
1CD
100
AcDbEntity
  8
SLD-0
100
AcDbLine
 10
906.2973793588
 20
1037.2958908431
 30
0.0
 11
1005.6978896843
 21
1037.2958908431
 31
0.0
  0
LINE
  5
1DB
330
1CD
100
AcDbEntity
  8
SLD-0
100
AcDbLine
 10
1186.2973793588
 20
1037.2958908431
 30
0.0
 11
1086.8968690334
 21
1037.2958908431
 31
0.0
  0
MTEXT
  5
1DC
330
1CD
100
AcDbEntity
  8
SLD-0
100
AcDbMText
 10
1008.5942545525
 20
1058.4431284372
 30
0.0
 40
14.2875
 41
0.0
 71
     1
 72
     1
  1
 
  7
SLDTEXTSTYLE0
 73
     1
 44
1.0
  0
MTEXT
  5
1DD
330
1CD
100
AcDbEntity
  8
SLD-0
100
AcDbMText
 10
1022.5510243877
 20
1058.4431298342
 30
0.0
 40
14.2875
 41
0.0
 71
     1
 72
     1
  1
280.0
  7
SLDTEXTSTYLE0
 73
     1
 44
1.0
  0
MTEXT
  5
1DE
330
1CD
100
AcDbEntity
  8
SLD-0
100
AcDbMText
 10
1022.5510257847
 20
1032.8446927745
 30
0.0
 40
14.2875
 41
0.0
 71
     1
 72
     1
  1
11.02
  7
SLDTEXTSTYLE0
 73
     1
 44
1.0
  0
MTEXT
  5
1DF
330
1CD
100
AcDbEntity
  8
SLD-0
100
AcDbMText
 10
1078.7352943413
 20
1058.4431284372
 30
0.0
 40
14.2875
 41
0.0
 71
     1
 72
     1
  1
 
  7
SLDTEXTSTYLE0
 73
     1
 44
1.0
  0
ENDBLK
  5
1CF
330
1CD
100
AcDbEntity
  8
0
100
AcDbBlockEnd
  0
BLOCK
  5
1E1
330
1E0
100
AcDbEntity
  8
0
100
AcDbBlockBegin
  2
SW_SYMBOL_MOD_CL
 70
     0
 10
0.0
 20
0.0
 30
0.0
  3
SW_SYMBOL_MOD_CL
  1

  0
MTEXT
  5
1E3
330
1E0
100
AcDbEntity
  8
SLD-0
 62
     0
100
AcDbMText
 10
2400.0
 20
3600.0
 30
0.0
 40
4697.247706422
 41
0.0
 71
     5
 72
     1
  1
C
  7
SLDTEXTSTYLE0
 73
     1
 44
1.0
  0
MTEXT
  5
1E4
330
1E0
100
AcDbEntity
  8
SLD-0
 62
     0
100
AcDbMText
 10
3600.0
 20
1800.0
 30
0.0
 40
4697.247706422
 41
0.0
 71
     5
 72
     1
  1
L
  7
SLDTEXTSTYLE0
 73
     1
 44
1.0
  0
ENDBLK
  5
1E2
330
1E0
100
AcDbEntity
  8
0
100
AcDbBlockEnd
  0
BLOCK
  5
205
330
204
100
AcDbEntity
  8
0
100
AcDbBlockBegin
  2
_D_2
 70
     0
 10
0.0
 20
0.0
 30
0.0
  3
_D_2
  1

  0
SOLID
  5
207
330
204
100
AcDbEntity
  8
SLD-0
100
AcDbTrace
 10
1145.8873793588
 20
1179.0815877914
 30
0.0
 11
1157.8873793588
 21
1177.5815877914
 31
0.0
 12
1157.8873793588
 22
1180.5815877914
 32
0.0
 13
1157.8873793588
 23
1180.5815877914
 33
0.0
  0
SOLID
  5
208
330
204
100
AcDbEntity
  8
SLD-0
100
AcDbTrace
 10
1186.2973793588
 20
1179.0815877914
 30
0.0
 11
1174.2973793588
 21
1180.5815877914
 31
0.0
 12
1174.2973793588
 22
1177.5815877914
 32
0.0
 13
1174.2973793588
 23
1177.5815877914
 33
0.0
  0
LINE
  5
209
330
204
100
AcDbEntity
  8
SLD-0
100
AcDbLine
 10
1233.7078997666
 20
1179.0815905853
 30
0.0
 11
1229.3621183639
 21
1179.0815905853
 31
0.0
  0
LINE
  5
20A
330
204
100
AcDbEntity
  8
SLD-0
100
AcDbLine
 10
1229.3621183639
 20
1179.0815905853
 30
0.0
 11
1229.3621183639
 21
1156.3803401961
 31
0.0
  0
LINE
  5
20B
330
204
100
AcDbEntity
  8
SLD-0
100
AcDbLine
 10
1229.3621183639
 20
1156.3803401961
 30
0.0
 11
1233.7078997666
 21
1156.3803401961
 31
0.0
  0
LINE
  5
20C
330
204
100
AcDbEntity
  8
SLD-0
100
AcDbLine
 10
1270.6437339807
 20
1179.0815905853
 30
0.0
 11
1274.9895153833
 21
1179.0815905853
 31
0.0
  0
LINE
  5
20D
330
204
100
AcDbEntity
  8
SLD-0
100
AcDbLine
 10
1274.9895153833
 20
1179.0815905853
 30
0.0
 11
1274.9895153833
 21
1156.3803401961
 31
0.0
  0
LINE
  5
20E
330
204
100
AcDbEntity
  8
SLD-0
100
AcDbLine
 10
1274.9895153833
 20
1156.3803401961
 30
0.0
 11
1270.6437339807
 21
1156.3803401961
 31
0.0
  0
LINE
  5
20F
330
204
100
AcDbEntity
  8
SLD-0
100
AcDbLine
 10
1145.8873793588
 20
1346.4941316639
 30
0.0
 11
1145.8873793588
 21
1174.5095877914
 31
0.0
  0
LINE
  5
210
330
204
100
AcDbEntity
  8
SLD-0
100
AcDbLine
 10
1186.2973793588
 20
1304.5542897677
 30
0.0
 11
1186.2973793588
 21
1174.5095877914
 31
0.0
  0
LINE
  5
211
330
204
100
AcDbEntity
  8
SLD-0
100
AcDbLine
 10
1145.8873793588
 20
1179.0815877914
 30
0.0
 11
1186.2973793588
 21
1179.0815877914
 31
0.0
  0
LINE
  5
212
330
204
100
AcDbEntity
  8
SLD-0
100
AcDbLine
 10
1186.2973793588
 20
1179.0815877914
 30
0.0
 11
1216.8547636661
 21
1179.0815877914
 31
0.0
  0
MTEXT
  5
213
330
204
100
AcDbEntity
  8
SLD-0
100
AcDbMText
 10
1219.7511285344
 20
1200.2288253854
 30
0.0
 40
14.2875
 41
0.0
 71
     1
 72
     1
  1
 
  7
SLDTEXTSTYLE0
 73
     1
 44
1.0
  0
MTEXT
  5
214
330
204
100
AcDbEntity
  8
SLD-0
100
AcDbMText
 10
1233.7078983696
 20
1200.2288267824
 30
0.0
 40
14.2875
 41
0.0
 71
     1
 72
     1
  1
40.4
  7
SLDTEXTSTYLE0
 73
     1
 44
1.0
  0
MTEXT
  5
215
330
204
100
AcDbEntity
  8
SLD-0
100
AcDbMText
 10
1233.7078997666
 20
1174.6303897227
 30
0.0
 40
14.2875
 41
0.0
 71
     1
 72
     1
  1
1.59
  7
SLDTEXTSTYLE0
 73
     1
 44
1.0
  0
MTEXT
  5
216
330
204
100
AcDbEntity
  8
SLD-0
100
AcDbMText
 10
1279.335295389
 20
1200.2288253854
 30
0.0
 40
14.2875
 41
0.0
 71
     1
 72
     1
  1
 
  7
SLDTEXTSTYLE0
 73
     1
 44
1.0
  0
ENDBLK
  5
206
330
204
100
AcDbEntity
  8
0
100
AcDbBlockEnd
  0
BLOCK
  5
219
330
218
100
AcDbEntity
  8
0
100
AcDbBlockBegin
  2
_D_3
 70
     0
 10
0.0
 20
0.0
 30
0.0
  3
_D_3
  1

  0
SOLID
  5
21B
330
218
100
AcDbEntity
  8
SLD-0
100
AcDbTrace
 10
946.7073793588
 20
1179.0815877914
 30
0.0
 11
958.7073793588
 21
1177.5815877914
 31
0.0
 12
958.7073793588
 22
1180.5815877914
 32
0.0
 13
958.7073793588
 23
1180.5815877914
 33
0.0
  0
SOLID
  5
21C
330
218
100
AcDbEntity
  8
SLD-0
100
AcDbTrace
 10
1145.8873793588
 20
1179.0815877914
 30
0.0
 11
1133.8873793588
 21
1180.5815877914
 31
0.0
 12
1133.8873793588
 22
1177.5815877914
 32
0.0
 13
1133.8873793588
 23
1177.5815877914
 33
0.0
  0
LINE
  5
21D
330
218
100
AcDbEntity
  8
SLD-0
100
AcDbLine
 10
1027.8294622518
 20
1179.0815905853
 30
0.0
 11
1023.4836808491
 21
1179.0815905853
 31
0.0
  0
LINE
  5
21E
330
218
100
AcDbEntity
  8
SLD-0
100
AcDbLine
 10
1023.4836808491
 20
1179.0815905853
 30
0.0
 11
1023.4836808491
 21
1156.3803401961
 31
0.0
  0
LINE
  5
21F
330
218
100
AcDbEntity
  8
SLD-0
100
AcDbLine
 10
1023.4836808491
 20
1156.3803401961
 30
0.0
 11
1027.8294622518
 21
1156.3803401961
 31
0.0
  0
LINE
  5
220
330
218
100
AcDbEntity
  8
SLD-0
100
AcDbLine
 10
1064.7652964659
 20
1179.0815905853
 30
0.0
 11
1069.1110778685
 21
1179.0815905853
 31
0.0
  0
LINE
  5
221
330
218
100
AcDbEntity
  8
SLD-0
100
AcDbLine
 10
1069.1110778685
 20
1179.0815905853
 30
0.0
 11
1069.1110778685
 21
1156.3803401961
 31
0.0
  0
LINE
  5
222
330
218
100
AcDbEntity
  8
SLD-0
100
AcDbLine
 10
1069.1110778685
 20
1156.3803401961
 30
0.0
 11
1064.7652964659
 21
1156.3803401961
 31
0.0
  0
LINE
  5
223
330
218
100
AcDbEntity
  8
SLD-0
100
AcDbLine
 10
946.7073793588
 20
1346.494131664
 30
0.0
 11
946.7073793588
 21
1174.5095877914
 31
0.0
  0
LINE
  5
224
330
218
100
AcDbEntity
  8
SLD-0
100
AcDbLine
 10
1145.8873793588
 20
1346.4941316639
 30
0.0
 11
1145.8873793588
 21
1174.5095877914
 31
0.0
  0
LINE
  5
225
330
218
100
AcDbEntity
  8
SLD-0
100
AcDbLine
 10
946.7073793588
 20
1179.0815877914
 30
0.0
 11
1010.9763261513
 21
1179.0815877914
 31
0.0
  0
LINE
  5
226
330
218
100
AcDbEntity
  8
SLD-0
100
AcDbLine
 10
1145.8873793588
 20
1179.0815877914
 30
0.0
 11
1081.6184325663
 21
1179.0815877914
 31
0.0
  0
MTEXT
  5
227
330
218
100
AcDbEntity
  8
SLD-0
100
AcDbMText
 10
1013.8726910196
 20
1200.2288253854
 30
0.0
 40
14.2875
 41
0.0
 71
     1
 72
     1
  1
 
  7
SLDTEXTSTYLE0
 73
     1
 44
1.0
  0
MTEXT
  5
228
330
218
100
AcDbEntity
  8
SLD-0
100
AcDbMText
 10
1022.5510243877
 20
1200.2288267824
 30
0.0
 40
14.2875
 41
0.0
 71
     1
 72
     1
  1
199.2
  7
SLDTEXTSTYLE0
 73
     1
 44
1.0
  0
MTEXT
  5
229
330
218
100
AcDbEntity
  8
SLD-0
100
AcDbMText
 10
1027.8294622518
 20
1174.6303897227
 30
0.0
 40
14.2875
 41
0.0
 71
     1
 72
     1
  1
7.84
  7
SLDTEXTSTYLE0
 73
     1
 44
1.0
  0
MTEXT
  5
22A
330
218
100
AcDbEntity
  8
SLD-0
100
AcDbMText
 10
1073.4568578742
 20
1200.2288253854
 30
0.0
 40
14.2875
 41
0.0
 71
     1
 72
     1
  1
 
  7
SLDTEXTSTYLE0
 73
     1
 44
1.0
  0
ENDBLK
  5
21A
330
218
100
AcDbEntity
  8
0
100
AcDbBlockEnd
  0
BLOCK
  5
22E
330
22D
100
AcDbEntity
  8
0
100
AcDbBlockBegin
  2
_D_4
 70
     0
 10
0.0
 20
0.0
 30
0.0
  3
_D_4
  1

  0
SOLID
  5
230
330
22D
100
AcDbEntity
  8
SLD-0
100
AcDbTrace
 10
1252.1758168736
 20
1518.8161316639
 30
0.0
 11
1253.6758168736
 21
1530.8161316639
 31
0.0
 12
1250.6758168736
 22
1530.8161316639
 32
0.0
 13
1250.6758168736
 23
1530.8161316639
 33
0.0
  0
SOLID
  5
231
330
22D
100
AcDbEntity
  8
SLD-0
100
AcDbTrace
 10
1252.1758168736
 20
1424.216131664
 30
0.0
 11
1250.6758168736
 21
1412.216131664
 31
0.0
 12
1253.6758168736
 22
1412.216131664
 32
0.0
 13
1253.6758168736
 23
1412.216131664
 33
0.0
  0
LINE
  5
232
330
22D
100
AcDbEntity
  8
SLD-0
100
AcDbLine
 10
1233.7078997666
 20
1471.5161344579
 30
0.0
 11
1229.3621183639
 21
1471.5161344579
 31
0.0
  0
LINE
  5
233
330
22D
100
AcDbEntity
  8
SLD-0
100
AcDbLine
 10
1229.3621183639
 20
1471.5161344579
 30
0.0
 11
1229.3621183639
 21
1448.8148840687
 31
0.0
  0
LINE
  5
234
330
22D
100
AcDbEntity
  8
SLD-0
100
AcDbLine
 10
1229.3621183639
 20
1448.8148840687
 30
0.0
 11
1233.7078997666
 21
1448.8148840687
 31
0.0
  0
LINE
  5
235
330
22D
100
AcDbEntity
  8
SLD-0
100
AcDbLine
 10
1270.6437339807
 20
1471.5161344579
 30
0.0
 11
1274.9895153833
 21
1471.5161344579
 31
0.0
  0
LINE
  5
236
330
22D
100
AcDbEntity
  8
SLD-0
100
AcDbLine
 10
1274.9895153833
 20
1471.5161344579
 30
0.0
 11
1274.9895153833
 21
1448.8148840687
 31
0.0
  0
LINE
  5
237
330
22D
100
AcDbEntity
  8
SLD-0
100
AcDbLine
 10
1274.9895153833
 20
1448.8148840687
 30
0.0
 11
1270.6437339807
 21
1448.8148840687
 31
0.0
  0
LINE
  5
238
330
22D
100
AcDbEntity
  8
SLD-0
100
AcDbLine
 10
1135.6821917949
 20
1518.8161316639
 30
0.0
 11
1256.7478168736
 21
1518.8161316639
 31
0.0
  0
LINE
  5
239
330
22D
100
AcDbEntity
  8
SLD-0
100
AcDbLine
 10
1113.8193793588
 20
1424.216131664
 30
0.0
 11
1256.7478168736
 21
1424.216131664
 31
0.0
  0
LINE
  5
23A
330
22D
100
AcDbEntity
  8
SLD-0
100
AcDbLine
 10
1252.1758168736
 20
1518.8161316639
 30
0.0
 11
1252.1758168736
 21
1542.8161316639
 31
0.0
  0
LINE
  5
23B
330
22D
100
AcDbEntity
  8
SLD-0
100
AcDbLine
 10
1252.1758168736
 20
1424.216131664
 30
0.0
 11
1252.1758168736
 21
1400.216131664
 31
0.0
  0
MTEXT
  5
23C
330
22D
100
AcDbEntity
  8
SLD-0
100
AcDbMText
 10
1219.7511285344
 20
1492.663369258
 30
0.0
 40
14.2875
 41
0.0
 71
     1
 72
     1
  1
 
  7
SLDTEXTSTYLE0
 73
     1
 44
1.0
  0
MTEXT
  5
23D
330
22D
100
AcDbEntity
  8
SLD-0
100
AcDbMText
 10
1233.7078983696
 20
1492.663370655
 30
0.0
 40
14.2875
 41
0.0
 71
     1
 72
     1
  1
94.6
  7
SLDTEXTSTYLE0
 73
     1
 44
1.0
  0
MTEXT
  5
23E
330
22D
100
AcDbEntity
  8
SLD-0
100
AcDbMText
 10
1233.7078997666
 20
1467.0649335953
 30
0.0
 40
14.2875
 41
0.0
 71
     1
 72
     1
  1
3.72
  7
SLDTEXTSTYLE0
 73
     1
 44
1.0
  0
MTEXT
  5
23F
330
22D
100
AcDbEntity
  8
SLD-0
100
AcDbMText
 10
1279.335295389
 20
1492.663369258
 30
0.0
 40
14.2875
 41
0.0
 71
     1
 72
     1
  1
 
  7
SLDTEXTSTYLE0
 73
     1
 44
1.0
  0
ENDBLK
  5
22F
330
22D
100
AcDbEntity
  8
0
100
AcDbBlockEnd
  0
BLOCK
  5
242
330
241
100
AcDbEntity
  8
0
100
AcDbBlockBegin
  2
_D_5
 70
     0
 10
0.0
 20
0.0
 30
0.0
  3
_D_5
  1

  0
SOLID
  5
244
330
241
100
AcDbEntity
  8
SLD-0
100
AcDbTrace
 10
1354.8973793588
 20
1518.8161316639
 30
0.0
 11
1353.3973793588
 21
1506.8161316639
 31
0.0
 12
1356.3973793588
 22
1506.8161316639
 32
0.0
 13
1356.3973793588
 23
1506.8161316639
 33
0.0
  0
SOLID
  5
245
330
241
100
AcDbEntity
  8
SLD-0
100
AcDbTrace
 10
1354.8973793588
 20
1398.816131664
 30
0.0
 11
1356.3973793588
 21
1410.816131664
 31
0.0
 12
1353.3973793588
 22
1410.816131664
 32
0.0
 13
1353.3973793588
 23
1410.816131664
 33
0.0
  0
LINE
  5
246
330
241
100
AcDbEntity
  8
SLD-0
100
AcDbLine
 10
1336.4294622518
 20
1458.8161344579
 30
0.0
 11
1332.0836808491
 21
1458.8161344579
 31
0.0
  0
LINE
  5
247
330
241
100
AcDbEntity
  8
SLD-0
100
AcDbLine
 10
1332.0836808491
 20
1458.8161344579
 30
0.0
 11
1332.0836808491
 21
1436.1148840687
 31
0.0
  0
LINE
  5
248
330
241
100
AcDbEntity
  8
SLD-0
100
AcDbLine
 10
1332.0836808491
 20
1436.1148840687
 30
0.0
 11
1336.4294622518
 21
1436.1148840687
 31
0.0
  0
LINE
  5
249
330
241
100
AcDbEntity
  8
SLD-0
100
AcDbLine
 10
1373.3652964659
 20
1458.8161344579
 30
0.0
 11
1377.7110778685
 21
1458.8161344579
 31
0.0
  0
LINE
  5
24A
330
241
100
AcDbEntity
  8
SLD-0
100
AcDbLine
 10
1377.7110778685
 20
1458.8161344579
 30
0.0
 11
1377.7110778685
 21
1436.1148840687
 31
0.0
  0
LINE
  5
24B
330
241
100
AcDbEntity
  8
SLD-0
100
AcDbLine
 10
1377.7110778685
 20
1436.1148840687
 30
0.0
 11
1373.3652964659
 21
1436.1148840687
 31
0.0
  0
LINE
  5
24C
330
241
100
AcDbEntity
  8
SLD-0
100
AcDbLine
 10
1138.0201034828
 20
1518.8161316639
 30
0.0
 11
1359.4693793588
 21
1518.8161316639
 31
0.0
  0
LINE
  5
24D
330
241
100
AcDbEntity
  8
SLD-0
100
AcDbLine
 10
1061.8693793588
 20
1398.8161316639
 30
0.0
 11
1359.4693793588
 21
1398.816131664
 31
0.0
  0
LINE
  5
24E
330
241
100
AcDbEntity
  8
SLD-0
100
AcDbLine
 10
1354.8973793588
 20
1518.8161316639
 30
0.0
 11
1354.8973793588
 21
1484.4145701206
 31
0.0
  0
LINE
  5
24F
330
241
100
AcDbEntity
  8
SLD-0
100
AcDbLine
 10
1354.8973793588
 20
1398.816131664
 30
0.0
 11
1354.8973793588
 21
1433.2176932073
 31
0.0
  0
MTEXT
  5
250
330
241
100
AcDbEntity
  8
SLD-0
100
AcDbMText
 10
1322.4726910196
 20
1479.963369258
 30
0.0
 40
14.2875
 41
0.0
 71
     1
 72
     1
  1
 
  7
SLDTEXTSTYLE0
 73
     1
 44
1.0
  0
MTEXT
  5
251
330
241
100
AcDbEntity
  8
SLD-0
100
AcDbMText
 10
1331.1510243877
 20
1479.963370655
 30
0.0
 40
14.2875
 41
0.0
 71
     1
 72
     1
  1
120.0
  7
SLDTEXTSTYLE0
 73
     1
 44
1.0
  0
MTEXT
  5
252
330
241
100
AcDbEntity
  8
SLD-0
100
AcDbMText
 10
1336.4294622518
 20
1454.3649335953
 30
0.0
 40
14.2875
 41
0.0
 71
     1
 72
     1
  1
4.72
  7
SLDTEXTSTYLE0
 73
     1
 44
1.0
  0
MTEXT
  5
253
330
241
100
AcDbEntity
  8
SLD-0
100
AcDbMText
 10
1382.0568578742
 20
1479.963369258
 30
0.0
 40
14.2875
 41
0.0
 71
     1
 72
     1
  1
 
  7
SLDTEXTSTYLE0
 73
     1
 44
1.0
  0
ENDBLK
  5
243
330
241
100
AcDbEntity
  8
0
100
AcDbBlockEnd
  0
BLOCK
  5
256
330
255
100
AcDbEntity
  8
0
100
AcDbBlockBegin
  2
_D_6
 70
     0
 10
0.0
 20
0.0
 30
0.0
  3
_D_6
  1

  0
SOLID
  5
258
330
255
100
AcDbEntity
  8
SLD-0
100
AcDbTrace
 10
906.2973793588
 20
1601.3022512085
 30
0.0
 11
918.2973793588
 21
1599.8022512085
 31
0.0
 12
918.2973793588
 22
1602.8022512085
 32
0.0
 13
918.2973793588
 23
1602.8022512085
 33
0.0
  0
SOLID
  5
259
330
255
100
AcDbEntity
  8
SLD-0
100
AcDbTrace
 10
1046.2973793588
 20
1601.3022512085
 30
0.0
 11
1034.2973793588
 21
1602.8022512085
 31
0.0
 12
1034.2973793588
 22
1599.8022512085
 32
0.0
 13
1034.2973793588
 23
1599.8022512085
 33
0.0
  0
LINE
  5
25A
330
255
100
AcDbEntity
  8
SLD-0
100
AcDbLine
 10
957.8294622518
 20
1601.3022540025
 30
0.0
 11
953.4836808491
 21
1601.3022540025
 31
0.0
  0
LINE
  5
25B
330
255
100
AcDbEntity
  8
SLD-0
100
AcDbLine
 10
953.4836808491
 20
1601.3022540025
 30
0.0
 11
953.4836808491
 21
1578.6010036132
 31
0.0
  0
LINE
  5
25C
330
255
100
AcDbEntity
  8
SLD-0
100
AcDbLine
 10
953.4836808491
 20
1578.6010036132
 30
0.0
 11
957.8294622518
 21
1578.6010036132
 31
0.0
  0
LINE
  5
25D
330
255
100
AcDbEntity
  8
SLD-0
100
AcDbLine
 10
994.7652964659
 20
1601.3022540025
 30
0.0
 11
999.1110778685
 21
1601.3022540025
 31
0.0
  0
LINE
  5
25E
330
255
100
AcDbEntity
  8
SLD-0
100
AcDbLine
 10
999.1110778685
 20
1601.3022540025
 30
0.0
 11
999.1110778685
 21
1578.6010036132
 31
0.0
  0
LINE
  5
25F
330
255
100
AcDbEntity
  8
SLD-0
100
AcDbLine
 10
999.1110778685
 20
1578.6010036132
 30
0.0
 11
994.7652964659
 21
1578.6010036132
 31
0.0
  0
LINE
  5
260
330
255
100
AcDbEntity
  8
SLD-0
100
AcDbLine
 10
906.2973793588
 20
1417.514954606
 30
0.0
 11
906.2973793588
 21
1605.8742512085
 31
0.0
  0
LINE
  5
261
330
255
100
AcDbEntity
  8
SLD-0
100
AcDbLine
 10
1046.2973793588
 20
1414.388131664
 30
0.0
 11
1046.2973793588
 21
1605.8742512085
 31
0.0
  0
LINE
  5
262
330
255
100
AcDbEntity
  8
SLD-0
100
AcDbLine
 10
906.2973793588
 20
1601.3022512085
 30
0.0
 11
940.9763261513
 21
1601.3022512085
 31
0.0
  0
LINE
  5
263
330
255
100
AcDbEntity
  8
SLD-0
100
AcDbLine
 10
1046.2973793588
 20
1601.3022512085
 30
0.0
 11
1011.6184325663
 21
1601.3022512085
 31
0.0
  0
MTEXT
  5
264
330
255
100
AcDbEntity
  8
SLD-0
100
AcDbMText
 10
943.8726910196
 20
1622.4494888026
 30
0.0
 40
14.2875
 41
0.0
 71
     1
 72
     1
  1
 
  7
SLDTEXTSTYLE0
 73
     1
 44
1.0
  0
MTEXT
  5
265
330
255
100
AcDbEntity
  8
SLD-0
100
AcDbMText
 10
952.5510243877
 20
1622.4494901995
 30
0.0
 40
14.2875
 41
0.0
 71
     1
 72
     1
  1
140.0
  7
SLDTEXTSTYLE0
 73
     1
 44
1.0
  0
MTEXT
  5
266
330
255
100
AcDbEntity
  8
SLD-0
100
AcDbMText
 10
957.8294622518
 20
1596.8510531399
 30
0.0
 40
14.2875
 41
0.0
 71
     1
 72
     1
  1
5.51
  7
SLDTEXTSTYLE0
 73
     1
 44
1.0
  0
MTEXT
  5
267
330
255
100
AcDbEntity
  8
SLD-0
100
AcDbMText
 10
1003.4568578742
 20
1622.4494888026
 30
0.0
 40
14.2875
 41
0.0
 71
     1
 72
     1
  1
 
  7
SLDTEXTSTYLE0
 73
     1
 44
1.0
  0
ENDBLK
  5
257
330
255
100
AcDbEntity
  8
0
100
AcDbBlockEnd
  0
BLOCK
  5
26A
330
269
100
AcDbEntity
  8
0
100
AcDbBlockBegin
  2
_D_7
 70
     0
 10
0.0
 20
0.0
 30
0.0
  3
_D_7
  1

  0
SOLID
  5
26C
330
269
100
AcDbEntity
  8
SLD-0
100
AcDbTrace
 10
1452.5333081886
 20
1518.8161316639
 30
0.0
 11
1451.0333081886
 21
1506.8161316639
 31
0.0
 12
1454.0333081886
 22
1506.8161316639
 32
0.0
 13
1454.0333081886
 23
1506.8161316639
 33
0.0
  0
SOLID
  5
26D
330
269
100
AcDbEntity
  8
SLD-0
100
AcDbTrace
 10
1452.5333081886
 20
1363.8161316639
 30
0.0
 11
1454.0333081886
 21
1375.8161316639
 31
0.0
 12
1451.0333081886
 22
1375.8161316639
 32
0.0
 13
1451.0333081886
 23
1375.8161316639
 33
0.0
  0
LINE
  5
26E
330
269
100
AcDbEntity
  8
SLD-0
100
AcDbLine
 10
1434.0653910815
 20
1441.3161344579
 30
0.0
 11
1429.7196096789
 21
1441.3161344579
 31
0.0
  0
LINE
  5
26F
330
269
100
AcDbEntity
  8
SLD-0
100
AcDbLine
 10
1429.7196096789
 20
1441.3161344579
 30
0.0
 11
1429.7196096789
 21
1418.6148840687
 31
0.0
  0
LINE
  5
270
330
269
100
AcDbEntity
  8
SLD-0
100
AcDbLine
 10
1429.7196096789
 20
1418.6148840687
 30
0.0
 11
1434.0653910815
 21
1418.6148840687
 31
0.0
  0
LINE
  5
271
330
269
100
AcDbEntity
  8
SLD-0
100
AcDbLine
 10
1471.0012252956
 20
1441.3161344579
 30
0.0
 11
1475.3470066983
 21
1441.3161344579
 31
0.0
  0
LINE
  5
272
330
269
100
AcDbEntity
  8
SLD-0
100
AcDbLine
 10
1475.3470066983
 20
1441.3161344579
 30
0.0
 11
1475.3470066983
 21
1418.6148840687
 31
0.0
  0
LINE
  5
273
330
269
100
AcDbEntity
  8
SLD-0
100
AcDbLine
 10
1475.3470066983
 20
1418.6148840687
 30
0.0
 11
1471.0012252956
 21
1418.6148840687
 31
0.0
  0
LINE
  5
274
330
269
100
AcDbEntity
  8
SLD-0
100
AcDbLine
 10
1137.7482749819
 20
1518.8161316639
 30
0.0
 11
1457.1053081886
 21
1518.8161316639
 31
0.0
  0
LINE
  5
275
330
269
100
AcDbEntity
  8
SLD-0
100
AcDbLine
 10
1163.2093793588
 20
1363.8161316639
 30
0.0
 11
1457.1053081886
 21
1363.8161316639
 31
0.0
  0
LINE
  5
276
330
269
100
AcDbEntity
  8
SLD-0
100
AcDbLine
 10
1452.5333081886
 20
1518.8161316639
 30
0.0
 11
1452.5333081886
 21
1466.9145701206
 31
0.0
  0
LINE
  5
277
330
269
100
AcDbEntity
  8
SLD-0
100
AcDbLine
 10
1452.5333081886
 20
1363.8161316639
 30
0.0
 11
1452.5333081886
 21
1415.7176932073
 31
0.0
  0
MTEXT
  5
278
330
269
100
AcDbEntity
  8
SLD-0
100
AcDbMText
 10
1420.1086198494
 20
1462.463369258
 30
0.0
 40
14.2875
 41
0.0
 71
     1
 72
     1
  1
 
  7
SLDTEXTSTYLE0
 73
     1
 44
1.0
  0
MTEXT
  5
279
330
269
100
AcDbEntity
  8
SLD-0
100
AcDbMText
 10
1428.7869532175
 20
1462.463370655
 30
0.0
 40
14.2875
 41
0.0
 71
     1
 72
     1
  1
155.0
  7
SLDTEXTSTYLE0
 73
     1
 44
1.0
  0
MTEXT
  5
27A
330
269
100
AcDbEntity
  8
SLD-0
100
AcDbMText
 10
1434.0653910815
 20
1436.8649335953
 30
0.0
 40
14.2875
 41
0.0
 71
     1
 72
     1
  1
6.10
  7
SLDTEXTSTYLE0
 73
     1
 44
1.0
  0
MTEXT
  5
27B
330
269
100
AcDbEntity
  8
SLD-0
100
AcDbMText
 10
1479.692786704
 20
1462.463369258
 30
0.0
 40
14.2875
 41
0.0
 71
     1
 72
     1
  1
 
  7
SLDTEXTSTYLE0
 73
     1
 44
1.0
  0
ENDBLK
  5
26B
330
269
100
AcDbEntity
  8
0
100
AcDbBlockEnd
  0
BLOCK
  5
27E
330
27D
100
AcDbEntity
  8
0
100
AcDbBlockBegin
  2
_D_8
 70
     0
 10
0.0
 20
0.0
 30
0.0
  3
_D_8
  1

  0
SOLID
  5
280
330
27D
100
AcDbEntity
  8
SLD-0
100
AcDbTrace
 10
860.6507369908
 20
1424.216131664
 30
0.0
 11
859.1507369908
 21
1412.216131664
 31
0.0
 12
862.1507369908
 22
1412.216131664
 32
0.0
 13
862.1507369908
 23
1412.216131664
 33
0.0
  0
SOLID
  5
281
330
27D
100
AcDbEntity
  8
SLD-0
100
AcDbTrace
 10
860.6507369908
 20
1373.416131664
 30
0.0
 11
862.1507369908
 21
1385.416131664
 31
0.0
 12
859.1507369908
 22
1385.416131664
 32
0.0
 13
859.1507369908
 23
1385.416131664
 33
0.0
  0
LINE
  5
282
330
27D
100
AcDbEntity
  8
SLD-0
100
AcDbLine
 10
789.0690369398
 20
1341.1734449971
 30
0.0
 11
784.7232555371
 21
1341.1734449971
 31
0.0
  0
LINE
  5
283
330
27D
100
AcDbEntity
  8
SLD-0
100
AcDbLine
 10
784.7232555371
 20
1341.1734449971
 30
0.0
 11
784.7232555371
 21
1318.4721946079
 31
0.0
  0
LINE
  5
284
330
27D
100
AcDbEntity
  8
SLD-0
100
AcDbLine
 10
784.7232555371
 20
1318.4721946079
 30
0.0
 11
789.0690369398
 21
1318.4721946079
 31
0.0
  0
LINE
  5
285
330
27D
100
AcDbEntity
  8
SLD-0
100
AcDbLine
 10
826.0048711538
 20
1341.1734449971
 30
0.0
 11
830.3506525565
 21
1341.1734449971
 31
0.0
  0
LINE
  5
286
330
27D
100
AcDbEntity
  8
SLD-0
100
AcDbLine
 10
830.3506525565
 20
1341.1734449971
 30
0.0
 11
830.3506525565
 21
1318.4721946079
 31
0.0
  0
LINE
  5
287
330
27D
100
AcDbEntity
  8
SLD-0
100
AcDbLine
 10
830.3506525565
 20
1318.4721946079
 30
0.0
 11
826.0048711538
 21
1318.4721946079
 31
0.0
  0
LINE
  5
288
330
27D
100
AcDbEntity
  8
SLD-0
100
AcDbLine
 10
978.7753793588
 20
1424.216131664
 30
0.0
 11
856.0787369908
 21
1424.216131664
 31
0.0
  0
LINE
  5
289
330
27D
100
AcDbEntity
  8
SLD-0
100
AcDbLine
 10
978.7753793588
 20
1373.416131664
 30
0.0
 11
856.0787369908
 21
1373.416131664
 31
0.0
  0
LINE
  5
28A
330
27D
100
AcDbEntity
  8
SLD-0
100
AcDbLine
 10
848.6507369908
 20
1341.1734422031
 30
0.0
 11
860.6507369908
 21
1341.1734422031
 31
0.0
  0
LINE
  5
28B
330
27D
100
AcDbEntity
  8
SLD-0
100
AcDbLine
 10
860.6507369908
 20
1341.1734422031
 30
0.0
 11
860.6507369908
 21
1373.416131664
 31
0.0
  0
LINE
  5
28C
330
27D
100
AcDbEntity
  8
SLD-0
100
AcDbLine
 10
860.6507369908
 20
1424.216131664
 30
0.0
 11
860.6507369908
 21
1373.416131664
 31
0.0
  0
MTEXT
  5
28D
330
27D
100
AcDbEntity
  8
SLD-0
100
AcDbMText
 10
775.1122657076
 20
1362.3206797972
 30
0.0
 40
14.2875
 41
0.0
 71
     1
 72
     1
  1
 
  7
SLDTEXTSTYLE0
 73
     1
 44
1.0
  0
MTEXT
  5
28E
330
27D
100
AcDbEntity
  8
SLD-0
100
AcDbMText
 10
789.0690355428
 20
1362.3206811942
 30
0.0
 40
14.2875
 41
0.0
 71
     1
 72
     1
  1
50.8
  7
SLDTEXTSTYLE0
 73
     1
 44
1.0
  0
MTEXT
  5
28F
330
27D
100
AcDbEntity
  8
SLD-0
100
AcDbMText
 10
789.0690369398
 20
1336.7222441345
 30
0.0
 40
14.2875
 41
0.0
 71
     1
 72
     1
  1
2.00
  7
SLDTEXTSTYLE0
 73
     1
 44
1.0
  0
MTEXT
  5
290
330
27D
100
AcDbEntity
  8
SLD-0
100
AcDbMText
 10
834.6964325622
 20
1362.3206797972
 30
0.0
 40
14.2875
 41
0.0
 71
     1
 72
     1
  1
 
  7
SLDTEXTSTYLE0
 73
     1
 44
1.0
  0
ENDBLK
  5
27F
330
27D
100
AcDbEntity
  8
0
100
AcDbBlockEnd
  0
BLOCK
  5
293
330
292
100
AcDbEntity
  8
0
100
AcDbBlockBegin
  2
_D_9
 70
     0
 10
0.0
 20
0.0
 30
0.0
  3
_D_9
  1

  0
SOLID
  5
295
330
292
100
AcDbEntity
  8
SLD-0
100
AcDbTrace
 10
906.2973793588
 20
1546.714593745
 30
0.0
 11
918.2973793588
 21
1545.214593745
 31
0.0
 12
918.2973793588
 22
1548.214593745
 32
0.0
 13
918.2973793588
 23
1548.214593745
 33
0.0
  0
SOLID
  5
296
330
292
100
AcDbEntity
  8
SLD-0
100
AcDbTrace
 10
992.3473793588
 20
1546.714593745
 30
0.0
 11
980.3473793588
 21
1548.214593745
 31
0.0
 12
980.3473793588
 22
1545.214593745
 32
0.0
 13
980.3473793588
 23
1545.214593745
 33
0.0
  0
LINE
  5
297
330
292
100
AcDbEntity
  8
SLD-0
100
AcDbLine
 10
834.8940001044
 20
1546.714596539
 30
0.0
 11
830.5482187018
 21
1546.714596539
 31
0.0
  0
LINE
  5
298
330
292
100
AcDbEntity
  8
SLD-0
100
AcDbLine
 10
830.5482187018
 20
1546.714596539
 30
0.0
 11
830.5482187018
 21
1524.0133461497
 31
0.0
  0
LINE
  5
299
330
292
100
AcDbEntity
  8
SLD-0
100
AcDbLine
 10
830.5482187018
 20
1524.0133461497
 30
0.0
 11
834.8940001044
 21
1524.0133461497
 31
0.0
  0
LINE
  5
29A
330
292
100
AcDbEntity
  8
SLD-0
100
AcDbLine
 10
871.8298343185
 20
1546.714596539
 30
0.0
 11
876.1756157212
 21
1546.714596539
 31
0.0
  0
LINE
  5
29B
330
292
100
AcDbEntity
  8
SLD-0
100
AcDbLine
 10
876.1756157212
 20
1546.714596539
 30
0.0
 11
876.1756157212
 21
1524.0133461497
 31
0.0
  0
LINE
  5
29C
330
292
100
AcDbEntity
  8
SLD-0
100
AcDbLine
 10
876.1756157212
 20
1524.0133461497
 30
0.0
 11
871.8298343185
 21
1524.0133461497
 31
0.0
  0
LINE
  5
29D
330
292
100
AcDbEntity
  8
SLD-0
100
AcDbLine
 10
906.2973793588
 20
1416.9107462232
 30
0.0
 11
906.2973793588
 21
1551.286593745
 31
0.0
  0
LINE
  5
29E
330
292
100
AcDbEntity
  8
SLD-0
100
AcDbLine
 10
992.3473793588
 20
1437.788131664
 30
0.0
 11
992.3473793588
 21
1551.286593745
 31
0.0
  0
LINE
  5
29F
330
292
100
AcDbEntity
  8
SLD-0
100
AcDbLine
 10
906.2973793588
 20
1546.714593745
 30
0.0
 11
888.682970419
 21
1546.714593745
 31
0.0
  0
LINE
  5
2A0
330
292
100
AcDbEntity
  8
SLD-0
100
AcDbLine
 10
992.3473793588
 20
1546.714593745
 30
0.0
 11
906.2973793588
 21
1546.714593745
 31
0.0
  0
MTEXT
  5
2A1
330
292
100
AcDbEntity
  8
SLD-0
100
AcDbMText
 10
820.9372288722
 20
1567.861831339
 30
0.0
 40
14.2875
 41
0.0
 71
     1
 72
     1
  1
 
  7
SLDTEXTSTYLE0
 73
     1
 44
1.0
  0
MTEXT
  5
2A2
330
292
100
AcDbEntity
  8
SLD-0
100
AcDbMText
 10
834.8939987074
 20
1567.861832736
 30
0.0
 40
14.2875
 41
0.0
 71
     1
 72
     1
  1
86.1
  7
SLDTEXTSTYLE0
 73
     1
 44
1.0
  0
MTEXT
  5
2A3
330
292
100
AcDbEntity
  8
SLD-0
100
AcDbMText
 10
834.8940001044
 20
1542.2633956764
 30
0.0
 40
14.2875
 41
0.0
 71
     1
 72
     1
  1
3.39
  7
SLDTEXTSTYLE0
 73
     1
 44
1.0
  0
MTEXT
  5
2A4
330
292
100
AcDbEntity
  8
SLD-0
100
AcDbMText
 10
880.5213957269
 20
1567.861831339
 30
0.0
 40
14.2875
 41
0.0
 71
     1
 72
     1
  1
 
  7
SLDTEXTSTYLE0
 73
     1
 44
1.0
  0
ENDBLK
  5
294
330
292
100
AcDbEntity
  8
0
100
AcDbBlockEnd
  0
BLOCK
  5
2A7
330
2A6
100
AcDbEntity
  8
0
100
AcDbBlockBegin
  2
_D_10
 70
     0
 10
0.0
 20
0.0
 30
0.0
  3
_D_10
  1

  0
SOLID
  5
2A9
330
2A6
100
AcDbEntity
  8
SLD-0
100
AcDbTrace
 10
992.3473793588
 20
1243.6193032444
 30
0.0
 11
1004.3473793588
 21
1242.1193032444
 31
0.0
 12
1004.3473793588
 22
1245.1193032444
 32
0.0
 13
1004.3473793588
 23
1245.1193032444
 33
0.0
  0
SOLID
  5
2AA
330
2A6
100
AcDbEntity
  8
SLD-0
100
AcDbTrace
 10
1100.2473793588
 20
1243.6193032444
 30
0.0
 11
1088.2473793588
 21
1245.1193032444
 31
0.0
 12
1088.2473793588
 22
1242.1193032444
 32
0.0
 13
1088.2473793588
 23
1242.1193032444
 33
0.0
  0
LINE
  5
2AB
330
2A6
100
AcDbEntity
  8
SLD-0
100
AcDbLine
 10
1027.8294622518
 20
1243.6193060383
 30
0.0
 11
1023.4836808491
 21
1243.6193060383
 31
0.0
  0
LINE
  5
2AC
330
2A6
100
AcDbEntity
  8
SLD-0
100
AcDbLine
 10
1023.4836808491
 20
1243.6193060383
 30
0.0
 11
1023.4836808491
 21
1220.9180556491
 31
0.0
  0
LINE
  5
2AD
330
2A6
100
AcDbEntity
  8
SLD-0
100
AcDbLine
 10
1023.4836808491
 20
1220.9180556491
 30
0.0
 11
1027.8294622518
 21
1220.9180556491
 31
0.0
  0
LINE
  5
2AE
330
2A6
100
AcDbEntity
  8
SLD-0
100
AcDbLine
 10
1064.7652964659
 20
1243.6193060383
 30
0.0
 11
1069.1110778685
 21
1243.6193060383
 31
0.0
  0
LINE
  5
2AF
330
2A6
100
AcDbEntity
  8
SLD-0
100
AcDbLine
 10
1069.1110778685
 20
1243.6193060383
 30
0.0
 11
1069.1110778685
 21
1220.9180556491
 31
0.0
  0
LINE
  5
2B0
330
2A6
100
AcDbEntity
  8
SLD-0
100
AcDbLine
 10
1069.1110778685
 20
1220.9180556491
 30
0.0
 11
1064.7652964659
 21
1220.9180556491
 31
0.0
  0
LINE
  5
2B1
330
2A6
100
AcDbEntity
  8
SLD-0
100
AcDbLine
 10
992.3473793588
 20
1359.8441316639
 30
0.0
 11
992.3473793588
 21
1239.0473032444
 31
0.0
  0
LINE
  5
2B2
330
2A6
100
AcDbEntity
  8
SLD-0
100
AcDbLine
 10
1100.2473793588
 20
1359.8441316639
 30
0.0
 11
1100.2473793588
 21
1239.0473032444
 31
0.0
  0
LINE
  5
2B3
330
2A6
100
AcDbEntity
  8
SLD-0
100
AcDbLine
 10
992.3473793588
 20
1243.6193032444
 30
0.0
 11
1010.9763261513
 21
1243.6193032444
 31
0.0
  0
LINE
  5
2B4
330
2A6
100
AcDbEntity
  8
SLD-0
100
AcDbLine
 10
1100.2473793588
 20
1243.6193032444
 30
0.0
 11
1081.6184325663
 21
1243.6193032444
 31
0.0
  0
MTEXT
  5
2B5
330
2A6
100
AcDbEntity
  8
SLD-0
100
AcDbMText
 10
1013.8726910196
 20
1264.7665408384
 30
0.0
 40
14.2875
 41
0.0
 71
     1
 72
     1
  1
 
  7
SLDTEXTSTYLE0
 73
     1
 44
1.0
  0
MTEXT
  5
2B6
330
2A6
100
AcDbEntity
  8
SLD-0
100
AcDbMText
 10
1022.5510243877
 20
1264.7665422354
 30
0.0
 40
14.2875
 41
0.0
 71
     1
 72
     1
  1
107.9
  7
SLDTEXTSTYLE0
 73
     1
 44
1.0
  0
MTEXT
  5
2B7
330
2A6
100
AcDbEntity
  8
SLD-0
100
AcDbMText
 10
1027.8294622518
 20
1239.1681051757
 30
0.0
 40
14.2875
 41
0.0
 71
     1
 72
     1
  1
4.25
  7
SLDTEXTSTYLE0
 73
     1
 44
1.0
  0
MTEXT
  5
2B8
330
2A6
100
AcDbEntity
  8
SLD-0
100
AcDbMText
 10
1073.4568578742
 20
1264.7665408384
 30
0.0
 40
14.2875
 41
0.0
 71
     1
 72
     1
  1
 
  7
SLDTEXTSTYLE0
 73
     1
 44
1.0
  0
ENDBLK
  5
2A8
330
2A6
100
AcDbEntity
  8
0
100
AcDbBlockEnd
  0
BLOCK
  5
2BB
330
2BA
100
AcDbEntity
  8
0
100
AcDbBlockBegin
  2
SW_NOTE_0_1
 70
     0
 10
0.0
 20
0.0
 30
0.0
  3
SW_NOTE_0_1
  1

  0
LINE
  5
2BD
330
2BA
100
AcDbEntity
  8
SLD-0
 62
     0
100
AcDbLine
 10
0.0
 20
-18.2952572146
 30
0.0
 11
0.0
 21
16.3346047679
 31
0.0
  0
LINE
  5
2BE
330
2BA
100
AcDbEntity
  8
SLD-0
 62
     0
100
AcDbLine
 10
0.0
 20
16.3346047679
 30
0.0
 11
34.6298619824
 21
16.3346047679
 31
0.0
  0
LINE
  5
2BF
330
2BA
100
AcDbEntity
  8
SLD-0
 62
     0
100
AcDbLine
 10
34.6298619824
 20
16.3346047679
 30
0.0
 11
34.6298619824
 21
-18.2952572146
 31
0.0
  0
LINE
  5
2C0
330
2BA
100
AcDbEntity
  8
SLD-0
 62
     0
100
AcDbLine
 10
34.6298619824
 20
-18.2952572146
 30
0.0
 11
0.0
 21
-18.2952572146
 31
0.0
  0
MTEXT
  5
2C1
330
2BA
100
AcDbEntity
  8
SLD-0
 62
     0
100
AcDbMText
 10
17.1710637889
 20
5.975456139
 30
0.0
 40
14.2875
 41
0.0
 71
     2
 72
     1
  1
4
  7
SLDTEXTSTYLE0
 73
     1
 44
1.0
  0
ENDBLK
  5
2BC
330
2BA
100
AcDbEntity
  8
0
100
AcDbBlockEnd
  0
BLOCK
  5
2C6
330
2C5
100
AcDbEntity
  8
0
100
AcDbBlockBegin
  2
SW_NOTE_0_2
 70
     0
 10
0.0
 20
0.0
 30
0.0
  3
SW_NOTE_0_2
  1

  0
LINE
  5
2C8
330
2C5
100
AcDbEntity
  8
SLD-0
 62
     0
100
AcDbLine
 10
-34.6298619824
 20
-17.542434128
 30
0.0
 11
-34.6298619824
 21
17.0874278545
 31
0.0
  0
LINE
  5
2C9
330
2C5
100
AcDbEntity
  8
SLD-0
 62
     0
100
AcDbLine
 10
-34.6298619824
 20
17.0874278545
 30
0.0
 11
0.0
 21
17.0874278545
 31
0.0
  0
LINE
  5
2CA
330
2C5
100
AcDbEntity
  8
SLD-0
 62
     0
100
AcDbLine
 10
0.0
 20
17.0874278545
 30
0.0
 11
0.0
 21
-17.542434128
 31
0.0
  0
LINE
  5
2CB
330
2C5
100
AcDbEntity
  8
SLD-0
 62
     0
100
AcDbLine
 10
0.0
 20
-17.542434128
 30
0.0
 11
-34.6298619824
 21
-17.542434128
 31
0.0
  0
MTEXT
  5
2CC
330
2C5
100
AcDbEntity
  8
SLD-0
 62
     0
100
AcDbMText
 10
-17.4587981935
 20
6.7282792256
 30
0.0
 40
14.2875
 41
0.0
 71
     2
 72
     1
  1
5
  7
SLDTEXTSTYLE0
 73
     1
 44
1.0
  0
ENDBLK
  5
2C7
330
2C5
100
AcDbEntity
  8
0
100
AcDbBlockEnd
  0
BLOCK
  5
2D1
330
2D0
100
AcDbEntity
  8
0
100
AcDbBlockBegin
  2
SW_NOTE_0_3
 70
     0
 10
0.0
 20
0.0
 30
0.0
  3
SW_NOTE_0_3
  1

  0
LINE
  5
2D3
330
2D0
100
AcDbEntity
  8
SLD-0
 62
     0
100
AcDbLine
 10
0.0
 20
-18.2952572146
 30
0.0
 11
0.0
 21
16.3346047679
 31
0.0
  0
LINE
  5
2D4
330
2D0
100
AcDbEntity
  8
SLD-0
 62
     0
100
AcDbLine
 10
0.0
 20
16.3346047679
 30
0.0
 11
34.6298619824
 21
16.3346047679
 31
0.0
  0
LINE
  5
2D5
330
2D0
100
AcDbEntity
  8
SLD-0
 62
     0
100
AcDbLine
 10
34.6298619824
 20
16.3346047679
 30
0.0
 11
34.6298619824
 21
-18.2952572146
 31
0.0
  0
LINE
  5
2D6
330
2D0
100
AcDbEntity
  8
SLD-0
 62
     0
100
AcDbLine
 10
34.6298619824
 20
-18.2952572146
 30
0.0
 11
0.0
 21
-18.2952572146
 31
0.0
  0
MTEXT
  5
2D7
330
2D0
100
AcDbEntity
  8
SLD-0
 62
     0
100
AcDbMText
 10
17.1710637889
 20
5.975456139
 30
0.0
 40
14.2875
 41
0.0
 71
     2
 72
     1
  1
6
  7
SLDTEXTSTYLE0
 73
     1
 44
1.0
  0
ENDBLK
  5
2D2
330
2D0
100
AcDbEntity
  8
0
100
AcDbBlockEnd
  0
BLOCK
  5
2DC
330
2DB
100
AcDbEntity
  8
0
100
AcDbBlockBegin
  2
SW_CENTERMARKSYMBOL_0
 70
     0
 10
0.0
 20
0.0
 30
0.0
  3
SW_CENTERMARKSYMBOL_0
  1

  0
LINE
  5
2DE
330
2DB
100
AcDbEntity
  8
SLD-0
 62
     0
100
AcDbLine
 10
0.0
 20
0.0
 30
0.0
 11
0.0
 21
2.0
 31
0.0
  0
LINE
  5
2DF
330
2DB
100
AcDbEntity
  8
SLD-0
 62
     0
100
AcDbLine
 10
0.0
 20
0.0
 30
0.0
 11
-2.0
 21
0.0
 31
0.0
  0
LINE
  5
2E0
330
2DB
100
AcDbEntity
  8
SLD-0
 62
     0
100
AcDbLine
 10
0.0
 20
0.0
 30
0.0
 11
0.0
 21
-2.0
 31
0.0
  0
LINE
  5
2E1
330
2DB
100
AcDbEntity
  8
SLD-0
 62
     0
100
AcDbLine
 10
0.0
 20
0.0
 30
0.0
 11
2.0
 21
0.0
 31
0.0
  0
LINE
  5
2E2
330
2DB
100
AcDbEntity
  8
SLD-0
 62
     0
100
AcDbLine
 10
0.0
 20
4.0
 30
0.0
 11
0.0
 21
12.75
 31
0.0
  0
LINE
  5
2E3
330
2DB
100
AcDbEntity
  8
SLD-0
 62
     0
100
AcDbLine
 10
-4.0
 20
0.0
 30
0.0
 11
-12.75
 21
0.0
 31
0.0
  0
LINE
  5
2E4
330
2DB
100
AcDbEntity
  8
SLD-0
 62
     0
100
AcDbLine
 10
0.0
 20
-4.0
 30
0.0
 11
0.0
 21
-12.75
 31
0.0
  0
LINE
  5
2E5
330
2DB
100
AcDbEntity
  8
SLD-0
 62
     0
100
AcDbLine
 10
4.0
 20
0.0
 30
0.0
 11
12.75
 21
0.0
 31
0.0
  0
ENDBLK
  5
2DD
330
2DB
100
AcDbEntity
  8
0
100
AcDbBlockEnd
  0
BLOCK
  5
2E8
330
2E7
100
AcDbEntity
  8
0
100
AcDbBlockBegin
  2
SW_CENTERMARKSYMBOL_1
 70
     0
 10
0.0
 20
0.0
 30
0.0
  3
SW_CENTERMARKSYMBOL_1
  1

  0
LINE
  5
2EA
330
2E7
100
AcDbEntity
  8
SLD-0
 62
     0
100
AcDbLine
 10
0.0
 20
0.0
 30
0.0
 11
0.0
 21
2.0
 31
0.0
  0
LINE
  5
2EB
330
2E7
100
AcDbEntity
  8
SLD-0
 62
     0
100
AcDbLine
 10
0.0
 20
0.0
 30
0.0
 11
-2.0
 21
0.0
 31
0.0
  0
LINE
  5
2EC
330
2E7
100
AcDbEntity
  8
SLD-0
 62
     0
100
AcDbLine
 10
0.0
 20
0.0
 30
0.0
 11
0.0
 21
-2.0
 31
0.0
  0
LINE
  5
2ED
330
2E7
100
AcDbEntity
  8
SLD-0
 62
     0
100
AcDbLine
 10
0.0
 20
0.0
 30
0.0
 11
2.0
 21
0.0
 31
0.0
  0
LINE
  5
2EE
330
2E7
100
AcDbEntity
  8
SLD-0
 62
     0
100
AcDbLine
 10
0.0
 20
4.0
 30
0.0
 11
0.0
 21
9.0
 31
0.0
  0
LINE
  5
2EF
330
2E7
100
AcDbEntity
  8
SLD-0
 62
     0
100
AcDbLine
 10
-4.0
 20
0.0
 30
0.0
 11
-9.0
 21
0.0
 31
0.0
  0
LINE
  5
2F0
330
2E7
100
AcDbEntity
  8
SLD-0
 62
     0
100
AcDbLine
 10
0.0
 20
-4.0
 30
0.0
 11
0.0
 21
-9.0
 31
0.0
  0
LINE
  5
2F1
330
2E7
100
AcDbEntity
  8
SLD-0
 62
     0
100
AcDbLine
 10
4.0
 20
0.0
 30
0.0
 11
9.0
 21
0.0
 31
0.0
  0
ENDBLK
  5
2E9
330
2E7
100
AcDbEntity
  8
0
100
AcDbBlockEnd
  0
BLOCK
  5
2F4
330
2F3
100
AcDbEntity
  8
0
100
AcDbBlockBegin
  2
SW_CENTERMARKSYMBOL_2
 70
     0
 10
0.0
 20
0.0
 30
0.0
  3
SW_CENTERMARKSYMBOL_2
  1

  0
LINE
  5
2F6
330
2F3
100
AcDbEntity
  8
SLD-0
 62
     0
100
AcDbLine
 10
0.0
 20
0.0
 30
0.0
 11
0.0
 21
2.0
 31
0.0
  0
LINE
  5
2F7
330
2F3
100
AcDbEntity
  8
SLD-0
 62
     0
100
AcDbLine
 10
0.0
 20
0.0
 30
0.0
 11
-2.0
 21
0.0
 31
0.0
  0
LINE
  5
2F8
330
2F3
100
AcDbEntity
  8
SLD-0
 62
     0
100
AcDbLine
 10
0.0
 20
0.0
 30
0.0
 11
0.0
 21
-2.0
 31
0.0
  0
LINE
  5
2F9
330
2F3
100
AcDbEntity
  8
SLD-0
 62
     0
100
AcDbLine
 10
0.0
 20
0.0
 30
0.0
 11
2.0
 21
0.0
 31
0.0
  0
LINE
  5
2FA
330
2F3
100
AcDbEntity
  8
SLD-0
 62
     0
100
AcDbLine
 10
0.0
 20
4.0
 30
0.0
 11
0.0
 21
9.0
 31
0.0
  0
LINE
  5
2FB
330
2F3
100
AcDbEntity
  8
SLD-0
 62
     0
100
AcDbLine
 10
-4.0
 20
0.0
 30
0.0
 11
-9.0
 21
0.0
 31
0.0
  0
LINE
  5
2FC
330
2F3
100
AcDbEntity
  8
SLD-0
 62
     0
100
AcDbLine
 10
0.0
 20
-4.0
 30
0.0
 11
0.0
 21
-9.0
 31
0.0
  0
LINE
  5
2FD
330
2F3
100
AcDbEntity
  8
SLD-0
 62
     0
100
AcDbLine
 10
4.0
 20
0.0
 30
0.0
 11
9.0
 21
0.0
 31
0.0
  0
ENDBLK
  5
2F5
330
2F3
100
AcDbEntity
  8
0
100
AcDbBlockEnd
  0
BLOCK
  5
300
330
2FF
100
AcDbEntity
  8
0
100
AcDbBlockBegin
  2
SW_CENTERMARKSYMBOL_3
 70
     0
 10
0.0
 20
0.0
 30
0.0
  3
SW_CENTERMARKSYMBOL_3
  1

  0
LINE
  5
302
330
2FF
100
AcDbEntity
  8
SLD-0
 62
     0
100
AcDbLine
 10
0.0
 20
0.0
 30
0.0
 11
0.0
 21
2.0
 31
0.0
  0
LINE
  5
303
330
2FF
100
AcDbEntity
  8
SLD-0
 62
     0
100
AcDbLine
 10
0.0
 20
0.0
 30
0.0
 11
-2.0
 21
0.0
 31
0.0
  0
LINE
  5
304
330
2FF
100
AcDbEntity
  8
SLD-0
 62
     0
100
AcDbLine
 10
0.0
 20
0.0
 30
0.0
 11
0.0
 21
-2.0
 31
0.0
  0
LINE
  5
305
330
2FF
100
AcDbEntity
  8
SLD-0
 62
     0
100
AcDbLine
 10
0.0
 20
0.0
 30
0.0
 11
2.0
 21
0.0
 31
0.0
  0
LINE
  5
306
330
2FF
100
AcDbEntity
  8
SLD-0
 62
     0
100
AcDbLine
 10
0.0
 20
4.0
 30
0.0
 11
0.0
 21
9.0
 31
0.0
  0
LINE
  5
307
330
2FF
100
AcDbEntity
  8
SLD-0
 62
     0
100
AcDbLine
 10
-4.0
 20
0.0
 30
0.0
 11
-9.0
 21
0.0
 31
0.0
  0
LINE
  5
308
330
2FF
100
AcDbEntity
  8
SLD-0
 62
     0
100
AcDbLine
 10
0.0
 20
-4.0
 30
0.0
 11
0.0
 21
-9.0
 31
0.0
  0
LINE
  5
309
330
2FF
100
AcDbEntity
  8
SLD-0
 62
     0
100
AcDbLine
 10
4.0
 20
0.0
 30
0.0
 11
9.0
 21
0.0
 31
0.0
  0
ENDBLK
  5
301
330
2FF
100
AcDbEntity
  8
0
100
AcDbBlockEnd
  0
BLOCK
  5
30C
330
30B
100
AcDbEntity
  8
0
100
AcDbBlockBegin
  2
SW_CENTERMARKSYMBOL_4
 70
     0
 10
0.0
 20
0.0
 30
0.0
  3
SW_CENTERMARKSYMBOL_4
  1

  0
LINE
  5
30E
330
30B
100
AcDbEntity
  8
SLD-0
 62
     0
100
AcDbLine
 10
0.0
 20
0.0
 30
0.0
 11
0.0
 21
2.0
 31
0.0
  0
LINE
  5
30F
330
30B
100
AcDbEntity
  8
SLD-0
 62
     0
100
AcDbLine
 10
0.0
 20
0.0
 30
0.0
 11
-2.0
 21
0.0
 31
0.0
  0
LINE
  5
310
330
30B
100
AcDbEntity
  8
SLD-0
 62
     0
100
AcDbLine
 10
0.0
 20
0.0
 30
0.0
 11
0.0
 21
-2.0
 31
0.0
  0
LINE
  5
311
330
30B
100
AcDbEntity
  8
SLD-0
 62
     0
100
AcDbLine
 10
0.0
 20
0.0
 30
0.0
 11
2.0
 21
0.0
 31
0.0
  0
LINE
  5
312
330
30B
100
AcDbEntity
  8
SLD-0
 62
     0
100
AcDbLine
 10
0.0
 20
4.0
 30
0.0
 11
0.0
 21
11.0
 31
0.0
  0
LINE
  5
313
330
30B
100
AcDbEntity
  8
SLD-0
 62
     0
100
AcDbLine
 10
-4.0
 20
0.0
 30
0.0
 11
-11.0
 21
0.0
 31
0.0
  0
LINE
  5
314
330
30B
100
AcDbEntity
  8
SLD-0
 62
     0
100
AcDbLine
 10
0.0
 20
-4.0
 30
0.0
 11
0.0
 21
-11.0
 31
0.0
  0
LINE
  5
315
330
30B
100
AcDbEntity
  8
SLD-0
 62
     0
100
AcDbLine
 10
4.0
 20
0.0
 30
0.0
 11
11.0
 21
0.0
 31
0.0
  0
ENDBLK
  5
30D
330
30B
100
AcDbEntity
  8
0
100
AcDbBlockEnd
  0
BLOCK
  5
318
330
317
100
AcDbEntity
  8
0
100
AcDbBlockBegin
  2
SW_CENTERMARKSYMBOL_5
 70
     0
 10
0.0
 20
0.0
 30
0.0
  3
SW_CENTERMARKSYMBOL_5
  1

  0
LINE
  5
31A
330
317
100
AcDbEntity
  8
SLD-0
 62
     0
100
AcDbLine
 10
0.0
 20
0.0
 30
0.0
 11
0.0
 21
2.0
 31
0.0
  0
LINE
  5
31B
330
317
100
AcDbEntity
  8
SLD-0
 62
     0
100
AcDbLine
 10
0.0
 20
0.0
 30
0.0
 11
-2.0
 21
0.0
 31
0.0
  0
LINE
  5
31C
330
317
100
AcDbEntity
  8
SLD-0
 62
     0
100
AcDbLine
 10
0.0
 20
0.0
 30
0.0
 11
0.0
 21
-2.0
 31
0.0
  0
LINE
  5
31D
330
317
100
AcDbEntity
  8
SLD-0
 62
     0
100
AcDbLine
 10
0.0
 20
0.0
 30
0.0
 11
2.0
 21
0.0
 31
0.0
  0
LINE
  5
31E
330
317
100
AcDbEntity
  8
SLD-0
 62
     0
100
AcDbLine
 10
0.0
 20
4.0
 30
0.0
 11
0.0
 21
9.0
 31
0.0
  0
LINE
  5
31F
330
317
100
AcDbEntity
  8
SLD-0
 62
     0
100
AcDbLine
 10
-4.0
 20
0.0
 30
0.0
 11
-9.0
 21
0.0
 31
0.0
  0
LINE
  5
320
330
317
100
AcDbEntity
  8
SLD-0
 62
     0
100
AcDbLine
 10
0.0
 20
-4.0
 30
0.0
 11
0.0
 21
-9.0
 31
0.0
  0
LINE
  5
321
330
317
100
AcDbEntity
  8
SLD-0
 62
     0
100
AcDbLine
 10
4.0
 20
0.0
 30
0.0
 11
9.0
 21
0.0
 31
0.0
  0
ENDBLK
  5
319
330
317
100
AcDbEntity
  8
0
100
AcDbBlockEnd
  0
BLOCK
  5
324
330
323
100
AcDbEntity
  8
0
100
AcDbBlockBegin
  2
SW_CENTERMARKSYMBOL_6
 70
     0
 10
0.0
 20
0.0
 30
0.0
  3
SW_CENTERMARKSYMBOL_6
  1

  0
LINE
  5
326
330
323
100
AcDbEntity
  8
SLD-0
 62
     0
100
AcDbLine
 10
0.0
 20
0.0
 30
0.0
 11
0.0
 21
2.0
 31
0.0
  0
LINE
  5
327
330
323
100
AcDbEntity
  8
SLD-0
 62
     0
100
AcDbLine
 10
0.0
 20
0.0
 30
0.0
 11
-2.0
 21
0.0
 31
0.0
  0
LINE
  5
328
330
323
100
AcDbEntity
  8
SLD-0
 62
     0
100
AcDbLine
 10
0.0
 20
0.0
 30
0.0
 11
0.0
 21
-2.0
 31
0.0
  0
LINE
  5
329
330
323
100
AcDbEntity
  8
SLD-0
 62
     0
100
AcDbLine
 10
0.0
 20
0.0
 30
0.0
 11
2.0
 21
0.0
 31
0.0
  0
LINE
  5
32A
330
323
100
AcDbEntity
  8
SLD-0
 62
     0
100
AcDbLine
 10
0.0
 20
4.0
 30
0.0
 11
0.0
 21
12.75
 31
0.0
  0
LINE
  5
32B
330
323
100
AcDbEntity
  8
SLD-0
 62
     0
100
AcDbLine
 10
-4.0
 20
0.0
 30
0.0
 11
-12.75
 21
0.0
 31
0.0
  0
LINE
  5
32C
330
323
100
AcDbEntity
  8
SLD-0
 62
     0
100
AcDbLine
 10
0.0
 20
-4.0
 30
0.0
 11
0.0
 21
-12.75
 31
0.0
  0
LINE
  5
32D
330
323
100
AcDbEntity
  8
SLD-0
 62
     0
100
AcDbLine
 10
4.0
 20
0.0
 30
0.0
 11
12.75
 21
0.0
 31
0.0
  0
ENDBLK
  5
325
330
323
100
AcDbEntity
  8
0
100
AcDbBlockEnd
  0
BLOCK
  5
349
330
348
100
AcDbEntity
  8
0
100
AcDbBlockBegin
  2
_D_11
 70
     0
 10
0.0
 20
0.0
 30
0.0
  3
_D_11
  1

  0
SOLID
  5
34B
330
348
100
AcDbEntity
  8
SLD-0
100
AcDbTrace
 10
1054.4173793588
 20
467.6368738568
 30
0.0
 11
1066.4173793588
 21
466.1368738568
 31
0.0
 12
1066.4173793588
 22
469.1368738568
 32
0.0
 13
1066.4173793588
 23
469.1368738568
 33
0.0
  0
SOLID
  5
34C
330
348
100
AcDbEntity
  8
SLD-0
100
AcDbTrace
 10
1186.2973793588
 20
467.6368738568
 30
0.0
 11
1174.2973793588
 21
469.1368738568
 31
0.0
 12
1174.2973793588
 22
466.1368738568
 32
0.0
 13
1174.2973793588
 23
466.1368738568
 33
0.0
  0
LINE
  5
34D
330
348
100
AcDbEntity
  8
SLD-0
100
AcDbLine
 10
1101.8894622518
 20
467.6368766508
 30
0.0
 11
1097.5436808491
 21
467.6368766508
 31
0.0
  0
LINE
  5
34E
330
348
100
AcDbEntity
  8
SLD-0
100
AcDbLine
 10
1097.5436808491
 20
467.6368766508
 30
0.0
 11
1097.5436808491
 21
444.9356262616
 31
0.0
  0
LINE
  5
34F
330
348
100
AcDbEntity
  8
SLD-0
100
AcDbLine
 10
1097.5436808491
 20
444.9356262616
 30
0.0
 11
1101.8894622518
 21
444.9356262616
 31
0.0
  0
LINE
  5
350
330
348
100
AcDbEntity
  8
SLD-0
100
AcDbLine
 10
1138.8252964659
 20
467.6368766508
 30
0.0
 11
1143.1710778685
 21
467.6368766508
 31
0.0
  0
LINE
  5
351
330
348
100
AcDbEntity
  8
SLD-0
100
AcDbLine
 10
1143.1710778685
 20
467.6368766508
 30
0.0
 11
1143.1710778685
 21
444.9356262616
 31
0.0
  0
LINE
  5
352
330
348
100
AcDbEntity
  8
SLD-0
100
AcDbLine
 10
1143.1710778685
 20
444.9356262616
 30
0.0
 11
1138.8252964659
 21
444.9356262616
 31
0.0
  0
LINE
  5
353
330
348
100
AcDbEntity
  8
SLD-0
100
AcDbLine
 10
1054.4173793588
 20
323.1073283892
 30
0.0
 11
1054.4173793588
 21
472.2088738568
 31
0.0
  0
LINE
  5
354
330
348
100
AcDbEntity
  8
SLD-0
100
AcDbLine
 10
1186.2973793588
 20
391.6409163525
 30
0.0
 11
1186.2973793588
 21
472.2088738568
 31
0.0
  0
LINE
  5
355
330
348
100
AcDbEntity
  8
SLD-0
100
AcDbLine
 10
1054.4173793588
 20
467.6368738568
 30
0.0
 11
1085.0363261513
 21
467.6368738568
 31
0.0
  0
LINE
  5
356
330
348
100
AcDbEntity
  8
SLD-0
100
AcDbLine
 10
1186.2973793588
 20
467.6368738568
 30
0.0
 11
1155.6784325663
 21
467.6368738568
 31
0.0
  0
MTEXT
  5
357
330
348
100
AcDbEntity
  8
SLD-0
100
AcDbMText
 10
1087.9326910196
 20
488.7841114509
 30
0.0
 40
14.2875
 41
0.0
 71
     1
 72
     1
  1
 
  7
SLDTEXTSTYLE0
 73
     1
 44
1.0
  0
MTEXT
  5
358
330
348
100
AcDbEntity
  8
SLD-0
100
AcDbMText
 10
1096.6110243877
 20
488.7841128479
 30
0.0
 40
14.2875
 41
0.0
 71
     1
 72
     1
  1
131.9
  7
SLDTEXTSTYLE0
 73
     1
 44
1.0
  0
MTEXT
  5
359
330
348
100
AcDbEntity
  8
SLD-0
100
AcDbMText
 10
1101.8894622518
 20
463.1856757882
 30
0.0
 40
14.2875
 41
0.0
 71
     1
 72
     1
  1
5.19
  7
SLDTEXTSTYLE0
 73
     1
 44
1.0
  0
MTEXT
  5
35A
330
348
100
AcDbEntity
  8
SLD-0
100
AcDbMText
 10
1147.5168578742
 20
488.7841114509
 30
0.0
 40
14.2875
 41
0.0
 71
     1
 72
     1
  1
 
  7
SLDTEXTSTYLE0
 73
     1
 44
1.0
  0
ENDBLK
  5
34A
330
348
100
AcDbEntity
  8
0
100
AcDbBlockEnd
  0
BLOCK
  5
35D
330
35C
100
AcDbEntity
  8
0
100
AcDbBlockBegin
  2
_D_12
 70
     0
 10
0.0
 20
0.0
 30
0.0
  3
_D_12
  1

  0
SOLID
  5
35F
330
35C
100
AcDbEntity
  8
SLD-0
100
AcDbTrace
 10
1260.6886939332
 20
178.1916769762
 30
0.0
 11
1262.1886939332
 21
190.1916769762
 31
0.0
 12
1259.1886939332
 22
190.1916769762
 32
0.0
 13
1259.1886939332
 23
190.1916769762
 33
0.0
  0
SOLID
  5
360
330
35C
100
AcDbEntity
  8
SLD-0
100
AcDbTrace
 10
1260.6886939332
 20
309.3516769762
 30
0.0
 11
1259.1886939332
 21
297.3516769762
 31
0.0
 12
1262.1886939332
 22
297.3516769762
 32
0.0
 13
1262.1886939332
 23
297.3516769762
 33
0.0
  0
LINE
  5
361
330
35C
100
AcDbEntity
  8
SLD-0
100
AcDbLine
 10
1242.2207768261
 20
243.7716797701
 30
0.0
 11
1237.8749954235
 21
243.7716797701
 31
0.0
  0
LINE
  5
362
330
35C
100
AcDbEntity
  8
SLD-0
100
AcDbLine
 10
1237.8749954235
 20
243.7716797701
 30
0.0
 11
1237.8749954235
 21
221.0704293809
 31
0.0
  0
LINE
  5
363
330
35C
100
AcDbEntity
  8
SLD-0
100
AcDbLine
 10
1237.8749954235
 20
221.0704293809
 30
0.0
 11
1242.2207768261
 21
221.0704293809
 31
0.0
  0
LINE
  5
364
330
35C
100
AcDbEntity
  8
SLD-0
100
AcDbLine
 10
1279.1566110402
 20
243.7716797701
 30
0.0
 11
1283.5023924429
 21
243.7716797701
 31
0.0
  0
LINE
  5
365
330
35C
100
AcDbEntity
  8
SLD-0
100
AcDbLine
 10
1283.5023924429
 20
243.7716797701
 30
0.0
 11
1283.5023924429
 21
221.0704293809
 31
0.0
  0
LINE
  5
366
330
35C
100
AcDbEntity
  8
SLD-0
100
AcDbLine
 10
1283.5023924429
 20
221.0704293809
 30
0.0
 11
1279.1566110402
 21
221.0704293809
 31
0.0
  0
LINE
  5
367
330
35C
100
AcDbEntity
  8
SLD-0
100
AcDbLine
 10
1134.732102215
 20
178.1916769762
 30
0.0
 11
1265.2606939332
 21
178.1916769762
 31
0.0
  0
LINE
  5
368
330
35C
100
AcDbEntity
  8
SLD-0
100
AcDbLine
 10
1068.101556781
 20
309.3516769762
 30
0.0
 11
1265.2606939332
 21
309.3516769762
 31
0.0
  0
LINE
  5
369
330
35C
100
AcDbEntity
  8
SLD-0
100
AcDbLine
 10
1260.6886939332
 20
178.1916769762
 30
0.0
 11
1260.6886939332
 21
218.1732385195
 31
0.0
  0
LINE
  5
36A
330
35C
100
AcDbEntity
  8
SLD-0
100
AcDbLine
 10
1260.6886939332
 20
309.3516769762
 30
0.0
 11
1260.6886939332
 21
269.3701154328
 31
0.0
  0
MTEXT
  5
36B
330
35C
100
AcDbEntity
  8
SLD-0
100
AcDbMText
 10
1228.2640055939
 20
264.9189145702
 30
0.0
 40
14.2875
 41
0.0
 71
     1
 72
     1
  1
 
  7
SLDTEXTSTYLE0
 73
     1
 44
1.0
  0
MTEXT
  5
36C
330
35C
100
AcDbEntity
  8
SLD-0
100
AcDbMText
 10
1236.9423389621
 20
264.9189159672
 30
0.0
 40
14.2875
 41
0.0
 71
     1
 72
     1
  1
131.2
  7
SLDTEXTSTYLE0
 73
     1
 44
1.0
  0
MTEXT
  5
36D
330
35C
100
AcDbEntity
  8
SLD-0
100
AcDbMText
 10
1242.2207768261
 20
239.3204789075
 30
0.0
 40
14.2875
 41
0.0
 71
     1
 72
     1
  1
5.16
  7
SLDTEXTSTYLE0
 73
     1
 44
1.0
  0
MTEXT
  5
36E
330
35C
100
AcDbEntity
  8
SLD-0
100
AcDbMText
 10
1287.8481724486
 20
264.9189145702
 30
0.0
 40
14.2875
 41
0.0
 71
     1
 72
     1
  1
 
  7
SLDTEXTSTYLE0
 73
     1
 44
1.0
  0
ENDBLK
  5
35E
330
35C
100
AcDbEntity
  8
0
100
AcDbBlockEnd
  0
BLOCK
  5
372
330
371
100
AcDbEntity
  8
0
100
AcDbBlockBegin
  2
_D_13
 70
     0
 10
0.0
 20
0.0
 30
0.0
  3
_D_13
  1

  0
ARC
  5
374
330
371
100
AcDbEntity
  8
SLD-0
100
AcDbCircle
 10
1046.2973793588
 20
33.4816321289
 30
0.0
 40
114.3075152770605
100
AcDbArc
 50
61.5
 51
82.7796162403
  0
ARC
  5
375
330
371
100
AcDbEntity
  8
SLD-0
100
AcDbCircle
 10
1046.2973793588
 20
33.4816321289
 30
0.0
 40
114.3075152770606
100
AcDbArc
 50
97.2203837597
 51
118.5
  0
SOLID
  5
376
330
371
100
AcDbEntity
  8
SLD-0
100
AcDbTrace
 10
1100.8402116368
 20
133.9370326602
 30
0.0
 11
1090.65535556
 21
140.4576696456
 31
0.0
 12
1089.3636558736
 22
137.7499931656
 32
0.0
 13
1089.3636558736
 23
137.7499931656
 33
0.0
  0
SOLID
  5
377
330
371
100
AcDbEntity
  8
SLD-0
100
AcDbTrace
 10
991.7545470809
 20
133.9370326602
 30
0.0
 11
1003.231102844
 21
137.7499931656
 31
0.0
 12
1001.9394031577
 22
140.4576696456
 32
0.0
 13
1001.9394031577
 23
140.4576696456
 33
0.0
  0
LINE
  5
378
330
371
100
AcDbEntity
  8
SLD-0
100
AcDbLine
 10
1122.6869531517
 20
174.1737251371
 30
0.0
 11
1098.6586417849
 21
129.9190808211
 31
0.0
  0
LINE
  5
379
330
371
100
AcDbEntity
  8
SLD-0
100
AcDbLine
 10
969.907805566
 20
174.1737251371
 30
0.0
 11
993.9361169328
 21
129.9190808211
 31
0.0
  0
MTEXT
  5
37A
330
371
100
AcDbEntity
  8
SLD-0
100
AcDbMText
 10
1031.9305039562
 20
154.6885717379
 30
0.0
 40
14.2875
 41
0.0
 71
     1
 72
     1
  1
57°
  7
SLDTEXTSTYLE0
 73
     1
 44
1.0
  0
ENDBLK
  5
373
330
371
100
AcDbEntity
  8
0
100
AcDbBlockEnd
  0
BLOCK
  5
37D
330
37C
100
AcDbEntity
  8
0
100
AcDbBlockBegin
  2
SW_NOTE_0_4
 70
     0
 10
0.0
 20
0.0
 30
0.0
  3
SW_NOTE_0_4
  1

  0
LINE
  5
37F
330
37C
100
AcDbEntity
  8
SLD-0
 62
     0
100
AcDbLine
 10
0.0
 20
-18.2952572146
 30
0.0
 11
0.0
 21
16.3346047679
 31
0.0
  0
LINE
  5
380
330
37C
100
AcDbEntity
  8
SLD-0
 62
     0
100
AcDbLine
 10
0.0
 20
16.3346047679
 30
0.0
 11
34.6298619824
 21
16.3346047679
 31
0.0
  0
LINE
  5
381
330
37C
100
AcDbEntity
  8
SLD-0
 62
     0
100
AcDbLine
 10
34.6298619824
 20
16.3346047679
 30
0.0
 11
34.6298619824
 21
-18.2952572146
 31
0.0
  0
LINE
  5
382
330
37C
100
AcDbEntity
  8
SLD-0
 62
     0
100
AcDbLine
 10
34.6298619824
 20
-18.2952572146
 30
0.0
 11
0.0
 21
-18.2952572146
 31
0.0
  0
MTEXT
  5
383
330
37C
100
AcDbEntity
  8
SLD-0
 62
     0
100
AcDbMText
 10
17.1710637889
 20
5.975456139
 30
0.0
 40
14.2875
 41
0.0
 71
     2
 72
     1
  1
6
  7
SLDTEXTSTYLE0
 73
     1
 44
1.0
  0
ENDBLK
  5
37E
330
37C
100
AcDbEntity
  8
0
100
AcDbBlockEnd
  0
BLOCK
  5
387
330
386
100
AcDbEntity
  8
0
100
AcDbBlockBegin
  2
SW_NOTE_0_5
 70
     0
 10
0.0
 20
0.0
 30
0.0
  3
SW_NOTE_0_5
  1

  0
LINE
  5
389
330
386
100
AcDbEntity
  8
SLD-0
 62
     0
100
AcDbLine
 10
-34.6298619824
 20
-17.542434128
 30
0.0
 11
-34.6298619824
 21
17.0874278545
 31
0.0
  0
LINE
  5
38A
330
386
100
AcDbEntity
  8
SLD-0
 62
     0
100
AcDbLine
 10
-34.6298619824
 20
17.0874278545
 30
0.0
 11
0.0
 21
17.0874278545
 31
0.0
  0
LINE
  5
38B
330
386
100
AcDbEntity
  8
SLD-0
 62
     0
100
AcDbLine
 10
0.0
 20
17.0874278545
 30
0.0
 11
0.0
 21
-17.542434128
 31
0.0
  0
LINE
  5
38C
330
386
100
AcDbEntity
  8
SLD-0
 62
     0
100
AcDbLine
 10
0.0
 20
-17.542434128
 30
0.0
 11
-34.6298619824
 21
-17.542434128
 31
0.0
  0
MTEXT
  5
38D
330
386
100
AcDbEntity
  8
SLD-0
 62
     0
100
AcDbMText
 10
-17.4587981935
 20
6.7282792256
 30
0.0
 40
14.2875
 41
0.0
 71
     2
 72
     1
  1
4
  7
SLDTEXTSTYLE0
 73
     1
 44
1.0
  0
ENDBLK
  5
388
330
386
100
AcDbEntity
  8
0
100
AcDbBlockEnd
  0
BLOCK
  5
391
330
390
100
AcDbEntity
  8
0
100
AcDbBlockBegin
  2
SW_NOTE_0_6
 70
     0
 10
0.0
 20
0.0
 30
0.0
  3
SW_NOTE_0_6
  1

  0
LINE
  5
393
330
390
100
AcDbEntity
  8
SLD-0
 62
     0
100
AcDbLine
 10
-34.6298619824
 20
-17.542434128
 30
0.0
 11
-34.6298619824
 21
17.0874278545
 31
0.0
  0
LINE
  5
394
330
390
100
AcDbEntity
  8
SLD-0
 62
     0
100
AcDbLine
 10
-34.6298619824
 20
17.0874278545
 30
0.0
 11
0.0
 21
17.0874278545
 31
0.0
  0
LINE
  5
395
330
390
100
AcDbEntity
  8
SLD-0
 62
     0
100
AcDbLine
 10
0.0
 20
17.0874278545
 30
0.0
 11
0.0
 21
-17.542434128
 31
0.0
  0
LINE
  5
396
330
390
100
AcDbEntity
  8
SLD-0
 62
     0
100
AcDbLine
 10
0.0
 20
-17.542434128
 30
0.0
 11
-34.6298619824
 21
-17.542434128
 31
0.0
  0
MTEXT
  5
397
330
390
100
AcDbEntity
  8
SLD-0
 62
     0
100
AcDbMText
 10
-17.4587981935
 20
6.7282792256
 30
0.0
 40
14.2875
 41
0.0
 71
     2
 72
     1
  1
5
  7
SLDTEXTSTYLE0
 73
     1
 44
1.0
  0
ENDBLK
  5
392
330
390
100
AcDbEntity
  8
0
100
AcDbBlockEnd
  0
BLOCK
  5
3C1
330
3C0
100
AcDbEntity
  8
0
100
AcDbBlockBegin
  2
_D_14
 70
     0
 10
0.0
 20
0.0
 30
0.0
  3
_D_14
  1

  0
SOLID
  5
3C3
330
3C0
100
AcDbEntity
  8
SLD-0
100
AcDbTrace
 10
1778.669000574
 20
954.3272204903
 30
0.0
 11
1777.169000574
 21
942.3272204903
 31
0.0
 12
1780.169000574
 22
942.3272204903
 32
0.0
 13
1780.169000574
 23
942.3272204903
 33
0.0
  0
SOLID
  5
3C4
330
3C0
100
AcDbEntity
  8
SLD-0
100
AcDbTrace
 10
1778.669000574
 20
544.3272204903
 30
0.0
 11
1780.169000574
 21
556.3272204903
 31
0.0
 12
1777.169000574
 22
556.3272204903
 32
0.0
 13
1777.169000574
 23
556.3272204903
 33
0.0
  0
LINE
  5
3C5
330
3C0
100
AcDbEntity
  8
SLD-0
100
AcDbLine
 10
1754.9226469999
 20
749.3272232842
 30
0.0
 11
1750.5768655972
 21
749.3272232842
 31
0.0
  0
LINE
  5
3C6
330
3C0
100
AcDbEntity
  8
SLD-0
100
AcDbLine
 10
1750.5768655972
 20
749.3272232842
 30
0.0
 11
1750.5768655972
 21
726.625972895
 31
0.0
  0
LINE
  5
3C7
330
3C0
100
AcDbEntity
  8
SLD-0
100
AcDbLine
 10
1750.5768655972
 20
726.625972895
 30
0.0
 11
1754.9226469999
 21
726.625972895
 31
0.0
  0
LINE
  5
3C8
330
3C0
100
AcDbEntity
  8
SLD-0
100
AcDbLine
 10
1802.4153541481
 20
749.3272232842
 30
0.0
 11
1806.7611355508
 21
749.3272232842
 31
0.0
  0
LINE
  5
3C9
330
3C0
100
AcDbEntity
  8
SLD-0
100
AcDbLine
 10
1806.7611355508
 20
749.3272232842
 30
0.0
 11
1806.7611355508
 21
726.625972895
 31
0.0
  0
LINE
  5
3CA
330
3C0
100
AcDbEntity
  8
SLD-0
100
AcDbLine
 10
1806.7611355508
 20
726.625972895
 30
0.0
 11
1802.4153541481
 21
726.625972895
 31
0.0
  0
LINE
  5
3CB
330
3C0
100
AcDbEntity
  8
SLD-0
100
AcDbLine
 10
1703.7971014981
 20
954.3272204903
 30
0.0
 11
1783.241000574
 21
954.3272204903
 31
0.0
  0
LINE
  5
3CC
330
3C0
100
AcDbEntity
  8
SLD-0
100
AcDbLine
 10
1703.500439952
 20
544.3272204903
 30
0.0
 11
1783.241000574
 21
544.3272204903
 31
0.0
  0
LINE
  5
3CD
330
3C0
100
AcDbEntity
  8
SLD-0
100
AcDbLine
 10
1778.669000574
 20
954.3272204903
 30
0.0
 11
1778.669000574
 21
774.9256589469
 31
0.0
  0
LINE
  5
3CE
330
3C0
100
AcDbEntity
  8
SLD-0
100
AcDbLine
 10
1778.669000574
 20
544.3272204903
 30
0.0
 11
1778.669000574
 21
723.7287820336
 31
0.0
  0
MTEXT
  5
3CF
330
3C0
100
AcDbEntity
  8
SLD-0
100
AcDbMText
 10
1740.9658757677
 20
770.4744580843
 30
0.0
 40
14.2875
 41
0.0
 71
     1
 72
     1
  1
 
  7
SLDTEXTSTYLE0
 73
     1
 44
1.0
  0
MTEXT
  5
3D0
330
3C0
100
AcDbEntity
  8
SLD-0
100
AcDbMText
 10
1754.9226456029
 20
770.4744594813
 30
0.0
 40
14.2875
 41
0.0
 71
     1
 72
     1
  1
410.0
  7
SLDTEXTSTYLE0
 73
     1
 44
1.0
  0
MTEXT
  5
3D1
330
3C0
100
AcDbEntity
  8
SLD-0
100
AcDbMText
 10
1754.9226469999
 20
744.8760224216
 30
0.0
 40
14.2875
 41
0.0
 71
     1
 72
     1
  1
16.14
  7
SLDTEXTSTYLE0
 73
     1
 44
1.0
  0
MTEXT
  5
3D2
330
3C0
100
AcDbEntity
  8
SLD-0
100
AcDbMText
 10
1811.1069155564
 20
770.4744580843
 30
0.0
 40
14.2875
 41
0.0
 71
     1
 72
     1
  1
 
  7
SLDTEXTSTYLE0
 73
     1
 44
1.0
  0
ENDBLK
  5
3C2
330
3C0
100
AcDbEntity
  8
0
100
AcDbBlockEnd
  0
BLOCK
  5
3D5
330
3D4
100
AcDbEntity
  8
0
100
AcDbBlockBegin
  2
_D_15
 70
     0
 10
0.0
 20
0.0
 30
0.0
  3
_D_15
  1

  0
SOLID
  5
3D7
330
3D4
100
AcDbEntity
  8
SLD-0
100
AcDbTrace
 10
1456.2270545223
 20
471.9431259447
 30
0.0
 11
1468.2270545223
 21
470.4431259447
 31
0.0
 12
1468.2270545223
 22
473.4431259447
 32
0.0
 13
1468.2270545223
 23
473.4431259447
 33
0.0
  0
SOLID
  5
3D8
330
3D4
100
AcDbEntity
  8
SLD-0
100
AcDbTrace
 10
1692.6270545223
 20
471.9431259447
 30
0.0
 11
1680.6270545223
 21
473.4431259447
 31
0.0
 12
1680.6270545223
 22
470.4431259447
 32
0.0
 13
1680.6270545223
 23
470.4431259447
 33
0.0
  0
LINE
  5
3D9
330
3D4
100
AcDbEntity
  8
SLD-0
100
AcDbLine
 10
1555.9591374152
 20
471.9431287387
 30
0.0
 11
1551.6133560126
 21
471.9431287387
 31
0.0
  0
LINE
  5
3DA
330
3D4
100
AcDbEntity
  8
SLD-0
100
AcDbLine
 10
1551.6133560126
 20
471.9431287387
 30
0.0
 11
1551.6133560126
 21
449.2418783495
 31
0.0
  0
LINE
  5
3DB
330
3D4
100
AcDbEntity
  8
SLD-0
100
AcDbLine
 10
1551.6133560126
 20
449.2418783495
 30
0.0
 11
1555.9591374152
 21
449.2418783495
 31
0.0
  0
LINE
  5
3DC
330
3D4
100
AcDbEntity
  8
SLD-0
100
AcDbLine
 10
1592.8949716293
 20
471.9431287387
 30
0.0
 11
1597.240753032
 21
471.9431287387
 31
0.0
  0
LINE
  5
3DD
330
3D4
100
AcDbEntity
  8
SLD-0
100
AcDbLine
 10
1597.240753032
 20
471.9431287387
 30
0.0
 11
1597.240753032
 21
449.2418783495
 31
0.0
  0
LINE
  5
3DE
330
3D4
100
AcDbEntity
  8
SLD-0
100
AcDbLine
 10
1597.240753032
 20
449.2418783495
 30
0.0
 11
1592.8949716293
 21
449.2418783495
 31
0.0
  0
LINE
  5
3DF
330
3D4
100
AcDbEntity
  8
SLD-0
100
AcDbLine
 10
1456.2270545223
 20
520.906727599
 30
0.0
 11
1456.2270545223
 21
467.3711259447
 31
0.0
  0
LINE
  5
3E0
330
3D4
100
AcDbEntity
  8
SLD-0
100
AcDbLine
 10
1692.6270545223
 20
528.1607002218
 30
0.0
 11
1692.6270545223
 21
467.3711259447
 31
0.0
  0
LINE
  5
3E1
330
3D4
100
AcDbEntity
  8
SLD-0
100
AcDbLine
 10
1456.2270545223
 20
471.9431259447
 30
0.0
 11
1539.1060013148
 21
471.9431259447
 31
0.0
  0
LINE
  5
3E2
330
3D4
100
AcDbEntity
  8
SLD-0
100
AcDbLine
 10
1692.6270545223
 20
471.9431259447
 30
0.0
 11
1609.7481077298
 21
471.9431259447
 31
0.0
  0
MTEXT
  5
3E3
330
3D4
100
AcDbEntity
  8
SLD-0
100
AcDbMText
 10
1542.002366183
 20
493.0903635388
 30
0.0
 40
14.2875
 41
0.0
 71
     1
 72
     1
  1
 
  7
SLDTEXTSTYLE0
 73
     1
 44
1.0
  0
MTEXT
  5
3E4
330
3D4
100
AcDbEntity
  8
SLD-0
100
AcDbMText
 10
1550.6806995512
 20
493.0903649357
 30
0.0
 40
14.2875
 41
0.0
 71
     1
 72
     1
  1
236.4
  7
SLDTEXTSTYLE0
 73
     1
 44
1.0
  0
MTEXT
  5
3E5
330
3D4
100
AcDbEntity
  8
SLD-0
100
AcDbMText
 10
1555.9591374152
 20
467.4919278761
 30
0.0
 40
14.2875
 41
0.0
 71
     1
 72
     1
  1
9.31
  7
SLDTEXTSTYLE0
 73
     1
 44
1.0
  0
MTEXT
  5
3E6
330
3D4
100
AcDbEntity
  8
SLD-0
100
AcDbMText
 10
1601.5865330377
 20
493.0903635388
 30
0.0
 40
14.2875
 41
0.0
 71
     1
 72
     1
  1
 
  7
SLDTEXTSTYLE0
 73
     1
 44
1.0
  0
ENDBLK
  5
3D6
330
3D4
100
AcDbEntity
  8
0
100
AcDbBlockEnd
  0
BLOCK
  5
3E8
330
3E7
100
AcDbEntity
  8
0
100
AcDbBlockBegin
  2
SW_NOTE_0_7
 70
     0
 10
0.0
 20
0.0
 30
0.0
  3
SW_NOTE_0_7
  1

  0
LINE
  5
3EA
330
3E7
100
AcDbEntity
  8
SLD-0
 62
     0
100
AcDbLine
 10
0.0
 20
-18.2952572146
 30
0.0
 11
0.0
 21
16.3346047679
 31
0.0
  0
LINE
  5
3EB
330
3E7
100
AcDbEntity
  8
SLD-0
 62
     0
100
AcDbLine
 10
0.0
 20
16.3346047679
 30
0.0
 11
34.6298619824
 21
16.3346047679
 31
0.0
  0
LINE
  5
3EC
330
3E7
100
AcDbEntity
  8
SLD-0
 62
     0
100
AcDbLine
 10
34.6298619824
 20
16.3346047679
 30
0.0
 11
34.6298619824
 21
-18.2952572146
 31
0.0
  0
LINE
  5
3ED
330
3E7
100
AcDbEntity
  8
SLD-0
 62
     0
100
AcDbLine
 10
34.6298619824
 20
-18.2952572146
 30
0.0
 11
0.0
 21
-18.2952572146
 31
0.0
  0
MTEXT
  5
3EE
330
3E7
100
AcDbEntity
  8
SLD-0
 62
     0
100
AcDbMText
 10
17.1710637889
 20
5.975456139
 30
0.0
 40
14.2875
 41
0.0
 71
     2
 72
     1
  1
6
  7
SLDTEXTSTYLE0
 73
     1
 44
1.0
  0
ENDBLK
  5
3E9
330
3E7
100
AcDbEntity
  8
0
100
AcDbBlockEnd
  0
BLOCK
  5
417
330
416
100
AcDbEntity
  8
0
100
AcDbBlockBegin
  2
_D_16
 70
     0
 10
0.0
 20
0.0
 30
0.0
  3
_D_16
  1

  0
SOLID
  5
419
330
416
100
AcDbEntity
  8
SLD-0
100
AcDbTrace
 10
640.7708802736
 20
913.9272204903
 30
0.0
 11
639.2708802736
 21
901.9272204903
 31
0.0
 12
642.2708802736
 22
901.9272204903
 32
0.0
 13
642.2708802736
 23
901.9272204903
 33
0.0
  0
SOLID
  5
41A
330
416
100
AcDbEntity
  8
SLD-0
100
AcDbTrace
 10
640.7708802736
 20
584.7272204903
 30
0.0
 11
642.2708802736
 21
596.7272204903
 31
0.0
 12
639.2708802736
 22
596.7272204903
 32
0.0
 13
639.2708802736
 23
596.7272204903
 33
0.0
  0
LINE
  5
41B
330
416
100
AcDbEntity
  8
SLD-0
100
AcDbLine
 10
617.0245266995
 20
749.3272232842
 30
0.0
 11
612.6787452969
 21
749.3272232842
 31
0.0
  0
LINE
  5
41C
330
416
100
AcDbEntity
  8
SLD-0
100
AcDbLine
 10
612.6787452969
 20
749.3272232842
 30
0.0
 11
612.6787452969
 21
726.625972895
 31
0.0
  0
LINE
  5
41D
330
416
100
AcDbEntity
  8
SLD-0
100
AcDbLine
 10
612.6787452969
 20
726.625972895
 30
0.0
 11
617.0245266995
 21
726.625972895
 31
0.0
  0
LINE
  5
41E
330
416
100
AcDbEntity
  8
SLD-0
100
AcDbLine
 10
664.5172338477
 20
749.3272232842
 30
0.0
 11
668.8630152504
 21
749.3272232842
 31
0.0
  0
LINE
  5
41F
330
416
100
AcDbEntity
  8
SLD-0
100
AcDbLine
 10
668.8630152504
 20
749.3272232842
 30
0.0
 11
668.8630152504
 21
726.625972895
 31
0.0
  0
LINE
  5
420
330
416
100
AcDbEntity
  8
SLD-0
100
AcDbLine
 10
668.8630152504
 20
726.625972895
 30
0.0
 11
664.5172338477
 21
726.625972895
 31
0.0
  0
LINE
  5
421
330
416
100
AcDbEntity
  8
SLD-0
100
AcDbLine
 10
516.6928802736
 20
913.9272204903
 30
0.0
 11
645.3428802736
 21
913.9272204903
 31
0.0
  0
LINE
  5
422
330
416
100
AcDbEntity
  8
SLD-0
100
AcDbLine
 10
516.6928802736
 20
584.7272204903
 30
0.0
 11
645.3428802736
 21
584.7272204903
 31
0.0
  0
LINE
  5
423
330
416
100
AcDbEntity
  8
SLD-0
100
AcDbLine
 10
640.7708802736
 20
913.9272204903
 30
0.0
 11
640.7708802736
 21
774.9256589469
 31
0.0
  0
LINE
  5
424
330
416
100
AcDbEntity
  8
SLD-0
100
AcDbLine
 10
640.7708802736
 20
584.7272204903
 30
0.0
 11
640.7708802736
 21
723.7287820336
 31
0.0
  0
MTEXT
  5
425
330
416
100
AcDbEntity
  8
SLD-0
100
AcDbMText
 10
603.0677554674
 20
770.4744580843
 30
0.0
 40
14.2875
 41
0.0
 71
     1
 72
     1
  1
 
  7
SLDTEXTSTYLE0
 73
     1
 44
1.0
  0
MTEXT
  5
426
330
416
100
AcDbEntity
  8
SLD-0
100
AcDbMText
 10
617.0245253026
 20
770.4744594813
 30
0.0
 40
14.2875
 41
0.0
 71
     1
 72
     1
  1
329.2
  7
SLDTEXTSTYLE0
 73
     1
 44
1.0
  0
MTEXT
  5
427
330
416
100
AcDbEntity
  8
SLD-0
100
AcDbMText
 10
617.0245266995
 20
744.8760224216
 30
0.0
 40
14.2875
 41
0.0
 71
     1
 72
     1
  1
12.96
  7
SLDTEXTSTYLE0
 73
     1
 44
1.0
  0
MTEXT
  5
428
330
416
100
AcDbEntity
  8
SLD-0
100
AcDbMText
 10
673.2087952561
 20
770.4744580843
 30
0.0
 40
14.2875
 41
0.0
 71
     1
 72
     1
  1
 
  7
SLDTEXTSTYLE0
 73
     1
 44
1.0
  0
ENDBLK
  5
418
330
416
100
AcDbEntity
  8
0
100
AcDbBlockEnd
  0
BLOCK
  5
42B
330
42A
100
AcDbEntity
  8
0
100
AcDbBlockBegin
  2
_D_17
 70
     0
 10
0.0
 20
0.0
 30
0.0
  3
_D_17
  1

  0
SOLID
  5
42D
330
42A
100
AcDbEntity
  8
SLD-0
100
AcDbTrace
 10
640.7708802736
 20
913.9272204903
 30
0.0
 11
642.2708802736
 21
925.9272204903
 31
0.0
 12
639.2708802736
 22
925.9272204903
 32
0.0
 13
639.2708802736
 23
925.9272204903
 33
0.0
  0
SOLID
  5
42E
330
42A
100
AcDbEntity
  8
SLD-0
100
AcDbTrace
 10
640.7708802736
 20
954.3272204903
 30
0.0
 11
639.2708802736
 21
942.3272204903
 31
0.0
 12
642.2708802736
 22
942.3272204903
 32
0.0
 13
642.2708802736
 23
942.3272204903
 33
0.0
  0
LINE
  5
42F
330
42A
100
AcDbEntity
  8
SLD-0
100
AcDbLine
 10
675.4167461106
 20
988.1139881525
 30
0.0
 11
671.0709647079
 21
988.1139881525
 31
0.0
  0
LINE
  5
430
330
42A
100
AcDbEntity
  8
SLD-0
100
AcDbLine
 10
671.0709647079
 20
988.1139881525
 30
0.0
 11
671.0709647079
 21
965.4127377633
 31
0.0
  0
LINE
  5
431
330
42A
100
AcDbEntity
  8
SLD-0
100
AcDbLine
 10
671.0709647079
 20
965.4127377633
 30
0.0
 11
675.4167461106
 21
965.4127377633
 31
0.0
  0
LINE
  5
432
330
42A
100
AcDbEntity
  8
SLD-0
100
AcDbLine
 10
712.3525803247
 20
988.1139881525
 30
0.0
 11
716.6983617274
 21
988.1139881525
 31
0.0
  0
LINE
  5
433
330
42A
100
AcDbEntity
  8
SLD-0
100
AcDbLine
 10
716.6983617274
 20
988.1139881525
 30
0.0
 11
716.6983617274
 21
965.4127377633
 31
0.0
  0
LINE
  5
434
330
42A
100
AcDbEntity
  8
SLD-0
100
AcDbLine
 10
716.6983617274
 20
965.4127377633
 30
0.0
 11
712.3525803247
 21
965.4127377633
 31
0.0
  0
LINE
  5
435
330
42A
100
AcDbEntity
  8
SLD-0
100
AcDbLine
 10
516.6928802736
 20
913.9272204903
 30
0.0
 11
645.3428802736
 21
913.9272204903
 31
0.0
  0
LINE
  5
436
330
42A
100
AcDbEntity
  8
SLD-0
100
AcDbLine
 10
587.713470492
 20
954.3272204903
 30
0.0
 11
645.3428802736
 21
954.3272204903
 31
0.0
  0
LINE
  5
437
330
42A
100
AcDbEntity
  8
SLD-0
100
AcDbLine
 10
652.7708802736
 20
988.1139853586
 30
0.0
 11
640.7708802736
 21
988.1139853586
 31
0.0
  0
LINE
  5
438
330
42A
100
AcDbEntity
  8
SLD-0
100
AcDbLine
 10
640.7708802736
 20
988.1139853586
 30
0.0
 11
640.7708802736
 21
954.3272204903
 31
0.0
  0
LINE
  5
439
330
42A
100
AcDbEntity
  8
SLD-0
100
AcDbLine
 10
640.7708802736
 20
913.9272204903
 30
0.0
 11
640.7708802736
 21
954.3272204903
 31
0.0
  0
MTEXT
  5
43A
330
42A
100
AcDbEntity
  8
SLD-0
100
AcDbMText
 10
661.4599748784
 20
1009.2612229526
 30
0.0
 40
14.2875
 41
0.0
 71
     1
 72
     1
  1
 
  7
SLDTEXTSTYLE0
 73
     1
 44
1.0
  0
MTEXT
  5
43B
330
42A
100
AcDbEntity
  8
SLD-0
100
AcDbMText
 10
675.4167447136
 20
1009.2612243496
 30
0.0
 40
14.2875
 41
0.0
 71
     1
 72
     1
  1
40.4
  7
SLDTEXTSTYLE0
 73
     1
 44
1.0
  0
MTEXT
  5
43C
330
42A
100
AcDbEntity
  8
SLD-0
100
AcDbMText
 10
675.4167461106
 20
983.6627872899
 30
0.0
 40
14.2875
 41
0.0
 71
     1
 72
     1
  1
1.59
  7
SLDTEXTSTYLE0
 73
     1
 44
1.0
  0
MTEXT
  5
43D
330
42A
100
AcDbEntity
  8
SLD-0
100
AcDbMText
 10
721.044141733
 20
1009.2612229526
 30
0.0
 40
14.2875
 41
0.0
 71
     1
 72
     1
  1
 
  7
SLDTEXTSTYLE0
 73
     1
 44
1.0
  0
ENDBLK
  5
42C
330
42A
100
AcDbEntity
  8
0
100
AcDbBlockEnd
  0
BLOCK
  5
440
330
43F
100
AcDbEntity
  8
0
100
AcDbBlockBegin
  2
_D_18
 70
     0
 10
0.0
 20
0.0
 30
0.0
  3
_D_18
  1

  0
SOLID
  5
442
330
43F
100
AcDbEntity
  8
SLD-0
100
AcDbTrace
 10
499.3708802736
 20
1014.3272204903
 30
0.0
 11
487.3708802736
 21
1015.8272204903
 31
0.0
 12
487.3708802736
 22
1012.8272204903
 32
0.0
 13
487.3708802736
 23
1012.8272204903
 33
0.0
  0
SOLID
  5
443
330
43F
100
AcDbEntity
  8
SLD-0
100
AcDbTrace
 10
344.3708802736
 20
1014.3272204903
 30
0.0
 11
356.3708802736
 21
1012.8272204903
 31
0.0
 12
356.3708802736
 22
1015.8272204903
 32
0.0
 13
356.3708802736
 23
1015.8272204903
 33
0.0
  0
LINE
  5
444
330
43F
100
AcDbEntity
  8
SLD-0
100
AcDbLine
 10
403.4029631666
 20
1014.3272232842
 30
0.0
 11
399.0571817639
 21
1014.3272232842
 31
0.0
  0
LINE
  5
445
330
43F
100
AcDbEntity
  8
SLD-0
100
AcDbLine
 10
399.0571817639
 20
1014.3272232842
 30
0.0
 11
399.0571817639
 21
991.625972895
 31
0.0
  0
LINE
  5
446
330
43F
100
AcDbEntity
  8
SLD-0
100
AcDbLine
 10
399.0571817639
 20
991.625972895
 30
0.0
 11
403.4029631666
 21
991.625972895
 31
0.0
  0
LINE
  5
447
330
43F
100
AcDbEntity
  8
SLD-0
100
AcDbLine
 10
440.3387973807
 20
1014.3272232842
 30
0.0
 11
444.6845787834
 21
1014.3272232842
 31
0.0
  0
LINE
  5
448
330
43F
100
AcDbEntity
  8
SLD-0
100
AcDbLine
 10
444.6845787834
 20
1014.3272232842
 30
0.0
 11
444.6845787834
 21
991.625972895
 31
0.0
  0
LINE
  5
449
330
43F
100
AcDbEntity
  8
SLD-0
100
AcDbLine
 10
444.6845787834
 20
991.625972895
 30
0.0
 11
440.3387973807
 21
991.625972895
 31
0.0
  0
LINE
  5
44A
330
43F
100
AcDbEntity
  8
SLD-0
100
AcDbLine
 10
499.3708802736
 20
931.2492204903
 30
0.0
 11
499.3708802736
 21
1018.8992204903
 31
0.0
  0
LINE
  5
44B
330
43F
100
AcDbEntity
  8
SLD-0
100
AcDbLine
 10
344.3708802736
 20
961.6844007247
 30
0.0
 11
344.3708802736
 21
1018.8992204903
 31
0.0
  0
LINE
  5
44C
330
43F
100
AcDbEntity
  8
SLD-0
100
AcDbLine
 10
499.3708802736
 20
1014.3272204903
 30
0.0
 11
457.1919334811
 21
1014.3272204903
 31
0.0
  0
LINE
  5
44D
330
43F
100
AcDbEntity
  8
SLD-0
100
AcDbLine
 10
344.3708802736
 20
1014.3272204903
 30
0.0
 11
386.5498270662
 21
1014.3272204903
 31
0.0
  0
MTEXT
  5
44E
330
43F
100
AcDbEntity
  8
SLD-0
100
AcDbMText
 10
389.4461919344
 20
1035.4744580843
 30
0.0
 40
14.2875
 41
0.0
 71
     1
 72
     1
  1
 
  7
SLDTEXTSTYLE0
 73
     1
 44
1.0
  0
MTEXT
  5
44F
330
43F
100
AcDbEntity
  8
SLD-0
100
AcDbMText
 10
398.1245253026
 20
1035.4744594813
 30
0.0
 40
14.2875
 41
0.0
 71
     1
 72
     1
  1
155.0
  7
SLDTEXTSTYLE0
 73
     1
 44
1.0
  0
MTEXT
  5
450
330
43F
100
AcDbEntity
  8
SLD-0
100
AcDbMText
 10
403.4029631666
 20
1009.8760224216
 30
0.0
 40
14.2875
 41
0.0
 71
     1
 72
     1
  1
6.10
  7
SLDTEXTSTYLE0
 73
     1
 44
1.0
  0
MTEXT
  5
451
330
43F
100
AcDbEntity
  8
SLD-0
100
AcDbMText
 10
449.030358789
 20
1035.4744580843
 30
0.0
 40
14.2875
 41
0.0
 71
     1
 72
     1
  1
 
  7
SLDTEXTSTYLE0
 73
     1
 44
1.0
  0
ENDBLK
  5
441
330
43F
100
AcDbEntity
  8
0
100
AcDbBlockEnd
  0
BLOCK
  5
454
330
453
100
AcDbEntity
  8
0
100
AcDbBlockBegin
  2
SW_NOTE_0_8
 70
     0
 10
0.0
 20
0.0
 30
0.0
  3
SW_NOTE_0_8
  1

  0
LINE
  5
456
330
453
100
AcDbEntity
  8
SLD-0
 62
     0
100
AcDbLine
 10
0.0
 20
-18.2952572146
 30
0.0
 11
0.0
 21
16.3346047679
 31
0.0
  0
LINE
  5
457
330
453
100
AcDbEntity
  8
SLD-0
 62
     0
100
AcDbLine
 10
0.0
 20
16.3346047679
 30
0.0
 11
34.6298619824
 21
16.3346047679
 31
0.0
  0
LINE
  5
458
330
453
100
AcDbEntity
  8
SLD-0
 62
     0
100
AcDbLine
 10
34.6298619824
 20
16.3346047679
 30
0.0
 11
34.6298619824
 21
-18.2952572146
 31
0.0
  0
LINE
  5
459
330
453
100
AcDbEntity
  8
SLD-0
 62
     0
100
AcDbLine
 10
34.6298619824
 20
-18.2952572146
 30
0.0
 11
0.0
 21
-18.2952572146
 31
0.0
  0
MTEXT
  5
45A
330
453
100
AcDbEntity
  8
SLD-0
 62
     0
100
AcDbMText
 10
17.1710637889
 20
5.975456139
 30
0.0
 40
14.2875
 41
0.0
 71
     2
 72
     1
  1
6
  7
SLDTEXTSTYLE0
 73
     1
 44
1.0
  0
ENDBLK
  5
455
330
453
100
AcDbEntity
  8
0
100
AcDbBlockEnd
  0
BLOCK
  5
45F
330
45E
100
AcDbEntity
  8
0
100
AcDbBlockBegin
  2
SW_CENTERMARKSYMBOL_7
 70
     0
 10
0.0
 20
0.0
 30
0.0
  3
SW_CENTERMARKSYMBOL_7
  1

  0
LINE
  5
461
330
45E
100
AcDbEntity
  8
SLD-0
 62
     0
100
AcDbLine
 10
0.0
 20
0.0
 30
0.0
 11
0.0
 21
2.0
 31
0.0
  0
LINE
  5
462
330
45E
100
AcDbEntity
  8
SLD-0
 62
     0
100
AcDbLine
 10
0.0
 20
0.0
 30
0.0
 11
-2.0
 21
0.0
 31
0.0
  0
LINE
  5
463
330
45E
100
AcDbEntity
  8
SLD-0
 62
     0
100
AcDbLine
 10
0.0
 20
0.0
 30
0.0
 11
0.0
 21
-2.0
 31
0.0
  0
LINE
  5
464
330
45E
100
AcDbEntity
  8
SLD-0
 62
     0
100
AcDbLine
 10
0.0
 20
0.0
 30
0.0
 11
2.0
 21
0.0
 31
0.0
  0
LINE
  5
465
330
45E
100
AcDbEntity
  8
SLD-0
 62
     0
100
AcDbLine
 10
0.0
 20
4.0
 30
0.0
 11
0.0
 21
12.75
 31
0.0
  0
LINE
  5
466
330
45E
100
AcDbEntity
  8
SLD-0
 62
     0
100
AcDbLine
 10
-4.0
 20
0.0
 30
0.0
 11
-12.75
 21
0.0
 31
0.0
  0
LINE
  5
467
330
45E
100
AcDbEntity
  8
SLD-0
 62
     0
100
AcDbLine
 10
0.0
 20
-4.0
 30
0.0
 11
0.0
 21
-12.75
 31
0.0
  0
LINE
  5
468
330
45E
100
AcDbEntity
  8
SLD-0
 62
     0
100
AcDbLine
 10
4.0
 20
0.0
 30
0.0
 11
12.75
 21
0.0
 31
0.0
  0
ENDBLK
  5
460
330
45E
100
AcDbEntity
  8
0
100
AcDbBlockEnd
  0
BLOCK
  5
46B
330
46A
100
AcDbEntity
  8
0
100
AcDbBlockBegin
  2
SW_CENTERMARKSYMBOL_8
 70
     0
 10
0.0
 20
0.0
 30
0.0
  3
SW_CENTERMARKSYMBOL_8
  1

  0
LINE
  5
46D
330
46A
100
AcDbEntity
  8
SLD-0
 62
     0
100
AcDbLine
 10
0.0
 20
0.0
 30
0.0
 11
0.0
 21
2.0
 31
0.0
  0
LINE
  5
46E
330
46A
100
AcDbEntity
  8
SLD-0
 62
     0
100
AcDbLine
 10
0.0
 20
0.0
 30
0.0
 11
-2.0
 21
0.0
 31
0.0
  0
LINE
  5
46F
330
46A
100
AcDbEntity
  8
SLD-0
 62
     0
100
AcDbLine
 10
0.0
 20
0.0
 30
0.0
 11
0.0
 21
-2.0
 31
0.0
  0
LINE
  5
470
330
46A
100
AcDbEntity
  8
SLD-0
 62
     0
100
AcDbLine
 10
0.0
 20
0.0
 30
0.0
 11
2.0
 21
0.0
 31
0.0
  0
LINE
  5
471
330
46A
100
AcDbEntity
  8
SLD-0
 62
     0
100
AcDbLine
 10
0.0
 20
4.0
 30
0.0
 11
0.0
 21
12.75
 31
0.0
  0
LINE
  5
472
330
46A
100
AcDbEntity
  8
SLD-0
 62
     0
100
AcDbLine
 10
-4.0
 20
0.0
 30
0.0
 11
-12.75
 21
0.0
 31
0.0
  0
LINE
  5
473
330
46A
100
AcDbEntity
  8
SLD-0
 62
     0
100
AcDbLine
 10
0.0
 20
-4.0
 30
0.0
 11
0.0
 21
-12.75
 31
0.0
  0
LINE
  5
474
330
46A
100
AcDbEntity
  8
SLD-0
 62
     0
100
AcDbLine
 10
4.0
 20
0.0
 30
0.0
 11
12.75
 21
0.0
 31
0.0
  0
ENDBLK
  5
46C
330
46A
100
AcDbEntity
  8
0
100
AcDbBlockEnd
  0
BLOCK
  5
4BB
330
4BA
100
AcDbEntity
  8
0
100
AcDbBlockBegin
  2
_D_19
 70
     0
 10
0.0
 20
0.0
 30
0.0
  3
_D_19
  1

  0
SOLID
  5
4BD
330
4BA
100
AcDbEntity
  8
SLD-0
100
AcDbTrace
 10
2102.78264751
 20
433.0005279984
 30
0.0
 11
2114.78264751
 21
431.5005279984
 31
0.0
 12
2114.78264751
 22
434.5005279984
 32
0.0
 13
2114.78264751
 23
434.5005279984
 33
0.0
  0
SOLID
  5
4BE
330
4BA
100
AcDbEntity
  8
SLD-0
100
AcDbTrace
 10
2223.78264751
 20
433.0005279984
 30
0.0
 11
2211.78264751
 21
434.5005279984
 31
0.0
 12
2211.78264751
 22
431.5005279984
 32
0.0
 13
2211.78264751
 23
431.5005279984
 33
0.0
  0
LINE
  5
4BF
330
4BA
100
AcDbEntity
  8
SLD-0
100
AcDbLine
 10
2144.814730403
 20
433.0005307924
 30
0.0
 11
2140.4689490003
 21
433.0005307924
 31
0.0
  0
LINE
  5
4C0
330
4BA
100
AcDbEntity
  8
SLD-0
100
AcDbLine
 10
2140.4689490003
 20
433.0005307924
 30
0.0
 11
2140.4689490003
 21
410.2992804032
 31
0.0
  0
LINE
  5
4C1
330
4BA
100
AcDbEntity
  8
SLD-0
100
AcDbLine
 10
2140.4689490003
 20
410.2992804032
 30
0.0
 11
2144.814730403
 21
410.2992804032
 31
0.0
  0
LINE
  5
4C2
330
4BA
100
AcDbEntity
  8
SLD-0
100
AcDbLine
 10
2181.7505646171
 20
433.0005307924
 30
0.0
 11
2186.0963460197
 21
433.0005307924
 31
0.0
  0
LINE
  5
4C3
330
4BA
100
AcDbEntity
  8
SLD-0
100
AcDbLine
 10
2186.0963460197
 20
433.0005307924
 30
0.0
 11
2186.0963460197
 21
410.2992804032
 31
0.0
  0
LINE
  5
4C4
330
4BA
100
AcDbEntity
  8
SLD-0
100
AcDbLine
 10
2186.0963460197
 20
410.2992804032
 30
0.0
 11
2181.7505646171
 21
410.2992804032
 31
0.0
  0
LINE
  5
4C5
330
4BA
100
AcDbEntity
  8
SLD-0
100
AcDbLine
 10
2102.78264751
 20
602.969424427
 30
0.0
 11
2102.78264751
 21
428.4285279984
 31
0.0
  0
LINE
  5
4C6
330
4BA
100
AcDbEntity
  8
SLD-0
100
AcDbLine
 10
2223.78264751
 20
603.6046310645
 30
0.0
 11
2223.78264751
 21
428.4285279984
 31
0.0
  0
LINE
  5
4C7
330
4BA
100
AcDbEntity
  8
SLD-0
100
AcDbLine
 10
2102.78264751
 20
433.0005279984
 30
0.0
 11
2126.0962827768
 21
433.0005279984
 31
0.0
  0
LINE
  5
4C8
330
4BA
100
AcDbEntity
  8
SLD-0
100
AcDbLine
 10
2223.78264751
 20
433.0005279984
 30
0.0
 11
2200.4690122433
 21
433.0005279984
 31
0.0
  0
MTEXT
  5
4C9
330
4BA
100
AcDbEntity
  8
SLD-0
100
AcDbMText
 10
2128.992647645
 20
454.1477655925
 30
0.0
 40
14.2875
 41
0.0
 71
     1
 72
     1
  1
 
  7
SLDTEXTSTYLE0
 73
     1
 44
1.0
  0
MTEXT
  5
4CA
330
4BA
100
AcDbEntity
  8
SLD-0
100
AcDbMText
 10
2134.2578560719
 20
454.1477669895
 30
0.0
 40
14.2875
 41
0.0
 71
     1
 72
     1
  1
121.00
  7
SLDTEXTSTYLE0
 73
     1
 44
1.0
  0
MTEXT
  5
4CB
330
4BA
100
AcDbEntity
  8
SLD-0
100
AcDbMText
 10
2144.814730403
 20
428.5493299298
 30
0.0
 40
14.2875
 41
0.0
 71
     1
 72
     1
  1
4.76
  7
SLDTEXTSTYLE0
 73
     1
 44
1.0
  0
MTEXT
  5
4CC
330
4BA
100
AcDbEntity
  8
SLD-0
100
AcDbMText
 10
2192.3074375512
 20
454.1477655925
 30
0.0
 40
14.2875
 41
0.0
 71
     1
 72
     1
  1
 
  7
SLDTEXTSTYLE0
 73
     1
 44
1.0
  0
ENDBLK
  5
4BC
330
4BA
100
AcDbEntity
  8
0
100
AcDbBlockEnd
  0
BLOCK
  5
4CF
330
4CE
100
AcDbEntity
  8
0
100
AcDbBlockBegin
  2
_D_20
 70
     0
 10
0.0
 20
0.0
 30
0.0
  3
_D_20
  1

  0
SOLID
  5
4D1
330
4CE
100
AcDbEntity
  8
SLD-0
100
AcDbTrace
 10
1962.68264751
 20
759.0772204903
 30
0.0
 11
1961.18264751
 21
747.0772204903
 31
0.0
 12
1964.18264751
 22
747.0772204903
 32
0.0
 13
1964.18264751
 23
747.0772204903
 33
0.0
  0
SOLID
  5
4D2
330
4CE
100
AcDbEntity
  8
SLD-0
100
AcDbTrace
 10
1962.68264751
 20
604.0772204903
 30
0.0
 11
1964.18264751
 21
616.0772204903
 31
0.0
 12
1961.18264751
 22
616.0772204903
 32
0.0
 13
1961.18264751
 23
616.0772204903
 33
0.0
  0
LINE
  5
4D3
330
4CE
100
AcDbEntity
  8
SLD-0
100
AcDbLine
 10
1944.214730403
 20
681.5772232842
 30
0.0
 11
1939.8689490003
 21
681.5772232842
 31
0.0
  0
LINE
  5
4D4
330
4CE
100
AcDbEntity
  8
SLD-0
100
AcDbLine
 10
1939.8689490003
 20
681.5772232842
 30
0.0
 11
1939.8689490003
 21
658.875972895
 31
0.0
  0
LINE
  5
4D5
330
4CE
100
AcDbEntity
  8
SLD-0
100
AcDbLine
 10
1939.8689490003
 20
658.875972895
 30
0.0
 11
1944.214730403
 21
658.875972895
 31
0.0
  0
LINE
  5
4D6
330
4CE
100
AcDbEntity
  8
SLD-0
100
AcDbLine
 10
1981.1505646171
 20
681.5772232842
 30
0.0
 11
1985.4963460197
 21
681.5772232842
 31
0.0
  0
LINE
  5
4D7
330
4CE
100
AcDbEntity
  8
SLD-0
100
AcDbLine
 10
1985.4963460197
 20
681.5772232842
 30
0.0
 11
1985.4963460197
 21
658.875972895
 31
0.0
  0
LINE
  5
4D8
330
4CE
100
AcDbEntity
  8
SLD-0
100
AcDbLine
 10
1985.4963460197
 20
658.875972895
 30
0.0
 11
1981.1505646171
 21
658.875972895
 31
0.0
  0
LINE
  5
4D9
330
4CE
100
AcDbEntity
  8
SLD-0
100
AcDbLine
 10
2100.4515346548
 20
759.0772204903
 30
0.0
 11
1958.11064751
 21
759.0772204903
 31
0.0
  0
LINE
  5
4DA
330
4CE
100
AcDbEntity
  8
SLD-0
100
AcDbLine
 10
2101.2904790889
 20
604.0772204903
 30
0.0
 11
1958.11064751
 21
604.0772204903
 31
0.0
  0
LINE
  5
4DB
330
4CE
100
AcDbEntity
  8
SLD-0
100
AcDbLine
 10
1962.68264751
 20
759.0772204903
 30
0.0
 11
1962.68264751
 21
707.1756589469
 31
0.0
  0
LINE
  5
4DC
330
4CE
100
AcDbEntity
  8
SLD-0
100
AcDbLine
 10
1962.68264751
 20
604.0772204903
 30
0.0
 11
1962.68264751
 21
655.9787820336
 31
0.0
  0
MTEXT
  5
4DD
330
4CE
100
AcDbEntity
  8
SLD-0
100
AcDbMText
 10
1928.392647645
 20
702.7244580843
 30
0.0
 40
14.2875
 41
0.0
 71
     1
 72
     1
  1
 
  7
SLDTEXTSTYLE0
 73
     1
 44
1.0
  0
MTEXT
  5
4DE
330
4CE
100
AcDbEntity
  8
SLD-0
100
AcDbMText
 10
1933.6578560719
 20
702.7244594813
 30
0.0
 40
14.2875
 41
0.0
 71
     1
 72
     1
  1
155.00
  7
SLDTEXTSTYLE0
 73
     1
 44
1.0
  0
MTEXT
  5
4DF
330
4CE
100
AcDbEntity
  8
SLD-0
100
AcDbMText
 10
1944.214730403
 20
677.1260224216
 30
0.0
 40
14.2875
 41
0.0
 71
     1
 72
     1
  1
6.10
  7
SLDTEXTSTYLE0
 73
     1
 44
1.0
  0
MTEXT
  5
4E0
330
4CE
100
AcDbEntity
  8
SLD-0
100
AcDbMText
 10
1991.7074375512
 20
702.7244580843
 30
0.0
 40
14.2875
 41
0.0
 71
     1
 72
     1
  1
 
  7
SLDTEXTSTYLE0
 73
     1
 44
1.0
  0
ENDBLK
  5
4D0
330
4CE
100
AcDbEntity
  8
0
100
AcDbBlockEnd
  0
BLOCK
  5
4E3
330
4E2
100
AcDbEntity
  8
0
100
AcDbBlockBegin
  2
_D_21
 70
     0
 10
0.0
 20
0.0
 30
0.0
  3
_D_21
  1

  0
SOLID
  5
4E5
330
4E2
100
AcDbEntity
  8
SLD-0
100
AcDbTrace
 10
1962.68264751
 20
604.0772204903
 30
0.0
 11
1961.18264751
 21
592.0772204903
 31
0.0
 12
1964.18264751
 22
592.0772204903
 32
0.0
 13
1964.18264751
 23
592.0772204903
 33
0.0
  0
SOLID
  5
4E6
330
4E2
100
AcDbEntity
  8
SLD-0
100
AcDbTrace
 10
1962.68264751
 20
544.3272204903
 30
0.0
 11
1964.18264751
 21
556.3272204903
 31
0.0
 12
1961.18264751
 22
556.3272204903
 32
0.0
 13
1961.18264751
 23
556.3272204903
 33
0.0
  0
LINE
  5
4E7
330
4E2
100
AcDbEntity
  8
SLD-0
100
AcDbLine
 10
1891.100947459
 20
484.3272232842
 30
0.0
 11
1886.7551660563
 21
484.3272232842
 31
0.0
  0
LINE
  5
4E8
330
4E2
100
AcDbEntity
  8
SLD-0
100
AcDbLine
 10
1886.7551660563
 20
484.3272232842
 30
0.0
 11
1886.7551660563
 21
461.625972895
 31
0.0
  0
LINE
  5
4E9
330
4E2
100
AcDbEntity
  8
SLD-0
100
AcDbLine
 10
1886.7551660563
 20
461.625972895
 30
0.0
 11
1891.100947459
 21
461.625972895
 31
0.0
  0
LINE
  5
4EA
330
4E2
100
AcDbEntity
  8
SLD-0
100
AcDbLine
 10
1928.0367816731
 20
484.3272232842
 30
0.0
 11
1932.3825630757
 21
484.3272232842
 31
0.0
  0
LINE
  5
4EB
330
4E2
100
AcDbEntity
  8
SLD-0
100
AcDbLine
 10
1932.3825630757
 20
484.3272232842
 30
0.0
 11
1932.3825630757
 21
461.625972895
 31
0.0
  0
LINE
  5
4EC
330
4E2
100
AcDbEntity
  8
SLD-0
100
AcDbLine
 10
1932.3825630757
 20
461.625972895
 30
0.0
 11
1928.0367816731
 21
461.625972895
 31
0.0
  0
LINE
  5
4ED
330
4E2
100
AcDbEntity
  8
SLD-0
100
AcDbLine
 10
2101.2458209911
 20
604.0772204903
 30
0.0
 11
1958.11064751
 21
604.0772204903
 31
0.0
  0
LINE
  5
4EE
330
4E2
100
AcDbEntity
  8
SLD-0
100
AcDbLine
 10
2014.3489433626
 20
544.3272204903
 30
0.0
 11
1958.11064751
 21
544.3272204903
 31
0.0
  0
LINE
  5
4EF
330
4E2
100
AcDbEntity
  8
SLD-0
100
AcDbLine
 10
1950.68264751
 20
484.3272204903
 30
0.0
 11
1962.68264751
 21
484.3272204903
 31
0.0
  0
LINE
  5
4F0
330
4E2
100
AcDbEntity
  8
SLD-0
100
AcDbLine
 10
1962.68264751
 20
484.3272204903
 30
0.0
 11
1962.68264751
 21
544.3272204903
 31
0.0
  0
LINE
  5
4F1
330
4E2
100
AcDbEntity
  8
SLD-0
100
AcDbLine
 10
1962.68264751
 20
604.0772204903
 30
0.0
 11
1962.68264751
 21
544.3272204903
 31
0.0
  0
MTEXT
  5
4F2
330
4E2
100
AcDbEntity
  8
SLD-0
100
AcDbMText
 10
1877.1441762268
 20
505.4744580843
 30
0.0
 40
14.2875
 41
0.0
 71
     1
 72
     1
  1
 
  7
SLDTEXTSTYLE0
 73
     1
 44
1.0
  0
MTEXT
  5
4F3
330
4E2
100
AcDbEntity
  8
SLD-0
100
AcDbMText
 10
1891.100946062
 20
505.4744594813
 30
0.0
 40
14.2875
 41
0.0
 71
     1
 72
     1
  1
59.8
  7
SLDTEXTSTYLE0
 73
     1
 44
1.0
  0
MTEXT
  5
4F4
330
4E2
100
AcDbEntity
  8
SLD-0
100
AcDbMText
 10
1891.100947459
 20
479.8760224216
 30
0.0
 40
14.2875
 41
0.0
 71
     1
 72
     1
  1
2.35
  7
SLDTEXTSTYLE0
 73
     1
 44
1.0
  0
MTEXT
  5
4F5
330
4E2
100
AcDbEntity
  8
SLD-0
100
AcDbMText
 10
1936.7283430814
 20
505.4744580843
 30
0.0
 40
14.2875
 41
0.0
 71
     1
 72
     1
  1
 
  7
SLDTEXTSTYLE0
 73
     1
 44
1.0
  0
ENDBLK
  5
4E4
330
4E2
100
AcDbEntity
  8
0
100
AcDbBlockEnd
  0
BLOCK
  5
4F8
330
4F7
100
AcDbEntity
  8
0
100
AcDbBlockBegin
  2
_D_22
 70
     0
 10
0.0
 20
0.0
 30
0.0
  3
_D_22
  1

  0
SOLID
  5
4FA
330
4F7
100
AcDbEntity
  8
SLD-0
100
AcDbTrace
 10
2223.78264751
 20
433.0005279984
 30
0.0
 11
2211.78264751
 21
434.5005279984
 31
0.0
 12
2211.78264751
 22
431.5005279984
 32
0.0
 13
2211.78264751
 23
431.5005279984
 33
0.0
  0
SOLID
  5
4FB
330
4F7
100
AcDbEntity
  8
SLD-0
100
AcDbTrace
 10
2303.28264751
 20
433.0005279984
 30
0.0
 11
2315.28264751
 21
431.5005279984
 31
0.0
 12
2315.28264751
 22
434.5005279984
 32
0.0
 13
2315.28264751
 23
434.5005279984
 33
0.0
  0
LINE
  5
4FC
330
4F7
100
AcDbEntity
  8
SLD-0
100
AcDbLine
 10
2245.064730403
 20
433.0005307924
 30
0.0
 11
2240.7189490003
 21
433.0005307924
 31
0.0
  0
LINE
  5
4FD
330
4F7
100
AcDbEntity
  8
SLD-0
100
AcDbLine
 10
2240.7189490003
 20
433.0005307924
 30
0.0
 11
2240.7189490003
 21
410.2992804032
 31
0.0
  0
LINE
  5
4FE
330
4F7
100
AcDbEntity
  8
SLD-0
100
AcDbLine
 10
2240.7189490003
 20
410.2992804032
 30
0.0
 11
2245.064730403
 21
410.2992804032
 31
0.0
  0
LINE
  5
4FF
330
4F7
100
AcDbEntity
  8
SLD-0
100
AcDbLine
 10
2282.0005646171
 20
433.0005307924
 30
0.0
 11
2286.3463460197
 21
433.0005307924
 31
0.0
  0
LINE
  5
500
330
4F7
100
AcDbEntity
  8
SLD-0
100
AcDbLine
 10
2286.3463460197
 20
433.0005307924
 30
0.0
 11
2286.3463460197
 21
410.2992804032
 31
0.0
  0
LINE
  5
501
330
4F7
100
AcDbEntity
  8
SLD-0
100
AcDbLine
 10
2286.3463460197
 20
410.2992804032
 30
0.0
 11
2282.0005646171
 21
410.2992804032
 31
0.0
  0
LINE
  5
502
330
4F7
100
AcDbEntity
  8
SLD-0
100
AcDbLine
 10
2223.78264751
 20
603.7817119329
 30
0.0
 11
2223.78264751
 21
428.4285279984
 31
0.0
  0
LINE
  5
503
330
4F7
100
AcDbEntity
  8
SLD-0
100
AcDbLine
 10
2303.28264751
 20
533.8084905256
 30
0.0
 11
2303.28264751
 21
428.4285279984
 31
0.0
  0
LINE
  5
504
330
4F7
100
AcDbEntity
  8
SLD-0
100
AcDbLine
 10
2223.78264751
 20
433.0005279984
 30
0.0
 11
2199.78264751
 21
433.0005279984
 31
0.0
  0
LINE
  5
505
330
4F7
100
AcDbEntity
  8
SLD-0
100
AcDbLine
 10
2303.28264751
 20
433.0005279984
 30
0.0
 11
2327.28264751
 21
433.0005279984
 31
0.0
  0
MTEXT
  5
506
330
4F7
100
AcDbEntity
  8
SLD-0
100
AcDbMText
 10
2231.1079591708
 20
454.1477655925
 30
0.0
 40
14.2875
 41
0.0
 71
     1
 72
     1
  1
 
  7
SLDTEXTSTYLE0
 73
     1
 44
1.0
  0
MTEXT
  5
507
330
4F7
100
AcDbEntity
  8
SLD-0
100
AcDbMText
 10
2245.064729006
 20
454.1477669895
 30
0.0
 40
14.2875
 41
0.0
 71
     1
 72
     1
  1
79.5
  7
SLDTEXTSTYLE0
 73
     1
 44
1.0
  0
MTEXT
  5
508
330
4F7
100
AcDbEntity
  8
SLD-0
100
AcDbMText
 10
2245.064730403
 20
428.5493299298
 30
0.0
 40
14.2875
 41
0.0
 71
     1
 72
     1
  1
3.13
  7
SLDTEXTSTYLE0
 73
     1
 44
1.0
  0
MTEXT
  5
509
330
4F7
100
AcDbEntity
  8
SLD-0
100
AcDbMText
 10
2290.6921260254
 20
454.1477655925
 30
0.0
 40
14.2875
 41
0.0
 71
     1
 72
     1
  1
 
  7
SLDTEXTSTYLE0
 73
     1
 44
1.0
  0
ENDBLK
  5
4F9
330
4F7
100
AcDbEntity
  8
0
100
AcDbBlockEnd
  0
BLOCK
  5
50C
330
50B
100
AcDbEntity
  8
0
100
AcDbBlockBegin
  2
_D_23
 70
     0
 10
0.0
 20
0.0
 30
0.0
  3
_D_23
  1

  0
SOLID
  5
50E
330
50B
100
AcDbEntity
  8
SLD-0
100
AcDbTrace
 10
2363.88264751
 20
899.4772204903
 30
0.0
 11
2362.38264751
 21
887.4772204903
 31
0.0
 12
2365.38264751
 22
887.4772204903
 32
0.0
 13
2365.38264751
 23
887.4772204903
 33
0.0
  0
SOLID
  5
50F
330
50B
100
AcDbEntity
  8
SLD-0
100
AcDbTrace
 10
2363.88264751
 20
791.5772204903
 30
0.0
 11
2365.38264751
 21
803.5772204903
 31
0.0
 12
2362.38264751
 22
803.5772204903
 32
0.0
 13
2362.38264751
 23
803.5772204903
 33
0.0
  0
LINE
  5
510
330
50B
100
AcDbEntity
  8
SLD-0
100
AcDbLine
 10
2345.414730403
 20
845.5272232842
 30
0.0
 11
2341.0689490003
 21
845.5272232842
 31
0.0
  0
LINE
  5
511
330
50B
100
AcDbEntity
  8
SLD-0
100
AcDbLine
 10
2341.0689490003
 20
845.5272232842
 30
0.0
 11
2341.0689490003
 21
822.825972895
 31
0.0
  0
LINE
  5
512
330
50B
100
AcDbEntity
  8
SLD-0
100
AcDbLine
 10
2341.0689490003
 20
822.825972895
 30
0.0
 11
2345.414730403
 21
822.825972895
 31
0.0
  0
LINE
  5
513
330
50B
100
AcDbEntity
  8
SLD-0
100
AcDbLine
 10
2382.3505646171
 20
845.5272232842
 30
0.0
 11
2386.6963460198
 21
845.5272232842
 31
0.0
  0
LINE
  5
514
330
50B
100
AcDbEntity
  8
SLD-0
100
AcDbLine
 10
2386.6963460198
 20
845.5272232842
 30
0.0
 11
2386.6963460198
 21
822.825972895
 31
0.0
  0
LINE
  5
515
330
50B
100
AcDbEntity
  8
SLD-0
100
AcDbLine
 10
2386.6963460198
 20
822.825972895
 30
0.0
 11
2382.3505646171
 21
822.825972895
 31
0.0
  0
LINE
  5
516
330
50B
100
AcDbEntity
  8
SLD-0
100
AcDbLine
 10
2202.25464751
 20
899.4772204903
 30
0.0
 11
2368.45464751
 21
899.4772204903
 31
0.0
  0
LINE
  5
517
330
50B
100
AcDbEntity
  8
SLD-0
100
AcDbLine
 10
2202.25464751
 20
791.5772204903
 30
0.0
 11
2368.45464751
 21
791.5772204903
 31
0.0
  0
LINE
  5
518
330
50B
100
AcDbEntity
  8
SLD-0
100
AcDbLine
 10
2363.88264751
 20
899.4772204903
 30
0.0
 11
2363.88264751
 21
871.1256589469
 31
0.0
  0
LINE
  5
519
330
50B
100
AcDbEntity
  8
SLD-0
100
AcDbLine
 10
2363.88264751
 20
791.5772204903
 30
0.0
 11
2363.88264751
 21
819.9287820336
 31
0.0
  0
MTEXT
  5
51A
330
50B
100
AcDbEntity
  8
SLD-0
100
AcDbMText
 10
2331.4579591708
 20
866.6744580843
 30
0.0
 40
14.2875
 41
0.0
 71
     1
 72
     1
  1
 
  7
SLDTEXTSTYLE0
 73
     1
 44
1.0
  0
MTEXT
  5
51B
330
50B
100
AcDbEntity
  8
SLD-0
100
AcDbMText
 10
2340.136292539
 20
866.6744594813
 30
0.0
 40
14.2875
 41
0.0
 71
     1
 72
     1
  1
107.9
  7
SLDTEXTSTYLE0
 73
     1
 44
1.0
  0
MTEXT
  5
51C
330
50B
100
AcDbEntity
  8
SLD-0
100
AcDbMText
 10
2345.414730403
 20
841.0760224216
 30
0.0
 40
14.2875
 41
0.0
 71
     1
 72
     1
  1
4.25
  7
SLDTEXTSTYLE0
 73
     1
 44
1.0
  0
MTEXT
  5
51D
330
50B
100
AcDbEntity
  8
SLD-0
100
AcDbMText
 10
2391.0421260254
 20
866.6744580843
 30
0.0
 40
14.2875
 41
0.0
 71
     1
 72
     1
  1
 
  7
SLDTEXTSTYLE0
 73
     1
 44
1.0
  0
ENDBLK
  5
50D
330
50B
100
AcDbEntity
  8
0
100
AcDbBlockEnd
  0
BLOCK
  5
520
330
51F
100
AcDbEntity
  8
0
100
AcDbBlockBegin
  2
_D_24
 70
     0
 10
0.0
 20
0.0
 30
0.0
  3
_D_24
  1

  0
SOLID
  5
522
330
51F
100
AcDbEntity
  8
SLD-0
100
AcDbTrace
 10
2363.88264751
 20
899.4772204903
 30
0.0
 11
2365.38264751
 21
911.4772204903
 31
0.0
 12
2362.38264751
 22
911.4772204903
 32
0.0
 13
2362.38264751
 23
911.4772204903
 33
0.0
  0
SOLID
  5
523
330
51F
100
AcDbEntity
  8
SLD-0
100
AcDbTrace
 10
2363.88264751
 20
954.3272204903
 30
0.0
 11
2362.38264751
 21
942.3272204903
 31
0.0
 12
2365.38264751
 22
942.3272204903
 32
0.0
 13
2365.38264751
 23
942.3272204903
 33
0.0
  0
LINE
  5
524
330
51F
100
AcDbEntity
  8
SLD-0
100
AcDbLine
 10
2398.528513347
 20
1014.3272232842
 30
0.0
 11
2394.1827319443
 21
1014.3272232842
 31
0.0
  0
LINE
  5
525
330
51F
100
AcDbEntity
  8
SLD-0
100
AcDbLine
 10
2394.1827319443
 20
1014.3272232842
 30
0.0
 11
2394.1827319443
 21
991.625972895
 31
0.0
  0
LINE
  5
526
330
51F
100
AcDbEntity
  8
SLD-0
100
AcDbLine
 10
2394.1827319443
 20
991.625972895
 30
0.0
 11
2398.528513347
 21
991.625972895
 31
0.0
  0
LINE
  5
527
330
51F
100
AcDbEntity
  8
SLD-0
100
AcDbLine
 10
2435.4643475611
 20
1014.3272232842
 30
0.0
 11
2439.8101289638
 21
1014.3272232842
 31
0.0
  0
LINE
  5
528
330
51F
100
AcDbEntity
  8
SLD-0
100
AcDbLine
 10
2439.8101289638
 20
1014.3272232842
 30
0.0
 11
2439.8101289638
 21
991.625972895
 31
0.0
  0
LINE
  5
529
330
51F
100
AcDbEntity
  8
SLD-0
100
AcDbLine
 10
2439.8101289638
 20
991.625972895
 30
0.0
 11
2435.4643475611
 21
991.625972895
 31
0.0
  0
LINE
  5
52A
330
51F
100
AcDbEntity
  8
SLD-0
100
AcDbLine
 10
2202.25464751
 20
899.4772204903
 30
0.0
 11
2368.45464751
 21
899.4772204903
 31
0.0
  0
LINE
  5
52B
330
51F
100
AcDbEntity
  8
SLD-0
100
AcDbLine
 10
2311.434617492
 20
954.3272204903
 30
0.0
 11
2368.45464751
 21
954.3272204903
 31
0.0
  0
LINE
  5
52C
330
51F
100
AcDbEntity
  8
SLD-0
100
AcDbLine
 10
2375.88264751
 20
1014.3272204903
 30
0.0
 11
2363.88264751
 21
1014.3272204903
 31
0.0
  0
LINE
  5
52D
330
51F
100
AcDbEntity
  8
SLD-0
100
AcDbLine
 10
2363.88264751
 20
1014.3272204903
 30
0.0
 11
2363.88264751
 21
954.3272204903
 31
0.0
  0
LINE
  5
52E
330
51F
100
AcDbEntity
  8
SLD-0
100
AcDbLine
 10
2363.88264751
 20
899.4772204903
 30
0.0
 11
2363.88264751
 21
954.3272204903
 31
0.0
  0
MTEXT
  5
52F
330
51F
100
AcDbEntity
  8
SLD-0
100
AcDbMText
 10
2384.5717421148
 20
1035.4744580843
 30
0.0
 40
14.2875
 41
0.0
 71
     1
 72
     1
  1
 
  7
SLDTEXTSTYLE0
 73
     1
 44
1.0
  0
MTEXT
  5
530
330
51F
100
AcDbEntity
  8
SLD-0
100
AcDbMText
 10
2398.52851195
 20
1035.4744594813
 30
0.0
 40
14.2875
 41
0.0
 71
     1
 72
     1
  1
54.9
  7
SLDTEXTSTYLE0
 73
     1
 44
1.0
  0
MTEXT
  5
531
330
51F
100
AcDbEntity
  8
SLD-0
100
AcDbMText
 10
2398.528513347
 20
1009.8760224216
 30
0.0
 40
14.2875
 41
0.0
 71
     1
 72
     1
  1
2.16
  7
SLDTEXTSTYLE0
 73
     1
 44
1.0
  0
MTEXT
  5
532
330
51F
100
AcDbEntity
  8
SLD-0
100
AcDbMText
 10
2444.1559089694
 20
1035.4744580843
 30
0.0
 40
14.2875
 41
0.0
 71
     1
 72
     1
  1
 
  7
SLDTEXTSTYLE0
 73
     1
 44
1.0
  0
ENDBLK
  5
521
330
51F
100
AcDbEntity
  8
0
100
AcDbBlockEnd
  0
BLOCK
  5
535
330
534
100
AcDbEntity
  8
0
100
AcDbBlockBegin
  2
_D_25
 70
     0
 10
0.0
 20
0.0
 30
0.0
  3
_D_25
  1

  0
SOLID
  5
537
330
534
100
AcDbEntity
  8
SLD-0
100
AcDbTrace
 10
2188.68264751
 20
1014.3272204903
 30
0.0
 11
2176.68264751
 21
1015.8272204903
 31
0.0
 12
2176.68264751
 22
1012.8272204903
 32
0.0
 13
2176.68264751
 23
1012.8272204903
 33
0.0
  0
SOLID
  5
538
330
534
100
AcDbEntity
  8
SLD-0
100
AcDbTrace
 10
2137.88264751
 20
1014.3272204903
 30
0.0
 11
2149.88264751
 21
1012.8272204903
 31
0.0
 12
2149.88264751
 22
1015.8272204903
 32
0.0
 13
2149.88264751
 23
1015.8272204903
 33
0.0
  0
LINE
  5
539
330
534
100
AcDbEntity
  8
SLD-0
100
AcDbLine
 10
2077.1562838367
 20
1014.3272232842
 30
0.0
 11
2072.810502434
 21
1014.3272232842
 31
0.0
  0
LINE
  5
53A
330
534
100
AcDbEntity
  8
SLD-0
100
AcDbLine
 10
2072.810502434
 20
1014.3272232842
 30
0.0
 11
2072.810502434
 21
991.625972895
 31
0.0
  0
LINE
  5
53B
330
534
100
AcDbEntity
  8
SLD-0
100
AcDbLine
 10
2072.810502434
 20
991.625972895
 30
0.0
 11
2077.1562838367
 21
991.625972895
 31
0.0
  0
LINE
  5
53C
330
534
100
AcDbEntity
  8
SLD-0
100
AcDbLine
 10
2114.0921180508
 20
1014.3272232842
 30
0.0
 11
2118.4378994534
 21
1014.3272232842
 31
0.0
  0
LINE
  5
53D
330
534
100
AcDbEntity
  8
SLD-0
100
AcDbLine
 10
2118.4378994534
 20
1014.3272232842
 30
0.0
 11
2118.4378994534
 21
991.625972895
 31
0.0
  0
LINE
  5
53E
330
534
100
AcDbEntity
  8
SLD-0
100
AcDbLine
 10
2118.4378994534
 20
991.625972895
 30
0.0
 11
2114.0921180508
 21
991.625972895
 31
0.0
  0
LINE
  5
53F
330
534
100
AcDbEntity
  8
SLD-0
100
AcDbLine
 10
2188.68264751
 20
913.0492204903
 30
0.0
 11
2188.68264751
 21
1018.8992204903
 31
0.0
  0
LINE
  5
540
330
534
100
AcDbEntity
  8
SLD-0
100
AcDbLine
 10
2137.88264751
 20
913.0492204903
 30
0.0
 11
2137.88264751
 21
1018.8992204903
 31
0.0
  0
LINE
  5
541
330
534
100
AcDbEntity
  8
SLD-0
100
AcDbLine
 10
2188.68264751
 20
1014.3272204903
 30
0.0
 11
2137.88264751
 21
1014.3272204903
 31
0.0
  0
LINE
  5
542
330
534
100
AcDbEntity
  8
SLD-0
100
AcDbLine
 10
2137.88264751
 20
1014.3272204903
 30
0.0
 11
2130.9452541512
 21
1014.3272204903
 31
0.0
  0
MTEXT
  5
543
330
534
100
AcDbEntity
  8
SLD-0
100
AcDbMText
 10
2063.1995126045
 20
1035.4744580843
 30
0.0
 40
14.2875
 41
0.0
 71
     1
 72
     1
  1
 
  7
SLDTEXTSTYLE0
 73
     1
 44
1.0
  0
MTEXT
  5
544
330
534
100
AcDbEntity
  8
SLD-0
100
AcDbMText
 10
2077.1562824397
 20
1035.4744594813
 30
0.0
 40
14.2875
 41
0.0
 71
     1
 72
     1
  1
50.8
  7
SLDTEXTSTYLE0
 73
     1
 44
1.0
  0
MTEXT
  5
545
330
534
100
AcDbEntity
  8
SLD-0
100
AcDbMText
 10
2077.1562838367
 20
1009.8760224216
 30
0.0
 40
14.2875
 41
0.0
 71
     1
 72
     1
  1
2.00
  7
SLDTEXTSTYLE0
 73
     1
 44
1.0
  0
MTEXT
  5
546
330
534
100
AcDbEntity
  8
SLD-0
100
AcDbMText
 10
2122.7836794591
 20
1035.4744580843
 30
0.0
 40
14.2875
 41
0.0
 71
     1
 72
     1
  1
 
  7
SLDTEXTSTYLE0
 73
     1
 44
1.0
  0
ENDBLK
  5
536
330
534
100
AcDbEntity
  8
0
100
AcDbBlockEnd
  0
BLOCK
  5
549
330
548
100
AcDbEntity
  8
0
100
AcDbBlockBegin
  2
_D_26
 70
     0
 10
0.0
 20
0.0
 30
0.0
  3
_D_26
  1

  0
SOLID
  5
54B
330
548
100
AcDbEntity
  8
SLD-0
100
AcDbTrace
 10
2188.68264751
 20
1014.3272204903
 30
0.0
 11
2200.68264751
 21
1012.8272204903
 31
0.0
 12
2200.68264751
 22
1015.8272204903
 32
0.0
 13
2200.68264751
 23
1015.8272204903
 33
0.0
  0
SOLID
  5
54C
330
548
100
AcDbEntity
  8
SLD-0
100
AcDbTrace
 10
2303.28264751
 20
1014.3272204903
 30
0.0
 11
2291.28264751
 21
1015.8272204903
 31
0.0
 12
2291.28264751
 22
1012.8272204903
 32
0.0
 13
2291.28264751
 23
1012.8272204903
 33
0.0
  0
LINE
  5
54D
330
548
100
AcDbEntity
  8
SLD-0
100
AcDbLine
 10
2227.514730403
 20
1014.3272232842
 30
0.0
 11
2223.1689490003
 21
1014.3272232842
 31
0.0
  0
LINE
  5
54E
330
548
100
AcDbEntity
  8
SLD-0
100
AcDbLine
 10
2223.1689490003
 20
1014.3272232842
 30
0.0
 11
2223.1689490003
 21
991.625972895
 31
0.0
  0
LINE
  5
54F
330
548
100
AcDbEntity
  8
SLD-0
100
AcDbLine
 10
2223.1689490003
 20
991.625972895
 30
0.0
 11
2227.514730403
 21
991.625972895
 31
0.0
  0
LINE
  5
550
330
548
100
AcDbEntity
  8
SLD-0
100
AcDbLine
 10
2264.4505646171
 20
1014.3272232842
 30
0.0
 11
2268.7963460197
 21
1014.3272232842
 31
0.0
  0
LINE
  5
551
330
548
100
AcDbEntity
  8
SLD-0
100
AcDbLine
 10
2268.7963460197
 20
1014.3272232842
 30
0.0
 11
2268.7963460197
 21
991.625972895
 31
0.0
  0
LINE
  5
552
330
548
100
AcDbEntity
  8
SLD-0
100
AcDbLine
 10
2268.7963460197
 20
991.625972895
 30
0.0
 11
2264.4505646171
 21
991.625972895
 31
0.0
  0
LINE
  5
553
330
548
100
AcDbEntity
  8
SLD-0
100
AcDbLine
 10
2188.68264751
 20
913.0492204903
 30
0.0
 11
2188.68264751
 21
1018.8992204903
 31
0.0
  0
LINE
  5
554
330
548
100
AcDbEntity
  8
SLD-0
100
AcDbLine
 10
2303.28264751
 20
962.582845904
 30
0.0
 11
2303.28264751
 21
1018.8992204903
 31
0.0
  0
LINE
  5
555
330
548
100
AcDbEntity
  8
SLD-0
100
AcDbLine
 10
2188.68264751
 20
1014.3272204903
 30
0.0
 11
2210.6615943026
 21
1014.3272204903
 31
0.0
  0
LINE
  5
556
330
548
100
AcDbEntity
  8
SLD-0
100
AcDbLine
 10
2303.28264751
 20
1014.3272204903
 30
0.0
 11
2281.3037007175
 21
1014.3272204903
 31
0.0
  0
MTEXT
  5
557
330
548
100
AcDbEntity
  8
SLD-0
100
AcDbMText
 10
2213.5579591708
 20
1035.4744580843
 30
0.0
 40
14.2875
 41
0.0
 71
     1
 72
     1
  1
 
  7
SLDTEXTSTYLE0
 73
     1
 44
1.0
  0
MTEXT
  5
558
330
548
100
AcDbEntity
  8
SLD-0
100
AcDbMText
 10
2222.236292539
 20
1035.4744594813
 30
0.0
 40
14.2875
 41
0.0
 71
     1
 72
     1
  1
114.6
  7
SLDTEXTSTYLE0
 73
     1
 44
1.0
  0
MTEXT
  5
559
330
548
100
AcDbEntity
  8
SLD-0
100
AcDbMText
 10
2227.514730403
 20
1009.8760224216
 30
0.0
 40
14.2875
 41
0.0
 71
     1
 72
     1
  1
4.51
  7
SLDTEXTSTYLE0
 73
     1
 44
1.0
  0
MTEXT
  5
55A
330
548
100
AcDbEntity
  8
SLD-0
100
AcDbMText
 10
2273.1421260254
 20
1035.4744580843
 30
0.0
 40
14.2875
 41
0.0
 71
     1
 72
     1
  1
 
  7
SLDTEXTSTYLE0
 73
     1
 44
1.0
  0
ENDBLK
  5
54A
330
548
100
AcDbEntity
  8
0
100
AcDbBlockEnd
  0
BLOCK
  5
55D
330
55C
100
AcDbEntity
  8
0
100
AcDbBlockBegin
  2
_D_27
 70
     0
 10
0.0
 20
0.0
 30
0.0
  3
_D_27
  1

  0
SOLID
  5
55F
330
55C
100
AcDbEntity
  8
SLD-0
100
AcDbTrace
 10
2363.88264751
 20
544.3272204903
 30
0.0
 11
2365.38264751
 21
556.3272204903
 31
0.0
 12
2362.38264751
 22
556.3272204903
 32
0.0
 13
2362.38264751
 23
556.3272204903
 33
0.0
  0
SOLID
  5
560
330
55C
100
AcDbEntity
  8
SLD-0
100
AcDbTrace
 10
2363.88264751
 20
584.7272204903
 30
0.0
 11
2362.38264751
 21
572.7272204903
 31
0.0
 12
2365.38264751
 22
572.7272204903
 32
0.0
 13
2365.38264751
 23
572.7272204903
 33
0.0
  0
LINE
  5
561
330
55C
100
AcDbEntity
  8
SLD-0
100
AcDbLine
 10
2398.528513347
 20
617.586828017
 30
0.0
 11
2394.1827319443
 21
617.586828017
 31
0.0
  0
LINE
  5
562
330
55C
100
AcDbEntity
  8
SLD-0
100
AcDbLine
 10
2394.1827319443
 20
617.586828017
 30
0.0
 11
2394.1827319443
 21
594.8855776278
 31
0.0
  0
LINE
  5
563
330
55C
100
AcDbEntity
  8
SLD-0
100
AcDbLine
 10
2394.1827319443
 20
594.8855776278
 30
0.0
 11
2398.528513347
 21
594.8855776278
 31
0.0
  0
LINE
  5
564
330
55C
100
AcDbEntity
  8
SLD-0
100
AcDbLine
 10
2435.4643475611
 20
617.586828017
 30
0.0
 11
2439.8101289638
 21
617.586828017
 31
0.0
  0
LINE
  5
565
330
55C
100
AcDbEntity
  8
SLD-0
100
AcDbLine
 10
2439.8101289638
 20
617.586828017
 30
0.0
 11
2439.8101289638
 21
594.8855776278
 31
0.0
  0
LINE
  5
566
330
55C
100
AcDbEntity
  8
SLD-0
100
AcDbLine
 10
2439.8101289638
 20
594.8855776278
 30
0.0
 11
2435.4643475611
 21
594.8855776278
 31
0.0
  0
LINE
  5
567
330
55C
100
AcDbEntity
  8
SLD-0
100
AcDbLine
 10
2311.4756784559
 20
544.3272204903
 30
0.0
 11
2368.45464751
 21
544.3272204903
 31
0.0
  0
LINE
  5
568
330
55C
100
AcDbEntity
  8
SLD-0
100
AcDbLine
 10
2180.60464751
 20
584.7272204903
 30
0.0
 11
2368.45464751
 21
584.7272204903
 31
0.0
  0
LINE
  5
569
330
55C
100
AcDbEntity
  8
SLD-0
100
AcDbLine
 10
2375.88264751
 20
617.5868252231
 30
0.0
 11
2363.88264751
 21
617.5868252231
 31
0.0
  0
LINE
  5
56A
330
55C
100
AcDbEntity
  8
SLD-0
100
AcDbLine
 10
2363.88264751
 20
617.5868252231
 30
0.0
 11
2363.88264751
 21
584.7272204903
 31
0.0
  0
LINE
  5
56B
330
55C
100
AcDbEntity
  8
SLD-0
100
AcDbLine
 10
2363.88264751
 20
544.3272204903
 30
0.0
 11
2363.88264751
 21
584.7272204903
 31
0.0
  0
MTEXT
  5
56C
330
55C
100
AcDbEntity
  8
SLD-0
100
AcDbMText
 10
2384.5717421148
 20
638.7340628171
 30
0.0
 40
14.2875
 41
0.0
 71
     1
 72
     1
  1
 
  7
SLDTEXTSTYLE0
 73
     1
 44
1.0
  0
MTEXT
  5
56D
330
55C
100
AcDbEntity
  8
SLD-0
100
AcDbMText
 10
2398.52851195
 20
638.7340642141
 30
0.0
 40
14.2875
 41
0.0
 71
     1
 72
     1
  1
40.4
  7
SLDTEXTSTYLE0
 73
     1
 44
1.0
  0
MTEXT
  5
56E
330
55C
100
AcDbEntity
  8
SLD-0
100
AcDbMText
 10
2398.528513347
 20
613.1356271544
 30
0.0
 40
14.2875
 41
0.0
 71
     1
 72
     1
  1
1.59
  7
SLDTEXTSTYLE0
 73
     1
 44
1.0
  0
MTEXT
  5
56F
330
55C
100
AcDbEntity
  8
SLD-0
100
AcDbMText
 10
2444.1559089694
 20
638.7340628171
 30
0.0
 40
14.2875
 41
0.0
 71
     1
 72
     1
  1
 
  7
SLDTEXTSTYLE0
 73
     1
 44
1.0
  0
ENDBLK
  5
55E
330
55C
100
AcDbEntity
  8
0
100
AcDbBlockEnd
  0
BLOCK
  5
572
330
571
100
AcDbEntity
  8
0
100
AcDbBlockBegin
  2
_D_28
 70
     0
 10
0.0
 20
0.0
 30
0.0
  3
_D_28
  1

  0
SOLID
  5
574
330
571
100
AcDbEntity
  8
SLD-0
100
AcDbTrace
 10
2163.28264751
 20
495.5930829644
 30
0.0
 11
2175.28264751
 21
494.0930829644
 31
0.0
 12
2175.28264751
 22
497.0930829644
 32
0.0
 13
2175.28264751
 23
497.0930829644
 33
0.0
  0
SOLID
  5
575
330
571
100
AcDbEntity
  8
SLD-0
100
AcDbTrace
 10
2303.28264751
 20
495.5930829644
 30
0.0
 11
2291.28264751
 21
497.0930829644
 31
0.0
 12
2291.28264751
 22
494.0930829644
 32
0.0
 13
2291.28264751
 23
494.0930829644
 33
0.0
  0
LINE
  5
576
330
571
100
AcDbEntity
  8
SLD-0
100
AcDbLine
 10
2365.8704160506
 20
495.5930857584
 30
0.0
 11
2361.524634648
 21
495.5930857584
 31
0.0
  0
LINE
  5
577
330
571
100
AcDbEntity
  8
SLD-0
100
AcDbLine
 10
2361.524634648
 20
495.5930857584
 30
0.0
 11
2361.524634648
 21
472.8918353692
 31
0.0
  0
LINE
  5
578
330
571
100
AcDbEntity
  8
SLD-0
100
AcDbLine
 10
2361.524634648
 20
472.8918353692
 30
0.0
 11
2365.8704160506
 21
472.8918353692
 31
0.0
  0
LINE
  5
579
330
571
100
AcDbEntity
  8
SLD-0
100
AcDbLine
 10
2402.8062502647
 20
495.5930857584
 30
0.0
 11
2407.1520316674
 21
495.5930857584
 31
0.0
  0
LINE
  5
57A
330
571
100
AcDbEntity
  8
SLD-0
100
AcDbLine
 10
2407.1520316674
 20
495.5930857584
 30
0.0
 11
2407.1520316674
 21
472.8918353692
 31
0.0
  0
LINE
  5
57B
330
571
100
AcDbEntity
  8
SLD-0
100
AcDbLine
 10
2407.1520316674
 20
472.8918353692
 30
0.0
 11
2402.8062502647
 21
472.8918353692
 31
0.0
  0
LINE
  5
57C
330
571
100
AcDbEntity
  8
SLD-0
100
AcDbLine
 10
2163.28264751
 20
567.4052204903
 30
0.0
 11
2163.28264751
 21
491.0210829644
 31
0.0
  0
LINE
  5
57D
330
571
100
AcDbEntity
  8
SLD-0
100
AcDbLine
 10
2303.28264751
 20
536.3938238623
 30
0.0
 11
2303.28264751
 21
491.0210829644
 31
0.0
  0
LINE
  5
57E
330
571
100
AcDbEntity
  8
SLD-0
100
AcDbLine
 10
2163.28264751
 20
495.5930829644
 30
0.0
 11
2303.28264751
 21
495.5930829644
 31
0.0
  0
LINE
  5
57F
330
571
100
AcDbEntity
  8
SLD-0
100
AcDbLine
 10
2303.28264751
 20
495.5930829644
 30
0.0
 11
2349.0172799502
 21
495.5930829644
 31
0.0
  0
MTEXT
  5
580
330
571
100
AcDbEntity
  8
SLD-0
100
AcDbMText
 10
2351.9136448184
 20
516.7403205585
 30
0.0
 40
14.2875
 41
0.0
 71
     1
 72
     1
  1
 
  7
SLDTEXTSTYLE0
 73
     1
 44
1.0
  0
MTEXT
  5
581
330
571
100
AcDbEntity
  8
SLD-0
100
AcDbMText
 10
2360.5919781866
 20
516.7403219555
 30
0.0
 40
14.2875
 41
0.0
 71
     1
 72
     1
  1
140.0
  7
SLDTEXTSTYLE0
 73
     1
 44
1.0
  0
MTEXT
  5
582
330
571
100
AcDbEntity
  8
SLD-0
100
AcDbMText
 10
2365.8704160506
 20
491.1418848958
 30
0.0
 40
14.2875
 41
0.0
 71
     1
 72
     1
  1
5.51
  7
SLDTEXTSTYLE0
 73
     1
 44
1.0
  0
MTEXT
  5
583
330
571
100
AcDbEntity
  8
SLD-0
100
AcDbMText
 10
2411.4978116731
 20
516.7403205585
 30
0.0
 40
14.2875
 41
0.0
 71
     1
 72
     1
  1
 
  7
SLDTEXTSTYLE0
 73
     1
 44
1.0
  0
ENDBLK
  5
573
330
571
100
AcDbEntity
  8
0
100
AcDbBlockEnd
  0
BLOCK
  5
585
330
584
100
AcDbEntity
  8
0
100
AcDbBlockBegin
  2
SW_NOTE_0_9
 70
     0
 10
0.0
 20
0.0
 30
0.0
  3
SW_NOTE_0_9
  1

  0
LINE
  5
587
330
584
100
AcDbEntity
  8
SLD-0
 62
     0
100
AcDbLine
 10
-34.6298619824
 20
-17.542434128
 30
0.0
 11
-34.6298619824
 21
17.0874278545
 31
0.0
  0
LINE
  5
588
330
584
100
AcDbEntity
  8
SLD-0
 62
     0
100
AcDbLine
 10
-34.6298619824
 20
17.0874278545
 30
0.0
 11
0.0
 21
17.0874278545
 31
0.0
  0
LINE
  5
589
330
584
100
AcDbEntity
  8
SLD-0
 62
     0
100
AcDbLine
 10
0.0
 20
17.0874278545
 30
0.0
 11
0.0
 21
-17.542434128
 31
0.0
  0
LINE
  5
58A
330
584
100
AcDbEntity
  8
SLD-0
 62
     0
100
AcDbLine
 10
0.0
 20
-17.542434128
 30
0.0
 11
-34.6298619824
 21
-17.542434128
 31
0.0
  0
MTEXT
  5
58B
330
584
100
AcDbEntity
  8
SLD-0
 62
     0
100
AcDbMText
 10
-17.4587981935
 20
6.7282792256
 30
0.0
 40
14.2875
 41
0.0
 71
     2
 72
     1
  1
4
  7
SLDTEXTSTYLE0
 73
     1
 44
1.0
  0
ENDBLK
  5
586
330
584
100
AcDbEntity
  8
0
100
AcDbBlockEnd
  0
BLOCK
  5
58F
330
58E
100
AcDbEntity
  8
0
100
AcDbBlockBegin
  2
SW_NOTE_0_10
 70
     0
 10
0.0
 20
0.0
 30
0.0
  3
SW_NOTE_0_10
  1

  0
LINE
  5
591
330
58E
100
AcDbEntity
  8
SLD-0
 62
     0
100
AcDbLine
 10
-34.6298619824
 20
-17.542434128
 30
0.0
 11
-34.6298619824
 21
17.0874278545
 31
0.0
  0
LINE
  5
592
330
58E
100
AcDbEntity
  8
SLD-0
 62
     0
100
AcDbLine
 10
-34.6298619824
 20
17.0874278545
 30
0.0
 11
0.0
 21
17.0874278545
 31
0.0
  0
LINE
  5
593
330
58E
100
AcDbEntity
  8
SLD-0
 62
     0
100
AcDbLine
 10
0.0
 20
17.0874278545
 30
0.0
 11
0.0
 21
-17.542434128
 31
0.0
  0
LINE
  5
594
330
58E
100
AcDbEntity
  8
SLD-0
 62
     0
100
AcDbLine
 10
0.0
 20
-17.542434128
 30
0.0
 11
-34.6298619824
 21
-17.542434128
 31
0.0
  0
MTEXT
  5
595
330
58E
100
AcDbEntity
  8
SLD-0
 62
     0
100
AcDbMText
 10
-17.4587981935
 20
6.7282792256
 30
0.0
 40
14.2875
 41
0.0
 71
     2
 72
     1
  1
6
  7
SLDTEXTSTYLE0
 73
     1
 44
1.0
  0
ENDBLK
  5
590
330
58E
100
AcDbEntity
  8
0
100
AcDbBlockEnd
  0
BLOCK
  5
59A
330
599
100
AcDbEntity
  8
0
100
AcDbBlockBegin
  2
SW_CENTERMARKSYMBOL_9
 70
     0
 10
0.0
 20
0.0
 30
0.0
  3
SW_CENTERMARKSYMBOL_9
  1

  0
LINE
  5
59C
330
599
100
AcDbEntity
  8
SLD-0
 62
     0
100
AcDbLine
 10
0.0
 20
0.0
 30
0.0
 11
0.0
 21
2.0
 31
0.0
  0
LINE
  5
59D
330
599
100
AcDbEntity
  8
SLD-0
 62
     0
100
AcDbLine
 10
0.0
 20
0.0
 30
0.0
 11
-2.0
 21
0.0
 31
0.0
  0
LINE
  5
59E
330
599
100
AcDbEntity
  8
SLD-0
 62
     0
100
AcDbLine
 10
0.0
 20
0.0
 30
0.0
 11
0.0
 21
-2.0
 31
0.0
  0
LINE
  5
59F
330
599
100
AcDbEntity
  8
SLD-0
 62
     0
100
AcDbLine
 10
0.0
 20
0.0
 30
0.0
 11
2.0
 21
0.0
 31
0.0
  0
LINE
  5
5A0
330
599
100
AcDbEntity
  8
SLD-0
 62
     0
100
AcDbLine
 10
0.0
 20
4.0
 30
0.0
 11
0.0
 21
12.75
 31
0.0
  0
LINE
  5
5A1
330
599
100
AcDbEntity
  8
SLD-0
 62
     0
100
AcDbLine
 10
-4.0
 20
0.0
 30
0.0
 11
-12.75
 21
0.0
 31
0.0
  0
LINE
  5
5A2
330
599
100
AcDbEntity
  8
SLD-0
 62
     0
100
AcDbLine
 10
0.0
 20
-4.0
 30
0.0
 11
0.0
 21
-12.75
 31
0.0
  0
LINE
  5
5A3
330
599
100
AcDbEntity
  8
SLD-0
 62
     0
100
AcDbLine
 10
4.0
 20
0.0
 30
0.0
 11
12.75
 21
0.0
 31
0.0
  0
ENDBLK
  5
59B
330
599
100
AcDbEntity
  8
0
100
AcDbBlockEnd
  0
BLOCK
  5
5A6
330
5A5
100
AcDbEntity
  8
0
100
AcDbBlockBegin
  2
SW_CENTERMARKSYMBOL_10
 70
     0
 10
0.0
 20
0.0
 30
0.0
  3
SW_CENTERMARKSYMBOL_10
  1

  0
LINE
  5
5A8
330
5A5
100
AcDbEntity
  8
SLD-0
 62
     0
100
AcDbLine
 10
0.0
 20
0.0
 30
0.0
 11
0.0
 21
2.0
 31
0.0
  0
LINE
  5
5A9
330
5A5
100
AcDbEntity
  8
SLD-0
 62
     0
100
AcDbLine
 10
0.0
 20
0.0
 30
0.0
 11
-2.0
 21
0.0
 31
0.0
  0
LINE
  5
5AA
330
5A5
100
AcDbEntity
  8
SLD-0
 62
     0
100
AcDbLine
 10
0.0
 20
0.0
 30
0.0
 11
0.0
 21
-2.0
 31
0.0
  0
LINE
  5
5AB
330
5A5
100
AcDbEntity
  8
SLD-0
 62
     0
100
AcDbLine
 10
0.0
 20
0.0
 30
0.0
 11
2.0
 21
0.0
 31
0.0
  0
LINE
  5
5AC
330
5A5
100
AcDbEntity
  8
SLD-0
 62
     0
100
AcDbLine
 10
0.0
 20
4.0
 30
0.0
 11
0.0
 21
9.0
 31
0.0
  0
LINE
  5
5AD
330
5A5
100
AcDbEntity
  8
SLD-0
 62
     0
100
AcDbLine
 10
-4.0
 20
0.0
 30
0.0
 11
-9.0
 21
0.0
 31
0.0
  0
LINE
  5
5AE
330
5A5
100
AcDbEntity
  8
SLD-0
 62
     0
100
AcDbLine
 10
0.0
 20
-4.0
 30
0.0
 11
0.0
 21
-9.0
 31
0.0
  0
LINE
  5
5AF
330
5A5
100
AcDbEntity
  8
SLD-0
 62
     0
100
AcDbLine
 10
4.0
 20
0.0
 30
0.0
 11
9.0
 21
0.0
 31
0.0
  0
ENDBLK
  5
5A7
330
5A5
100
AcDbEntity
  8
0
100
AcDbBlockEnd
  0
BLOCK
  5
5B2
330
5B1
100
AcDbEntity
  8
0
100
AcDbBlockBegin
  2
SW_CENTERMARKSYMBOL_11
 70
     0
 10
0.0
 20
0.0
 30
0.0
  3
SW_CENTERMARKSYMBOL_11
  1

  0
LINE
  5
5B4
330
5B1
100
AcDbEntity
  8
SLD-0
 62
     0
100
AcDbLine
 10
0.0
 20
0.0
 30
0.0
 11
0.0
 21
2.0
 31
0.0
  0
LINE
  5
5B5
330
5B1
100
AcDbEntity
  8
SLD-0
 62
     0
100
AcDbLine
 10
0.0
 20
0.0
 30
0.0
 11
-2.0
 21
0.0
 31
0.0
  0
LINE
  5
5B6
330
5B1
100
AcDbEntity
  8
SLD-0
 62
     0
100
AcDbLine
 10
0.0
 20
0.0
 30
0.0
 11
0.0
 21
-2.0
 31
0.0
  0
LINE
  5
5B7
330
5B1
100
AcDbEntity
  8
SLD-0
 62
     0
100
AcDbLine
 10
0.0
 20
0.0
 30
0.0
 11
2.0
 21
0.0
 31
0.0
  0
LINE
  5
5B8
330
5B1
100
AcDbEntity
  8
SLD-0
 62
     0
100
AcDbLine
 10
0.0
 20
4.0
 30
0.0
 11
0.0
 21
9.0
 31
0.0
  0
LINE
  5
5B9
330
5B1
100
AcDbEntity
  8
SLD-0
 62
     0
100
AcDbLine
 10
-4.0
 20
0.0
 30
0.0
 11
-9.0
 21
0.0
 31
0.0
  0
LINE
  5
5BA
330
5B1
100
AcDbEntity
  8
SLD-0
 62
     0
100
AcDbLine
 10
0.0
 20
-4.0
 30
0.0
 11
0.0
 21
-9.0
 31
0.0
  0
LINE
  5
5BB
330
5B1
100
AcDbEntity
  8
SLD-0
 62
     0
100
AcDbLine
 10
4.0
 20
0.0
 30
0.0
 11
9.0
 21
0.0
 31
0.0
  0
ENDBLK
  5
5B3
330
5B1
100
AcDbEntity
  8
0
100
AcDbBlockEnd
  0
BLOCK
  5
5BE
330
5BD
100
AcDbEntity
  8
0
100
AcDbBlockBegin
  2
SW_CENTERMARKSYMBOL_12
 70
     0
 10
0.0
 20
0.0
 30
0.0
  3
SW_CENTERMARKSYMBOL_12
  1

  0
LINE
  5
5C0
330
5BD
100
AcDbEntity
  8
SLD-0
 62
     0
100
AcDbLine
 10
0.0
 20
0.0
 30
0.0
 11
0.0
 21
2.0
 31
0.0
  0
LINE
  5
5C1
330
5BD
100
AcDbEntity
  8
SLD-0
 62
     0
100
AcDbLine
 10
0.0
 20
0.0
 30
0.0
 11
-2.0
 21
0.0
 31
0.0
  0
LINE
  5
5C2
330
5BD
100
AcDbEntity
  8
SLD-0
 62
     0
100
AcDbLine
 10
0.0
 20
0.0
 30
0.0
 11
0.0
 21
-2.0
 31
0.0
  0
LINE
  5
5C3
330
5BD
100
AcDbEntity
  8
SLD-0
 62
     0
100
AcDbLine
 10
0.0
 20
0.0
 30
0.0
 11
2.0
 21
0.0
 31
0.0
  0
LINE
  5
5C4
330
5BD
100
AcDbEntity
  8
SLD-0
 62
     0
100
AcDbLine
 10
0.0
 20
4.0
 30
0.0
 11
0.0
 21
9.0
 31
0.0
  0
LINE
  5
5C5
330
5BD
100
AcDbEntity
  8
SLD-0
 62
     0
100
AcDbLine
 10
-4.0
 20
0.0
 30
0.0
 11
-9.0
 21
0.0
 31
0.0
  0
LINE
  5
5C6
330
5BD
100
AcDbEntity
  8
SLD-0
 62
     0
100
AcDbLine
 10
0.0
 20
-4.0
 30
0.0
 11
0.0
 21
-9.0
 31
0.0
  0
LINE
  5
5C7
330
5BD
100
AcDbEntity
  8
SLD-0
 62
     0
100
AcDbLine
 10
4.0
 20
0.0
 30
0.0
 11
9.0
 21
0.0
 31
0.0
  0
ENDBLK
  5
5BF
330
5BD
100
AcDbEntity
  8
0
100
AcDbBlockEnd
  0
BLOCK
  5
5CA
330
5C9
100
AcDbEntity
  8
0
100
AcDbBlockBegin
  2
SW_CENTERMARKSYMBOL_13
 70
     0
 10
0.0
 20
0.0
 30
0.0
  3
SW_CENTERMARKSYMBOL_13
  1

  0
LINE
  5
5CC
330
5C9
100
AcDbEntity
  8
SLD-0
 62
     0
100
AcDbLine
 10
0.0
 20
0.0
 30
0.0
 11
0.0
 21
2.0
 31
0.0
  0
LINE
  5
5CD
330
5C9
100
AcDbEntity
  8
SLD-0
 62
     0
100
AcDbLine
 10
0.0
 20
0.0
 30
0.0
 11
-2.0
 21
0.0
 31
0.0
  0
LINE
  5
5CE
330
5C9
100
AcDbEntity
  8
SLD-0
 62
     0
100
AcDbLine
 10
0.0
 20
0.0
 30
0.0
 11
0.0
 21
-2.0
 31
0.0
  0
LINE
  5
5CF
330
5C9
100
AcDbEntity
  8
SLD-0
 62
     0
100
AcDbLine
 10
0.0
 20
0.0
 30
0.0
 11
2.0
 21
0.0
 31
0.0
  0
LINE
  5
5D0
330
5C9
100
AcDbEntity
  8
SLD-0
 62
     0
100
AcDbLine
 10
0.0
 20
4.0
 30
0.0
 11
0.0
 21
9.0
 31
0.0
  0
LINE
  5
5D1
330
5C9
100
AcDbEntity
  8
SLD-0
 62
     0
100
AcDbLine
 10
-4.0
 20
0.0
 30
0.0
 11
-9.0
 21
0.0
 31
0.0
  0
LINE
  5
5D2
330
5C9
100
AcDbEntity
  8
SLD-0
 62
     0
100
AcDbLine
 10
0.0
 20
-4.0
 30
0.0
 11
0.0
 21
-9.0
 31
0.0
  0
LINE
  5
5D3
330
5C9
100
AcDbEntity
  8
SLD-0
 62
     0
100
AcDbLine
 10
4.0
 20
0.0
 30
0.0
 11
9.0
 21
0.0
 31
0.0
  0
ENDBLK
  5
5CB
330
5C9
100
AcDbEntity
  8
0
100
AcDbBlockEnd
  0
ENDSEC
  0
SECTION
  2
ENTITIES
  0
LINE
  5
68
330
1F
100
AcDbEntity
  8
SLD-0
 62
     7
100
AcDbLine
 10
39.0
 20
1637.4
 30
0.0
 11
2551.8
 21
1637.4
 31
0.0
  0
LINE
  5
69
330
1F
100
AcDbEntity
  8
0
  6
Continuous
 62
     7
370
    18
100
AcDbLine
 10
39.0
 20
108.0
 30
0.0
 11
2551.8
 21
108.0
 31
0.0
  0
LINE
  5
6A
330
1F
100
AcDbEntity
  8
0
  6
CENTER
 62
     7
370
    18
100
AcDbLine
 10
1100.7307548783
 20
53.5606180675
 30
0.0
 11
1128.7598448746
 21
53.5606180675
 31
0.0
  0
LINE
  5
6B
330
1F
100
AcDbEntity
  8
0
  6
Continuous
 62
     7
370
    18
100
AcDbLine
 10
1103.5680738295
 20
49.7506180675
 30
0.0
 11
1126.4280738295
 21
45.9406180675
 31
0.0
  0
LINE
  5
6C
330
1F
100
AcDbEntity
  8
0
  6
Continuous
 62
     7
370
    18
100
AcDbLine
 10
1103.5680738295
 20
57.3706180675
 30
0.0
 11
1126.4280738295
 21
61.1806180675
 31
0.0
  0
LINE
  5
6D
330
1F
100
AcDbEntity
  8
0
  6
CENTER
 62
     7
370
    18
100
AcDbLine
 10
1078.4525538295
 20
53.5606180675
 30
0.0
 11
1098.0266371137
 21
53.5606180675
 31
0.0
  0
LINE
  5
6E
330
1F
100
AcDbEntity
  8
0
  6
CENTER
 62
     7
370
    18
100
AcDbLine
 10
1088.2395954716
 20
43.6733863206
 30
0.0
 11
1088.2395954716
 21
63.4478498143
 31
0.0
  0
LINE
  5
6F
330
1F
100
AcDbEntity
  8
0
  6
Continuous
 62
     7
370
    18
100
AcDbLine
 10
1103.5680738295
 20
57.3706180675
 30
0.0
 11
1103.5680738295
 21
49.7506180675
 31
0.0
  0
LINE
  5
70
330
1F
100
AcDbEntity
  8
0
  6
Continuous
 62
     7
370
    18
100
AcDbLine
 10
1126.4280738295
 20
61.1806180675
 30
0.0
 11
1126.4280738295
 21
45.9406180675
 31
0.0
  0
CIRCLE
  5
71
330
1F
100
AcDbEntity
  8
0
  6
Continuous
 62
     7
370
    18
100
AcDbCircle
 10
1088.2395954716
 20
53.5606180675
 30
0.0
 40
7.619999999999465
  0
CIRCLE
  5
72
330
1F
100
AcDbEntity
  8
0
  6
Continuous
 62
     7
370
    18
100
AcDbCircle
 10
1088.2395954716
 20
53.5606180675
 30
0.0
 40
3.809999999999851
  0
INSERT
  5
AE
330
1F
100
AcDbEntity
  8
0
  6
Continuous
 62
     7
370
     0
100
AcDbBlockReference
  2
SW_NOTE_0
 10
47.0287152781
 20
1602.4531193423
 30
0.0
  0
MTEXT
  5
AF
330
1F
100
AcDbEntity
  8
0
  6
Continuous
 62
     7
370
     0
100
AcDbMText
 10
886.512905704
 20
86.945870327
 30
0.0
 40
11.1125
 41
0.0
 71
     2
 72
     1
  1
00PW4
  7
SLDTEXTSTYLE0
 73
     1
 44
1.0
  0
MTEXT
  5
B0
330
1F
100
AcDbEntity
  8
0
  6
Continuous
 62
     7
370
     0
100
AcDbMText
 10
1360.2035117629
 20
53.3652788928
 30
0.0
 40
11.1125
 41
0.0
 71
     1
 72
     1
  1
B.HAWKINS
  7
SLDTEXTSTYLE0
 73
     1
 44
1.0
  0
MTEXT
  5
B1
330
1F
100
AcDbEntity
  8
0
  6
Continuous
 62
     7
370
     0
100
AcDbMText
 10
969.3865600838
 20
99.2332332465
 30
0.0
 40
9.525
 41
0.0
 71
     1
 72
     1
  1
UNLESS  OTHERWISE  SPECIFIED
  7
SLDTEXTSTYLE0
 73
     1
 44
1.0
  0
MTEXT
  5
B2
330
1F
100
AcDbEntity
  8
0
  6
Continuous
 62
     7
370
     0
100
AcDbMText
 10
969.3865600838
 20
86.5332333999
 30
0.0
 40
9.525
 41
0.0
 71
     1
 72
     1
  1
DIMENSIONS  ARE  IN  MM [IN]
  7
SLDTEXTSTYLE0
 73
     1
 44
1.0
  0
MTEXT
  5
B3
330
1F
100
AcDbEntity
  8
0
  6
Continuous
 62
     7
370
     0
100
AcDbMText
 10
2357.6385868449
 20
53.9547736063
 30
0.0
 40
11.1125
 41
0.0
 71
     2
 72
     1
  1
1:6
  7
SLDTEXTSTYLE0
 73
     1
 44
1.0
  0
MTEXT
  5
B4
330
1F
100
AcDbEntity
  8
0
  6
Continuous
 62
     7
370
     0
100
AcDbMText
 10
983.8815857644
 20
59.0756158089
 30
0.0
 40
9.525
 41
0.0
 71
     1
 72
     1
  1
PROJECTION
  7
SLDTEXTSTYLE0
 73
     1
 44
1.0
  0
MTEXT
  5
B5
330
1F
100
AcDbEntity
  8
0
  6
Continuous
 62
     7
370
     0
100
AcDbMText
 10
1276.5455298412
 20
65.4263183868
 30
0.0
 40
9.525
 41
0.0
 71
     1
 72
     1
  1
%%p
  7
SLDTEXTSTYLE0
 73
     1
 44
1.0
  0
MTEXT
  5
B6
330
1F
100
AcDbEntity
  8
0
  6
Continuous
 62
     7
370
     0
100
AcDbMText
 10
1285.6260297175
 20
65.4263183868
 30
0.0
 40
9.525
 41
0.0
 71
     1
 72
     1
  1
1
  7
SLDTEXTSTYLE0
 73
     1
 44
1.0
  0
MTEXT
  5
B7
330
1F
100
AcDbEntity
  8
0
  6
Continuous
 62
     7
370
     0
100
AcDbMText
 10
1292.6639464039
 20
65.4263183868
 30
0.0
 40
9.525
 41
0.0
 71
     1
 72
     1
  1
%%d
  7
SLDTEXTSTYLE0
 73
     1
 44
1.0
  0
MTEXT
  5
B8
330
1F
100
AcDbEntity
  8
0
  6
Continuous
 62
     7
370
     0
100
AcDbMText
 10
1182.2212651415
 20
65.4263183868
 30
0.0
 40
9.525
 41
0.0
 71
     1
 72
     1
  1
.X 
  7
SLDTEXTSTYLE0
 73
     1
 44
1.0
  0
MTEXT
  5
B9
330
1F
100
AcDbEntity
  8
0
  6
Continuous
 62
     7
370
     0
100
AcDbMText
 10
1196.9673769592
 20
65.4263183868
 30
0.0
 40
9.525
 41
0.0
 71
     1
 72
     1
  1
%%p
  7
SLDTEXTSTYLE0
 73
     1
 44
1.0
  0
MTEXT
  5
BA
330
1F
100
AcDbEntity
  8
0
  6
Continuous
 62
     7
370
     0
100
AcDbMText
 10
1206.0478754385
 20
65.4263183868
 30
0.0
 40
9.525
 41
0.0
 71
     1
 72
     1
  1
 3
  7
SLDTEXTSTYLE0
 73
     1
 44
1.0
  0
MTEXT
  5
BB
330
1F
100
AcDbEntity
  8
0
  6
Continuous
 62
     7
370
     0
100
AcDbMText
 10
1182.2212651415
 20
52.7263185402
 30
0.0
 40
9.525
 41
0.0
 71
     1
 72
     1
  1
.XX 
  7
SLDTEXTSTYLE0
 73
     1
 44
1.0
  0
MTEXT
  5
BC
330
1F
100
AcDbEntity
  8
0
  6
Continuous
 62
     7
370
     0
100
AcDbMText
 10
1204.6932090117
 20
52.7263185402
 30
0.0
 40
9.525
 41
0.0
 71
     1
 72
     1
  1
%%p
  7
SLDTEXTSTYLE0
 73
     1
 44
1.0
  0
MTEXT
  5
BD
330
1F
100
AcDbEntity
  8
0
  6
Continuous
 62
     7
370
     0
100
AcDbMText
 10
2046.3317673108
 20
81.1373647347
 30
0.0
 40
19.05
 41
0.0
 71
     2
 72
     1
  1
LOUDSPEAKER,PL-CA8-BK,BK,8" COAXIAL
  7
SLDTEXTSTYLE0
 73
     1
 44
1.0
  0
MTEXT
  5
BE
330
1F
100
AcDbEntity
  8
0
  6
Continuous
 62
     7
370
     0
100
AcDbMText
 10
1182.3875585529
 20
99.2332332465
 30
0.0
 40
9.525
 41
0.0
 71
     1
 72
     1
  1
TOLERANCES  ARE:
  7
SLDTEXTSTYLE0
 73
     1
 44
1.0
  0
MTEXT
  5
BF
330
1F
100
AcDbEntity
  8
0
  6
Continuous
 62
     7
370
     0
100
AcDbMText
 10
1182.3875585529
 20
86.5332333999
 30
0.0
 40
9.525
 41
0.0
 71
     1
 72
     1
  1
DECIMALS          ANGLES
  7
SLDTEXTSTYLE0
 73
     1
 44
1.0
  0
MTEXT
  5
C0
330
1F
100
AcDbEntity
  8
0
  6
Continuous
 62
     7
370
     0
100
AcDbMText
 10
1521.71066176
 20
65.4187209735
 30
0.0
 40
7.9375
 41
0.0
 71
     1
 72
     1
  1
MFG ENGINEER
  7
SLDTEXTSTYLE0
 73
     1
 44
1.0
  0
MTEXT
  5
C1
330
1F
100
AcDbEntity
  8
0
  6
Continuous
 62
     7
370
     0
100
AcDbMText
 10
1360.2035117629
 20
65.4187209735
 30
0.0
 40
7.9375
 41
0.0
 71
     1
 72
     1
  1
MECH ENGINEER
  7
SLDTEXTSTYLE0
 73
     1
 44
1.0
  0
MTEXT
  5
C3
330
1F
100
AcDbEntity
  8
0
  6
Continuous
 62
     7
370
     0
100
AcDbMText
 10
2312.9429847923
 20
52.6792570849
 30
0.0
 40
7.9375
 41
0.0
 71
     1
 72
     1
  1
SCALE:  
  7
SLDTEXTSTYLE1
 73
     1
 44
1.0
  0
MTEXT
  5
C4
330
1F
100
AcDbEntity
  8
SLD-0
 62
     7
100
AcDbMText
 10
2312.4811025958
 20
83.3260787303
 30
0.0
 40
19.05
 41
0.0
 71
     1
 72
     1
  1
FG-901569-2D
  7
SLDTEXTSTYLE0
 73
     1
 44
1.0
  0
MTEXT
  5
C5
330
1F
100
AcDbEntity
  8
0
  6
Continuous
 62
     7
370
     0
100
AcDbMText
 10
2531.3076738708
 20
83.5570198285
 30
0.0
 40
19.05
 41
0.0
 71
     2
 72
     1
  1
A
  7
SLDTEXTSTYLE0
 73
     1
 44
1.0
  0
MTEXT
  5
C6
330
1F
100
AcDbEntity
  8
0
  6
Continuous
 62
     7
370
     0
100
AcDbMText
 10
2524.7912360057
 20
53.9547736063
 30
0.0
 40
11.1125
 41
0.0
 71
     2
 72
     1
  1
1  OF  1
  7
SLDTEXTSTYLE0
 73
     1
 44
1.0
  0
MTEXT
  5
C7
330
1F
100
AcDbEntity
  8
0
  6
Continuous
 62
     7
370
     0
100
AcDbMText
 10
2312.9429847923
 20
98.5555826356
 30
0.0
 40
7.9375
 41
0.0
 71
     1
 72
     1
  1
DRAWING NUMBER
  7
SLDTEXTSTYLE0
 73
     1
 44
1.0
  0
MTEXT
  5
C8
330
1F
100
AcDbEntity
  8
SLD-0
 62
     7
100
AcDbMText
 10
1521.71066176
 20
98.4552338433
 30
0.0
 40
7.9375
 41
0.0
 71
     1
 72
     1
  1
TECH DIRECTOR
  7
SLDTEXTSTYLE0
 73
     1
 44
1.0
  0
MTEXT
  5
C9
330
1F
100
AcDbEntity
  8
SLD-0
 62
     7
100
AcDbMText
 10
1360.2035117629
 20
98.4552338433
 30
0.0
 40
7.9375
 41
0.0
 71
     1
 72
     1
  1
DRAWN BY
  7
SLDTEXTSTYLE0
 73
     1
 44
1.0
  0
MTEXT
  5
CA
330
1F
100
AcDbEntity
  8
SLD-0
 62
     7
100
AcDbMText
 10
1360.2035117629
 20
87.1060281196
 30
0.0
 40
11.1125
 41
0.0
 71
     1
 72
     1
  1
K.CASTRO
  7
SLDTEXTSTYLE0
 73
     1
 44
1.0
  0
MTEXT
  5
CB
330
1F
100
AcDbEntity
  8
SLD-0
 62
     7
100
AcDbMText
 10
1521.71066176
 20
53.3652788928
 30
0.0
 40
11.1125
 41
0.0
 71
     1
 72
     1
  1
A.TRAN
  7
SLDTEXTSTYLE0
 73
     1
 44
1.0
  0
MTEXT
  5
CC
330
1F
100
AcDbEntity
  8
SLD-0
 62
     7
100
AcDbMText
 10
1521.71066176
 20
87.1060281196
 30
0.0
 40
11.1125
 41
0.0
 71
     1
 72
     1
  1
R.VAUCHER
  7
SLDTEXTSTYLE0
 73
     1
 44
1.0
  0
MTEXT
  5
CE
330
1F
100
AcDbEntity
  8
0
  6
Continuous
 62
     7
370
     0
100
AcDbMText
 10
657.7619615104
 20
89.8907190888
 30
0.0
 40
6.35
 41
0.0
 71
     2
 72
     1
  1
THIS DOCUMENT CONTAINS CONFIDENTIAL OR PROPRIETARY INFORMATION WHICH 
  7
SLDTEXTSTYLE2
 73
     1
 44
1.0
  0
MTEXT
  5
CF
330
1F
100
AcDbEntity
  8
0
  6
Continuous
 62
     7
370
     0
100
AcDbMText
 10
658.3105939042
 20
81.4240525245
 30
0.0
 40
6.35
 41
0.0
 71
     2
 72
     1
  1
IS THE PROPERTY OF QSC, LLC THAT MAY NOT BE DISCLOSED, REPRODUCED OR 
  7
SLDTEXTSTYLE2
 73
     1
 44
1.0
  0
MTEXT
  5
D0
330
1F
100
AcDbEntity
  8
0
  6
Continuous
 62
     7
370
     0
100
AcDbMText
 10
658.1873409127
 20
72.9573859601
 30
0.0
 40
6.35
 41
0.0
 71
     2
 72
     1
  1
USED WITHOUT EXPRESS WRITTEN CONSENT FROM QSC, LLC. NO PORTION OF THIS 
  7
SLDTEXTSTYLE2
 73
     1
 44
1.0
  0
MTEXT
  5
D1
330
1F
100
AcDbEntity
  8
0
  6
Continuous
 62
     7
370
     0
100
AcDbMText
 10
657.9756699179
 20
64.4907193958
 30
0.0
 40
6.35
 41
0.0
 71
     2
 72
     1
  1
DOCUMENT MAY BE REPRODUCED, REDISTRIBUTED, OR OTHERWISE DISCLOSED TO 
  7
SLDTEXTSTYLE2
 73
     1
 44
1.0
  0
MTEXT
  5
D3
330
1F
100
AcDbEntity
  8
0
  6
Continuous
 62
     7
370
     0
100
AcDbMText
 10
656.9293304401
 20
56.0240528314
 30
0.0
 40
6.35
 41
0.0
 71
     2
 72
     1
  1
ANY THIRD PARTY WITHOUT QSC\U+2019S WRITTEN PERMISSION.
  7
SLDTEXTSTYLE3
 73
     1
 44
1.0
  0
MTEXT
  5
D4
330
1F
100
AcDbEntity
  8
0
  6
Continuous
 62
     7
370
     0
100
AcDbMText
 10
2460.8665466277
 20
52.4833044667
 30
0.0
 40
7.9375
 41
0.0
 71
     1
 72
     1
  1
SHEET:
  7
SLDTEXTSTYLE0
 73
     1
 44
1.0
  0
MTEXT
  5
D5
330
1F
100
AcDbEntity
  8
SLD-0
100
AcDbMText
 10
293.4921611517
 20
91.7794449971
 30
0.0
 40
12.7
 41
0.0
 71
     1
 72
     1
  1
QSC, LLC
  7
SLDTEXTSTYLE0
 73
     1
 44
1.0
  0
MTEXT
  5
D6
330
1F
100
AcDbEntity
  8
0
  6
Continuous
 62
     7
370
     0
100
AcDbMText
 10
2532.005511757
 20
98.7152739113
 30
0.0
 40
7.9375
 41
0.0
 71
     2
 72
     1
  1
REV
  7
SLDTEXTSTYLE0
 73
     1
 44
1.0
  0
MTEXT
  5
D7
330
1F
100
AcDbEntity
  8
SLD-0
 62
     7
100
AcDbMText
 10
1681.6384606409
 20
98.4552338433
 30
0.0
 40
7.9375
 41
0.0
 71
     1
 72
     1
  1
REV BY
  7
SLDTEXTSTYLE0
 73
     1
 44
1.0
  0
MTEXT
  5
D8
330
1F
100
AcDbEntity
  8
SLD-0
 62
     7
100
AcDbMText
 10
1681.6384606409
 20
87.1060281196
 30
0.0
 40
11.1125
 41
0.0
 71
     1
 72
     1
  1
KC
  7
SLDTEXTSTYLE0
 73
     1
 44
1.0
  0
MTEXT
  5
D9
330
1F
100
AcDbEntity
  8
SLD-0
 62
     7
100
AcDbMText
 10
1681.6384606409
 20
53.3652788928
 30
0.0
 40
11.1125
 41
0.0
 71
     1
 72
     1
  1
11-MAR-2024
  7
SLDTEXTSTYLE0
 73
     1
 44
1.0
  0
MTEXT
  5
DA
330
1F
100
AcDbEntity
  8
0
  6
Continuous
 62
     7
370
     0
100
AcDbMText
 10
1681.6384606409
 20
65.4187209735
 30
0.0
 40
7.9375
 41
0.0
 71
     1
 72
     1
  1
REV DATE
  7
SLDTEXTSTYLE0
 73
     1
 44
1.0
  0
MTEXT
  5
DB
330
1F
100
AcDbEntity
  8
SLD-0
100
AcDbMText
 10
886.6415032299
 20
66.7887214064
 30
0.0
 40
7.9375
 41
0.0
 71
     2
 72
     1
  1
FORM
  7
SLDTEXTSTYLE0
 73
     1
 44
1.0
  0
MTEXT
  5
DC
330
1F
100
AcDbEntity
  8
0
  6
Continuous
 62
     7
370
     0
100
AcDbMText
 10
887.884098151
 20
54.8426003973
 30
0.0
 40
11.1125
 41
0.0
 71
     2
 72
     1
  1
QOS40169 B
  7
SLDTEXTSTYLE0
 73
     1
 44
1.0
  0
MTEXT
  5
DD
330
1F
100
AcDbEntity
  8
SLD-0
100
AcDbMText
 10
295.3281742125
 20
55.3802882126
 30
0.0
 40
9.525
 41
0.0
 71
     1
 72
     1
  1
COSTA MESA, CA 92626 USA
  7
SLDTEXTSTYLE0
 73
     1
 44
1.0
  0
MTEXT
  5
DE
330
1F
100
AcDbEntity
  8
SLD-0
100
AcDbMText
 10
294.8961038972
 20
71.6318901183
 30
0.0
 40
9.525
 41
0.0
 71
     1
 72
     1
  1
1675 MACARTHUR BLVD
  7
SLDTEXTSTYLE0
 73
     1
 44
1.0
  0
MTEXT
  5
DF
330
1F
100
AcDbEntity
  8
SLD-0
 62
     7
100
AcDbMText
 10
887.0470796962
 20
99.4319250321
 30
0.0
 40
7.9375
 41
0.0
 71
     2
 72
     1
  1
CAGE CODE
  7
SLDTEXTSTYLE0
 73
     1
 44
1.0
  0
LINE
  5
E0
330
1F
100
AcDbEntity
  8
0
  6
Continuous
 62
     7
370
    25
100
AcDbLine
 10
2143.8272203766
 20
1394.1200950267
 30
0.0
 11
2142.9433369001
 21
1393.6098399568
 31
0.0
  0
LINE
  5
E1
330
1F
100
AcDbEntity
  8
0
  6
Continuous
 62
     7
370
    25
100
AcDbLine
 10
2240.9353726985
 20
1223.8642629302
 30
0.0
 11
2241.8192561749
 21
1224.3745180001
 31
0.0
  0
LINE
  5
E2
330
1F
100
AcDbEntity
  8
0
  6
Continuous
 62
     7
370
    25
100
AcDbLine
 10
2094.4547983104
 20
1523.4417737177
 30
0.0
 11
2094.4547983104
 21
1511.1936615394
 31
0.0
  0
LINE
  5
E3
330
1F
100
AcDbEntity
  8
0
  6
Continuous
 62
     7
370
    25
100
AcDbLine
 10
2094.4547983104
 20
1200.9081530228
 30
0.0
 11
2094.4547983104
 21
1188.6600408446
 31
0.0
  0
LINE
  5
E4
330
1F
100
AcDbEntity
  8
0
  6
Continuous
 62
     7
370
    25
100
AcDbLine
 10
2161.6483999272
 20
1572.9384575003
 30
0.0
 11
2285.085722406
 21
1594.0462903517
 31
0.0
  0
LINE
  5
E5
330
1F
100
AcDbEntity
  8
0
  6
Continuous
 62
     7
370
    25
100
AcDbLine
 10
2285.085722406
 20
1594.0462903517
 30
0.0
 11
2396.2020993596
 21
1529.9001713249
 31
0.0
  0
LINE
  5
E6
330
1F
100
AcDbEntity
  8
0
  6
Continuous
 62
     7
370
    25
100
AcDbLine
 10
2396.2020993596
 20
1529.9001713249
 30
0.0
 11
2359.6382986594
 21
1458.6413218451
 31
0.0
  0
LINE
  5
E7
330
1F
100
AcDbEntity
  8
0
  6
Continuous
 62
     7
370
    25
100
AcDbLine
 10
2359.6382986594
 20
1458.6413218451
 30
0.0
 11
2296.725890313
 21
1422.322761569
 31
0.0
  0
ARC
  5
E8
330
1F
100
AcDbEntity
  8
0
  6
Continuous
 62
     7
370
    25
100
AcDbCircle
 10
2273.8716724101
 20
1526.404238861
 30
0.0
 40
106.5611054335926
100
AcDbArc
 50
263.9474689202
 51
282.384466956
  0
LWPOLYLINE
  5
E9
330
1F
100
AcDbEntity
  8
0
  6
Continuous
 62
     7
370
    25
100
AcDbPolyline
 90
       14
 70
   128
 43
0.0
 10
2095.4696509052
 20
1516.9401325
 10
2106.6892100798
 20
1508.6389641498
 10
2118.2007531684
 20
1500.4721102077
 10
2129.9994566118
 20
1492.4429927434
 10
2142.0803765248
 20
1484.5549761127
 10
2154.4384507683
 20
1476.811365547
 10
2167.0685010699
 20
1469.2154057691
 10
2179.9652351942
 20
1461.7702796331
 10
2193.12324916
 20
1454.4791067909
 10
2206.5370295049
 20
1447.3449423851
 10
2220.2009555952
 20
1440.3707757686
 10
2234.1093019815
 20
1433.5595292522
 10
2248.2562407976
 20
1426.91405688
 10
2262.6358442022
 20
1420.4371432335
  0
ARC
  5
EA
330
1F
100
AcDbEntity
  8
0
  6
Continuous
 62
     7
370
    25
100
AcDbCircle
 10
2116.9385346837
 20
1523.4877906639
 30
0.0
 40
22.44515088216521
100
AcDbArc
 50
144.1916802189
 51
196.9608479155
  0
LINE
  5
EB
330
1F
100
AcDbEntity
  8
0
  6
Continuous
 62
     7
370
    25
100
AcDbLine
 10
2098.7359915808
 20
1536.6198972242
 30
0.0
 11
2161.6483999272
 21
1572.9384575003
 31
0.0
  0
LWPOLYLINE
  5
EC
330
1F
100
AcDbEntity
  8
0
  6
Continuous
 62
     7
370
    25
100
AcDbPolyline
 90
       32
 70
   128
 43
0.0
 10
2249.4271361098
 20
1509.3149076257
 10
2250.8384627033
 20
1508.6505734236
 10
2252.4525507326
 20
1508.1638444399
 10
2254.2033192441
 20
1507.8746474164
 10
2256.0190915693
 20
1507.7948221131
 10
2257.8255297757
 20
1507.9276365875
 10
2259.548678071
 20
1508.2676533992
 10
2261.1179905615
 20
1508.8009522201
 10
2262.4692194095
 20
1509.5056997338
 10
2263.5470451471
 20
1510.3530434943
 10
2264.3073414621
 20
1511.3082931485
 10
2264.7189817339
 20
1512.3323406632
 10
2264.7651133615
 20
1513.383261413
 10
2264.4438477105
 20
1514.4180305787
 10
2263.7683374346
 20
1515.3942845893
 10
2262.7662380038
 20
1516.2720554908
 10
2261.4785754865
 20
1517.0154072394
 10
2259.9580669374
 20
1517.5939069271
 10
2258.2669621552
 20
1517.9838707088
 10
2256.4744951685
 20
1518.1693334214
 10
2254.6540497861
 20
1518.1427021996
 10
2252.8801552561
 20
1517.9050673289
 10
2251.2254350288
 20
1517.4661576087
 10
2249.7576335448
 20
1516.8439420546
 10
2248.5368427694
 20
1516.0638942445
 10
2247.6130420202
 20
1515.1579494273
 10
2247.0240518085
 20
1514.1631970903
 10
2246.7939854628
 20
1513.1203625111
 10
2246.9322619263
 20
1512.0721394598
 10
2247.4332201443
 20
1511.0614423114
 10
2248.2763508285
 20
1510.1296491259
 10
2249.4271361098
 20
1509.3149076257
  0
LWPOLYLINE
  5
ED
330
1F
100
AcDbEntity
  8
0
  6
Continuous
 62
     7
370
    25
100
AcDbPolyline
 90
       29
 70
   128
 43
0.0
 10
2306.9502727593
 20
1498.4770899413
 10
2308.175795692
 20
1497.9128940025
 10
2309.5880667939
 20
1497.520272595
 10
2311.1162688949
 20
1497.3189133958
 10
2312.6837715603
 20
1497.3189133958
 10
2314.2119736613
 20
1497.520272595
 10
2315.6242447632
 20
1497.9128940025
 10
2316.8497676959
 20
1498.4770899413
 10
2317.8270896222
 20
1499.1845692712
 10
2318.5072035397
 20
1499.9998560245
 10
2318.8560056968
 20
1500.8820683189
 10
2318.8560056968
 20
1501.7869683464
 10
2318.5072035397
 20
1502.6691806408
 10
2317.8270896222
 20
1503.4844673941
 10
2316.8497676959
 20
1504.191946724
 10
2315.6242447632
 20
1504.7561426628
 10
2314.2119736613
 20
1505.1487640702
 10
2312.6837715603
 20
1505.3501232695
 10
2311.1162688949
 20
1505.3501232695
 10
2309.5880667939
 20
1505.1487640702
 10
2308.175795692
 20
1504.7561426628
 10
2306.9502727593
 20
1504.191946724
 10
2305.972950833
 20
1503.4844673941
 10
2305.2928369154
 20
1502.6691806408
 10
2304.9440347583
 20
1501.7869683464
 10
2304.9440347583
 20
1500.8820683189
 10
2305.2928369154
 20
1499.9998560245
 10
2305.972950833
 20
1499.1845692712
 10
2306.9502727593
 20
1498.4770899413
  0
LWPOLYLINE
  5
EE
330
1F
100
AcDbEntity
  8
0
  6
Continuous
 62
     7
370
    25
100
AcDbPolyline
 90
       29
 70
   128
 43
0.0
 10
2271.029248275
 20
1477.740323901
 10
2272.2547712077
 20
1477.1761279622
 10
2273.6670423096
 20
1476.7835065547
 10
2275.1952444106
 20
1476.5821473555
 10
2276.762747076
 20
1476.5821473555
 10
2278.290949177
 20
1476.7835065547
 10
2279.7032202789
 20
1477.1761279622
 10
2280.9287432116
 20
1477.740323901
 10
2281.9060651379
 20
1478.4478032309
 10
2282.5861790555
 20
1479.2630899842
 10
2282.9349812126
 20
1480.1453022786
 10
2282.9349812126
 20
1481.0502023061
 10
2282.5861790555
 20
1481.9324146005
 10
2281.9060651379
 20
1482.7477013538
 10
2280.9287432116
 20
1483.4551806837
 10
2279.7032202789
 20
1484.0193766225
 10
2278.290949177
 20
1484.4119980299
 10
2276.762747076
 20
1484.6133572292
 10
2275.1952444106
 20
1484.6133572292
 10
2273.6670423096
 20
1484.4119980299
 10
2272.2547712077
 20
1484.0193766225
 10
2271.029248275
 20
1483.4551806837
 10
2270.0519263487
 20
1482.7477013538
 10
2269.3718124312
 20
1481.9324146005
 10
2269.0230102741
 20
1481.0502023061
 10
2269.0230102741
 20
1480.1453022786
 10
2269.3718124312
 20
1479.2630899842
 10
2270.0519263487
 20
1478.4478032309
 10
2271.029248275
 20
1477.740323901
  0
LWPOLYLINE
  5
EF
330
1F
100
AcDbEntity
  8
0
  6
Continuous
 62
     7
370
    25
100
AcDbPolyline
 90
       29
 70
   128
 43
0.0
 10
2194.732426585
 20
1521.7855415338
 10
2195.9579495177
 20
1521.221345595
 10
2197.3702206196
 20
1520.8287241876
 10
2198.8984227206
 20
1520.6273649883
 10
2200.465925386
 20
1520.6273649883
 10
2201.994127487
 20
1520.8287241876
 10
2203.4063985889
 20
1521.221345595
 10
2204.6319215216
 20
1521.7855415338
 10
2205.6092434479
 20
1522.4930208637
 10
2206.2893573654
 20
1523.308307617
 10
2206.6381595225
 20
1524.1905199115
 10
2206.6381595225
 20
1525.0954199389
 10
2206.2893573654
 20
1525.9776322334
 10
2205.6092434479
 20
1526.7929189866
 10
2204.6319215216
 20
1527.5003983166
 10
2203.4063985889
 20
1528.0645942554
 10
2201.994127487
 20
1528.4572156628
 10
2200.465925386
 20
1528.658574862
 10
2198.8984227206
 20
1528.658574862
 10
2197.3702206196
 20
1528.4572156628
 10
2195.9579495177
 20
1528.0645942554
 10
2194.732426585
 20
1527.5003983166
 10
2193.7551046587
 20
1526.7929189866
 10
2193.0749907411
 20
1525.9776322334
 10
2192.726188584
 20
1525.0954199389
 10
2192.726188584
 20
1524.1905199115
 10
2193.0749907411
 20
1523.308307617
 10
2193.7551046587
 20
1522.4930208637
 10
2194.732426585
 20
1521.7855415338
  0
LWPOLYLINE
  5
F0
330
1F
100
AcDbEntity
  8
0
  6
Continuous
 62
     7
370
    25
100
AcDbPolyline
 90
       29
 70
   128
 43
0.0
 10
2230.6534510693
 20
1542.5223075741
 10
2231.878974002
 20
1541.9581116353
 10
2233.2912451039
 20
1541.5654902279
 10
2234.8194472048
 20
1541.3641310286
 10
2236.3869498703
 20
1541.3641310286
 10
2237.9151519712
 20
1541.5654902279
 10
2239.3274230732
 20
1541.9581116353
 10
2240.5529460059
 20
1542.5223075741
 10
2241.5302679322
 20
1543.229786904
 10
2242.2103818497
 20
1544.0450736573
 10
2242.5591840068
 20
1544.9272859518
 10
2242.5591840068
 20
1545.8321859792
 10
2242.2103818497
 20
1546.7143982737
 10
2241.5302679322
 20
1547.5296850269
 10
2240.5529460059
 20
1548.2371643569
 10
2239.3274230732
 20
1548.8013602957
 10
2237.9151519712
 20
1549.1939817031
 10
2236.3869498703
 20
1549.3953409023
 10
2234.8194472048
 20
1549.3953409023
 10
2233.2912451039
 20
1549.1939817031
 10
2231.878974002
 20
1548.8013602957
 10
2230.6534510693
 20
1548.2371643569
 10
2229.676129143
 20
1547.5296850269
 10
2228.9960152254
 20
1546.7143982737
 10
2228.6472130683
 20
1545.8321859792
 10
2228.6472130683
 20
1544.9272859518
 10
2228.9960152254
 20
1544.0450736573
 10
2229.676129143
 20
1543.229786904
 10
2230.6534510693
 20
1542.5223075741
  0
LWPOLYLINE
  5
F1
330
1F
100
AcDbEntity
  8
0
  6
Continuous
 62
     7
370
    25
100
AcDbPolyline
 90
       35
 70
   128
 43
0.0
 10
2293.8617262395
 20
1453.6603666428
 10
2295.3879076822
 20
1452.9287555195
 10
2297.1209733349
 20
1452.3714932056
 10
2299.0019057253
 20
1452.0075566008
 10
2300.9666519568
 20
1451.8493391296
 10
2302.948304953
 20
1451.9022286984
 10
2304.8793818978
 20
1452.1644242162
 10
2306.6941222819
 20
1452.6269969292
 10
2308.330727298
 20
1453.2741944785
 10
2309.7334643253
 20
1454.0839773276
 10
2310.8545648367
 20
1455.028769293
 10
2311.6558510989
 20
1456.0763966173
 10
2312.1100362692
 20
1457.1911836087
 10
2312.2016536164
 20
1458.335167533
 10
2311.9275832217
 20
1459.4693913898
 10
2311.2971582235
 20
1460.555230546
 10
2310.3318469892
 20
1461.5557080516
 10
2309.064522035
 20
1462.4367538448
 10
2307.5383405923
 20
1463.1683649681
 10
2305.8052749396
 20
1463.725627282
 10
2303.9243425492
 20
1464.0895638868
 10
2301.9595963177
 20
1464.247781358
 10
2299.9779433215
 20
1464.1948917892
 10
2298.0468663768
 20
1463.9326962714
 10
2296.2321259927
 20
1463.4701235584
 10
2294.5955209765
 20
1462.8229260091
 10
2293.1927839492
 20
1462.01314316
 10
2292.0716834378
 20
1461.0683511946
 10
2291.2703971757
 20
1460.0207238703
 10
2290.8162120054
 20
1458.9059368789
 10
2290.7245946582
 20
1457.7619529546
 10
2290.9986650529
 20
1456.6277290978
 10
2291.629090051
 20
1455.5418899416
 10
2292.5944012853
 20
1454.541412436
 10
2293.8617262395
 20
1453.6603666428
  0
LWPOLYLINE
  5
F2
330
1F
100
AcDbEntity
  8
0
  6
Continuous
 62
     7
370
    25
100
AcDbPolyline
 90
       35
 70
   128
 43
0.0
 10
2153.0201975628
 20
1534.9664504992
 10
2154.5463790055
 20
1534.2348393759
 10
2156.2794446582
 20
1533.677577062
 10
2158.1603770486
 20
1533.3136404572
 10
2160.1251232801
 20
1533.1554229861
 10
2162.1067762763
 20
1533.2083125548
 10
2164.037853221
 20
1533.4705080726
 10
2165.8525936051
 20
1533.9330807857
 10
2167.4891986213
 20
1534.5802783349
 10
2168.8919356486
 20
1535.390061184
 10
2170.01303616
 20
1536.3348531494
 10
2170.8143224221
 20
1537.3824804738
 10
2171.2685075924
 20
1538.4972674651
 10
2171.3601249397
 20
1539.6412513894
 10
2171.0860545449
 20
1540.7754752462
 10
2170.4556295468
 20
1541.8613144025
 10
2169.4903183125
 20
1542.861791908
 10
2168.2229933583
 20
1543.7428377013
 10
2166.6968119156
 20
1544.4744488245
 10
2164.9637462629
 20
1545.0317111384
 10
2163.0828138725
 20
1545.3956477433
 10
2161.118067641
 20
1545.5538652144
 10
2159.1364146448
 20
1545.5009756456
 10
2157.2053377
 20
1545.2387801278
 10
2155.3905973159
 20
1544.7762074148
 10
2153.7539922998
 20
1544.1290098656
 10
2152.3512552725
 20
1543.3192270164
 10
2151.2301547611
 20
1542.374435051
 10
2150.4288684989
 20
1541.3268077267
 10
2149.9746833286
 20
1540.2120207354
 10
2149.8830659814
 20
1539.0680368111
 10
2150.1571363762
 20
1537.9338129542
 10
2150.7875613743
 20
1536.847973798
 10
2151.7528726086
 20
1535.8474962925
 10
2153.0201975628
 20
1534.9664504992
  0
LINE
  5
F3
330
1F
100
AcDbEntity
  8
0
  6
Continuous
 62
     7
370
    25
100
AcDbLine
 10
2296.725890313
 20
1410.0746493907
 30
0.0
 11
2296.725890313
 21
1422.322761569
 31
0.0
  0
ARC
  5
F4
330
1F
100
AcDbEntity
  8
0
  6
Continuous
 62
     7
370
    25
100
AcDbCircle
 10
2273.8716724101
 20
1514.1561266827
 30
0.0
 40
106.5611054335957
100
AcDbArc
 50
263.9474689202
 51
282.384466956
  0
LINE
  5
F5
330
1F
100
AcDbEntity
  8
0
  6
Continuous
 62
     7
370
    25
100
AcDbLine
 10
2262.6358442022
 20
1420.4371432335
 30
0.0
 11
2262.6358442022
 21
1408.1890310552
 31
0.0
  0
LINE
  5
F6
330
1F
100
AcDbEntity
  8
0
  6
Continuous
 62
     7
370
    25
100
AcDbLine
 10
2095.4696509052
 20
1516.9401325
 30
0.0
 11
2095.4696509052
 21
1504.6920203217
 31
0.0
  0
LWPOLYLINE
  5
F7
330
1F
100
AcDbEntity
  8
0
  6
Continuous
 62
     7
370
    25
100
AcDbPolyline
 90
       14
 70
   128
 43
0.0
 10
2095.4696509052
 20
1504.6920203217
 10
2106.6892100798
 20
1496.3908519715
 10
2118.2007531684
 20
1488.2239980294
 10
2129.9994566118
 20
1480.1948805652
 10
2142.0803765248
 20
1472.3068639344
 10
2154.4384507683
 20
1464.5632533687
 10
2167.0685010699
 20
1456.9672935908
 10
2179.9652351942
 20
1449.5221674548
 10
2193.12324916
 20
1442.2309946126
 10
2206.5370295049
 20
1435.0968302068
 10
2220.2009555952
 20
1428.1226635903
 10
2234.1093019815
 20
1421.311417074
 10
2248.2562407976
 20
1414.6659447017
 10
2262.6358442022
 20
1408.1890310552
  0
ARC
  5
F8
330
1F
100
AcDbEntity
  8
0
  6
Continuous
 62
     7
370
    25
100
AcDbCircle
 10
2304.4305894597
 20
1109.5549581814
 30
0.0
 40
4.61041442271851
100
AcDbArc
 50
302.60547834
 51
357.3945215143
  0
LINE
  5
F9
330
1F
100
AcDbEntity
  8
0
  6
Continuous
 62
     7
370
    25
100
AcDbLine
 10
2309.0362377638
 20
1109.3453756246
 30
0.0
 11
2309.0362377638
 21
1414.7316392699
 31
0.0
  0
ARC
  5
FA
330
1F
100
AcDbEntity
  8
0
  6
Continuous
 62
     7
370
    25
100
AcDbCircle
 10
2307.7430146615
 20
1414.9414208606
 30
0.0
 40
1.310127592285283
100
AcDbArc
 50
350.7859630095
 51
129.2032852357
  0
LINE
  5
FB
330
1F
100
AcDbEntity
  8
0
  6
Continuous
 62
     7
370
    25
100
AcDbLine
 10
2359.6382986594
 20
1123.8595889719
 30
0.0
 11
2359.6382986594
 21
1458.6413218451
 31
0.0
  0
LINE
  5
FC
330
1F
100
AcDbEntity
  8
0
  6
Continuous
 62
     7
370
    25
100
AcDbLine
 10
2359.6382986594
 20
1123.8595889719
 30
0.0
 11
2296.725890313
 21
1087.5410286959
 31
0.0
  0
LINE
  5
FD
330
1F
100
AcDbEntity
  8
0
  6
Continuous
 62
     7
370
    25
100
AcDbLine
 10
2296.725890313
 20
1087.5410286959
 30
0.0
 11
2296.725890313
 21
1099.7891408742
 31
0.0
  0
LINE
  5
FE
330
1F
100
AcDbEntity
  8
0
  6
Continuous
 62
     7
370
    25
100
AcDbLine
 10
2296.725890313
 20
1099.7891408742
 30
0.0
 11
2306.9149174202
 21
1105.6711410212
 31
0.0
  0
LWPOLYLINE
  5
FF
330
1F
100
AcDbEntity
  8
0
  6
Continuous
 62
     7
370
    25
100
AcDbPolyline
 90
       35
 70
   128
 43
0.0
 10
2322.4359112673
 20
1135.3713566704
 10
2322.5653395115
 20
1137.0589930454
 10
2322.9492167207
 20
1138.8385936577
 10
2323.5744704169
 20
1140.649556343
 10
2324.4198083352
 20
1142.4302109389
 10
2325.4564435069
 20
1144.1199193889
 10
2326.6490745645
 20
1145.6611406983
 10
2327.9570878876
 20
1147.0013904239
 10
2329.3359406514
 20
1148.0950279688
 10
2330.7386776787
 20
1148.9048108179
 10
2332.1175304425
 20
1149.4031627877
 10
2333.4255437656
 20
1149.5731130995
 10
2334.6181748231
 20
1149.4088742992
 10
2335.6548099948
 20
1148.9160393423
 10
2336.5001479132
 20
1148.111391132
 10
2337.1254016093
 20
1147.0223309982
 10
2337.5092788185
 20
1145.6859455774
 10
2337.6387070628
 20
1144.1477438725
 10
2337.5092788185
 20
1142.4601074975
 10
2337.1254016093
 20
1140.6805068852
 10
2336.5001479132
 20
1138.8695441999
 10
2335.6548099948
 20
1137.088889604
 10
2334.6181748231
 20
1135.399181154
 10
2333.4255437656
 20
1133.8579598446
 10
2332.1175304425
 20
1132.517710119
 10
2330.7386776787
 20
1131.4240725741
 10
2329.3359406514
 20
1130.614289725
 10
2327.9570878876
 20
1130.1159377552
 10
2326.6490745645
 20
1129.9459874434
 10
2325.4564435069
 20
1130.1102262437
 10
2324.4198083352
 20
1130.6030612006
 10
2323.5744704169
 20
1131.4077094109
 10
2322.9492167207
 20
1132.4967695447
 10
2322.5653395115
 20
1133.8331549655
 10
2322.4359112673
 20
1135.3713566704
  0
LWPOLYLINE
  5
100
330
1F
100
AcDbEntity
  8
0
  6
Continuous
 62
     7
370
    25
100
AcDbPolyline
 90
       35
 70
   128
 43
0.0
 10
2322.4359112673
 20
1404.1765919432
 10
2322.5653395115
 20
1405.8642283182
 10
2322.9492167207
 20
1407.6438289305
 10
2323.5744704169
 20
1409.4547916158
 10
2324.4198083352
 20
1411.2354462117
 10
2325.4564435069
 20
1412.9251546617
 10
2326.6490745645
 20
1414.4663759711
 10
2327.9570878876
 20
1415.8066256967
 10
2329.3359406514
 20
1416.9002632416
 10
2330.7386776787
 20
1417.7100460907
 10
2332.1175304425
 20
1418.2083980605
 10
2333.4255437656
 20
1418.3783483722
 10
2334.6181748231
 20
1418.214109572
 10
2335.6548099948
 20
1417.721274615
 10
2336.5001479132
 20
1416.9166264048
 10
2337.1254016093
 20
1415.827566271
 10
2337.5092788185
 20
1414.4911808502
 10
2337.6387070628
 20
1412.9529791453
 10
2337.5092788185
 20
1411.2653427703
 10
2337.1254016093
 20
1409.485742158
 10
2336.5001479132
 20
1407.6747794727
 10
2335.6548099948
 20
1405.8941248768
 10
2334.6181748231
 20
1404.2044164267
 10
2333.4255437656
 20
1402.6631951173
 10
2332.1175304425
 20
1401.3229453917
 10
2330.7386776787
 20
1400.2293078469
 10
2329.3359406514
 20
1399.4195249978
 10
2327.9570878876
 20
1398.921173028
 10
2326.6490745645
 20
1398.7512227162
 10
2325.4564435069
 20
1398.9154615165
 10
2324.4198083352
 20
1399.4082964734
 10
2323.5744704169
 20
1400.2129446837
 10
2322.9492167207
 20
1401.3020048175
 10
2322.5653395115
 20
1402.6383902382
 10
2322.4359112673
 20
1404.1765919432
  0
LINE
  5
101
330
1F
100
AcDbEntity
  8
0
  6
Continuous
 62
     7
370
    25
100
AcDbLine
 10
2296.725890313
 20
1410.0746493907
 30
0.0
 11
2306.9149174202
 21
1415.9566495378
 31
0.0
  0
LINE
  5
102
330
1F
100
AcDbEntity
  8
0
  6
Continuous
 62
     7
370
    25
100
AcDbLine
 10
2296.0699419335
 20
1101.3698494033
 30
0.0
 11
2296.0699419335
 21
1409.9298607306
 31
0.0
  0
ARC
  5
103
330
1F
100
AcDbEntity
  8
0
  6
Continuous
 62
     7
370
    25
100
AcDbCircle
 10
2279.5400842685
 20
1150.9300554382
 30
0.0
 40
52.24414050062784
100
AcDbArc
 50
278.9951816382
 51
288.4451334245
  0
LINE
  5
104
330
1F
100
AcDbEntity
  8
0
  6
Continuous
 62
     7
370
    25
100
AcDbLine
 10
2287.7085289642
 20
1408.4877578638
 30
0.0
 11
2287.7085289642
 21
1099.328439883
 31
0.0
  0
LINE
  5
105
330
1F
100
AcDbEntity
  8
0
  6
Continuous
 62
     7
370
    25
100
AcDbLine
 10
2097.9379475873
 20
1208.8806646272
 30
0.0
 11
2097.9379475873
 21
1502.8354839482
 31
0.0
  0
LINE
  5
106
330
1F
100
AcDbEntity
  8
0
  6
Continuous
 62
     7
370
    25
100
AcDbLine
 10
2097.9379475873
 20
1208.8806646272
 30
0.0
 11
2287.7085289642
 21
1099.328439883
 31
0.0
  0
LWPOLYLINE
  5
107
330
1F
100
AcDbEntity
  8
0
  6
Continuous
 62
     7
370
    25
100
AcDbPolyline
 90
       35
 70
   128
 43
0.0
 10
2240.3054586325
 20
1404.3175259418
 10
2240.4315885502
 20
1402.0225204623
 10
2240.8078201857
 20
1399.6211566595
 10
2241.4277161114
 20
1397.1545225338
 10
2242.2806697359
 20
1394.6648228791
 10
2243.3520867865
 20
1392.1946571467
 10
2244.6236350202
 20
1389.7862905572
 10
2246.0735578943
 20
1387.4809309305
 10
2247.6770468263
 20
1385.3180236092
 10
2249.4066656762
 20
1383.3345765371
 10
2251.2328201857
 20
1381.5645270436
 10
2253.1242643451
 20
1380.0381611662
 10
2255.0486350202
 20
1378.7815954483
 10
2256.9730056953
 20
1377.8163300777
 10
2258.8644498546
 20
1377.1588810125
 10
2260.6906043642
 20
1376.8204973886
 10
2262.4202232141
 20
1376.8069690434
 10
2264.0237121461
 20
1377.1185274509
 10
2265.4736350202
 20
1377.7498417602
 10
2266.7451832539
 20
1378.6901100084
 10
2267.8166003044
 20
1379.9232439452
 10
2268.669553929
 20
1381.4281443071
 10
2269.2894498546
 20
1383.1790618314
 10
2269.6656814901
 20
1385.1460378341
 10
2269.7918114079
 20
1387.2954168103
 10
2269.6656814901
 20
1389.5904222899
 10
2269.2894498546
 20
1391.9917860927
 10
2268.669553929
 20
1394.4584202183
 10
2267.8166003044
 20
1396.9481198731
 10
2266.7451832539
 20
1399.4182856055
 10
2265.4736350202
 20
1401.826652195
 10
2264.0237121461
 20
1404.1320118216
 10
2262.4202232141
 20
1406.294919143
 10
2260.6906043642
 20
1408.2783662151
 10
2259.271935946
 20
1409.6798226659
  0
LWPOLYLINE
  5
108
330
1F
100
AcDbEntity
  8
0
  6
Continuous
 62
     7
370
    25
100
AcDbPolyline
 90
       10
 70
   128
 43
0.0
 10
2247.9133213818
 20
1414.8237694264
 10
2247.6770468263
 20
1414.8059737087
 10
2246.0735578943
 20
1414.4944153013
 10
2244.6236350202
 20
1413.863100992
 10
2243.3520867865
 20
1412.9228327437
 10
2242.2806697359
 20
1411.6896988069
 10
2241.4277161114
 20
1410.1847984451
 10
2240.8078201857
 20
1408.4338809207
 10
2240.4315885502
 20
1406.466904918
 10
2240.3054586325
 20
1404.3175259418
  0
LINE
  5
109
330
1F
100
AcDbEntity
  8
0
  6
Continuous
 62
     7
370
    25
100
AcDbLine
 10
2116.8092592982
 20
1389.4881374642
 30
0.0
 11
2116.8092592982
 21
1316.7703475836
 31
0.0
  0
LINE
  5
10A
330
1F
100
AcDbEntity
  8
0
  6
Continuous
 62
     7
370
    25
100
AcDbLine
 10
2116.8092592982
 20
1316.7703475836
 30
0.0
 11
2161.3372172533
 21
1239.6456622744
 31
0.0
  0
LINE
  5
10B
330
1F
100
AcDbEntity
  8
0
  6
Continuous
 62
     7
370
    25
100
AcDbLine
 10
2161.3372172533
 20
1239.6456622744
 30
0.0
 11
2224.3092592982
 21
1203.292676197
 31
0.0
  0
LINE
  5
10C
330
1F
100
AcDbEntity
  8
0
  6
Continuous
 62
     7
370
    25
100
AcDbLine
 10
2224.3092592982
 20
1203.292676197
 30
0.0
 11
2268.8372172533
 21
1229.0064755627
 31
0.0
  0
LINE
  5
10D
330
1F
100
AcDbEntity
  8
0
  6
Continuous
 62
     7
370
    25
100
AcDbLine
 10
2268.8372172533
 20
1229.0064755627
 30
0.0
 11
2268.8372172533
 21
1301.7242654432
 31
0.0
  0
LINE
  5
10E
330
1F
100
AcDbEntity
  8
0
  6
Continuous
 62
     7
370
    25
100
AcDbLine
 10
2268.8372172533
 20
1301.7242654432
 30
0.0
 11
2224.3092592982
 21
1378.8489507524
 31
0.0
  0
LINE
  5
10F
330
1F
100
AcDbEntity
  8
0
  6
Continuous
 62
     7
370
    25
100
AcDbLine
 10
2224.3092592982
 20
1378.8489507524
 30
0.0
 11
2161.3372172533
 21
1415.2019368299
 31
0.0
  0
LINE
  5
110
330
1F
100
AcDbEntity
  8
0
  6
Continuous
 62
     7
370
    25
100
AcDbLine
 10
2161.3372172533
 20
1415.2019368299
 30
0.0
 11
2116.8092592982
 21
1389.4881374642
 31
0.0
  0
LWPOLYLINE
  5
111
330
1F
100
AcDbEntity
  8
0
  6
Continuous
 62
     7
370
    25
100
AcDbPolyline
 90
       49
 70
   128
 43
0.0
 10
2115.8546651436
 20
1231.1991962165
 10
2115.9807950614
 20
1228.904190737
 10
2116.3570266969
 20
1226.5028269341
 10
2116.9769226225
 20
1224.0361928085
 10
2117.8298762471
 20
1221.5464931538
 10
2118.9012932976
 20
1219.0763274214
 10
2120.1728415314
 20
1216.6679608318
 10
2121.6227644054
 20
1214.3626012052
 10
2123.2262533375
 20
1212.1996938839
 10
2124.9558721873
 20
1210.2162468118
 10
2126.7820266969
 20
1208.4461973182
 10
2128.6734708562
 20
1206.9198314408
 10
2130.5978415314
 20
1205.6632657229
 10
2132.5222122065
 20
1204.6980003524
 10
2134.4136563658
 20
1204.0405512872
 10
2136.2398108754
 20
1203.7021676632
 10
2137.9694297252
 20
1203.6886393181
 10
2139.5729186573
 20
1204.0001977256
 10
2141.0228415314
 20
1204.6315120348
 10
2142.2943897651
 20
1205.5717802831
 10
2143.3658068156
 20
1206.8049142199
 10
2144.2187604402
 20
1208.3098145817
 10
2144.8386563658
 20
1210.0607321061
 10
2145.2148880013
 20
1212.0277081088
 10
2145.3410179191
 20
1214.177087085
 10
2145.2148880013
 20
1216.4720925646
 10
2144.8386563658
 20
1218.8734563674
 10
2144.2187604402
 20
1221.340090493
 10
2143.3658068156
 20
1223.8297901477
 10
2142.2943897651
 20
1226.2999558801
 10
2141.0228415314
 20
1228.7083224697
 10
2139.5729186573
 20
1231.0136820963
 10
2137.9694297252
 20
1233.1765894177
 10
2136.2398108754
 20
1235.1600364897
 10
2134.4136563658
 20
1236.9300859833
 10
2132.5222122065
 20
1238.4564518607
 10
2130.5978415314
 20
1239.7130175786
 10
2128.6734708562
 20
1240.6782829492
 10
2126.7820266969
 20
1241.3357320143
 10
2124.9558721873
 20
1241.6741156383
 10
2123.2262533375
 20
1241.6876439834
 10
2121.6227644054
 20
1241.376085576
 10
2120.1728415314
 20
1240.7447712667
 10
2118.9012932976
 20
1239.8045030184
 10
2117.8298762471
 20
1238.5713690816
 10
2116.9769226225
 20
1237.0664687198
 10
2116.3570266969
 20
1235.3155511954
 10
2115.9807950614
 20
1233.3485751927
 10
2115.8546651436
 20
1231.1991962165
  0
ARC
  5
112
330
1F
100
AcDbEntity
  8
0
  6
Continuous
 62
     7
370
    25
100
AcDbCircle
 10
2302.7335331848
 20
1110.5346479156
 30
0.0
 40
4.610414422715695
100
AcDbArc
 50
302.60547834
 51
357.3945215144
  0
LINE
  5
113
330
1F
100
AcDbEntity
  8
0
  6
Continuous
 62
     7
370
    25
100
AcDbLine
 10
2305.2178611454
 20
1106.6508307554
 30
0.0
 11
2296.0699419335
 21
1101.3698494033
 31
0.0
  0
LINE
  5
114
330
1F
100
AcDbEntity
  8
0
  6
Continuous
 62
     7
370
    25
100
AcDbLine
 10
2307.3391814889
 20
1415.7113290041
 30
0.0
 11
2307.3032677385
 21
1416.1394404491
 31
0.0
  0
LINE
  5
115
330
1F
100
AcDbEntity
  8
0
  6
Continuous
 62
     7
370
    25
100
AcDbLine
 10
2307.3391814889
 20
1110.3250653588
 30
0.0
 11
2307.3391814889
 21
1415.7113290041
 31
0.0
  0
LINE
  5
116
330
1F
100
AcDbEntity
  8
0
  6
Continuous
 62
     7
370
    25
100
AcDbLine
 10
2309.0362377638
 20
1414.7316392699
 30
0.0
 11
2307.3391814889
 21
1415.7113290041
 31
0.0
  0
LINE
  5
117
330
1F
100
AcDbEntity
  8
0
  6
Continuous
 62
     7
370
    25
100
AcDbLine
 10
2307.3391814889
 20
1110.3250653588
 30
0.0
 11
2309.0362377638
 21
1109.3453756246
 31
0.0
  0
LWPOLYLINE
  5
118
330
1F
100
AcDbEntity
  8
0
  6
Continuous
 62
     7
370
    25
100
AcDbPolyline
 90
       16
 70
   128
 43
0.0
 10
2251.9723750805
 20
1412.9658129214
 10
2251.8666545049
 20
1410.991662256
 10
2251.9927844226
 20
1408.6966567764
 10
2252.3690160581
 20
1406.2952929736
 10
2252.9889119838
 20
1403.828658848
 10
2253.8418656083
 20
1401.3389591933
 10
2254.9132826589
 20
1398.8687934609
 10
2256.1848308926
 20
1396.4604268713
 10
2257.6347537667
 20
1394.1550672447
 10
2259.2382426987
 20
1391.9921599233
 10
2260.9678615486
 20
1390.0087128513
 10
2262.7940160581
 20
1388.2386633577
 10
2264.6854602175
 20
1386.7122974803
 10
2266.6098308926
 20
1385.4557317624
 10
2268.5342015677
 20
1384.4904663918
 10
2269.5043991757
 20
1384.1160826209
  0
LWPOLYLINE
  5
119
330
1F
100
AcDbEntity
  8
0
  6
Continuous
 62
     7
370
    25
100
AcDbPolyline
 90
       12
 70
   128
 43
0.0
 10
2330.2140858603
 20
1412.9529791453
 10
2330.0815684242
 20
1411.7141287351
 10
2329.6930469601
 20
1410.406702558
 10
2329.0749985638
 20
1409.1197995474
 10
2328.2695422121
 20
1407.9411200168
 10
2327.3315684242
 20
1406.9509890282
 10
2326.3249985638
 20
1406.2168823724
 10
2325.3184287034
 20
1405.7888282047
 10
2324.3804549155
 20
1405.6959977093
 10
2323.5749985638
 20
1405.9447171309
 10
2322.9569501675
 20
1406.5180366522
 10
2322.7531773299
 20
1406.8692437249
  0
ARC
  5
11A
330
1F
100
AcDbEntity
  8
0
  6
Continuous
 62
     7
370
    25
100
AcDbCircle
 10
2327.8891615233
 20
1413.3603901481
 30
0.0
 40
2.360351011607928
100
AcDbArc
 50
350.0606215851
 51
90.6361804376
  0
LWPOLYLINE
  5
11B
330
1F
100
AcDbEntity
  8
0
  6
Continuous
 62
     7
370
    25
100
AcDbPolyline
 90
       17
 70
   128
 43
0.0
 10
2306.5742330916
 20
1452.5890216647
 10
2306.7757161819
 20
1452.9399491822
 10
2306.9631241373
 20
1453.7617209814
 10
2306.7757161819
 20
1454.5834927806
 10
2306.2262638581
 20
1455.3492621896
 10
2305.3522114338
 20
1456.0068432889
 10
2304.2131241373
 20
1456.5114230132
 10
2302.8866288853
 20
1456.8286150881
 10
2301.4631241373
 20
1456.9368033979
 10
2300.0396193892
 20
1456.8286150881
 10
2298.7131241373
 20
1456.5114230132
 10
2297.5740368408
 20
1456.0068432889
 10
2296.6999844165
 20
1455.3492621896
 10
2296.1505320927
 20
1454.5834927806
 10
2295.9631241373
 20
1453.7617209814
 10
2296.1505320927
 20
1452.9399491822
 10
2296.352015183
 20
1452.5890216647
  0
LINE
  5
11C
330
1F
100
AcDbEntity
  8
0
  6
Continuous
 62
     7
370
    25
100
AcDbLine
 10
2396.2020993596
 20
1195.1184384517
 30
0.0
 11
2396.2020993596
 21
1529.9001713249
 31
0.0
  0
LINE
  5
11D
330
1F
100
AcDbEntity
  8
0
  6
Continuous
 62
     7
370
    25
100
AcDbLine
 10
2396.2020993596
 20
1195.1184384517
 30
0.0
 11
2359.6382986594
 21
1123.8595889719
 31
0.0
  0
LWPOLYLINE
  5
11E
330
1F
100
AcDbEntity
  8
0
  6
Continuous
 62
     7
370
    25
100
AcDbPolyline
 90
       13
 70
   128
 43
0.0
 10
2279.2533258519
 20
1477.0260828591
 10
2279.4760058977
 20
1477.6563620513
 10
2279.3334919319
 20
1478.316383287
 10
2278.8274662538
 20
1478.9139292193
 10
2278.0127645972
 20
1479.3842464747
 10
2276.9776725282
 20
1479.6763688807
 10
2275.8343583334
 20
1479.7586404419
 10
2274.7067178463
 20
1479.6221457581
 10
2273.7169484108
 20
1479.2816761463
 10
2272.972306903
 20
1478.7741267717
 10
2272.5534867847
 20
1478.1544984846
 10
2272.5058737142
 20
1477.4899376244
 10
2272.7046656347
 20
1477.0260828591
  0
ARC
  5
11F
330
1F
100
AcDbEntity
  8
0
  6
Continuous
 62
     7
370
    25
100
AcDbCircle
 10
2255.1198853615
 20
1298.8403320252
 30
0.0
 40
11.54245003198585
100
AcDbArc
 50
1.956498643
 51
31.1437277994
  0
LINE
  5
120
330
1F
100
AcDbEntity
  8
0
  6
Continuous
 62
     7
370
    25
100
AcDbLine
 10
2266.6556065621
 20
1234.0151756616
 30
0.0
 11
2266.6556065621
 21
1299.2343994335
 31
0.0
  0
ARC
  5
121
330
1F
100
AcDbEntity
  8
0
  6
Continuous
 62
     7
370
    25
100
AcDbCircle
 10
2262.6503299752
 20
1233.6210165155
 30
0.0
 40
4.0246244508328
100
AcDbArc
 50
305.6980385288
 51
5.6203789637
  0
LINE
  5
122
330
1F
100
AcDbEntity
  8
0
  6
Continuous
 62
     7
370
    25
100
AcDbLine
 10
2225.0624608116
 20
1207.2903798559
 30
0.0
 11
2264.9987523126
 21
1230.352604899
 31
0.0
  0
ARC
  5
123
330
1F
100
AcDbEntity
  8
0
  6
Continuous
 62
     7
370
    25
100
AcDbCircle
 10
2223.4057695586
 20
1210.9571632769
 30
0.0
 40
4.023670782257946
100
AcDbArc
 50
234.3818273401
 51
294.3139521615
  0
LINE
  5
124
330
1F
100
AcDbEntity
  8
0
  6
Continuous
 62
     7
370
    25
100
AcDbLine
 10
2164.58401574
 20
1240.2905689083
 30
0.0
 11
2221.0624608116
 21
1207.6862565708
 31
0.0
  0
ARC
  5
125
330
1F
100
AcDbEntity
  8
0
  6
Continuous
 62
     7
370
    25
100
AcDbCircle
 10
2170.6920672997
 20
1250.0827245489
 30
0.0
 40
11.54099674837208
100
AcDbArc
 50
208.8556088792
 51
238.0453283505
  0
LINE
  5
126
330
1F
100
AcDbEntity
  8
0
  6
Continuous
 62
     7
370
    25
100
AcDbLine
 10
2120.6477242389
 20
1313.6846796328
 30
0.0
 11
2160.58401574
 21
1244.5129938902
 31
0.0
  0
ARC
  5
127
330
1F
100
AcDbEntity
  8
0
  6
Continuous
 62
     7
370
    25
100
AcDbCircle
 10
2130.5265911901
 20
1319.6542810016
 30
0.0
 40
11.54245003199317
100
AcDbArc
 50
181.956498643
 51
211.1437277994
  0
LINE
  5
128
330
1F
100
AcDbEntity
  8
0
  6
Continuous
 62
     7
370
    25
100
AcDbLine
 10
2118.9908699895
 20
1384.4794373652
 30
0.0
 11
2118.9908699895
 21
1319.2602135933
 31
0.0
  0
ARC
  5
129
330
1F
100
AcDbEntity
  8
0
  6
Continuous
 62
     7
370
    25
100
AcDbCircle
 10
2122.9961465764
 20
1384.8735965113
 30
0.0
 40
4.024624450834571
100
AcDbArc
 50
125.6980385288
 51
185.6203789637
  0
LINE
  5
12A
330
1F
100
AcDbEntity
  8
0
  6
Continuous
 62
     7
370
    25
100
AcDbLine
 10
2160.58401574
 20
1411.2042331709
 30
0.0
 11
2120.6477242389
 21
1388.1420081279
 31
0.0
  0
ARC
  5
12B
330
1F
100
AcDbEntity
  8
0
  6
Continuous
 62
     7
370
    25
100
AcDbCircle
 10
2162.2407069929
 20
1407.5374497499
 30
0.0
 40
4.023670782257431
100
AcDbArc
 50
54.3818273401
 51
114.3139521614
  0
LINE
  5
12C
330
1F
100
AcDbEntity
  8
0
  6
Continuous
 62
     7
370
    25
100
AcDbLine
 10
2221.0624608116
 20
1378.2040441185
 30
0.0
 11
2164.58401574
 21
1410.8083564561
 31
0.0
  0
ARC
  5
12D
330
1F
100
AcDbEntity
  8
0
  6
Continuous
 62
     7
370
    25
100
AcDbCircle
 10
2214.9544092518
 20
1368.4118884779
 30
0.0
 40
11.54099674838606
100
AcDbArc
 50
28.8556088792
 51
58.0453283505
  0
LINE
  5
12E
330
1F
100
AcDbEntity
  8
0
  6
Continuous
 62
     7
370
    25
100
AcDbLine
 10
2264.9987523126
 20
1304.8099333941
 30
0.0
 11
2225.0624608116
 21
1373.9816191367
 31
0.0
  0
LWPOLYLINE
  5
12F
330
1F
100
AcDbEntity
  8
0
  6
Continuous
 62
     7
370
    25
100
AcDbPolyline
 90
       24
 70
   128
 43
0.0
 10
2167.945976924
 20
1402.8191048761
 10
2167.8148697361
 20
1403.9962918174
 10
2167.4312717928
 20
1405.2375453257
 10
2166.8236327986
 20
1406.4508073066
 10
2166.0370185579
 20
1407.5460956692
 10
2165.1297686506
 20
1408.4421778863
 10
2164.1691696518
 20
1409.0725956392
 10
2163.2264647949
 20
1409.3905937271
 10
2162.3715701864
 20
1409.3725876865
 10
2161.6678894486
 20
1409.0199129432
 10
2161.1676113627
 20
1408.3587257694
 10
2160.9078392658
 20
1407.4380633932
 10
2160.9078392658
 20
1406.3262071311
 10
2161.1676113627
 20
1405.1056182758
 10
2161.6678894486
 20
1403.8668223189
 10
2162.3715701864
 20
1402.7016950893
 10
2163.2264647949
 20
1401.6966487435
 10
2164.1691696518
 20
1400.9262229713
 10
2165.1297686506
 20
1400.4475567277
 10
2166.0370185579
 20
1400.2961504982
 10
2166.8236327986
 20
1400.4832333903
 10
2167.4312717928
 20
1400.9949303217
 10
2167.8148697361
 20
1401.7932910718
 10
2167.945976924
 20
1402.8191048761
  0
LWPOLYLINE
  5
130
330
1F
100
AcDbEntity
  8
0
  6
Continuous
 62
     7
370
    25
100
AcDbPolyline
 90
       24
 70
   128
 43
0.0
 10
2224.7715674394
 20
1370.0143897396
 10
2224.6404602515
 20
1371.1915766809
 10
2224.2568623081
 20
1372.4328301892
 10
2223.6492233139
 20
1373.6460921701
 10
2222.8626090733
 20
1374.7413805327
 10
2221.955359166
 20
1375.6374627498
 10
2220.9947601672
 20
1376.2678805027
 10
2220.0520553102
 20
1376.5858785905
 10
2219.1971607017
 20
1376.56787255
 10
2218.4934799639
 20
1376.2151978067
 10
2217.9932018781
 20
1375.5540106329
 10
2217.7334297811
 20
1374.6333482567
 10
2217.7334297811
 20
1373.5214919946
 10
2217.9932018781
 20
1372.3009031393
 10
2218.4934799639
 20
1371.0621071824
 10
2219.1971607017
 20
1369.8969799527
 10
2220.0520553102
 20
1368.891933607
 10
2220.9947601672
 20
1368.1215078348
 10
2221.955359166
 20
1367.6428415912
 10
2222.8626090733
 20
1367.4914353617
 10
2223.6492233139
 20
1367.6785182538
 10
2224.2568623081
 20
1368.1902151852
 10
2224.6404602515
 20
1368.9885759353
 10
2224.7715674394
 20
1370.0143897396
  0
LWPOLYLINE
  5
131
330
1F
100
AcDbEntity
  8
0
  6
Continuous
 62
     7
370
    25
100
AcDbPolyline
 90
       24
 70
   128
 43
0.0
 10
2264.9533278377
 20
1300.4175393963
 10
2264.8222206498
 20
1301.5947263377
 10
2264.4386227064
 20
1302.835979846
 10
2263.8309837122
 20
1304.0492418268
 10
2263.0443694716
 20
1305.1445301895
 10
2262.1371195643
 20
1306.0406124066
 10
2261.1765205655
 20
1306.6710301594
 10
2260.2338157085
 20
1306.9890282473
 10
2259.3789211001
 20
1306.9710222068
 10
2258.6752403623
 20
1306.6183474635
 10
2258.1749622764
 20
1305.9571602897
 10
2257.9151901794
 20
1305.0364979135
 10
2257.9151901794
 20
1303.9246416514
 10
2258.1749622764
 20
1302.7040527961
 10
2258.6752403623
 20
1301.4652568391
 10
2259.3789211001
 20
1300.3001296095
 10
2260.2338157085
 20
1299.2950832638
 10
2261.1765205655
 20
1298.5246574916
 10
2262.1371195643
 20
1298.045991248
 10
2263.0443694716
 20
1297.8945850185
 10
2263.8309837122
 20
1298.0816679106
 10
2264.4386227064
 20
1298.5933648419
 10
2264.8222206498
 20
1299.3917255921
 10
2264.9533278377
 20
1300.4175393963
  0
LWPOLYLINE
  5
132
330
1F
100
AcDbEntity
  8
0
  6
Continuous
 62
     7
370
    25
100
AcDbPolyline
 90
       24
 70
   128
 43
0.0
 10
2264.9533278377
 20
1234.797444879
 10
2264.8222206498
 20
1235.9746318204
 10
2264.4386227065
 20
1237.2158853287
 10
2263.8309837122
 20
1238.4291473095
 10
2263.0443694716
 20
1239.5244356721
 10
2262.1371195643
 20
1240.4205178893
 10
2261.1765205655
 20
1241.0509356421
 10
2260.2338157086
 20
1241.36893373
 10
2259.3789211001
 20
1241.3509276895
 10
2258.6752403623
 20
1240.9982529462
 10
2258.1749622764
 20
1240.3370657724
 10
2257.9151901794
 20
1239.4164033961
 10
2257.9151901794
 20
1238.3045471341
 10
2258.1749622764
 20
1237.0839582788
 10
2258.6752403623
 20
1235.8451623218
 10
2259.3789211001
 20
1234.6800350922
 10
2260.2338157086
 20
1233.6749887465
 10
2261.1765205655
 20
1232.9045629742
 10
2262.1371195643
 20
1232.4258967306
 10
2263.0443694716
 20
1232.2744905012
 10
2263.8309837122
 20
1232.4615733933
 10
2264.4386227065
 20
1232.9732703246
 10
2264.8222206498
 20
1233.7716310747
 10
2264.9533278377
 20
1234.797444879
  0
LWPOLYLINE
  5
133
330
1F
100
AcDbEntity
  8
0
  6
Continuous
 62
     7
370
    25
100
AcDbPolyline
 90
       24
 70
   128
 43
0.0
 10
2224.7715674394
 20
1211.5934675917
 10
2224.6404602515
 20
1212.770654533
 10
2224.2568623081
 20
1214.0119080413
 10
2223.6492233139
 20
1215.2251700222
 10
2222.8626090733
 20
1216.3204583848
 10
2221.955359166
 20
1217.2165406019
 10
2220.9947601672
 20
1217.8469583548
 10
2220.0520553102
 20
1218.1649564427
 10
2219.1971607017
 20
1218.1469504021
 10
2218.493479964
 20
1217.7942756588
 10
2217.9932018781
 20
1217.133088485
 10
2217.7334297811
 20
1216.2124261088
 10
2217.7334297811
 20
1215.1005698467
 10
2217.9932018781
 20
1213.8799809914
 10
2218.493479964
 20
1212.6411850345
 10
2219.1971607017
 20
1211.4760578048
 10
2220.0520553102
 20
1210.4710114591
 10
2220.9947601672
 20
1209.7005856869
 10
2221.955359166
 20
1209.2219194433
 10
2222.8626090733
 20
1209.0705132138
 10
2223.6492233139
 20
1209.2575961059
 10
2224.2568623081
 20
1209.7692930373
 10
2224.6404602515
 20
1210.5676537874
 10
2224.7715674394
 20
1211.5934675917
  0
LWPOLYLINE
  5
134
330
1F
100
AcDbEntity
  8
0
  6
Continuous
 62
     7
370
    25
100
AcDbPolyline
 90
       24
 70
   128
 43
0.0
 10
2167.945976924
 20
1244.3981827282
 10
2167.8148697361
 20
1245.5753696695
 10
2167.4312717928
 20
1246.8166231778
 10
2166.8236327986
 20
1248.0298851587
 10
2166.0370185579
 20
1249.1251735213
 10
2165.1297686506
 20
1250.0212557384
 10
2164.1691696518
 20
1250.6516734913
 10
2163.2264647949
 20
1250.9696715792
 10
2162.3715701864
 20
1250.9516655386
 10
2161.6678894486
 20
1250.5989907953
 10
2161.1676113627
 20
1249.9378036215
 10
2160.9078392658
 20
1249.0171412453
 10
2160.9078392658
 20
1247.9052849832
 10
2161.1676113627
 20
1246.6846961279
 10
2161.6678894486
 20
1245.445900171
 10
2162.3715701864
 20
1244.2807729414
 10
2163.2264647949
 20
1243.2757265956
 10
2164.1691696518
 20
1242.5053008234
 10
2165.1297686506
 20
1242.0266345798
 10
2166.0370185579
 20
1241.8752283503
 10
2166.8236327986
 20
1242.0623112424
 10
2167.4312717928
 20
1242.5740081738
 10
2167.8148697361
 20
1243.3723689239
 10
2167.945976924
 20
1244.3981827282
  0
LWPOLYLINE
  5
135
330
1F
100
AcDbEntity
  8
0
  6
Continuous
 62
     7
370
    25
100
AcDbPolyline
 90
       24
 70
   128
 43
0.0
 10
2127.7642165257
 20
1313.9950330714
 10
2127.6331093378
 20
1315.1722200128
 10
2127.2495113944
 20
1316.413473521
 10
2126.6418724002
 20
1317.6267355019
 10
2125.8552581596
 20
1318.7220238645
 10
2124.9480082523
 20
1319.6181060816
 10
2123.9874092535
 20
1320.2485238345
 10
2123.0447043965
 20
1320.5665219224
 10
2122.189809788
 20
1320.5485158818
 10
2121.4861290503
 20
1320.1958411385
 10
2120.9858509644
 20
1319.5346539648
 10
2120.7260788674
 20
1318.6139915885
 10
2120.7260788674
 20
1317.5021353265
 10
2120.9858509644
 20
1316.2815464712
 10
2121.4861290503
 20
1315.0427505142
 10
2122.189809788
 20
1313.8776232846
 10
2123.0447043965
 20
1312.8725769388
 10
2123.9874092535
 20
1312.1021511666
 10
2124.9480082523
 20
1311.623484923
 10
2125.8552581596
 20
1311.4720786935
 10
2126.6418724002
 20
1311.6591615856
 10
2127.2495113944
 20
1312.170858517
 10
2127.6331093378
 20
1312.9692192671
 10
2127.7642165257
 20
1313.9950330714
  0
LWPOLYLINE
  5
136
330
1F
100
AcDbEntity
  8
0
  6
Continuous
 62
     7
370
    25
100
AcDbPolyline
 90
       24
 70
   128
 43
0.0
 10
2127.7642165257
 20
1379.6151275887
 10
2127.6331093378
 20
1380.7923145301
 10
2127.2495113944
 20
1382.0335680384
 10
2126.6418724002
 20
1383.2468300192
 10
2125.8552581596
 20
1384.3421183818
 10
2124.9480082523
 20
1385.2382005989
 10
2123.9874092535
 20
1385.8686183518
 10
2123.0447043965
 20
1386.1866164397
 10
2122.189809788
 20
1386.1686103991
 10
2121.4861290503
 20
1385.8159356558
 10
2120.9858509644
 20
1385.1547484821
 10
2120.7260788674
 20
1384.2340861058
 10
2120.7260788674
 20
1383.1222298438
 10
2120.9858509644
 20
1381.9016409885
 10
2121.4861290503
 20
1380.6628450315
 10
2122.189809788
 20
1379.4977178019
 10
2123.0447043965
 20
1378.4926714561
 10
2123.9874092535
 20
1377.7222456839
 10
2124.9480082523
 20
1377.2435794403
 10
2125.8552581596
 20
1377.0921732109
 10
2126.6418724002
 20
1377.2792561029
 10
2127.2495113944
 20
1377.7909530343
 10
2127.6331093378
 20
1378.5893137844
 10
2127.7642165257
 20
1379.6151275887
  0
LWPOLYLINE
  5
137
330
1F
100
AcDbEntity
  8
0
  6
Continuous
 62
     7
370
    25
100
AcDbPolyline
 90
       54
 70
   128
 43
0.0
 10
2241.8192561749
 20
1224.3745180001
 10
2243.6211413299
 20
1225.4941989274
 10
2246.3490027134
 20
1227.5249416815
 10
2248.8852557519
 20
1229.8482292918
 10
2251.220821318
 20
1232.4557449918
 10
2253.347338693
 20
1235.3381545518
 10
2255.2571954967
 20
1238.4851396938
 10
2256.9435549373
 20
1241.8854350278
 10
2258.4003802859
 20
1245.5268683788
 10
2259.6224564856
 20
1249.3964043607
 10
2260.6054088208
 20
1253.4801910388
 10
2261.3457185774
 20
1257.7636095168
 10
2261.8407356386
 20
1262.2313262682
 10
2262.0886879717
 20
1266.8673480266
 10
2262.0886879717
 20
1271.6550790372
 10
2261.8407356386
 20
1276.5773804657
 10
2261.3457185774
 20
1281.6166317505
 10
2260.6054088208
 20
1286.7547936797
 10
2259.6224564856
 20
1291.9734729673
 10
2258.4003802859
 20
1297.2539880958
 10
2256.9435549373
 20
1302.5774361916
 10
2255.2571954967
 20
1307.924760692
 10
2253.347338693
 20
1313.2768195633
 10
2251.220821318
 20
1318.6144538236
 10
2248.8852557519
 20
1323.9185561276
 10
2246.3490027134
 20
1329.1701391658
 10
2243.6211413299
 20
1334.3504036337
 10
2240.7114366375
 20
1339.4408055291
 10
2237.6303046235
 20
1344.4231225343
 10
2234.3887749411
 20
1349.2795192475
 10
2230.9984514251
 20
1353.9926110289
 10
2227.4714705539
 20
1358.5455262331
 10
2223.8204580036
 20
1362.9219666054
 10
2220.0584834515
 20
1367.106265625
 10
2216.1990137902
 20
1371.0834445874
 10
2212.2558649194
 20
1374.8392662243
 10
2208.2431522887
 20
1378.3602856688
 10
2204.1752403678
 20
1381.6338985851
 10
2200.0666912257
 20
1384.6483862888
 10
2195.932212402
 20
1387.3929576961
 10
2191.7866042578
 20
1389.8577879538
 10
2187.6447069943
 20
1392.0340536091
 10
2183.5213475288
 20
1393.913964196
 10
2179.431286418
 20
1395.4907901224
 10
2175.3891650191
 20
1396.7588867607
 10
2171.4094530778
 20
1397.713714654
 10
2167.5063969298
 20
1398.3518557664
 10
2163.6939685032
 20
1398.6710257183
 10
2159.9858153024
 20
1398.670081964
 10
2156.3952115533
 20
1398.349027882
 10
2152.9350106855
 20
1397.7090127625
 10
2149.6175993201
 20
1396.7523276937
 10
2146.4548529287
 20
1395.4823973596
 10
2143.8272203766
 20
1394.1200950267
  0
LINE
  5
138
330
1F
100
AcDbEntity
  8
0
  6
Continuous
 62
     7
370
    25
100
AcDbLine
 10
2229.9061422627
 20
1210.0865776389
 30
0.0
 11
2268.8372172533
 21
1232.5683148973
 31
0.0
  0
LINE
  5
139
330
1F
100
AcDbEntity
  8
0
  6
Continuous
 62
     7
370
    25
100
AcDbLine
 10
2226.0670534128
 20
1207.8703188203
 30
0.0
 11
2229.1521535789
 21
1206.0893284038
 31
0.0
  0
LINE
  5
13A
330
1F
100
AcDbEntity
  8
0
  6
Continuous
 62
     7
370
    25
100
AcDbLine
 10
2121.6529407493
 20
1392.2843352472
 30
0.0
 11
2121.6529407493
 21
1388.7224959125
 31
0.0
  0
LINE
  5
13B
330
1F
100
AcDbEntity
  8
0
  6
Continuous
 62
     7
370
    25
100
AcDbLine
 10
2161.3380044238
 20
1415.201482406
 30
0.0
 11
2121.6529407493
 21
1392.2843352472
 31
0.0
  0
LWPOLYLINE
  5
13C
330
1F
100
AcDbEntity
  8
0
  6
Continuous
 62
     7
370
    25
100
AcDbPolyline
 90
      102
 70
   128
 43
0.0
 10
2256.6396252779
 20
1271.3863803276
 10
2256.5144688892
 20
1276.1035418023
 10
2256.1394839289
 20
1280.9469559862
 10
2255.516121141
 20
1285.8978846506
 10
2254.6467921951
 20
1290.9371736145
 10
2253.5348603558
 20
1296.0453268478
 10
2252.1846274715
 20
1301.202581898
 10
2250.601317331
 20
1306.3889863471
 10
2248.7910554534
 20
1311.5844750039
 10
2246.7608453905
 20
1316.7689475322
 10
2244.5185416305
 20
1321.9223462148
 10
2242.0728192111
 20
1327.0247335534
 10
2239.4331401571
 20
1332.0563694026
 10
2236.6097168741
 20
1336.9977873408
 10
2233.6134726382
 20
1341.829869982
 10
2230.4559993363
 20
1346.5339229371
 10
2227.1495126192
 20
1351.091747139
 10
2223.7068046416
 20
1355.4857092515
 10
2220.141194572
 20
1359.6988098886
 10
2216.4664770631
 20
1363.7147493825
 10
2212.6968688828
 20
1367.5179908434
 10
2208.8469539131
 20
1371.093820269
 10
2204.9316267271
 20
1374.4284034699
 10
2200.9660349649
 20
1377.5088395915
 10
2196.9655207307
 20
1380.3232110248
 10
2192.945561237
 20
1382.8606295136
 10
2188.921708926
 20
1385.1112782786
 10
2184.9095313007
 20
1387.0664499969
 10
2180.9245506968
 20
1388.7185804891
 10
2176.9821842302
 20
1390.0612779832
 10
2173.0976841508
 20
1391.0893478435
 10
2169.2860788349
 20
1391.7988126673
 10
2165.5621146429
 20
1392.1869276731
 10
2161.9401988688
 20
1392.2521913194
 10
2158.4343440011
 20
1391.9943511137
 10
2155.0581135114
 20
1391.4144045898
 10
2151.8245693793
 20
1390.514595448
 10
2148.746221559
 20
1389.2984048752
 10
2145.8349795803
 20
1387.7705380764
 10
2143.1021064726
 20
1385.9369060714
 10
2140.5581751913
 20
1383.8046028263
 10
2138.2130277123
 20
1381.381877808
 10
2136.0757369554
 20
1378.6781040691
 10
2134.1545716835
 20
1375.7037419847
 10
2132.4569645118
 20
1372.4702987841
 10
2130.9894831527
 20
1368.9902840308
 10
2129.7578050064
 20
1365.2771612259
 10
2128.7666951964
 20
1361.3452957201
 10
2128.0199881341
 20
1357.2098991373
 10
2127.5205726839
 20
1352.8869705234
 10
2127.2703809873
 20
1348.3932344494
 10
2127.2703809873
 20
1343.7460763074
 10
2127.5205726839
 20
1338.9634750492
 10
2128.0199881341
 20
1334.0639336301
 10
2128.7666951964
 20
1329.066407424
 10
2129.7578050064
 20
1323.9902308889
 10
2130.9894831527
 20
1318.8550427658
 10
2132.4569645118
 20
1313.6807100998
 10
2134.1545716835
 20
1308.4872513788
 10
2136.0757369554
 20
1303.2947590858
 10
2138.2130277123
 20
1298.1233219647
 10
2140.5581751913
 20
1292.992947301
 10
2143.1021064726
 20
1287.9234835177
 10
2145.8349795803
 20
1282.9345433853
 10
2148.746221559
 20
1278.045428144
 10
2151.8245693793
 20
1273.2750528309
 10
2155.0581135114
 20
1268.6418731013
 10
2158.4343440011
 20
1264.1638138275
 10
2161.9401988688
 20
1259.8581997509
 10
2165.5621146429
 20
1255.741688456
 10
2169.2860788349
 20
1251.8302059252
 10
2173.0976841509
 20
1248.1388849246
 10
2176.9821842302
 20
1244.6820064581
 10
2180.9245506968
 20
1241.4729445167
 10
2184.9095313007
 20
1238.5241143379
 10
2188.921708926
 20
1235.8469243727
 10
2192.945561237
 20
1233.4517321489
 10
2196.9655207307
 20
1231.3478042
 10
2200.9660349649
 20
1229.5432802145
 10
2204.9316267271
 20
1228.0451415452
 10
2208.8469539131
 20
1226.8591841995
 10
2212.6968688828
 20
1225.9899964159
 10
2216.4664770631
 20
1225.4409409132
 10
2220.141194572
 20
1225.2141418804
 10
2223.7068046416
 20
1225.310476759
 10
2227.1495126192
 20
1225.729572848
 10
2230.4559993363
 20
1226.4698087461
 10
2233.6134726382
 20
1227.5283206243
 10
2236.6097168741
 20
1228.9010133059
 10
2239.4331401571
 20
1230.5825761095
 10
2242.0728192111
 20
1232.5665033953
 10
2244.5185416305
 20
1234.8451197341
 10
2246.7608453905
 20
1237.4096096018
 10
2248.7910554534
 20
1240.2500514855
 10
2250.601317331
 20
1243.3554562673
 10
2252.1846274715
 20
1246.7138097393
 10
2253.5348603558
 20
1250.3121190843
 10
2254.6467921951
 20
1254.1364631426
 10
2255.516121141
 20
1258.17204627
 10
2256.1394839289
 20
1262.4032555792
 10
2256.5144688892
 20
1266.8137213435
 10
2256.6396252779
 20
1271.3863803276
  0
LWPOLYLINE
  5
13D
330
1F
100
AcDbEntity
  8
0
  6
Continuous
 62
     7
370
    25
100
AcDbPolyline
 90
      106
 70
   128
 43
0.0
 10
2261.2358193556
 20
1268.7330539642
 10
2261.1117876765
 20
1273.5902441053
 10
2260.7401366404
 20
1278.5732506948
 10
2260.1221966615
 20
1283.6642358624
 10
2259.2601798046
 20
1288.8449752025
 10
2258.1571718664
 20
1294.0969230128
 10
2256.8171213289
 20
1299.4012786833
 10
2255.2448252254
 20
1304.7390539973
 10
2253.4459119677
 20
1310.0911411046
 10
2251.4268211985
 20
1315.4383809223
 10
2249.1947807387
 20
1320.7616317196
 10
2246.7577807139
 20
1326.0418376404
 10
2244.1245449516
 20
1331.2600969179
 10
2241.3044997524
 20
1336.397729538
 10
2238.3077401464
 20
1341.4363441095
 10
2235.144993755
 20
1346.3579036999
 10
2231.8275823896
 20
1351.1447904032
 10
2228.3673815218
 20
1355.7798684073
 10
2224.7767777727
 20
1360.2465453359
 10
2221.0686245718
 20
1364.528831645
 10
2217.2561961453
 20
1368.6113978608
 10
2213.3531399973
 20
1372.4796294561
 10
2209.3734280559
 20
1376.1196791654
 10
2205.3313066571
 20
1379.5185165558
 10
2201.2412455463
 20
1382.6639746713
 10
2197.1178860808
 20
1385.5447935883
 10
2192.9759888173
 20
1388.1506607228
 10
2188.8303806731
 20
1390.4722477467
 10
2184.6959018493
 20
1392.5012439811
 10
2180.5873527072
 20
1394.2303861459
 10
2176.5194407864
 20
1395.653484361
 10
2172.5067281556
 20
1396.7654443042
 10
2168.5635792848
 20
1397.5622854475
 10
2164.7041096236
 20
1398.0411553063
 10
2160.9421350715
 20
1398.2003396509
 10
2157.2911225212
 20
1398.0392686425
 10
2153.7641416499
 20
1397.5585188737
 10
2150.373818134
 20
1396.7598113039
 10
2147.1322884515
 20
1395.6460050987
 10
2144.0511564376
 20
1394.2210873954
 10
2141.1414517451
 20
1392.4901590296
 10
2138.4135903617
 20
1390.4594162755
 10
2135.8773373232
 20
1388.1361286651
 10
2133.5417717571
 20
1385.5286129652
 10
2131.4152543821
 20
1382.6462034052
 10
2129.5053975784
 20
1379.4992182631
 10
2127.8190381377
 20
1376.0989229292
 10
2126.3622127892
 20
1372.4574895781
 10
2125.1401365895
 20
1368.5879535963
 10
2124.1571842542
 20
1364.5041669181
 10
2123.4168744976
 20
1360.2207484401
 10
2122.9218574365
 20
1355.7530316887
 10
2122.6739051034
 20
1351.1170099304
 10
2122.6739051034
 20
1346.3292789197
 10
2122.9218574365
 20
1341.4069774912
 10
2123.4168744976
 20
1336.3677262065
 10
2124.1571842542
 20
1331.2295642772
 10
2125.1401365895
 20
1326.0108849896
 10
2126.3622127892
 20
1320.7303698611
 10
2127.8190381377
 20
1315.4069217654
 10
2129.5053975784
 20
1310.0595972649
 10
2131.4152543821
 20
1304.7075383937
 10
2133.5417717571
 20
1299.3699041334
 10
2135.8773373232
 20
1294.0658018293
 10
2138.4135903617
 20
1288.8142187912
 10
2141.1414517451
 20
1283.6339543233
 10
2144.0511564376
 20
1278.5435524279
 10
2147.1322884515
 20
1273.5612354227
 10
2150.373818134
 20
1268.7048387095
 10
2153.7641416499
 20
1263.9917469281
 10
2157.2911225212
 20
1259.4388317238
 10
2160.9421350715
 20
1255.0623913516
 10
2164.7041096236
 20
1250.878092332
 10
2168.5635792848
 20
1246.9009133695
 10
2172.5067281556
 20
1243.1450917327
 10
2176.5194407864
 20
1239.6240722882
 10
2180.5873527072
 20
1236.3504593718
 10
2184.6959018493
 20
1233.3359716682
 10
2188.8303806731
 20
1230.5914002608
 10
2192.9759888173
 20
1228.1265700032
 10
2197.1178860808
 20
1225.9503043478
 10
2201.2412455463
 20
1224.0703937609
 10
2205.3313066571
 20
1222.4935678346
 10
2209.3734280559
 20
1221.2254711963
 10
2213.3531399973
 20
1220.2706433029
 10
2217.2561961453
 20
1219.6325021905
 10
2221.0686245718
 20
1219.3133322387
 10
2224.7767777727
 20
1219.314275993
 10
2228.3673815218
 20
1219.635330075
 10
2231.8275823896
 20
1220.2753451944
 10
2235.144993755
 20
1221.2320302633
 10
2238.3077401464
 20
1222.5019605973
 10
2241.3044997524
 20
1224.0805901755
 10
2244.1245449516
 20
1225.9622679137
 10
2246.7577807139
 20
1228.1402578939
 10
2249.1947807387
 20
1230.6067634773
 10
2251.4268211985
 20
1233.3529552141
 10
2253.4459119677
 20
1236.3690024505
 10
2255.2448252254
 20
1239.6441085202
 10
2256.8171213289
 20
1243.1665493935
 10
2258.1571718664
 20
1246.9237156463
 10
2259.2601798046
 20
1250.9021575985
 10
2260.1221966615
 20
1255.0876334604
 10
2260.7401366404
 20
1259.4651603148
 10
2261.1117876765
 20
1264.0190677517
 10
2261.2358193556
 20
1268.7330539642
  0
LWPOLYLINE
  5
13E
330
1F
100
AcDbEntity
  8
0
  6
Continuous
 62
     7
370
    25
100
AcDbPolyline
 90
       52
 70
   128
 43
0.0
 10
2146.6371486117
 20
1388.2319531295
 10
2143.9859899491
 20
1386.4471611413
 10
2141.4420586678
 20
1384.3148578962
 10
2139.0969111887
 20
1381.8921328779
 10
2136.9596204319
 20
1379.1883591389
 10
2135.03845516
 20
1376.2139970546
 10
2133.3408479883
 20
1372.980553854
 10
2131.8733666292
 20
1369.5005391007
 10
2130.6416884829
 20
1365.7874162958
 10
2129.6505786729
 20
1361.85555079
 10
2128.9038716105
 20
1357.7201542071
 10
2128.4044561604
 20
1353.3972255933
 10
2128.1542644637
 20
1348.9034895193
 10
2128.1542644637
 20
1344.2563313772
 10
2128.4044561604
 20
1339.4737301191
 10
2128.9038716105
 20
1334.5741887
 10
2129.6505786729
 20
1329.5766624939
 10
2130.6416884829
 20
1324.5004859588
 10
2131.8733666292
 20
1319.3652978356
 10
2133.3408479883
 20
1314.1909651697
 10
2135.03845516
 20
1308.9975064487
 10
2136.9596204319
 20
1303.8050141557
 10
2139.0969111887
 20
1298.6335770346
 10
2141.4420586678
 20
1293.5032023709
 10
2143.9859899491
 20
1288.4337385876
 10
2146.7188630567
 20
1283.4447984552
 10
2149.6301050355
 20
1278.5556832139
 10
2152.7084528558
 20
1273.7853079008
 10
2155.9419969878
 20
1269.1521281712
 10
2159.3182274776
 20
1264.6740688974
 10
2162.8240823453
 20
1260.3684548208
 10
2166.4459981194
 20
1256.2519435259
 10
2170.1699623114
 20
1252.3404609951
 10
2173.9815676273
 20
1248.6491399945
 10
2177.8660677067
 20
1245.1922615279
 10
2181.8084341733
 20
1241.9831995866
 10
2185.7934147772
 20
1239.0343694078
 10
2189.8055924025
 20
1236.3571794426
 10
2193.8294447135
 20
1233.9619872188
 10
2197.8494042072
 20
1231.8580592699
 10
2201.8499184414
 20
1230.0535352844
 10
2205.8155102036
 20
1228.5553966151
 10
2209.7308373896
 20
1227.3694392693
 10
2213.5807523593
 20
1226.5002514858
 10
2217.3503605395
 20
1225.9511959831
 10
2221.0250780485
 20
1225.7243969503
 10
2224.5906881181
 20
1225.8207318289
 10
2228.0333960957
 20
1226.2398279179
 10
2231.3398828128
 20
1226.980063816
 10
2234.4973561147
 20
1228.0385756942
 10
2237.4936003506
 20
1229.4112683758
 10
2238.1254444637
 20
1229.7524048277
  0
LWPOLYLINE
  5
13F
330
1F
100
AcDbEntity
  8
0
  6
Continuous
 62
     7
370
    25
100
AcDbPolyline
 90
       93
 70
   128
 43
0.0
 10
2247.0052953842
 20
1277.9686707292
 10
2246.8789845033
 20
1282.3113415325
 10
2246.5006407804
 20
1286.7796002388
 10
2245.8720282285
 20
1291.3526137632
 10
2244.9960777295
 20
1296.0090606057
 10
2243.876873369
 20
1300.7272302616
 10
2242.5196333944
 20
1305.4851244461
 10
2240.930685885
 20
1310.2605596601
 10
2239.1174392475
 20
1315.0312706202
 10
2237.0883476747
 20
1319.7750140696
 10
2234.8528717284
 20
1324.4696724866
 10
2232.4214342292
 20
1329.0933572065
 10
2229.8053716612
 20
1333.6245104767
 10
2227.0168813157
 20
1338.0420059691
 10
2224.0689644219
 20
1342.3252472805
 10
2220.9753655292
 20
1346.4542639626
 10
2217.7505084237
 20
1350.4098046336
 10
2214.4094288779
 20
1354.173426737
 10
2210.9677045469
 20
1357.7275825292
 10
2207.4413823383
 20
1361.0557008952
 10
2203.846903594
 20
1364.1422646109
 10
2200.2010274334
 20
1366.9728826913
 10
2196.5207526139
 20
1369.5343574884
 10
2192.8232382758
 20
1371.8147462242
 10
2189.1257239376
 20
1373.8034166737
 10
2185.4454491182
 20
1375.4910967374
 10
2181.7995729575
 20
1376.8699176716
 10
2178.2050942133
 20
1377.9334507768
 10
2174.6787720047
 20
1378.6767373705
 10
2171.2370476737
 20
1379.0963119077
 10
2167.8959681278
 20
1379.1902181381
 10
2164.6711110223
 20
1378.9580182276
 10
2161.5775121296
 20
1378.4007947992
 10
2158.6295952359
 20
1377.5211458859
 10
2155.8411048904
 20
1376.3231728169
 10
2153.2250423224
 20
1374.8124610958
 10
2150.7936048232
 20
1372.9960543579
 10
2148.5581288768
 20
1370.8824215299
 10
2146.5290373041
 20
1368.4814173437
 10
2144.7157906666
 20
1365.8042363893
 10
2143.1268431571
 20
1362.86336092
 10
2141.7696031825
 20
1359.6725026549
 10
2140.650398822
 20
1356.2465388482
 10
2139.774448323
 20
1352.6014429246
 10
2139.1458357711
 20
1348.754210004
 10
2138.7674920482
 20
1344.7227776621
 10
2138.6411811674
 20
1340.5259422976
 10
2138.7674920482
 20
1336.1832714943
 10
2139.1458357711
 20
1331.7150127881
 10
2139.774448323
 20
1327.1419992637
 10
2140.650398822
 20
1322.4855524212
 10
2141.7696031825
 20
1317.7673827652
 10
2143.1268431571
 20
1313.0094885807
 10
2144.7157906666
 20
1308.2340533667
 10
2146.5290373041
 20
1303.4633424067
 10
2148.5581288768
 20
1298.7195989573
 10
2150.7936048232
 20
1294.0249405403
 10
2153.2250423224
 20
1289.4012558204
 10
2155.8411048904
 20
1284.8701025501
 10
2158.6295952359
 20
1280.4526070577
 10
2161.5775121296
 20
1276.1693657463
 10
2164.6711110223
 20
1272.0403490642
 10
2167.8959681278
 20
1268.0848083932
 10
2171.2370476737
 20
1264.3211862898
 10
2174.6787720047
 20
1260.7670304976
 10
2178.2050942133
 20
1257.4389121316
 10
2181.7995729575
 20
1254.352348416
 10
2185.4454491182
 20
1251.5217303355
 10
2189.1257239376
 20
1248.9602555385
 10
2192.8232382758
 20
1246.6798668027
 10
2196.5207526139
 20
1244.6911963531
 10
2200.2010274334
 20
1243.0035162895
 10
2203.846903594
 20
1241.6246953552
 10
2207.4413823383
 20
1240.5611622501
 10
2210.9677045469
 20
1239.8178756563
 10
2214.4094288779
 20
1239.3983011191
 10
2217.7505084237
 20
1239.3043948887
 10
2220.9753655292
 20
1239.5365947993
 10
2224.0689644219
 20
1240.0938182276
 10
2227.0168813157
 20
1240.973467141
 10
2229.8053716612
 20
1242.1714402099
 10
2232.4214342292
 20
1243.6821519311
 10
2234.8528717284
 20
1245.498558669
 10
2237.0883476747
 20
1247.612191497
 10
2239.1174392475
 20
1250.0131956831
 10
2240.930685885
 20
1252.6903766376
 10
2242.5196333944
 20
1255.6312521068
 10
2243.876873369
 20
1258.8221103719
 10
2244.9960777295
 20
1262.2480741786
 10
2245.8720282285
 20
1265.8931701022
 10
2246.5006407804
 20
1269.7404030229
 10
2246.8789845033
 20
1273.7718353647
 10
2247.0052953842
 20
1277.9686707292
  0
LWPOLYLINE
  5
140
330
1F
100
AcDbEntity
  8
0
  6
Continuous
 62
     7
370
    25
100
AcDbPolyline
 90
       13
 70
   128
 43
0.0
 10
2315.1743503362
 20
1497.7628488994
 10
2315.3970303819
 20
1498.3931280916
 10
2315.2545164162
 20
1499.0531493273
 10
2314.748490738
 20
1499.6506952596
 10
2313.9337890815
 20
1500.121012515
 10
2312.8986970125
 20
1500.413134921
 10
2311.7553828177
 20
1500.4954064822
 10
2310.6277423306
 20
1500.3589117984
 10
2309.6379728951
 20
1500.0184421865
 10
2308.8933313873
 20
1499.510892812
 10
2308.4745112689
 20
1498.8912645249
 10
2308.4268981985
 20
1498.2267036647
 10
2308.625690119
 20
1497.7628488994
  0
LWPOLYLINE
  5
141
330
1F
100
AcDbEntity
  8
0
  6
Continuous
 62
     7
370
    25
100
AcDbPolyline
 90
       46
 70
   128
 43
0.0
 10
2232.859596859
 20
1243.9774889205
 10
2230.5524152216
 20
1243.0144874205
 10
2227.6044983278
 20
1242.1348385072
 10
2224.5108994351
 20
1241.5776150788
 10
2221.2860423296
 20
1241.3454151683
 10
2217.9449627838
 20
1241.4393213987
 10
2214.5032384528
 20
1241.8588959359
 10
2210.9769162442
 20
1242.6021825296
 10
2207.3824375
 20
1243.6657156348
 10
2203.7365613393
 20
1245.044536569
 10
2200.0562865198
 20
1246.7322166327
 10
2196.3587721817
 20
1248.7208870822
 10
2192.6612578436
 20
1251.001275818
 10
2188.9809830241
 20
1253.5627506151
 10
2185.3351068634
 20
1256.3933686955
 10
2181.7406281192
 20
1259.4799324112
 10
2178.2143059106
 20
1262.8080507772
 10
2174.7725815796
 20
1266.3622065694
 10
2171.4315020338
 20
1270.1258286728
 10
2168.2066449283
 20
1274.0813693438
 10
2165.1130460356
 20
1278.2103860259
 10
2162.1651291418
 20
1282.4936273373
 10
2159.3766387963
 20
1286.9111228297
 10
2156.7605762283
 20
1291.4422760999
 10
2154.3291387291
 20
1296.0659608198
 10
2152.0936627828
 20
1300.7606192368
 10
2150.06457121
 20
1305.5043626862
 10
2148.2513245725
 20
1310.2750736463
 10
2146.6623770631
 20
1315.0505088603
 10
2145.3051370884
 20
1319.8084030448
 10
2144.1859327279
 20
1324.5265727007
 10
2143.309982229
 20
1329.1830195432
 10
2142.6813696771
 20
1333.7560330676
 10
2142.3030259541
 20
1338.2242917739
 10
2142.1767150733
 20
1342.5669625772
 10
2142.3030259541
 20
1346.7637979417
 10
2142.6813696771
 20
1350.7952302835
 10
2143.309982229
 20
1354.6424632042
 10
2144.1859327279
 20
1358.2875591278
 10
2145.3051370884
 20
1361.7135229345
 10
2146.6623770631
 20
1364.9043811996
 10
2148.2513245725
 20
1367.8452566688
 10
2150.06457121
 20
1370.5224376233
 10
2152.0936627828
 20
1372.9234418094
 10
2154.3291387291
 20
1375.0370746374
 10
2156.3224135985
 20
1376.5581443859
  0
LWPOLYLINE
  5
142
330
1F
100
AcDbEntity
  8
0
  6
Continuous
 62
     7
370
    25
100
AcDbPolyline
 90
       60
 70
   128
 43
0.0
 10
2233.5457685934
 20
1306.9653010634
 10
2233.4192207541
 20
1309.7801762517
 10
2233.0410110737
 20
1312.7092668046
 10
2232.4154248192
 20
1315.7193849557
 10
2231.5495501327
 20
1318.7764248637
 10
2230.4531977203
 20
1321.8457490447
 10
2229.1387896931
 20
1324.8925808294
 10
2227.6212188191
 20
1327.8823983962
 10
2225.9176797828
 20
1330.7813259174
 10
2224.0474743622
 20
1333.5565173859
 10
2222.0317927319
 20
1336.1765287734
 10
2219.8934733702
 20
1338.6116743039
 10
2217.65674429
 20
1340.8343628057
 10
2215.3469485255
 20
1342.8194103297
 10
2212.9902569856
 20
1344.5443254944
 10
2210.6133719272
 20
1345.9895643218
 10
2208.2432244077
 20
1347.1387516784
 10
2205.9066691457
 20
1347.9788668122
 10
2203.6301802458
 20
1348.5003908832
 10
2201.4395512369
 20
1348.6974148152
 10
2199.359602821
 20
1348.5677062483
 10
2197.4139016448
 20
1348.1127348324
 10
2195.6244932802
 20
1347.3376555755
 10
2194.0116524387
 20
1346.2512504353
 10
2192.5936532518
 20
1344.865828816
 10
2191.3865622166
 20
1343.1970880983
 10
2190.4040561571
 20
1341.2639357812
 10
2189.6572672594
 20
1339.0882752529
 10
2189.1546569402
 20
1336.6947576167
 10
2188.9019199752
 20
1334.1105023836
 10
2188.9019199752
 20
1331.3647901982
 10
2189.1546569402
 20
1328.4887310766
 10
2189.6572672594
 20
1325.5149119178
 10
2190.4040561571
 20
1322.4770272813
 10
2191.3865622166
 20
1319.4094976138
 10
2192.5936532518
 20
1316.3470792521
 10
2194.0116524387
 20
1313.3244706201
 10
2195.6244932802
 20
1310.3759190812
 10
2197.4139016448
 20
1307.5348329026
 10
2199.359602821
 20
1304.833402726
 10
2201.4395512369
 20
1302.3022368346
 10
2203.6301802458
 20
1299.9700143494
 10
2205.9066691457
 20
1297.8631602832
 10
2208.2432244077
 20
1296.0055461342
 10
2210.6133719272
 20
1294.4182194131
 10
2212.9902569856
 20
1293.119165166
 10
2215.3469485255
 20
1292.1231021964
 10
2217.65674429
 20
1291.4413162959
 10
2219.8934733702
 20
1291.0815323711
 10
2222.0317927319
 20
1291.0478269177
 10
2224.0474743622
 20
1291.3405818319
 10
2225.9176797828
 20
1291.9564800835
 10
2227.6212188191
 20
1292.8885432993
 10
2229.1387896931
 20
1294.1262108306
 10
2230.4531977203
 20
1295.6554594097
 10
2231.5495501327
 20
1297.4589620392
 10
2232.4154248192
 20
1299.5162843137
 10
2233.0410110737
 20
1301.8041159496
 10
2233.4192207541
 20
1304.2965349004
 10
2233.5457685934
 20
1306.9653010634
  0
LWPOLYLINE
  5
143
330
1F
100
AcDbEntity
  8
0
  6
Continuous
 62
     7
370
    25
100
AcDbPolyline
 90
       12
 70
   128
 43
0.0
 10
2259.2966706112
 20
1306.949391976
 10
2258.8820690576
 20
1306.3653643456
 10
2258.6222969606
 20
1305.4447019694
 10
2258.6222969606
 20
1304.3328457073
 10
2258.8820690576
 20
1303.112256852
 10
2259.3823471435
 20
1301.8734608951
 10
2260.0860278812
 20
1300.7083336654
 10
2260.9409224897
 20
1299.7032873197
 10
2261.8836273467
 20
1298.9328615475
 10
2262.8442263455
 20
1298.4541953039
 10
2263.7514762528
 20
1298.3027890744
 10
2264.2460240335
 20
1298.3759314317
  0
LWPOLYLINE
  5
144
330
1F
100
AcDbEntity
  8
0
  6
Continuous
 62
     7
370
    25
100
AcDbPolyline
 90
       12
 70
   128
 43
0.0
 10
2219.1149102129
 20
1376.5462423192
 10
2218.7003086593
 20
1375.9622146888
 10
2218.4405365623
 20
1375.0415523126
 10
2218.4405365623
 20
1373.9296960505
 10
2218.7003086593
 20
1372.7091071952
 10
2219.2005867451
 20
1371.4703112383
 10
2219.9042674829
 20
1370.3051840087
 10
2220.7591620914
 20
1369.3001376629
 10
2221.7018669484
 20
1368.5297118907
 10
2222.6624659472
 20
1368.0510456471
 10
2223.5697158545
 20
1367.8996394176
 10
2224.0642636352
 20
1367.9727817749
  0
LWPOLYLINE
  5
145
330
1F
100
AcDbEntity
  8
0
  6
Continuous
 62
     7
370
    25
100
AcDbPolyline
 90
       17
 70
   128
 43
0.0
 10
2260.6103605907
 20
1508.6007992623
 10
2261.103689185
 20
1509.3090794882
 10
2261.2910971404
 20
1510.1308512873
 10
2261.103689185
 20
1510.9526230865
 10
2260.5542368613
 20
1511.7183924955
 10
2259.680184437
 20
1512.3759735948
 10
2258.5410971404
 20
1512.8805533191
 10
2257.2146018885
 20
1513.197745394
 10
2255.7910971404
 20
1513.3059337038
 10
2254.3675923924
 20
1513.197745394
 10
2253.0410971404
 20
1512.8805533191
 10
2251.9020098439
 20
1512.3759735948
 10
2251.0279574196
 20
1511.7183924955
 10
2250.4785050958
 20
1510.9526230865
 10
2250.2910971404
 20
1510.1308512873
 10
2250.4785050958
 20
1509.3090794882
 10
2250.9718336902
 20
1508.6007992623
  0
ARC
  5
146
330
1F
100
AcDbEntity
  8
0
  6
Continuous
 62
     7
370
    25
100
AcDbCircle
 10
2116.0052234552
 20
1511.2274795732
 30
0.0
 40
21.55045167932271
100
AcDbArc
 50
180.0899114056
 51
197.6537052069
  0
LWPOLYLINE
  5
147
330
1F
100
AcDbEntity
  8
0
  6
Continuous
 62
     7
370
    25
100
AcDbPolyline
 90
       13
 70
   128
 43
0.0
 10
2202.9565041619
 20
1521.0713004919
 10
2203.1791842076
 20
1521.7015796842
 10
2203.0366702419
 20
1522.3616009198
 10
2202.5306445637
 20
1522.9591468522
 10
2201.7159429072
 20
1523.4294641075
 10
2200.6808508382
 20
1523.7215865135
 10
2199.5375366434
 20
1523.8038580747
 10
2198.4098961563
 20
1523.6673633909
 10
2197.4201267208
 20
1523.3268937791
 10
2196.675485213
 20
1522.8193444045
 10
2196.2566650946
 20
1522.1997161174
 10
2196.2090520242
 20
1521.5351552572
 10
2196.4078439447
 20
1521.0713004919
  0
LWPOLYLINE
  5
148
330
1F
100
AcDbEntity
  8
0
  6
Continuous
 62
     7
370
    25
100
AcDbPolyline
 90
       17
 70
   128
 43
0.0
 10
2165.7327044148
 20
1533.8951055211
 10
2165.9341875051
 20
1534.2460330387
 10
2166.1215954605
 20
1535.0678048378
 10
2165.9341875051
 20
1535.889576637
 10
2165.3847351814
 20
1536.6553460461
 10
2164.5106827571
 20
1537.3129271453
 10
2163.3715954605
 20
1537.8175068696
 10
2162.0451002086
 20
1538.1346989445
 10
2160.6215954605
 20
1538.2428872543
 10
2159.1980907125
 20
1538.1346989445
 10
2157.8715954605
 20
1537.8175068696
 10
2156.732508164
 20
1537.3129271453
 10
2155.8584557397
 20
1536.6553460461
 10
2155.309003416
 20
1535.889576637
 10
2155.1215954605
 20
1535.0678048378
 10
2155.309003416
 20
1534.2460330387
 10
2155.5104865063
 20
1533.8951055211
  0
LWPOLYLINE
  5
149
330
1F
100
AcDbEntity
  8
0
  6
Continuous
 62
     7
370
    25
100
AcDbPolyline
 90
       12
 70
   128
 43
0.0
 10
2259.2966706113
 20
1241.3292974587
 10
2258.8820690576
 20
1240.7452698283
 10
2258.6222969606
 20
1239.8246074521
 10
2258.6222969606
 20
1238.71275119
 10
2258.8820690576
 20
1237.4921623347
 10
2259.3823471435
 20
1236.2533663777
 10
2260.0860278813
 20
1235.0882391481
 10
2260.9409224897
 20
1234.0831928024
 10
2261.8836273467
 20
1233.3127670302
 10
2262.8442263455
 20
1232.8341007866
 10
2263.7514762528
 20
1232.6826945571
 10
2264.2460240336
 20
1232.7558369144
  0
LWPOLYLINE
  5
14A
330
1F
100
AcDbEntity
  8
0
  6
Continuous
 62
     7
370
    25
100
AcDbPolyline
 90
       12
 70
   128
 43
0.0
 10
2162.2893196976
 20
1409.3509574557
 10
2161.8747181439
 20
1408.7669298253
 10
2161.6149460469
 20
1407.8462674491
 10
2161.6149460469
 20
1406.734411187
 10
2161.8747181439
 20
1405.5138223318
 10
2162.3749962298
 20
1404.2750263748
 10
2163.0786769676
 20
1403.1098991452
 10
2163.9335715761
 20
1402.1048527994
 10
2164.876276433
 20
1401.3344270272
 10
2165.8368754318
 20
1400.8557607836
 10
2166.7441253391
 20
1400.7043545541
 10
2167.2386731198
 20
1400.7774969114
  0
LINE
  5
14B
330
1F
100
AcDbEntity
  8
0
  6
Continuous
 62
     7
370
    25
100
AcDbLine
 10
2160.58401574
 20
1411.2042331709
 30
0.0
 11
2164.4231045899
 21
1413.4204919896
 31
0.0
  0
LINE
  5
14C
330
1F
100
AcDbEntity
  8
0
  6
Continuous
 62
     7
370
    25
100
AcDbLine
 10
2116.8092592982
 20
1389.4881374642
 30
0.0
 11
2121.6529407493
 21
1392.2843352472
 31
0.0
  0
LINE
  5
14D
330
1F
100
AcDbEntity
  8
0
  6
Continuous
 62
     7
370
    25
100
AcDbLine
 10
2225.0624608116
 20
1207.2903798559
 30
0.0
 11
2229.9061422627
 21
1210.0865776389
 31
0.0
  0
LWPOLYLINE
  5
14E
330
1F
100
AcDbEntity
  8
0
  6
Continuous
 62
     7
370
    25
100
AcDbPolyline
 90
       13
 70
   128
 43
0.0
 10
2238.8775286462
 20
1541.8080665321
 10
2239.1002086919
 20
1542.4383457244
 10
2238.9576947262
 20
1543.0983669601
 10
2238.451669048
 20
1543.6959128925
 10
2237.6369673915
 20
1544.1662301478
 10
2236.6018753224
 20
1544.4583525538
 10
2235.4585611277
 20
1544.540624115
 10
2234.3309206406
 20
1544.4041294312
 10
2233.341151205
 20
1544.0636598194
 10
2232.5965096973
 20
1543.5561104448
 10
2232.1776895789
 20
1542.9364821577
 10
2232.1300765085
 20
1542.2719212975
 10
2232.328868429
 20
1541.8080665321
  0
LWPOLYLINE
  5
14F
330
1F
100
AcDbEntity
  8
0
  6
Continuous
 62
     7
370
    25
100
AcDbPolyline
 90
       17
 70
   128
 43
0.0
 10
2206.8739308983
 20
1315.831360329
 10
2206.7732409848
 20
1316.4740312018
 10
2206.4865003709
 20
1317.1351153597
 10
2206.0573627157
 20
1317.7139687323
 10
2205.5511603371
 20
1318.1224661409
 10
2205.0449579586
 20
1318.2984175582
 10
2204.6158203034
 20
1318.2150359759
 10
2204.3290796895
 20
1317.885015484
 10
2204.228389776
 20
1317.3585987107
 10
2204.3290796895
 20
1316.7159278378
 10
2204.6158203034
 20
1316.05484368
 10
2205.0449579586
 20
1315.4759903074
 10
2205.5511603371
 20
1315.0674928987
 10
2206.0573627157
 20
1314.8915414814
 10
2206.4865003709
 20
1314.9749230638
 10
2206.7732409848
 20
1315.3049435557
 10
2206.8739308983
 20
1315.831360329
  0
LWPOLYLINE
  5
150
330
1F
100
AcDbEntity
  8
0
  6
Continuous
 62
     7
370
    25
100
AcDbPolyline
 90
       58
 70
   128
 43
0.0
 10
2231.714111241
 20
1308.0226943457
 10
2231.5896531235
 20
1310.6995023481
 10
2231.2177895238
 20
1313.4875138113
 10
2230.6030343623
 20
1316.3528860528
 10
2229.752849934
 20
1319.2608373353
 10
2228.677556326
 20
1322.1760690693
 10
2227.3902061462
 20
1325.0631942908
 10
2225.9064260818
 20
1327.8871672104
 10
2224.2442272129
 20
1330.6137086224
 10
2222.423786382
 20
1333.2097220075
 10
2220.4672012748
 20
1335.64369528
 10
2218.3982221841
 20
1337.8860833014
 10
2216.2419637132
 20
1339.9096665187
 10
2214.0245999191
 20
1341.6898813729
 10
2211.7730465945
 20
1343.2051184672
 10
2209.5146345467
 20
1344.436984876
 10
2207.2767778387
 20
1345.3705274097
 10
2205.0866410195
 20
1345.9944141265
 10
2202.9708093831
 20
1346.3010718869
 10
2200.9549662594
 20
1346.2867782811
 10
2199.0635812533
 20
1345.9517068141
 10
2197.3196132166
 20
1345.2999247995
 10
2195.7442315588
 20
1344.3393439882
 10
2194.3565592792
 20
1343.0816245299
 10
2193.1734408394
 20
1341.5420334351
 10
2192.2092376946
 20
1339.7392592542
 10
2191.4756539648
 20
1337.6951852235
 10
2190.9815943629
 20
1335.4346236328
 10
2190.733056103
 20
1332.9850146376
 10
2190.733056103
 20
1330.3760931728
 10
2190.9815943629
 20
1327.6395280107
 10
2191.4756539648
 20
1324.8085373456
 10
2192.2092376946
 20
1321.9174855689
 10
2193.1734408394
 20
1319.0014661331
 10
2194.3565592792
 20
1316.0958755638
 10
2195.7442315588
 20
1313.2359837946
 10
2197.3196132166
 20
1310.4565060375
 10
2199.0635812533
 20
1307.7911813873
 10
2200.9549662594
 20
1305.2723632746
 10
2202.9708093831
 20
1302.9306267392
 10
2205.0866410195
 20
1300.7943972906
 10
2207.2767778387
 20
1298.8896058603
 10
2209.5146345467
 20
1297.2393740361
 10
2211.7730465945
 20
1295.8637333969
 10
2214.0245999191
 20
1294.7793823564
 10
2216.2419637132
 20
1293.9994834675
 10
2218.3982221841
 20
1293.5335036462
 10
2220.4672012748
 20
1293.3870992562
 10
2222.423786382
 20
1293.5620474486
 10
2224.2442272129
 20
1294.0562245892
 10
2225.9064260818
 20
1294.8636320371
 10
2227.3902061462
 20
1295.9744689595
 10
2228.677556326
 20
1297.375251301
 10
2229.752849934
 20
1299.0489754615
 10
2230.6030343623
 20
1300.975324697
 10
2231.2177895238
 20
1303.1309157373
 10
2231.5896531235
 20
1305.4895826272
 10
2231.714111241
 20
1308.0226943457
  0
LINE
  5
151
330
1F
100
AcDbEntity
  8
0
  6
Continuous
 62
     7
370
    25
100
AcDbLine
 10
2306.9149174202
 20
1105.6711410212
 30
0.0
 11
2305.2178611454
 21
1106.6508307554
 31
0.0
  0
ARC
  5
152
330
1F
100
AcDbEntity
  8
0
  6
Continuous
 62
     7
370
    25
100
AcDbCircle
 10
2273.8716724101
 20
1203.8706181661
 30
0.0
 40
106.5611054335928
100
AcDbArc
 50
263.9474689202
 51
282.384466956
  0
LWPOLYLINE
  5
153
330
1F
100
AcDbEntity
  8
0
  6
Continuous
 62
     7
370
    25
100
AcDbPolyline
 90
       14
 70
   128
 43
0.0
 10
2095.4696509052
 20
1194.4065118051
 10
2106.6892100798
 20
1186.105343455
 10
2118.2007531684
 20
1177.9384895128
 10
2129.9994566118
 20
1169.9093720486
 10
2142.0803765248
 20
1162.0213554178
 10
2154.4384507683
 20
1154.2777448521
 10
2167.0685010699
 20
1146.6817850742
 10
2179.9652351942
 20
1139.2366589382
 10
2193.12324916
 20
1131.945486096
 10
2206.5370295049
 20
1124.8113216902
 10
2220.2009555952
 20
1117.8371550738
 10
2234.1093019815
 20
1111.0259085574
 10
2248.2562407976
 20
1104.3804361852
 10
2262.6358442022
 20
1097.9035225387
  0
ARC
  5
154
330
1F
100
AcDbEntity
  8
0
  6
Continuous
 62
     7
370
    25
100
AcDbCircle
 10
2116.7040279587
 20
1200.9410664741
 30
0.0
 40
22.21709192430574
100
AcDbArc
 50
147.6364485964
 51
197.1049478171
  0
ARC
  5
155
330
1F
100
AcDbEntity
  8
0
  6
Continuous
 62
     7
370
    25
100
AcDbCircle
 10
2273.8716724101
 20
1191.6225059878
 30
0.0
 40
106.5611054335966
100
AcDbArc
 50
263.9474689202
 51
282.384466956
  0
LINE
  5
156
330
1F
100
AcDbEntity
  8
0
  6
Continuous
 62
     7
370
    25
100
AcDbLine
 10
2262.6358442022
 20
1097.9035225387
 30
0.0
 11
2262.6358442022
 21
1085.6554103604
 31
0.0
  0
LINE
  5
157
330
1F
100
AcDbEntity
  8
0
  6
Continuous
 62
     7
370
    25
100
AcDbLine
 10
2095.4696509052
 20
1194.4065118051
 30
0.0
 11
2095.4696509052
 21
1182.1583996268
 31
0.0
  0
LWPOLYLINE
  5
158
330
1F
100
AcDbEntity
  8
0
  6
Continuous
 62
     7
370
    25
100
AcDbPolyline
 90
       14
 70
   128
 43
0.0
 10
2095.4696509052
 20
1182.1583996268
 10
2106.6892100798
 20
1173.8572312767
 10
2118.2007531684
 20
1165.6903773345
 10
2129.9994566118
 20
1157.6612598703
 10
2142.0803765248
 20
1149.7732432395
 10
2154.4384507683
 20
1142.0296326738
 10
2167.0685010699
 20
1134.4336728959
 10
2179.9652351942
 20
1126.9885467599
 10
2193.12324916
 20
1119.6973739177
 10
2206.5370295049
 20
1112.563209512
 10
2220.2009555952
 20
1105.5890428955
 10
2234.1093019815
 20
1098.7777963791
 10
2248.2562407976
 20
1092.1323240069
 10
2262.6358442022
 20
1085.6554103604
  0
LWPOLYLINE
  5
159
330
1F
100
AcDbEntity
  8
0
  6
Continuous
 62
     7
370
    25
100
AcDbPolyline
 90
       12
 70
   128
 43
0.0
 10
2219.1149102129
 20
1218.1253201713
 10
2218.7003086593
 20
1217.5412925409
 10
2218.4405365623
 20
1216.6206301647
 10
2218.4405365623
 20
1215.5087739026
 10
2218.7003086593
 20
1214.2881850473
 10
2219.2005867451
 20
1213.0493890904
 10
2219.9042674829
 20
1211.8842618608
 10
2220.7591620914
 20
1210.879215515
 10
2221.7018669484
 20
1210.1087897428
 10
2222.6624659472
 20
1209.6301234992
 10
2223.5697158545
 20
1209.4787172697
 10
2224.0642636352
 20
1209.551859627
  0
LWPOLYLINE
  5
15A
330
1F
100
AcDbEntity
  8
0
  6
Continuous
 62
     7
370
    25
100
AcDbPolyline
 90
       12
 70
   128
 43
0.0
 10
2122.1075592992
 20
1386.1469801684
 10
2121.6929577456
 20
1385.562952538
 10
2121.4331856486
 20
1384.6422901617
 10
2121.4331856486
 20
1383.5304338997
 10
2121.6929577456
 20
1382.3098450444
 10
2122.1932358315
 20
1381.0710490874
 10
2122.8969165692
 20
1379.9059218578
 10
2123.7518111777
 20
1378.900875512
 10
2124.6945160347
 20
1378.1304497398
 10
2125.6551150335
 20
1377.6517834962
 10
2126.5623649408
 20
1377.5003772668
 10
2127.0569127215
 20
1377.5735196241
  0
LWPOLYLINE
  5
15B
330
1F
100
AcDbEntity
  8
0
  6
Continuous
 62
     7
370
    25
100
AcDbPolyline
 90
       12
 70
   128
 43
0.0
 10
2330.2140858603
 20
1144.1477438725
 10
2330.0815684242
 20
1142.9088934623
 10
2329.6930469601
 20
1141.6014672852
 10
2329.0749985638
 20
1140.3145642746
 10
2328.2695422121
 20
1139.135884744
 10
2327.3315684242
 20
1138.1457537554
 10
2326.3249985638
 20
1137.4116470996
 10
2325.3184287034
 20
1136.9835929319
 10
2324.3804549155
 20
1136.8907624365
 10
2323.5749985638
 20
1137.1394818581
 10
2322.9569501675
 20
1137.7128013794
 10
2322.7531773299
 20
1138.0640084522
  0
ARC
  5
15C
330
1F
100
AcDbEntity
  8
0
  6
Continuous
 62
     7
370
    25
100
AcDbCircle
 10
2327.8891615233
 20
1144.5551548753
 30
0.0
 40
2.360351011603405
100
AcDbArc
 50
350.0606215851
 51
90.6361804393
  0
LINE
  5
15D
330
1F
100
AcDbEntity
  8
0
  6
Continuous
 62
     7
370
    25
100
AcDbLine
 10
2161.3372172533
 20
1239.6456622744
 30
0.0
 11
2163.6046242632
 21
1240.9546084795
 31
0.0
  0
LINE
  5
15E
330
1F
100
AcDbEntity
  8
0
  6
Continuous
 62
     7
370
    25
100
AcDbLine
 10
2116.8092592982
 20
1316.7703475836
 30
0.0
 11
2119.0764080279
 21
1318.0791446868
 31
0.0
  0
LWPOLYLINE
  5
15F
330
1F
100
AcDbEntity
  8
0
  6
Continuous
 62
     7
370
    25
100
AcDbPolyline
 90
       12
 70
   128
 43
0.0
 10
2162.2893196976
 20
1250.9300353078
 10
2161.8747181439
 20
1250.3460076775
 10
2161.6149460469
 20
1249.4253453012
 10
2161.6149460469
 20
1248.3134890392
 10
2161.8747181439
 20
1247.0929001839
 10
2162.3749962298
 20
1245.8541042269
 10
2163.0786769676
 20
1244.6889769973
 10
2163.9335715761
 20
1243.6839306515
 10
2164.876276433
 20
1242.9135048793
 10
2165.8368754318
 20
1242.4348386357
 10
2166.7441253391
 20
1242.2834324062
 10
2167.2386731198
 20
1242.3565747635
  0
LWPOLYLINE
  5
160
330
1F
100
AcDbEntity
  8
0
  6
Continuous
 62
     7
370
    25
100
AcDbPolyline
 90
       12
 70
   128
 43
0.0
 10
2122.1075592992
 20
1320.5268856511
 10
2121.6929577456
 20
1319.9428580207
 10
2121.4331856486
 20
1319.0221956444
 10
2121.4331856486
 20
1317.9103393824
 10
2121.6929577456
 20
1316.6897505271
 10
2122.1932358315
 20
1315.4509545701
 10
2122.8969165692
 20
1314.2858273405
 10
2123.7518111777
 20
1313.2807809947
 10
2124.6945160347
 20
1312.5103552225
 10
2125.6551150335
 20
1312.0316889789
 10
2126.5623649408
 20
1311.8802827495
 10
2127.0569127215
 20
1311.9534251067
  0
LWPOLYLINE
  5
161
330
1F
100
AcDbEntity
  8
0
  6
Continuous
 62
     7
370
    25
100
AcDbPolyline
 90
       17
 70
   128
 43
0.0
 10
2127.7032732482
 20
1241.0526667201
 10
2127.5419909338
 20
1240.0227115069
 10
2127.415861016
 20
1237.8733325307
 10
2127.5419909338
 20
1235.5783270511
 10
2127.9182225693
 20
1233.1769632483
 10
2128.5381184949
 20
1230.7103291226
 10
2129.3910721195
 20
1228.2206294679
 10
2130.46248917
 20
1225.7504637355
 10
2131.7340374038
 20
1223.342097146
 10
2133.1839602778
 20
1221.0367375194
 10
2134.7874492099
 20
1218.873830198
 10
2136.5170680597
 20
1216.8903831259
 10
2138.3432225693
 20
1215.1203336324
 10
2140.2346667286
 20
1213.593967755
 10
2142.1590374038
 20
1212.3374020371
 10
2144.0834080789
 20
1211.3721366665
 10
2145.0536056869
 20
1210.9977528956
  0
ARC
  5
162
330
1F
100
AcDbEntity
  8
0
  6
Continuous
 62
     7
370
    25
100
AcDbCircle
 10
2116.0052234552
 20
1188.6938588783
 30
0.0
 40
21.55045167932135
100
AcDbArc
 50
180.0899114056
 51
197.6537052069
  0
LINE
  5
163
330
1F
100
AcDbEntity
  8
0
  6
Continuous
 62
     7
370
    25
100
AcDbLine
 10
2264.9987523126
 20
1304.8099333941
 30
0.0
 11
2266.5415093868
 21
1305.7005480957
 31
0.0
  0
LINE
  5
164
330
1F
100
AcDbEntity
  8
0
  6
Continuous
 62
     7
370
    25
100
AcDbLine
 10
2226.6052178858
 20
1374.8722338383
 30
0.0
 11
2225.0624608116
 21
1373.9816191367
 31
0.0
  0
LINE
  5
165
330
1F
100
AcDbEntity
  8
0
  6
Continuous
 62
     7
370
    25
100
AcDbLine
 10
2268.8372172533
 20
1300.4938164781
 30
0.0
 11
2266.6556065621
 21
1299.2343994335
 31
0.0
  0
LINE
  5
166
330
1F
100
AcDbEntity
  8
0
  6
Continuous
 62
     7
370
    25
100
AcDbLine
 10
2221.0624608116
 20
1378.2040441185
 30
0.0
 11
2223.2444261047
 21
1379.4636658704
 31
0.0
  0
LINE
  5
167
330
1F
100
AcDbEntity
  8
0
  6
Continuous
 62
     7
370
    25
100
AcDbLine
 10
2266.6556065621
 20
1234.0151756616
 30
0.0
 11
2268.8372172533
 21
1235.2745927062
 31
0.0
  0
LINE
  5
168
330
1F
100
AcDbEntity
  8
0
  6
Continuous
 62
     7
370
    25
100
AcDbLine
 10
2166.7659810331
 20
1412.067978208
 30
0.0
 11
2164.58401574
 21
1410.8083564561
 31
0.0
  0
LINE
  5
169
330
1F
100
AcDbEntity
  8
0
  6
Continuous
 62
     7
370
    25
100
AcDbLine
 10
2268.8372172533
 20
1232.5685035425
 30
0.0
 11
2264.9987523126
 21
1230.352604899
 31
0.0
  0
LINE
  5
16A
330
1F
100
AcDbEntity
  8
0
  6
Continuous
 62
     7
370
    25
100
AcDbLine
 10
1164.5017282243
 20
559.3272204903
 30
0.0
 11
1164.5017282243
 21
544.3272204903
 31
0.0
  0
LINE
  5
16B
330
1F
100
AcDbEntity
  8
0
  6
Continuous
 62
     7
370
    25
100
AcDbLine
 10
928.0930304934
 20
559.3272204903
 30
0.0
 11
928.0930304934
 21
544.3272204903
 31
0.0
  0
LINE
  5
16C
330
1F
100
AcDbEntity
  8
0
  6
Continuous
 62
     7
370
    25
100
AcDbLine
 10
928.0930304934
 20
559.3272204903
 30
0.0
 11
1164.5017282243
 21
559.3272204903
 31
0.0
  0
LINE
  5
16D
330
1F
100
AcDbEntity
  8
0
  6
Continuous
 62
     7
370
    25
100
AcDbLine
 10
928.0930304934
 20
544.3272204903
 30
0.0
 11
1164.5017282243
 21
544.3272204903
 31
0.0
  0
LINE
  5
16E
330
1F
100
AcDbEntity
  8
0
  6
Continuous
 62
     7
370
    25
100
AcDbLine
 10
928.0930304934
 20
954.3272204903
 30
0.0
 11
1164.5017282243
 21
954.3272204903
 31
0.0
  0
LINE
  5
16F
330
1F
100
AcDbEntity
  8
0
  6
Continuous
 62
     7
370
    25
100
AcDbLine
 10
1164.5017282243
 20
954.3272204903
 30
0.0
 11
1164.5017282243
 21
939.3272204903
 31
0.0
  0
LINE
  5
170
330
1F
100
AcDbEntity
  8
0
  6
Continuous
 62
     7
370
    25
100
AcDbLine
 10
928.0930304934
 20
954.3272204903
 30
0.0
 11
928.0930304934
 21
939.3272204903
 31
0.0
  0
LINE
  5
171
330
1F
100
AcDbEntity
  8
0
  6
Continuous
 62
     7
370
    25
100
AcDbLine
 10
928.0930304934
 20
939.3272204903
 30
0.0
 11
1164.5017282243
 21
939.3272204903
 31
0.0
  0
LINE
  5
172
330
1F
100
AcDbEntity
  8
0
  6
Continuous
 62
     7
370
    25
100
AcDbLine
 10
906.2973793588
 20
544.3272204903
 30
0.0
 11
906.2973793588
 21
559.3272204903
 31
0.0
  0
LINE
  5
173
330
1F
100
AcDbEntity
  8
0
  6
Continuous
 62
     7
370
    25
100
AcDbLine
 10
906.2973793588
 20
559.3272204903
 30
0.0
 11
928.0930304934
 21
559.3272204903
 31
0.0
  0
LINE
  5
174
330
1F
100
AcDbEntity
  8
0
  6
Continuous
 62
     7
370
    25
100
AcDbLine
 10
906.2973793588
 20
544.3272204903
 30
0.0
 11
928.0930304934
 21
544.3272204903
 31
0.0
  0
LINE
  5
175
330
1F
100
AcDbEntity
  8
0
  6
Continuous
 62
     7
370
    25
100
AcDbLine
 10
906.2973793588
 20
939.3272204903
 30
0.0
 11
906.2973793588
 21
954.3272204903
 31
0.0
  0
LINE
  5
176
330
1F
100
AcDbEntity
  8
0
  6
Continuous
 62
     7
370
    25
100
AcDbLine
 10
906.2973793588
 20
954.3272204903
 30
0.0
 11
928.0930304934
 21
954.3272204903
 31
0.0
  0
LINE
  5
177
330
1F
100
AcDbEntity
  8
0
  6
Continuous
 62
     7
370
    25
100
AcDbLine
 10
906.2973793588
 20
939.3272204903
 30
0.0
 11
928.0930304934
 21
939.3272204903
 31
0.0
  0
LINE
  5
178
330
1F
100
AcDbEntity
  8
0
  6
Continuous
 62
     7
370
    25
100
AcDbLine
 10
1186.2973793588
 20
544.3272204903
 30
0.0
 11
1186.2973793588
 21
559.3272204903
 31
0.0
  0
LINE
  5
179
330
1F
100
AcDbEntity
  8
0
  6
Continuous
 62
     7
370
    25
100
AcDbLine
 10
1164.5017282243
 20
559.3272204903
 30
0.0
 11
1186.2973793588
 21
559.3272204903
 31
0.0
  0
LINE
  5
17A
330
1F
100
AcDbEntity
  8
0
  6
Continuous
 62
     7
370
    25
100
AcDbLine
 10
1164.5017282243
 20
544.3272204903
 30
0.0
 11
1186.2973793588
 21
544.3272204903
 31
0.0
  0
LINE
  5
17B
330
1F
100
AcDbEntity
  8
0
  6
Continuous
 62
     7
370
    25
100
AcDbLine
 10
1186.2973793588
 20
939.3272204903
 30
0.0
 11
1186.2973793588
 21
954.3272204903
 31
0.0
  0
LINE
  5
17C
330
1F
100
AcDbEntity
  8
0
  6
Continuous
 62
     7
370
    25
100
AcDbLine
 10
1164.5017282243
 20
954.3272204903
 30
0.0
 11
1186.2973793588
 21
954.3272204903
 31
0.0
  0
LINE
  5
17D
330
1F
100
AcDbEntity
  8
0
  6
Continuous
 62
     7
370
    25
100
AcDbLine
 10
1164.5017282243
 20
939.3272204903
 30
0.0
 11
1186.2973793588
 21
939.3272204903
 31
0.0
  0
CIRCLE
  5
17E
330
1F
100
AcDbEntity
  8
0
  6
Continuous
 62
     7
370
    25
100
AcDbCircle
 10
1046.2973793588
 20
749.3272204903
 30
0.0
 40
91.49999999999977
  0
CIRCLE
  5
17F
330
1F
100
AcDbEntity
  8
0
  6
Continuous
 62
     7
370
    25
100
AcDbCircle
 10
1046.2973793588
 20
749.3272204903
 30
0.0
 40
98.0
  0
LINE
  5
180
330
1F
100
AcDbEntity
  8
0
  6
Continuous
 62
     7
370
    25
100
AcDbLine
 10
908.6973793588
 20
559.3272204903
 30
0.0
 11
908.6973793588
 21
939.3272204903
 31
0.0
  0
LINE
  5
181
330
1F
100
AcDbEntity
  8
0
  6
Continuous
 62
     7
370
    25
100
AcDbLine
 10
912.1093143975
 20
559.3272204903
 30
0.0
 11
912.1093143975
 21
939.3272204903
 31
0.0
  0
LINE
  5
182
330
1F
100
AcDbEntity
  8
0
  6
Continuous
 62
     7
370
    25
100
AcDbLine
 10
1180.4854443201
 20
939.3272204903
 30
0.0
 11
1180.4854443201
 21
559.3272204903
 31
0.0
  0
CIRCLE
  5
183
330
1F
100
AcDbEntity
  8
0
  6
Continuous
 62
     7
370
    25
100
AcDbCircle
 10
1134.2973793588
 20
899.3272204903
 30
0.0
 40
20.84999999999968
  0
LINE
  5
184
330
1F
100
AcDbEntity
  8
0
  6
Continuous
 62
     7
370
    25
100
AcDbLine
 10
938.7973793588
 20
793.8551784454
 30
0.0
 11
938.7973793588
 21
704.7992625352
 31
0.0
  0
LINE
  5
185
330
1F
100
AcDbEntity
  8
0
  6
Continuous
 62
     7
370
    25
100
AcDbLine
 10
938.7973793588
 20
704.7992625352
 30
0.0
 11
1001.7694214037
 21
641.8272204903
 31
0.0
  0
LINE
  5
186
330
1F
100
AcDbEntity
  8
0
  6
Continuous
 62
     7
370
    25
100
AcDbLine
 10
1153.7973793588
 20
704.7992625352
 30
0.0
 11
1153.7973793588
 21
793.8551784454
 31
0.0
  0
LINE
  5
187
330
1F
100
AcDbEntity
  8
0
  6
Continuous
 62
     7
370
    25
100
AcDbLine
 10
1153.7973793588
 20
793.8551784454
 30
0.0
 11
1090.8253373139
 21
856.8272204903
 31
0.0
  0
LINE
  5
188
330
1F
100
AcDbEntity
  8
0
  6
Continuous
 62
     7
370
    25
100
AcDbLine
 10
1090.8253373139
 20
856.8272204903
 30
0.0
 11
1001.7694214037
 21
856.8272204903
 31
0.0
  0
LINE
  5
189
330
1F
100
AcDbEntity
  8
0
  6
Continuous
 62
     7
370
    25
100
AcDbLine
 10
1001.7694214037
 20
856.8272204903
 30
0.0
 11
938.7973793588
 21
793.8551784454
 31
0.0
  0
LINE
  5
18A
330
1F
100
AcDbEntity
  8
0
  6
Continuous
 62
     7
370
    25
100
AcDbLine
 10
1090.8253373139
 20
641.8272204903
 30
0.0
 11
1153.7973793588
 21
704.7992625352
 31
0.0
  0
LINE
  5
18B
330
1F
100
AcDbEntity
  8
0
  6
Continuous
 62
     7
370
    25
100
AcDbLine
 10
1001.7694214037
 20
641.8272204903
 30
0.0
 11
1090.8253373139
 21
641.8272204903
 31
0.0
  0
CIRCLE
  5
18C
330
1F
100
AcDbEntity
  8
0
  6
Continuous
 62
     7
370
    25
100
AcDbCircle
 10
958.2973793588
 20
599.3272204903
 30
0.0
 40
20.85000000000002
  0
LINE
  5
18D
330
1F
100
AcDbEntity
  8
0
  6
Continuous
 62
     7
370
    25
100
AcDbLine
 10
1183.8973793588
 20
559.3272204903
 30
0.0
 11
1183.8973793588
 21
939.3272204903
 31
0.0
  0
LINE
  5
18E
330
1F
100
AcDbEntity
  8
0
  6
Continuous
 62
     7
370
    25
100
AcDbLine
 10
1150.7121159315
 20
709.3909289892
 30
0.0
 11
1150.7121159315
 21
789.2635119913
 31
0.0
  0
ARC
  5
18F
330
1F
100
AcDbEntity
  8
0
  6
Continuous
 62
     7
370
    25
100
AcDbCircle
 10
949.8826427862
 20
709.3909289892
 30
0.0
 40
8.0
100
AcDbArc
 50
180.0
 51
225.0
  0
ARC
  5
190
330
1F
100
AcDbEntity
  8
0
  6
Continuous
 62
     7
370
    25
100
AcDbCircle
 10
949.8826427862
 20
789.2635119913
 30
0.0
 40
8.0
100
AcDbArc
 50
135.0
 51
180.0
  0
ARC
  5
191
330
1F
100
AcDbEntity
  8
0
  6
Continuous
 62
     7
370
    25
100
AcDbCircle
 10
1006.3610878578
 20
845.7419570629
 30
0.0
 40
7.999999999999903
100
AcDbArc
 50
90.0
 51
135.0
  0
LINE
  5
192
330
1F
100
AcDbEntity
  8
0
  6
Continuous
 62
     7
370
    25
100
AcDbLine
 10
1086.2336708598
 20
853.7419570629
 30
0.0
 11
1006.3610878578
 21
853.7419570629
 31
0.0
  0
CIRCLE
  5
193
330
1F
100
AcDbEntity
  8
0
  6
Continuous
 62
     7
370
    25
100
AcDbCircle
 10
1006.1156189605
 20
846.3345714039
 30
0.0
 40
5.0
  0
CIRCLE
  5
194
330
1F
100
AcDbEntity
  8
0
  6
Continuous
 62
     7
370
    25
100
AcDbCircle
 10
1086.4791397572
 20
846.3345714039
 30
0.0
 40
5.000000000001364
  0
CIRCLE
  5
195
330
1F
100
AcDbEntity
  8
0
  6
Continuous
 62
     7
370
    25
100
AcDbCircle
 10
1143.3047302725
 20
789.5089808886
 30
0.0
 40
5.000000000003638
  0
CIRCLE
  5
196
330
1F
100
AcDbEntity
  8
0
  6
Continuous
 62
     7
370
    25
100
AcDbCircle
 10
1143.3047302725
 20
709.1454600919
 30
0.0
 40
5.000000000005684
  0
LINE
  5
197
330
1F
100
AcDbEntity
  8
0
  6
Continuous
 62
     7
370
    25
100
AcDbLine
 10
941.8826427862
 20
789.2635119913
 30
0.0
 11
941.8826427862
 21
709.3909289892
 31
0.0
  0
ARC
  5
198
330
1F
100
AcDbEntity
  8
0
  6
Continuous
 62
     7
370
    25
100
AcDbCircle
 10
1086.2336708598
 20
845.7419570629
 30
0.0
 40
7.999999999999886
100
AcDbArc
 50
45.0
 51
90.0
  0
LINE
  5
199
330
1F
100
AcDbEntity
  8
0
  6
Continuous
 62
     7
370
    25
100
AcDbLine
 10
1148.3689701809
 20
794.9203662408
 30
0.0
 11
1091.8905251093
 21
851.3988113124
 31
0.0
  0
ARC
  5
19A
330
1F
100
AcDbEntity
  8
0
  6
Continuous
 62
     7
370
    25
100
AcDbCircle
 10
1142.7121159315
 20
789.2635119913
 30
0.0
 40
8.000000000000064
100
AcDbArc
 50
0.0
 51
45.0
  0
ARC
  5
19B
330
1F
100
AcDbEntity
  8
0
  6
Continuous
 62
     7
370
    25
100
AcDbCircle
 10
1086.2336708598
 20
652.9124839176
 30
0.0
 40
7.999999999999984
100
AcDbArc
 50
270.0
 51
315.0
  0
LINE
  5
19C
330
1F
100
AcDbEntity
  8
0
  6
Continuous
 62
     7
370
    25
100
AcDbLine
 10
1006.3610878578
 20
644.9124839176
 30
0.0
 11
1086.2336708598
 21
644.9124839176
 31
0.0
  0
ARC
  5
19D
330
1F
100
AcDbEntity
  8
0
  6
Continuous
 62
     7
370
    25
100
AcDbCircle
 10
1006.3610878578
 20
652.9124839176
 30
0.0
 40
8.0
100
AcDbArc
 50
225.0
 51
270.0
  0
LINE
  5
19E
330
1F
100
AcDbEntity
  8
0
  6
Continuous
 62
     7
370
    25
100
AcDbLine
 10
1091.8905251093
 20
647.2556296681
 30
0.0
 11
1148.3689701809
 21
703.7340747398
 31
0.0
  0
CIRCLE
  5
19F
330
1F
100
AcDbEntity
  8
0
  6
Continuous
 62
     7
370
    25
100
AcDbCircle
 10
949.2900284451
 20
789.5089808886
 30
0.0
 40
5.000000000001819
  0
LINE
  5
1A0
330
1F
100
AcDbEntity
  8
0
  6
Continuous
 62
     7
370
    25
100
AcDbLine
 10
1000.7042336083
 20
851.3988113124
 30
0.0
 11
944.2257885367
 21
794.9203662408
 31
0.0
  0
CIRCLE
  5
1A1
330
1F
100
AcDbEntity
  8
0
  6
Continuous
 62
     7
370
    25
100
AcDbCircle
 10
1006.1156189605
 20
652.3198695766
 30
0.0
 40
5.000000000005798
  0
ARC
  5
1A2
330
1F
100
AcDbEntity
  8
0
  6
Continuous
 62
     7
370
    25
100
AcDbCircle
 10
1142.7121159315
 20
709.3909289892
 30
0.0
 40
8.0
100
AcDbArc
 50
315.0
 51
0.0
  0
LINE
  5
1A3
330
1F
100
AcDbEntity
  8
0
  6
Continuous
 62
     7
370
    25
100
AcDbLine
 10
944.2257885367
 20
703.7340747398
 30
0.0
 11
1000.7042336083
 21
647.2556296681
 31
0.0
  0
CIRCLE
  5
1A4
330
1F
100
AcDbEntity
  8
0
  6
Continuous
 62
     7
370
    25
100
AcDbCircle
 10
949.2900284451
 20
709.1454600919
 30
0.0
 40
5.000000000003865
  0
CIRCLE
  5
1A5
330
1F
100
AcDbEntity
  8
0
  6
Continuous
 62
     7
370
    25
100
AcDbCircle
 10
1086.4791397572
 20
652.3198695766
 30
0.0
 40
5.000000000006594
  0
CIRCLE
  5
1A6
330
1F
100
AcDbEntity
  8
0
  6
Continuous
 62
     7
370
    25
100
AcDbCircle
 10
1046.2973793588
 20
749.3272204903
 30
0.0
 40
76.625
  0
CIRCLE
  5
1A7
330
1F
100
AcDbEntity
  8
0
  6
Continuous
 62
     7
370
    25
100
AcDbCircle
 10
1046.2973793588
 20
749.3272204903
 30
0.0
 40
31.59035466929913
  0
CIRCLE
  5
1A8
330
1F
100
AcDbEntity
  8
0
  6
Continuous
 62
     7
370
    25
100
AcDbCircle
 10
1046.2973793588
 20
749.3272204903
 30
0.0
 40
1.870680067498824
  0
CIRCLE
  5
1A9
330
1F
100
AcDbEntity
  8
0
  6
Continuous
 62
     7
370
    25
100
AcDbCircle
 10
1046.2973793588
 20
749.3272204903
 30
0.0
 40
29.0
  0
LINE
  5
1AA
330
1F
100
AcDbEntity
  8
0
  6
Continuous
 62
     7
370
    25
100
AcDbLine
 10
1186.2973793588
 20
936.3272204903
 30
0.0
 11
1183.8973793588
 21
936.3272204903
 31
0.0
  0
LINE
  5
1AB
330
1F
100
AcDbEntity
  8
0
  6
Continuous
 62
     7
370
    25
100
AcDbLine
 10
1186.2973793588
 20
939.3272204903
 30
0.0
 11
1186.2973793588
 21
936.3272204903
 31
0.0
  0
LINE
  5
1AC
330
1F
100
AcDbEntity
  8
0
  6
Continuous
 62
     7
370
    25
100
AcDbLine
 10
1183.8973793588
 20
562.3272204903
 30
0.0
 11
1186.2973793588
 21
562.3272204903
 31
0.0
  0
LINE
  5
1AD
330
1F
100
AcDbEntity
  8
0
  6
Continuous
 62
     7
370
    25
100
AcDbLine
 10
1186.2973793588
 20
562.3272204903
 30
0.0
 11
1186.2973793588
 21
559.3272204903
 31
0.0
  0
LINE
  5
1AE
330
1F
100
AcDbEntity
  8
0
  6
Continuous
 62
     7
370
    25
100
AcDbLine
 10
908.6973793588
 20
936.3272204903
 30
0.0
 11
906.2973793588
 21
936.3272204903
 31
0.0
  0
LINE
  5
1AF
330
1F
100
AcDbEntity
  8
0
  6
Continuous
 62
     7
370
    25
100
AcDbLine
 10
906.2973793588
 20
936.3272204903
 30
0.0
 11
906.2973793588
 21
939.3272204903
 31
0.0
  0
LINE
  5
1B0
330
1F
100
AcDbEntity
  8
0
  6
Continuous
 62
     7
370
    25
100
AcDbLine
 10
906.2973793588
 20
562.3272204903
 30
0.0
 11
908.6973793588
 21
562.3272204903
 31
0.0
  0
LINE
  5
1B1
330
1F
100
AcDbEntity
  8
0
  6
Continuous
 62
     7
370
    25
100
AcDbLine
 10
906.2973793588
 20
559.3272204903
 30
0.0
 11
906.2973793588
 21
562.3272204903
 31
0.0
  0
LINE
  5
1B2
330
1F
100
AcDbEntity
  8
0
  6
Continuous
 62
     7
370
    25
100
AcDbLine
 10
1186.2973793588
 20
562.3272204903
 30
0.0
 11
1186.2973793588
 21
936.3272204903
 31
0.0
  0
LINE
  5
1B3
330
1F
100
AcDbEntity
  8
0
  6
Continuous
 62
     7
370
    25
100
AcDbLine
 10
906.2973793588
 20
562.3272204903
 30
0.0
 11
906.2973793588
 21
936.3272204903
 31
0.0
  0
LINE
  5
1B4
330
1F
100
AcDbEntity
  8
SLD-0
100
AcDbLine
 10
1050.9222352591
 20
752.6772204903
 30
0.0
 11
1057.9125234585
 21
752.6772204903
 31
0.0
  0
LINE
  5
1B5
330
1F
100
AcDbEntity
  8
SLD-0
100
AcDbLine
 10
1054.4173793588
 20
749.1820763905
 30
0.0
 11
1054.4173793588
 21
756.17236459
 31
0.0
  0
DIMENSION
  5
1B6
330
1F
100
AcDbEntity
  8
SLD-0
100
AcDbDimension
  2
_D
 10
1282.8973793588
 20
752.6772204903
 30
0.0
 11
1282.8973793588
 21
648.5022204903
 31
0.0
 70
   160
  1
<>
 71
     2
 42
-1.0
  3
SLDDIMSTYLE0
100
AcDbAlignedDimension
 13
1186.2973793588
 23
544.3272204903
 33
0.0
 14
1057.9125234585
 24
752.6772204903
 34
0.0
 50
90.0
100
AcDbRotatedDimension
  0
DIMENSION
  5
1CB
330
1F
100
AcDbEntity
  8
SLD-0
100
AcDbDimension
  2
_D_1
 10
1186.2973793588
 20
1037.2958908431
 30
0.0
 11
1046.2973793588
 21
1037.2958908431
 31
0.0
 70
   160
  1
<>
 71
     2
 42
-1.0
  3
SLDDIMSTYLE1
100
AcDbAlignedDimension
 13
906.2973793588
 23
954.3272204903
 33
0.0
 14
1186.2973793588
 24
954.3272204903
 34
0.0
100
AcDbRotatedDimension
  0
INSERT
  5
1E5
330
1F
100
AcDbEntity
  8
SLD-0
100
AcDbBlockReference
  2
SW_SYMBOL_MOD_CL
 10
1035.6357103571
 20
974.9086991105
 30
0.0
 41
0.0030416748
 42
0.0030416748
 43
0.0030416748
  0
INSERT
  5
1E6
330
1F
100
AcDbEntity
  8
SLD-0
100
AcDbBlockReference
  2
SW_SYMBOL_MOD_COM
 10
1043.0574546635
 20
743.2885436525
 30
0.0
 41
0.0030416748
 42
0.0030416748
 43
0.0030416748
  0
LINE
  5
1E7
330
1F
100
AcDbEntity
  8
SLD-0
  6
CENTERX2
370
    18
100
AcDbLine
 10
1046.2973793588
 20
964.4604224002
 30
0.0
 11
1046.2973793588
 21
529.7041328536
 31
0.0
  0
LINE
  5
1E8
330
1F
100
AcDbEntity
  8
0
  6
Continuous
 62
     7
370
    25
100
AcDbLine
 10
906.2973793588
 20
1405.6782524666
 30
0.0
 11
967.726235714
 21
1518.816131664
 31
0.0
  0
LINE
  5
1E9
330
1F
100
AcDbEntity
  8
0
  6
Continuous
 62
     7
370
    25
100
AcDbLine
 10
967.726235714
 20
1518.816131664
 30
0.0
 11
1124.8685230036
 21
1518.816131664
 31
0.0
  0
LINE
  5
1EA
330
1F
100
AcDbEntity
  8
0
  6
Continuous
 62
     7
370
    25
100
AcDbLine
 10
1124.8685230036
 20
1518.816131664
 30
0.0
 11
1186.2973793588
 21
1405.6782524666
 31
0.0
  0
LINE
  5
1EB
330
1F
100
AcDbEntity
  8
0
  6
Continuous
 62
     7
370
    25
100
AcDbLine
 10
1186.2973793588
 20
1405.6782524666
 30
0.0
 11
1186.2973793588
 21
1316.7066713416
 31
0.0
  0
ARC
  5
1EC
330
1F
100
AcDbEntity
  8
0
  6
Continuous
 62
     7
370
    25
100
AcDbCircle
 10
1128.6353247833
 20
1342.0855496094
 30
0.0
 40
63.00000000000028
100
AcDbArc
 50
304.7019839569
 51
336.2442003984
  0
ARC
  5
1ED
330
1F
100
AcDbEntity
  8
0
  6
Continuous
 62
     7
370
    25
100
AcDbCircle
 10
1046.2973793588
 20
2173.416131664
 30
0.0
 40
890.9999999999999
100
AcDbArc
 50
262.3763910336
 51
277.6236089664
  0
ARC
  5
1EE
330
1F
100
AcDbEntity
  8
0
  6
Continuous
 62
     7
370
    25
100
AcDbCircle
 10
963.9594339343
 20
1342.0855496094
 30
0.0
 40
63.00000000000017
100
AcDbArc
 50
203.7557996016
 51
235.2980160431
  0
LINE
  5
1EF
330
1F
100
AcDbEntity
  8
0
  6
Continuous
 62
     7
370
    25
100
AcDbLine
 10
906.2973793588
 20
1316.7066713416
 30
0.0
 11
906.2973793588
 21
1405.6782524666
 31
0.0
  0
CIRCLE
  5
1F0
330
1F
100
AcDbEntity
  8
0
  6
Continuous
 62
     7
370
    25
100
AcDbCircle
 10
1046.2973793588
 20
1398.816131664
 30
0.0
 40
9.0
  0
CIRCLE
  5
1F1
330
1F
100
AcDbEntity
  8
0
  6
Continuous
 62
     7
370
    25
100
AcDbCircle
 10
1100.2473793588
 20
1424.216131664
 30
0.0
 40
7.0
  0
CIRCLE
  5
1F2
330
1F
100
AcDbEntity
  8
0
  6
Continuous
 62
     7
370
    25
100
AcDbCircle
 10
1100.2473793588
 20
1373.416131664
 30
0.0
 40
7.0
  0
CIRCLE
  5
1F3
330
1F
100
AcDbEntity
  8
0
  6
Continuous
 62
     7
370
    25
100
AcDbCircle
 10
992.3473793588
 20
1373.416131664
 30
0.0
 40
7.0
  0
CIRCLE
  5
1F4
330
1F
100
AcDbEntity
  8
0
  6
Continuous
 62
     7
370
    25
100
AcDbCircle
 10
992.3473793588
 20
1424.216131664
 30
0.0
 40
7.0
  0
CIRCLE
  5
1F5
330
1F
100
AcDbEntity
  8
0
  6
Continuous
 62
     7
370
    25
100
AcDbCircle
 10
1145.8873793588
 20
1363.816131664
 30
0.0
 40
10.75
  0
CIRCLE
  5
1F6
330
1F
100
AcDbEntity
  8
0
  6
Continuous
 62
     7
370
    25
100
AcDbCircle
 10
946.7073793588
 20
1363.816131664
 30
0.0
 40
10.75
  0
CIRCLE
  5
1F7
330
1F
100
AcDbEntity
  8
0
  6
Continuous
 62
     7
370
    25
100
AcDbCircle
 10
992.3473793588
 20
1424.216131664
 30
0.0
 40
3.499999999999773
  0
CIRCLE
  5
1F8
330
1F
100
AcDbEntity
  8
0
  6
Continuous
 62
     7
370
    25
100
AcDbCircle
 10
1100.2473793588
 20
1424.216131664
 30
0.0
 40
3.499999999999773
  0
CIRCLE
  5
1F9
330
1F
100
AcDbEntity
  8
0
  6
Continuous
 62
     7
370
    25
100
AcDbCircle
 10
1046.2973793588
 20
1398.816131664
 30
0.0
 40
5.5
  0
CIRCLE
  5
1FA
330
1F
100
AcDbEntity
  8
0
  6
Continuous
 62
     7
370
    25
100
AcDbCircle
 10
1100.2473793588
 20
1373.416131664
 30
0.0
 40
3.5
  0
CIRCLE
  5
1FB
330
1F
100
AcDbEntity
  8
0
  6
Continuous
 62
     7
370
    25
100
AcDbCircle
 10
992.3473793588
 20
1373.416131664
 30
0.0
 40
3.5
  0
CIRCLE
  5
1FC
330
1F
100
AcDbEntity
  8
0
  6
Continuous
 62
     7
370
    25
100
AcDbCircle
 10
1145.8873793588
 20
1363.816131664
 30
0.0
 40
5.500000000000227
  0
CIRCLE
  5
1FD
330
1F
100
AcDbEntity
  8
0
  6
Continuous
 62
     7
370
    25
100
AcDbCircle
 10
946.7073793588
 20
1363.816131664
 30
0.0
 40
5.500000000000227
  0
LINE
  5
1FE
330
1F
100
AcDbEntity
  8
SLD-0
100
AcDbLine
 10
992.3473793588
 20
1424.216131664
 30
0.0
 11
1100.2473793588
 21
1424.216131664
 31
0.0
  0
LINE
  5
1FF
330
1F
100
AcDbEntity
  8
SLD-0
100
AcDbLine
 10
1100.2473793588
 20
1424.216131664
 30
0.0
 11
1100.2473793588
 21
1373.416131664
 31
0.0
  0
LINE
  5
200
330
1F
100
AcDbEntity
  8
SLD-0
100
AcDbLine
 10
1100.2473793588
 20
1373.416131664
 30
0.0
 11
992.3473793588
 21
1373.416131664
 31
0.0
  0
LINE
  5
201
330
1F
100
AcDbEntity
  8
SLD-0
100
AcDbLine
 10
992.3473793588
 20
1373.416131664
 30
0.0
 11
992.3473793588
 21
1424.216131664
 31
0.0
  0
LINE
  5
202
330
1F
100
AcDbEntity
  8
SLD-0
100
AcDbLine
 10
946.7073793588
 20
1363.8161316639
 30
0.0
 11
1145.8873793588
 21
1363.8161316639
 31
0.0
  0
DIMENSION
  5
203
330
1F
100
AcDbEntity
  8
SLD-0
100
AcDbDimension
  2
_D_2
 10
1186.2973793588
 20
1179.0815877914
 30
0.0
 11
1252.1758168736
 21
1179.0815877914
 31
0.0
 70
   160
  1
<>
 71
     2
 42
-1.0
  3
SLDDIMSTYLE0
100
AcDbAlignedDimension
 13
1145.8873793588
 23
1351.0661316639
 33
0.0
 14
1186.2973793588
 24
1316.7066713416
 34
0.0
100
AcDbRotatedDimension
  0
DIMENSION
  5
217
330
1F
100
AcDbEntity
  8
SLD-0
100
AcDbDimension
  2
_D_3
 10
1145.8873793588
 20
1179.0815877914
 30
0.0
 11
1046.2973793588
 21
1179.0815877914
 31
0.0
 70
   160
  1
<>
 71
     2
 42
-1.0
  3
SLDDIMSTYLE0
100
AcDbAlignedDimension
 13
946.7073793588
 23
1351.0661316639
 33
0.0
 14
1145.8873793588
 24
1351.0661316639
 34
0.0
100
AcDbRotatedDimension
  0
DIMENSION
  5
22B
330
1F
100
AcDbEntity
  8
SLD-0
100
AcDbDimension
  2
_D_4
 10
1252.1758168736
 20
1424.216131664
 30
0.0
 11
1252.1758168736
 21
1471.5161316639
 31
0.0
 70
   160
  1
<>
 71
     2
 42
-1.0
  3
SLDDIMSTYLE2
100
AcDbAlignedDimension
 13
1124.8685230036
 23
1518.8161316639
 33
0.0
 14
1109.2473793588
 24
1424.216131664
 34
0.0
 50
90.0
100
AcDbRotatedDimension
  0
DIMENSION
  5
240
330
1F
100
AcDbEntity
  8
SLD-0
100
AcDbDimension
  2
_D_5
 10
1354.8973793588
 20
1398.8161316639
 30
0.0
 11
1354.8973793588
 21
1458.8161316639
 31
0.0
 70
   160
  1
<>
 71
     2
 42
-1.0
  3
SLDDIMSTYLE1
100
AcDbAlignedDimension
 13
1124.8685230036
 23
1518.8161316639
 33
0.0
 14
1057.2973793588
 24
1398.8161316639
 34
0.0
 50
90.0
100
AcDbRotatedDimension
  0
DIMENSION
  5
254
330
1F
100
AcDbEntity
  8
SLD-0
100
AcDbDimension
  2
_D_6
 10
1046.2973793588
 20
1601.3022512085
 30
0.0
 11
976.2973793588
 21
1601.3022512085
 31
0.0
 70
   160
  1
<>
 71
     2
 42
-1.0
  3
SLDDIMSTYLE1
100
AcDbAlignedDimension
 13
906.2973793588
 23
1405.6782524666
 33
0.0
 14
1046.2973793588
 24
1409.8161316639
 34
0.0
100
AcDbRotatedDimension
  0
DIMENSION
  5
268
330
1F
100
AcDbEntity
  8
SLD-0
100
AcDbDimension
  2
_D_7
 10
1452.5333081886
 20
1363.8161316639
 30
0.0
 11
1452.5333081886
 21
1441.316131664
 31
0.0
 70
   160
  1
<>
 71
     2
 42
-1.0
  3
SLDDIMSTYLE1
100
AcDbAlignedDimension
 13
1124.8685230036
 23
1518.8161316639
 33
0.0
 14
1158.6373793588
 24
1363.8161316639
 34
0.0
 50
90.0
100
AcDbRotatedDimension
  0
DIMENSION
  5
27C
330
1F
100
AcDbEntity
  8
SLD-0
100
AcDbDimension
  2
_D_8
 10
860.6507369908
 20
1373.416131664
 30
0.0
 11
860.6507369908
 21
1341.1734422031
 31
0.0
 70
   160
  1
<>
 71
     2
 42
-1.0
  3
SLDDIMSTYLE0
100
AcDbAlignedDimension
 13
983.3473793588
 23
1424.216131664
 33
0.0
 14
983.3473793588
 24
1373.416131664
 34
0.0
 50
90.0
100
AcDbRotatedDimension
  0
DIMENSION
  5
291
330
1F
100
AcDbEntity
  8
SLD-0
100
AcDbDimension
  2
_D_9
 10
992.3473793588
 20
1546.714593745
 30
0.0
 11
853.3619172115
 21
1546.714593745
 31
0.0
 70
   160
  1
<>
 71
     2
 42
-1.0
  3
SLDDIMSTYLE0
100
AcDbAlignedDimension
 13
906.2973793588
 23
1405.6782524666
 33
0.0
 14
992.3473793588
 24
1433.216131664
 34
0.0
100
AcDbRotatedDimension
  0
DIMENSION
  5
2A5
330
1F
100
AcDbEntity
  8
SLD-0
100
AcDbDimension
  2
_D_10
 10
1100.2473793588
 20
1243.6193032444
 30
0.0
 11
1046.2973793588
 21
1243.6193032444
 31
0.0
 70
   160
  1
<>
 71
     2
 42
-1.0
  3
SLDDIMSTYLE0
100
AcDbAlignedDimension
 13
992.3473793588
 23
1364.416131664
 33
0.0
 14
1100.2473793588
 24
1364.416131664
 34
0.0
100
AcDbRotatedDimension
  0
MTEXT
  5
2B9
330
1F
100
AcDbEntity
  8
SLD-0
100
AcDbMText
 10
917.749573066
 20
1123.634361131
 30
0.0
 40
14.2875
 41
0.0
 71
     1
 72
     1
  1
DIMENSIONS TYP BOTH SIDES
  7
SLDTEXTSTYLE0
 73
     1
 44
1.0
  0
INSERT
  5
2C2
102
{ACAD_REACTORS
330
2C4
102
}
330
1F
100
AcDbEntity
  8
SLD-0
100
AcDbBlockReference
  2
SW_NOTE_0_1
 10
1204.5169385194
 20
1598.9962358846
 30
0.0
  0
LEADER
  5
2C4
330
1F
100
AcDbEntity
  8
SLD-0
100
AcDbLeader
  3
SLDDIMSTYLE3
 73
     2
 76
     3
 10
1104.0416080589
 20
1430.0986335612
 30
0.0
 10
1192.5169385194
 20
1598.9962358846
 30
0.0
 10
1204.5169385194
 20
1598.9962358846
 30
0.0
340
2C2
  0
INSERT
  5
2CD
102
{ACAD_REACTORS
330
2CE
102
}
330
1F
100
AcDbEntity
  8
SLD-0
100
AcDbBlockReference
  2
SW_NOTE_0_2
 10
877.791718946
 20
1243.6637390213
 30
0.0
  0
LEADER
  5
2CE
330
1F
100
AcDbEntity
  8
SLD-0
100
AcDbLeader
  3
SLDDIMSTYLE3
 73
     2
 76
     3
 10
1041.343843211
 20
1391.301979707
 30
0.0
 10
889.791718946
 20
1243.6637390213
 30
0.0
 10
877.791718946
 20
1243.6637390213
 30
0.0
340
2CD
  0
MTEXT
  5
2CF
330
1F
100
AcDbEntity
  8
SLD-0
100
AcDbMText
 10
1247.0242690985
 20
1605.0524919196
 30
0.0
 40
14.2875
 41
0.0
 71
     1
 72
     1
  1
4X
  7
SLDTEXTSTYLE0
 73
     1
 44
1.0
  0
INSERT
  5
2D8
102
{ACAD_REACTORS
330
2D9
102
}
330
1F
100
AcDbEntity
  8
SLD-0
100
AcDbBlockReference
  2
SW_NOTE_0_3
 10
1239.8996235885
 20
1310.6649937265
 30
0.0
  0
LEADER
  5
2D9
330
1F
100
AcDbEntity
  8
SLD-0
100
AcDbLeader
  3
SLDDIMSTYLE3
 73
     2
 76
     3
 10
1153.683396366
 20
1356.4144684169
 30
0.0
 10
1227.8996235885
 20
1310.6649937265
 30
0.0
 10
1239.8996235885
 20
1310.6649937265
 30
0.0
340
2D8
  0
MTEXT
  5
2DA
330
1F
100
AcDbEntity
  8
SLD-0
100
AcDbMText
 10
1283.8562054216
 20
1316.8569427872
 30
0.0
 40
14.2875
 41
0.0
 71
     1
 72
     1
  1
2X
  7
SLDTEXTSTYLE0
 73
     1
 44
1.0
  0
INSERT
  5
2E6
330
1F
100
AcDbEntity
  8
SLD-0
100
AcDbBlockReference
  2
SW_CENTERMARKSYMBOL_0
 10
946.7073793588
 20
1363.816131664
 30
0.0
  0
INSERT
  5
2F2
330
1F
100
AcDbEntity
  8
SLD-0
100
AcDbBlockReference
  2
SW_CENTERMARKSYMBOL_1
 10
992.3473793588
 20
1424.216131664
 30
0.0
  0
INSERT
  5
2FE
330
1F
100
AcDbEntity
  8
SLD-0
100
AcDbBlockReference
  2
SW_CENTERMARKSYMBOL_2
 10
1100.2473793588
 20
1424.216131664
 30
0.0
  0
INSERT
  5
30A
330
1F
100
AcDbEntity
  8
SLD-0
100
AcDbBlockReference
  2
SW_CENTERMARKSYMBOL_3
 10
992.3473793588
 20
1373.416131664
 30
0.0
  0
INSERT
  5
316
330
1F
100
AcDbEntity
  8
SLD-0
100
AcDbBlockReference
  2
SW_CENTERMARKSYMBOL_4
 10
1046.2973793588
 20
1398.816131664
 30
0.0
  0
INSERT
  5
322
330
1F
100
AcDbEntity
  8
SLD-0
100
AcDbBlockReference
  2
SW_CENTERMARKSYMBOL_5
 10
1100.2473793588
 20
1373.416131664
 30
0.0
  0
INSERT
  5
32E
330
1F
100
AcDbEntity
  8
SLD-0
100
AcDbBlockReference
  2
SW_CENTERMARKSYMBOL_6
 10
1145.8873793588
 20
1363.816131664
 30
0.0
  0
ARC
  5
32F
330
1F
100
AcDbEntity
  8
0
  6
Continuous
 62
     7
370
    25
100
AcDbCircle
 10
1046.2973793588
 20
-476.4083230238
 30
0.0
 40
891.0
100
AcDbArc
 50
82.3763910336
 51
97.6236089664
  0
ARC
  5
330
330
1F
100
AcDbEntity
  8
0
  6
Continuous
 62
     7
370
    25
100
AcDbCircle
 10
1128.6353247833
 20
354.9222590307
 30
0.0
 40
63.00000000000031
100
AcDbArc
 50
23.7557996016
 51
55.2980160431
  0
LINE
  5
331
330
1F
100
AcDbEntity
  8
0
  6
Continuous
 62
     7
370
    25
100
AcDbLine
 10
1186.2973793588
 20
291.3295561736
 30
0.0
 11
1186.2973793588
 21
380.3011372986
 31
0.0
  0
LINE
  5
332
330
1F
100
AcDbEntity
  8
0
  6
Continuous
 62
     7
370
    25
100
AcDbLine
 10
1124.8685230036
 20
178.1916769762
 30
0.0
 11
1186.2973793588
 21
291.3295561736
 31
0.0
  0
LINE
  5
333
330
1F
100
AcDbEntity
  8
0
  6
Continuous
 62
     7
370
    25
100
AcDbLine
 10
967.726235714
 20
178.1916769762
 30
0.0
 11
1124.8685230036
 21
178.1916769762
 31
0.0
  0
LINE
  5
334
330
1F
100
AcDbEntity
  8
0
  6
Continuous
 62
     7
370
    25
100
AcDbLine
 10
906.2973793588
 20
291.3295561736
 30
0.0
 11
967.726235714
 21
178.1916769762
 31
0.0
  0
LINE
  5
335
330
1F
100
AcDbEntity
  8
0
  6
Continuous
 62
     7
370
    25
100
AcDbLine
 10
906.2973793588
 20
380.3011372986
 30
0.0
 11
906.2973793588
 21
291.3295561736
 31
0.0
  0
ARC
  5
336
330
1F
100
AcDbEntity
  8
0
  6
Continuous
 62
     7
370
    25
100
AcDbCircle
 10
963.9594339343
 20
354.9222590307
 30
0.0
 40
63.00000000000031
100
AcDbArc
 50
124.7019839569
 51
156.2442003984
  0
CIRCLE
  5
337
330
1F
100
AcDbEntity
  8
0
  6
Continuous
 62
     7
370
    25
100
AcDbCircle
 10
1046.2973793588
 20
298.1916769762
 30
0.0
 40
9.0
  0
CIRCLE
  5
338
330
1F
100
AcDbEntity
  8
0
  6
Continuous
 62
     7
370
    25
100
AcDbCircle
 10
1100.2473793588
 20
272.7916769762
 30
0.0
 40
7.000000000000057
  0
CIRCLE
  5
339
330
1F
100
AcDbEntity
  8
0
  6
Continuous
 62
     7
370
    25
100
AcDbCircle
 10
1100.2473793588
 20
323.5916769762
 30
0.0
 40
7.0
  0
CIRCLE
  5
33A
330
1F
100
AcDbEntity
  8
0
  6
Continuous
 62
     7
370
    25
100
AcDbCircle
 10
992.3473793588
 20
323.5916769762
 30
0.0
 40
7.0
  0
CIRCLE
  5
33B
330
1F
100
AcDbEntity
  8
0
  6
Continuous
 62
     7
370
    25
100
AcDbCircle
 10
992.3473793588
 20
272.7916769762
 30
0.0
 40
7.000000000000057
  0
CIRCLE
  5
33C
330
1F
100
AcDbEntity
  8
0
  6
Continuous
 62
     7
370
    25
100
AcDbCircle
 10
1145.8873793588
 20
333.1916769762
 30
0.0
 40
10.75
  0
CIRCLE
  5
33D
330
1F
100
AcDbEntity
  8
0
  6
Continuous
 62
     7
370
    25
100
AcDbCircle
 10
946.7073793588
 20
333.1916769762
 30
0.0
 40
10.75
  0
CIRCLE
  5
33E
330
1F
100
AcDbEntity
  8
0
  6
Continuous
 62
     7
370
    25
100
AcDbCircle
 10
1100.2473793588
 20
272.7916769762
 30
0.0
 40
3.499999999999943
  0
CIRCLE
  5
33F
330
1F
100
AcDbEntity
  8
0
  6
Continuous
 62
     7
370
    25
100
AcDbCircle
 10
992.3473793588
 20
272.7916769762
 30
0.0
 40
3.499999999999943
  0
CIRCLE
  5
340
330
1F
100
AcDbEntity
  8
0
  6
Continuous
 62
     7
370
    25
100
AcDbCircle
 10
1046.2973793588
 20
298.1916769762
 30
0.0
 40
5.5
  0
CIRCLE
  5
341
330
1F
100
AcDbEntity
  8
0
  6
Continuous
 62
     7
370
    25
100
AcDbCircle
 10
1100.2473793588
 20
323.5916769762
 30
0.0
 40
3.5
  0
CIRCLE
  5
342
330
1F
100
AcDbEntity
  8
0
  6
Continuous
 62
     7
370
    25
100
AcDbCircle
 10
992.3473793588
 20
323.5916769762
 30
0.0
 40
3.500000000000057
  0
CIRCLE
  5
343
330
1F
100
AcDbEntity
  8
0
  6
Continuous
 62
     7
370
    25
100
AcDbCircle
 10
946.7073793588
 20
333.1916769762
 30
0.0
 40
5.5
  0
CIRCLE
  5
344
330
1F
100
AcDbEntity
  8
0
  6
Continuous
 62
     7
370
    25
100
AcDbCircle
 10
1145.8873793588
 20
333.1916769762
 30
0.0
 40
5.5
  0
LINE
  5
345
330
1F
100
AcDbEntity
  8
SLD-0
100
AcDbLine
 10
1054.4173793588
 20
307.9894027629
 30
0.0
 11
1054.4173793588
 21
310.7139511894
 31
0.0
  0
LINE
  5
346
330
1F
100
AcDbEntity
  8
SLD-0
100
AcDbLine
 10
1053.0551051456
 20
309.3516769762
 30
0.0
 11
1055.7796535721
 21
309.3516769762
 31
0.0
  0
DIMENSION
  5
347
330
1F
100
AcDbEntity
  8
SLD-0
100
AcDbDimension
  2
_D_11
 10
1186.2973793588
 20
467.6368738568
 30
0.0
 11
1120.3573793588
 21
467.6368738568
 31
0.0
 70
   160
  1
<>
 71
     2
 42
-1.0
  3
SLDDIMSTYLE0
100
AcDbAlignedDimension
 13
1054.4173793588
 23
310.7139511894
 33
0.0
 14
1186.2973793588
 24
380.3011372986
 34
0.0
100
AcDbRotatedDimension
  0
DIMENSION
  5
35B
330
1F
100
AcDbEntity
  8
SLD-0
100
AcDbDimension
  2
_D_12
 10
1260.6886939332
 20
309.3516769762
 30
0.0
 11
1260.6886939332
 21
243.7716769762
 31
0.0
 70
   160
  1
<>
 71
     2
 42
-1.0
  3
SLDDIMSTYLE0
100
AcDbAlignedDimension
 13
1124.8685230036
 23
178.1916769762
 33
0.0
 14
1055.779653572
 24
309.3516769762
 34
0.0
 50
90.0
100
AcDbRotatedDimension
  0
DIMENSION
  5
36F
330
1F
100
AcDbEntity
  8
SLD-0
100
AcDbDimension
  2
_D_13
 10
906.2973793588
 20
291.3295561736
 30
0.0
 11
1046.2973793588
 21
147.7891474059
 31
0.0
 70
   162
  1
<>
 71
     1
 42
-1.0
  3
SLDDIMSTYLE4
100
AcDb2LineAngularDimension
 13
1186.2973793588
 23
291.3295561736
 33
0.0
 14
1124.8685230036
 24
178.1916769762
 34
0.0
 15
967.726235714
 25
178.1916769762
 35
0.0
 16
1081.354967597
 26
142.2804076539
 36
0.0
  0
INSERT
  5
37B
330
1F
100
AcDbEntity
  8
SLD-0
100
AcDbBlockReference
  2
SW_SYMBOL_MOD_COM
 10
1043.0594020007
 20
299.9723123201
 30
0.0
 41
0.0030416748
 42
0.0030416748
 43
0.0030416748
  0
INSERT
  5
384
102
{ACAD_REACTORS
330
385
102
}
330
1F
100
AcDbEntity
  8
SLD-0
100
AcDbBlockReference
  2
SW_NOTE_0_4
 10
1276.035131744
 20
389.2095357591
 30
0.0
  0
LEADER
  5
385
330
1F
100
AcDbEntity
  8
SLD-0
100
AcDbLeader
  3
SLDDIMSTYLE3
 73
     2
 76
     3
 10
1156.4404627973
 20
335.2398297878
 30
0.0
 10
1264.035131744
 20
389.2095357591
 30
0.0
 10
1276.035131744
 20
389.2095357591
 30
0.0
340
384
  0
INSERT
  5
38E
102
{ACAD_REACTORS
330
38F
102
}
330
1F
100
AcDbEntity
  8
SLD-0
100
AcDbBlockReference
  2
SW_NOTE_0_5
 10
911.6687578419
 20
450.1882057716
 30
0.0
  0
LEADER
  5
38F
330
1F
100
AcDbEntity
  8
SLD-0
100
AcDbLeader
  3
SLDDIMSTYLE3
 73
     2
 76
     3
 10
987.6065785445
 20
328.7419010139
 30
0.0
 10
923.6687578419
 20
450.1882057716
 30
0.0
 10
911.6687578419
 20
450.1882057716
 30
0.0
340
38E
  0
INSERT
  5
398
102
{ACAD_REACTORS
330
399
102
}
330
1F
100
AcDbEntity
  8
SLD-0
100
AcDbBlockReference
  2
SW_NOTE_0_6
 10
860.4767879548
 20
264.9937264743
 30
0.0
  0
LEADER
  5
399
330
1F
100
AcDbEntity
  8
SLD-0
100
AcDbLeader
  3
SLDDIMSTYLE3
 73
     2
 76
     3
 10
1037.3546616601
 20
297.1778721822
 30
0.0
 10
872.4767879548
 20
264.9937264743
 30
0.0
 10
860.4767879548
 20
264.9937264743
 30
0.0
340
398
  0
MTEXT
  5
39A
330
1F
100
AcDbEntity
  8
SLD-0
100
AcDbMText
 10
846.0208430865
 20
456.2891429321
 30
0.0
 40
14.2875
 41
0.0
 71
     1
 72
     1
  1
4X
  7
SLDTEXTSTYLE0
 73
     1
 44
1.0
  0
MTEXT
  5
39B
330
1F
100
AcDbEntity
  8
SLD-0
100
AcDbMText
 10
1321.6820950233
 20
395.0350580276
 30
0.0
 40
14.2875
 41
0.0
 71
     1
 72
     1
  1
2X
  7
SLDTEXTSTYLE0
 73
     1
 44
1.0
  0
LINE
  5
39C
330
1F
100
AcDbEntity
  8
0
  6
Continuous
 62
     7
370
    25
100
AcDbLine
 10
1456.2270545223
 20
559.3272204903
 30
0.0
 11
1456.2270545223
 21
544.3272204903
 31
0.0
  0
LINE
  5
39D
330
1F
100
AcDbEntity
  8
0
  6
Continuous
 62
     7
370
    25
100
AcDbLine
 10
1456.2270545223
 20
954.3272204903
 30
0.0
 11
1456.2270545223
 21
939.3272204903
 31
0.0
  0
LINE
  5
39E
330
1F
100
AcDbEntity
  8
0
  6
Continuous
 62
     7
370
    25
100
AcDbLine
 10
1483.5770545223
 20
847.3272204903
 30
0.0
 11
1482.3270545223
 21
847.3272204903
 31
0.0
  0
LINE
  5
39F
330
1F
100
AcDbEntity
  8
0
  6
Continuous
 62
     7
370
    25
100
AcDbLine
 10
1482.3270545223
 20
651.3272204903
 30
0.0
 11
1483.5770545223
 21
651.3272204903
 31
0.0
  0
CIRCLE
  5
3A0
330
1F
100
AcDbEntity
  8
0
  6
Continuous
 62
     7
370
    25
100
AcDbCircle
 10
1537.6270545223
 20
584.7272204903
 30
0.0
 40
10.75
  0
CIRCLE
  5
3A1
330
1F
100
AcDbEntity
  8
0
  6
Continuous
 62
     7
370
    25
100
AcDbCircle
 10
1537.6270545223
 20
584.7272204903
 30
0.0
 40
5.5
  0
CIRCLE
  5
3A2
330
1F
100
AcDbEntity
  8
0
  6
Continuous
 62
     7
370
    25
100
AcDbCircle
 10
1537.6270545223
 20
913.9272204903
 30
0.0
 40
10.75
  0
CIRCLE
  5
3A3
330
1F
100
AcDbEntity
  8
0
  6
Continuous
 62
     7
370
    25
100
AcDbCircle
 10
1537.6270545223
 20
913.9272204903
 30
0.0
 40
5.5
  0
LINE
  5
3A4
330
1F
100
AcDbEntity
  8
0
  6
Continuous
 62
     7
370
    25
100
AcDbLine
 10
1692.6270545223
 20
544.3272204903
 30
0.0
 11
1692.6270545223
 21
954.3272204903
 31
0.0
  0
LINE
  5
3A5
330
1F
100
AcDbEntity
  8
0
  6
Continuous
 62
     7
370
    25
100
AcDbLine
 10
1579.4891753249
 20
544.3272204903
 30
0.0
 11
1579.4891753249
 21
954.3272204903
 31
0.0
  0
LINE
  5
3A6
330
1F
100
AcDbEntity
  8
0
  6
Continuous
 62
     7
370
    25
100
AcDbLine
 10
1692.6270545223
 20
954.3272204903
 30
0.0
 11
1579.4891753249
 21
954.3272204903
 31
0.0
  0
LINE
  5
3A7
330
1F
100
AcDbEntity
  8
0
  6
Continuous
 62
     7
370
    25
100
AcDbLine
 10
1692.6270545223
 20
544.3272204903
 30
0.0
 11
1579.4891753249
 21
544.3272204903
 31
0.0
  0
ARC
  5
3A8
330
1F
100
AcDbEntity
  8
0
  6
Continuous
 62
     7
370
    25
100
AcDbCircle
 10
1504.9270545223
 20
562.3272204903
 30
0.0
 40
3.0
100
AcDbArc
 50
270.0
 51
0.0
  0
LINE
  5
3A9
330
1F
100
AcDbEntity
  8
0
  6
Continuous
 62
     7
370
    25
100
AcDbLine
 10
1507.9270545223
 20
562.3272204903
 30
0.0
 11
1507.9270545223
 21
936.3272204903
 31
0.0
  0
ARC
  5
3AA
330
1F
100
AcDbEntity
  8
0
  6
Continuous
 62
     7
370
    25
100
AcDbCircle
 10
1504.9270545223
 20
936.3272204903
 30
0.0
 40
3.0
100
AcDbArc
 50
0.0
 51
90.0
  0
LINE
  5
3AB
330
1F
100
AcDbEntity
  8
0
  6
Continuous
 62
     7
370
    25
100
AcDbLine
 10
1490.5175941999
 20
939.3272204903
 30
0.0
 11
1504.9270545223
 21
939.3272204903
 31
0.0
  0
LINE
  5
3AC
330
1F
100
AcDbEntity
  8
0
  6
Continuous
 62
     7
370
    25
100
AcDbLine
 10
1490.5175941999
 20
939.3272204903
 30
0.0
 11
1490.5175941999
 21
954.3272204903
 31
0.0
  0
LINE
  5
3AD
330
1F
100
AcDbEntity
  8
0
  6
Continuous
 62
     7
370
    25
100
AcDbLine
 10
1490.5175941999
 20
544.3272204903
 30
0.0
 11
1490.5175941999
 21
559.3272204903
 31
0.0
  0
LINE
  5
3AE
330
1F
100
AcDbEntity
  8
0
  6
Continuous
 62
     7
370
    25
100
AcDbLine
 10
1490.5175941999
 20
559.3272204903
 30
0.0
 11
1504.9270545223
 21
559.3272204903
 31
0.0
  0
LINE
  5
3AF
330
1F
100
AcDbEntity
  8
0
  6
Continuous
 62
     7
370
    25
100
AcDbLine
 10
1579.4891753249
 20
954.3272204903
 30
0.0
 11
1490.5175941999
 21
954.3272204903
 31
0.0
  0
LINE
  5
3B0
330
1F
100
AcDbEntity
  8
0
  6
Continuous
 62
     7
370
    25
100
AcDbLine
 10
1579.4891753249
 20
544.3272204903
 30
0.0
 11
1490.5175941999
 21
544.3272204903
 31
0.0
  0
LINE
  5
3B1
330
1F
100
AcDbEntity
  8
0
  6
Continuous
 62
     7
370
    25
100
AcDbLine
 10
1464.1026397826
 20
559.3272204903
 30
0.0
 11
1464.1026397826
 21
544.3272204903
 31
0.0
  0
LINE
  5
3B2
330
1F
100
AcDbEntity
  8
0
  6
Continuous
 62
     7
370
    25
100
AcDbLine
 10
1464.1026397826
 20
559.3272204903
 30
0.0
 11
1490.5175941999
 21
559.3272204903
 31
0.0
  0
LINE
  5
3B3
330
1F
100
AcDbEntity
  8
0
  6
Continuous
 62
     7
370
    25
100
AcDbLine
 10
1464.1026397826
 20
544.3272204903
 30
0.0
 11
1490.5175941999
 21
544.3272204903
 31
0.0
  0
LINE
  5
3B4
330
1F
100
AcDbEntity
  8
0
  6
Continuous
 62
     7
370
    25
100
AcDbLine
 10
1464.1026397826
 20
954.3272204903
 30
0.0
 11
1464.1026397826
 21
939.3272204903
 31
0.0
  0
LINE
  5
3B5
330
1F
100
AcDbEntity
  8
0
  6
Continuous
 62
     7
370
    25
100
AcDbLine
 10
1464.1026397826
 20
939.3272204903
 30
0.0
 11
1490.5175941999
 21
939.3272204903
 31
0.0
  0
LINE
  5
3B6
330
1F
100
AcDbEntity
  8
0
  6
Continuous
 62
     7
370
    25
100
AcDbLine
 10
1464.1026397826
 20
954.3272204903
 30
0.0
 11
1490.5175941999
 21
954.3272204903
 31
0.0
  0
LINE
  5
3B7
330
1F
100
AcDbEntity
  8
0
  6
Continuous
 62
     7
370
    25
100
AcDbLine
 10
1491.9899431054
 20
559.3272204903
 30
0.0
 11
1491.9899431054
 21
939.3272204903
 31
0.0
  0
LINE
  5
3B8
330
1F
100
AcDbEntity
  8
0
  6
Continuous
 62
     7
370
    25
100
AcDbLine
 10
1483.5770545223
 20
939.3272204903
 30
0.0
 11
1483.5770545223
 21
559.3272204903
 31
0.0
  0
LINE
  5
3B9
330
1F
100
AcDbEntity
  8
0
  6
Continuous
 62
     7
370
    25
100
AcDbLine
 10
1456.2270545223
 20
559.3272204903
 30
0.0
 11
1464.1026397826
 21
559.3272204903
 31
0.0
  0
LINE
  5
3BA
330
1F
100
AcDbEntity
  8
0
  6
Continuous
 62
     7
370
    25
100
AcDbLine
 10
1456.2270545223
 20
544.3272204903
 30
0.0
 11
1464.1026397826
 21
544.3272204903
 31
0.0
  0
LINE
  5
3BB
330
1F
100
AcDbEntity
  8
0
  6
Continuous
 62
     7
370
    25
100
AcDbLine
 10
1456.2270545223
 20
939.3272204903
 30
0.0
 11
1464.1026397826
 21
939.3272204903
 31
0.0
  0
LINE
  5
3BC
330
1F
100
AcDbEntity
  8
0
  6
Continuous
 62
     7
370
    25
100
AcDbLine
 10
1456.2270545223
 20
954.3272204903
 30
0.0
 11
1464.1026397826
 21
954.3272204903
 31
0.0
  0
LINE
  5
3BD
330
1F
100
AcDbEntity
  8
0
  6
Continuous
 62
     7
370
    25
100
AcDbLine
 10
1482.3270545223
 20
749.3272204903
 30
0.0
 11
1482.3270545223
 21
847.3272204903
 31
0.0
  0
LINE
  5
3BE
330
1F
100
AcDbEntity
  8
0
  6
Continuous
 62
     7
370
    25
100
AcDbLine
 10
1482.3270545223
 20
651.3272204903
 30
0.0
 11
1482.3270545223
 21
749.3272204903
 31
0.0
  0
DIMENSION
  5
3BF
330
1F
100
AcDbEntity
  8
SLD-0
100
AcDbDimension
  2
_D_14
 10
1778.669000574
 20
544.3272204903
 30
0.0
 11
1778.669000574
 21
749.3272204903
 31
0.0
 70
   160
  1
<>
 71
     2
 42
-1.0
  3
SLDDIMSTYLE1
100
AcDbAlignedDimension
 13
1692.6270545223
 23
954.3272204903
 33
0.0
 14
1692.6270545223
 24
544.3272204903
 34
0.0
 50
90.0
100
AcDbRotatedDimension
  0
DIMENSION
  5
3D3
330
1F
100
AcDbEntity
  8
SLD-0
100
AcDbDimension
  2
_D_15
 10
1692.6270545223
 20
471.9431259447
 30
0.0
 11
1574.4270545223
 21
471.9431259447
 31
0.0
 70
   160
  1
<>
 71
     2
 42
-1.0
  3
SLDDIMSTYLE0
100
AcDbAlignedDimension
 13
1456.2270545223
 23
544.3272204903
 33
0.0
 14
1692.6270545223
 24
544.3272204903
 34
0.0
100
AcDbRotatedDimension
  0
INSERT
  5
3EF
102
{ACAD_REACTORS
330
3F0
102
}
330
1F
100
AcDbEntity
  8
SLD-0
100
AcDbBlockReference
  2
SW_NOTE_0_7
 10
1610.2885821832
 20
1041.1543287327
 30
0.0
  0
LEADER
  5
3F0
330
1F
100
AcDbEntity
  8
SLD-0
100
AcDbLeader
  3
SLDDIMSTYLE3
 73
     2
 76
     3
 10
1544.0702291629
 20
922.5323352803
 30
0.0
 10
1598.2885821832
 20
1041.1543287327
 30
0.0
 10
1610.2885821832
 20
1041.1543287327
 30
0.0
340
3EF
  0
MTEXT
  5
3F1
330
1F
100
AcDbEntity
  8
SLD-0
100
AcDbMText
 10
1656.4229361535
 20
1045.4660685519
 30
0.0
 40
14.2875
 41
0.0
 71
     1
 72
     1
  1
2X
  7
SLDTEXTSTYLE0
 73
     1
 44
1.0
  0
LINE
  5
3F2
330
1F
100
AcDbEntity
  8
0
  6
Continuous
 62
     7
370
    25
100
AcDbLine
 10
580.7708802736
 20
939.3272204903
 30
0.0
 11
580.7708802736
 21
954.3272204903
 31
0.0
  0
LINE
  5
3F3
330
1F
100
AcDbEntity
  8
0
  6
Continuous
 62
     7
370
    25
100
AcDbLine
 10
580.7708802736
 20
544.3272204903
 30
0.0
 11
580.7708802736
 21
559.3272204903
 31
0.0
  0
LINE
  5
3F4
330
1F
100
AcDbEntity
  8
0
  6
Continuous
 62
     7
370
    25
100
AcDbLine
 10
553.4208802736
 20
651.3272204903
 30
0.0
 11
554.6708802736
 21
651.3272204903
 31
0.0
  0
LINE
  5
3F5
330
1F
100
AcDbEntity
  8
0
  6
Continuous
 62
     7
370
    25
100
AcDbLine
 10
554.6708802736
 20
847.3272204903
 30
0.0
 11
553.4208802736
 21
847.3272204903
 31
0.0
  0
LINE
  5
3F6
330
1F
100
AcDbEntity
  8
0
  6
Continuous
 62
     7
370
    25
100
AcDbLine
 10
457.508759471
 20
544.3272204903
 30
0.0
 11
457.508759471
 21
954.3272204903
 31
0.0
  0
LINE
  5
3F7
330
1F
100
AcDbEntity
  8
0
  6
Continuous
 62
     7
370
    25
100
AcDbLine
 10
344.3708802736
 20
544.3272204903
 30
0.0
 11
344.3708802736
 21
954.3272204903
 31
0.0
  0
LINE
  5
3F8
330
1F
100
AcDbEntity
  8
0
  6
Continuous
 62
     7
370
    25
100
AcDbLine
 10
457.508759471
 20
954.3272204903
 30
0.0
 11
344.3708802736
 21
954.3272204903
 31
0.0
  0
LINE
  5
3F9
330
1F
100
AcDbEntity
  8
0
  6
Continuous
 62
     7
370
    25
100
AcDbLine
 10
457.508759471
 20
544.3272204903
 30
0.0
 11
344.3708802736
 21
544.3272204903
 31
0.0
  0
LINE
  5
3FA
330
1F
100
AcDbEntity
  8
0
  6
Continuous
 62
     7
370
    25
100
AcDbLine
 10
546.480340596
 20
544.3272204903
 30
0.0
 11
546.480340596
 21
559.3272204903
 31
0.0
  0
LINE
  5
3FB
330
1F
100
AcDbEntity
  8
0
  6
Continuous
 62
     7
370
    25
100
AcDbLine
 10
546.480340596
 20
939.3272204903
 30
0.0
 11
546.480340596
 21
954.3272204903
 31
0.0
  0
LINE
  5
3FC
330
1F
100
AcDbEntity
  8
0
  6
Continuous
 62
     7
370
    25
100
AcDbLine
 10
532.0708802736
 20
939.3272204903
 30
0.0
 11
546.480340596
 21
939.3272204903
 31
0.0
  0
ARC
  5
3FD
330
1F
100
AcDbEntity
  8
0
  6
Continuous
 62
     7
370
    25
100
AcDbCircle
 10
532.0708802736
 20
936.3272204903
 30
0.0
 40
3.0
100
AcDbArc
 50
90.0
 51
180.0
  0
LINE
  5
3FE
330
1F
100
AcDbEntity
  8
0
  6
Continuous
 62
     7
370
    25
100
AcDbLine
 10
529.0708802736
 20
562.3272204903
 30
0.0
 11
529.0708802736
 21
936.3272204903
 31
0.0
  0
ARC
  5
3FF
330
1F
100
AcDbEntity
  8
0
  6
Continuous
 62
     7
370
    25
100
AcDbCircle
 10
532.0708802736
 20
562.3272204903
 30
0.0
 40
3.0
100
AcDbArc
 50
180.0
 51
270.0
  0
LINE
  5
400
330
1F
100
AcDbEntity
  8
0
  6
Continuous
 62
     7
370
    25
100
AcDbLine
 10
532.0708802736
 20
559.3272204903
 30
0.0
 11
546.480340596
 21
559.3272204903
 31
0.0
  0
CIRCLE
  5
401
330
1F
100
AcDbEntity
  8
0
  6
Continuous
 62
     7
370
    25
100
AcDbCircle
 10
499.3708802736
 20
584.7272204903
 30
0.0
 40
10.75000000000006
  0
CIRCLE
  5
402
330
1F
100
AcDbEntity
  8
0
  6
Continuous
 62
     7
370
    25
100
AcDbCircle
 10
499.3708802736
 20
913.9272204903
 30
0.0
 40
10.75000000000006
  0
LINE
  5
403
330
1F
100
AcDbEntity
  8
0
  6
Continuous
 62
     7
370
    25
100
AcDbLine
 10
546.480340596
 20
954.3272204903
 30
0.0
 11
457.508759471
 21
954.3272204903
 31
0.0
  0
LINE
  5
404
330
1F
100
AcDbEntity
  8
0
  6
Continuous
 62
     7
370
    25
100
AcDbLine
 10
546.480340596
 20
544.3272204903
 30
0.0
 11
457.508759471
 21
544.3272204903
 31
0.0
  0
CIRCLE
  5
405
330
1F
100
AcDbEntity
  8
0
  6
Continuous
 62
     7
370
    25
100
AcDbCircle
 10
499.3708802736
 20
913.9272204903
 30
0.0
 40
5.500000000000057
  0
CIRCLE
  5
406
330
1F
100
AcDbEntity
  8
0
  6
Continuous
 62
     7
370
    25
100
AcDbCircle
 10
499.3708802736
 20
584.7272204903
 30
0.0
 40
5.500000000000057
  0
LINE
  5
407
330
1F
100
AcDbEntity
  8
0
  6
Continuous
 62
     7
370
    25
100
AcDbLine
 10
572.8952950133
 20
559.3272204903
 30
0.0
 11
572.8952950133
 21
544.3272204903
 31
0.0
  0
LINE
  5
408
330
1F
100
AcDbEntity
  8
0
  6
Continuous
 62
     7
370
    25
100
AcDbLine
 10
546.480340596
 20
559.3272204903
 30
0.0
 11
572.8952950133
 21
559.3272204903
 31
0.0
  0
LINE
  5
409
330
1F
100
AcDbEntity
  8
0
  6
Continuous
 62
     7
370
    25
100
AcDbLine
 10
546.480340596
 20
544.3272204903
 30
0.0
 11
572.8952950133
 21
544.3272204903
 31
0.0
  0
LINE
  5
40A
330
1F
100
AcDbEntity
  8
0
  6
Continuous
 62
     7
370
    25
100
AcDbLine
 10
572.8952950133
 20
954.3272204903
 30
0.0
 11
572.8952950133
 21
939.3272204903
 31
0.0
  0
LINE
  5
40B
330
1F
100
AcDbEntity
  8
0
  6
Continuous
 62
     7
370
    25
100
AcDbLine
 10
546.480340596
 20
939.3272204903
 30
0.0
 11
572.8952950133
 21
939.3272204903
 31
0.0
  0
LINE
  5
40C
330
1F
100
AcDbEntity
  8
0
  6
Continuous
 62
     7
370
    25
100
AcDbLine
 10
546.480340596
 20
954.3272204903
 30
0.0
 11
572.8952950133
 21
954.3272204903
 31
0.0
  0
LINE
  5
40D
330
1F
100
AcDbEntity
  8
0
  6
Continuous
 62
     7
370
    25
100
AcDbLine
 10
545.0079916905
 20
559.3272204903
 30
0.0
 11
545.0079916905
 21
939.3272204903
 31
0.0
  0
LINE
  5
40E
330
1F
100
AcDbEntity
  8
0
  6
Continuous
 62
     7
370
    25
100
AcDbLine
 10
553.4208802736
 20
559.3272204903
 30
0.0
 11
553.4208802736
 21
939.3272204903
 31
0.0
  0
LINE
  5
40F
330
1F
100
AcDbEntity
  8
0
  6
Continuous
 62
     7
370
    25
100
AcDbLine
 10
572.8952950133
 20
939.3272204903
 30
0.0
 11
580.7708802736
 21
939.3272204903
 31
0.0
  0
LINE
  5
410
330
1F
100
AcDbEntity
  8
0
  6
Continuous
 62
     7
370
    25
100
AcDbLine
 10
572.8952950133
 20
954.3272204903
 30
0.0
 11
580.7708802736
 21
954.3272204903
 31
0.0
  0
LINE
  5
411
330
1F
100
AcDbEntity
  8
0
  6
Continuous
 62
     7
370
    25
100
AcDbLine
 10
572.8952950133
 20
559.3272204903
 30
0.0
 11
580.7708802736
 21
559.3272204903
 31
0.0
  0
LINE
  5
412
330
1F
100
AcDbEntity
  8
0
  6
Continuous
 62
     7
370
    25
100
AcDbLine
 10
572.8952950133
 20
544.3272204903
 30
0.0
 11
580.7708802736
 21
544.3272204903
 31
0.0
  0
LINE
  5
413
330
1F
100
AcDbEntity
  8
0
  6
Continuous
 62
     7
370
    25
100
AcDbLine
 10
554.6708802736
 20
847.3272204903
 30
0.0
 11
554.6708802736
 21
651.3272204903
 31
0.0
  0
LINE
  5
414
330
1F
100
AcDbEntity
  8
SLD-0
100
AcDbLine
 10
499.3708802736
 20
913.9272204903
 30
0.0
 11
499.3708802736
 21
584.7272204903
 31
0.0
  0
DIMENSION
  5
415
330
1F
100
AcDbEntity
  8
SLD-0
100
AcDbDimension
  2
_D_16
 10
640.7708802736
 20
584.7272204903
 30
0.0
 11
640.7708802736
 21
749.3272204903
 31
0.0
 70
   160
  1
<>
 71
     2
 42
-1.0
  3
SLDDIMSTYLE0
100
AcDbAlignedDimension
 13
512.1208802736
 23
913.9272204903
 33
0.0
 14
512.1208802736
 24
584.7272204903
 34
0.0
 50
90.0
100
AcDbRotatedDimension
  0
DIMENSION
  5
429
330
1F
100
AcDbEntity
  8
SLD-0
100
AcDbDimension
  2
_D_17
 10
640.7708802736
 20
954.3272204903
 30
0.0
 11
640.7708802736
 21
988.1139853586
 31
0.0
 70
   160
  1
<>
 71
     2
 42
-1.0
  3
SLDDIMSTYLE0
100
AcDbAlignedDimension
 13
512.1208802736
 23
913.9272204903
 33
0.0
 14
580.7708802736
 24
954.3272204903
 34
0.0
 50
90.0
100
AcDbRotatedDimension
  0
DIMENSION
  5
43E
330
1F
100
AcDbEntity
  8
SLD-0
100
AcDbDimension
  2
_D_18
 10
344.3708802736
 20
1014.3272204903
 30
0.0
 11
421.8708802736
 21
1014.3272204903
 31
0.0
 70
   160
  1
<>
 71
     2
 42
-1.0
  3
SLDDIMSTYLE1
100
AcDbAlignedDimension
 13
499.3708802736
 23
926.6772204903
 33
0.0
 14
344.3708802736
 24
954.3272204903
 34
0.0
100
AcDbRotatedDimension
  0
MTEXT
  5
452
330
1F
100
AcDbEntity
  8
SLD-0
100
AcDbMText
 10
335.5054355087
 20
492.463847938
 30
0.0
 40
14.2875
 41
0.0
 71
     1
 72
     1
  1
DIMENSIONS TYP BOTH SIDES
  7
SLDTEXTSTYLE0
 73
     1
 44
1.0
  0
INSERT
  5
45B
102
{ACAD_REACTORS
330
45C
102
}
330
1F
100
AcDbEntity
  8
SLD-0
100
AcDbBlockReference
  2
SW_NOTE_0_8
 10
575.9096612296
 20
1062.2333751568
 30
0.0
  0
LEADER
  5
45C
330
1F
100
AcDbEntity
  8
SLD-0
100
AcDbLeader
  3
SLDDIMSTYLE3
 73
     2
 76
     3
 10
506.7051814715
 20
921.7866432388
 30
0.0
 10
563.9096612296
 20
1062.2333751568
 30
0.0
 10
575.9096612296
 20
1062.2333751568
 30
0.0
340
45B
  0
MTEXT
  5
45D
330
1F
100
AcDbEntity
  8
SLD-0
100
AcDbMText
 10
623.0057532518
 20
1066.6641672004
 30
0.0
 40
14.2875
 41
0.0
 71
     1
 72
     1
  1
2X
  7
SLDTEXTSTYLE0
 73
     1
 44
1.0
  0
INSERT
  5
469
330
1F
100
AcDbEntity
  8
SLD-0
100
AcDbBlockReference
  2
SW_CENTERMARKSYMBOL_7
 10
499.3708802736
 20
913.9272204903
 30
0.0
  0
INSERT
  5
475
330
1F
100
AcDbEntity
  8
SLD-0
100
AcDbBlockReference
  2
SW_CENTERMARKSYMBOL_8
 10
499.3708802736
 20
584.7272204903
 30
0.0
  0
LINE
  5
476
330
1F
100
AcDbEntity
  8
0
  6
Continuous
 62
     7
370
    25
100
AcDbLine
 10
2303.28264751
 20
544.3272204903
 30
0.0
 11
2303.28264751
 21
954.3272204903
 31
0.0
  0
LINE
  5
477
330
1F
100
AcDbEntity
  8
0
  6
Continuous
 62
     7
370
    25
100
AcDbLine
 10
2241.8537911548
 20
544.3272204903
 30
0.0
 11
2241.8537911548
 21
954.3272204903
 31
0.0
  0
LINE
  5
478
330
1F
100
AcDbEntity
  8
0
  6
Continuous
 62
     7
370
    25
100
AcDbLine
 10
2303.28264751
 20
954.3272204903
 30
0.0
 11
2241.8537911548
 21
954.3272204903
 31
0.0
  0
LINE
  5
479
330
1F
100
AcDbEntity
  8
0
  6
Continuous
 62
     7
370
    25
100
AcDbLine
 10
2303.28264751
 20
544.3272204903
 30
0.0
 11
2241.8537911548
 21
544.3272204903
 31
0.0
  0
LINE
  5
47A
330
1F
100
AcDbEntity
  8
0
  6
Continuous
 62
     7
370
    25
100
AcDbLine
 10
2084.7115038653
 20
544.3272204903
 30
0.0
 11
2084.7115038653
 21
954.3272204903
 31
0.0
  0
ARC
  5
47B
330
1F
100
AcDbEntity
  8
0
  6
Continuous
 62
     7
370
    25
100
AcDbCircle
 10
2212.78264751
 20
615.0772204903
 30
0.0
 40
11.0
100
AcDbArc
 50
270.0
 51
0.0
  0
LINE
  5
47C
330
1F
100
AcDbEntity
  8
0
  6
Continuous
 62
     7
370
    25
100
AcDbLine
 10
2223.78264751
 20
615.0772204903
 30
0.0
 11
2223.78264751
 21
748.0772204903
 31
0.0
  0
ARC
  5
47D
330
1F
100
AcDbEntity
  8
0
  6
Continuous
 62
     7
370
    25
100
AcDbCircle
 10
2212.78264751
 20
748.0772204903
 30
0.0
 40
11.00000000000011
100
AcDbArc
 50
0.0
 51
90.0
  0
LINE
  5
47E
330
1F
100
AcDbEntity
  8
0
  6
Continuous
 62
     7
370
    25
100
AcDbLine
 10
2212.78264751
 20
759.0772204903
 30
0.0
 11
2113.78264751
 21
759.0772204903
 31
0.0
  0
ARC
  5
47F
330
1F
100
AcDbEntity
  8
0
  6
Continuous
 62
     7
370
    25
100
AcDbCircle
 10
2113.78264751
 20
748.0772204903
 30
0.0
 40
11.00000000000011
100
AcDbArc
 50
90.0
 51
180.0
  0
LINE
  5
480
330
1F
100
AcDbEntity
  8
0
  6
Continuous
 62
     7
370
    25
100
AcDbLine
 10
2102.78264751
 20
748.0772204903
 30
0.0
 11
2102.78264751
 21
615.0772204903
 31
0.0
  0
ARC
  5
481
330
1F
100
AcDbEntity
  8
0
  6
Continuous
 62
     7
370
    25
100
AcDbCircle
 10
2113.78264751
 20
615.0772204903
 30
0.0
 40
11.0
100
AcDbArc
 50
180.0
 51
270.0
  0
LINE
  5
482
330
1F
100
AcDbEntity
  8
0
  6
Continuous
 62
     7
370
    25
100
AcDbLine
 10
2113.78264751
 20
604.0772204903
 30
0.0
 11
2212.78264751
 21
604.0772204903
 31
0.0
  0
CIRCLE
  5
483
330
1F
100
AcDbEntity
  8
0
  6
Continuous
 62
     7
370
    25
100
AcDbCircle
 10
2137.88264751
 20
899.4772204903
 30
0.0
 40
7.0
  0
CIRCLE
  5
484
330
1F
100
AcDbEntity
  8
0
  6
Continuous
 62
     7
370
    25
100
AcDbCircle
 10
2188.68264751
 20
899.4772204903
 30
0.0
 40
7.0
  0
CIRCLE
  5
485
330
1F
100
AcDbEntity
  8
0
  6
Continuous
 62
     7
370
    25
100
AcDbCircle
 10
2188.68264751
 20
791.5772204903
 30
0.0
 40
7.0
  0
CIRCLE
  5
486
330
1F
100
AcDbEntity
  8
0
  6
Continuous
 62
     7
370
    25
100
AcDbCircle
 10
2137.88264751
 20
791.5772204903
 30
0.0
 40
6.999999999999545
  0
CIRCLE
  5
487
330
1F
100
AcDbEntity
  8
0
  6
Continuous
 62
     7
370
    25
100
AcDbCircle
 10
2163.28264751
 20
584.7272204903
 30
0.0
 40
10.75
  0
LINE
  5
488
330
1F
100
AcDbEntity
  8
0
  6
Continuous
 62
     7
370
    25
100
AcDbLine
 10
2241.8537911548
 20
954.3272204903
 30
0.0
 11
2084.7115038653
 21
954.3272204903
 31
0.0
  0
LINE
  5
489
330
1F
100
AcDbEntity
  8
0
  6
Continuous
 62
     7
370
    25
100
AcDbLine
 10
2241.8537911548
 20
544.3272204903
 30
0.0
 11
2084.7115038653
 21
544.3272204903
 31
0.0
  0
CIRCLE
  5
48A
330
1F
100
AcDbEntity
  8
0
  6
Continuous
 62
     7
370
    25
100
AcDbCircle
 10
2188.68264751
 20
791.5772204903
 30
0.0
 40
3.25
  0
CIRCLE
  5
48B
330
1F
100
AcDbEntity
  8
0
  6
Continuous
 62
     7
370
    25
100
AcDbCircle
 10
2188.68264751
 20
899.4772204903
 30
0.0
 40
3.25
  0
CIRCLE
  5
48C
330
1F
100
AcDbEntity
  8
0
  6
Continuous
 62
     7
370
    25
100
AcDbCircle
 10
2163.28264751
 20
584.7272204903
 30
0.0
 40
5.5
  0
CIRCLE
  5
48D
330
1F
100
AcDbEntity
  8
0
  6
Continuous
 62
     7
370
    25
100
AcDbCircle
 10
2137.88264751
 20
899.4772204903
 30
0.0
 40
3.25
  0
CIRCLE
  5
48E
330
1F
100
AcDbEntity
  8
0
  6
Continuous
 62
     7
370
    25
100
AcDbCircle
 10
2137.88264751
 20
791.5772204903
 30
0.0
 40
3.25
  0
LINE
  5
48F
330
1F
100
AcDbEntity
  8
0
  6
Continuous
 62
     7
370
    25
100
AcDbLine
 10
2023.28264751
 20
544.3272204903
 30
0.0
 11
2023.28264751
 21
954.3272204903
 31
0.0
  0
LINE
  5
490
330
1F
100
AcDbEntity
  8
0
  6
Continuous
 62
     7
370
    25
100
AcDbLine
 10
2084.7115038653
 20
954.3272204903
 30
0.0
 11
2023.28264751
 21
954.3272204903
 31
0.0
  0
LINE
  5
491
330
1F
100
AcDbEntity
  8
0
  6
Continuous
 62
     7
370
    25
100
AcDbLine
 10
2084.7115038653
 20
544.3272204903
 30
0.0
 11
2023.28264751
 21
544.3272204903
 31
0.0
  0
ARC
  5
492
330
1F
100
AcDbEntity
  8
0
  6
Continuous
 62
     7
370
    25
100
AcDbCircle
 10
2197.9296157009
 20
618.2774477033
 30
0.0
 40
5.000000000000117
100
AcDbArc
 50
101.5154699283
 51
170.9353855112
  0
ARC
  5
493
330
1F
100
AcDbEntity
  8
0
  6
Continuous
 62
     7
370
    25
100
AcDbCircle
 10
2196.28264751
 20
626.3613821277
 30
0.0
 40
3.25
100
AcDbArc
 50
281.5154699283
 51
0.0
  0
LINE
  5
494
330
1F
100
AcDbEntity
  8
0
  6
Continuous
 62
     7
370
    25
100
AcDbLine
 10
2199.53264751
 20
626.3613821277
 30
0.0
 11
2199.53264751
 21
673.3613821277
 31
0.0
  0
ARC
  5
495
330
1F
100
AcDbEntity
  8
0
  6
Continuous
 62
     7
370
    25
100
AcDbCircle
 10
2196.28264751
 20
673.3613821277
 30
0.0
 40
3.250000000000045
100
AcDbArc
 50
0.0
 51
84.7840914295
  0
ARC
  5
496
330
1F
100
AcDbEntity
  8
0
  6
Continuous
 62
     7
370
    25
100
AcDbCircle
 10
2197.03264751
 20
681.5772204903
 30
0.0
 40
5.000000000000105
100
AcDbArc
 50
95.2159085705
 51
264.7840914295
  0
ARC
  5
497
330
1F
100
AcDbEntity
  8
0
  6
Continuous
 62
     7
370
    25
100
AcDbCircle
 10
2196.28264751
 20
689.7930588528
 30
0.0
 40
3.250000000000045
100
AcDbArc
 50
275.2159085705
 51
0.0
  0
LINE
  5
498
330
1F
100
AcDbEntity
  8
0
  6
Continuous
 62
     7
370
    25
100
AcDbLine
 10
2199.53264751
 20
689.7930588528
 30
0.0
 11
2199.53264751
 21
736.7930588528
 31
0.0
  0
ARC
  5
499
330
1F
100
AcDbEntity
  8
0
  6
Continuous
 62
     7
370
    25
100
AcDbCircle
 10
2196.28264751
 20
736.7930588528
 30
0.0
 40
3.25
100
AcDbArc
 50
0.0
 51
78.4845300717
  0
ARC
  5
49A
330
1F
100
AcDbEntity
  8
0
  6
Continuous
 62
     7
370
    25
100
AcDbCircle
 10
2197.9296157009
 20
744.8769932773
 30
0.0
 40
5.000000000000006
100
AcDbArc
 50
189.0646144888
 51
258.4845300717
  0
ARC
  5
49B
330
1F
100
AcDbEntity
  8
0
  6
Continuous
 62
     7
370
    25
100
AcDbCircle
 10
2189.78264751
 20
743.5772204903
 30
0.0
 40
3.25000000000002
100
AcDbArc
 50
9.0646144888
 51
90.0
  0
LINE
  5
49C
330
1F
100
AcDbEntity
  8
0
  6
Continuous
 62
     7
370
    25
100
AcDbLine
 10
2189.78264751
 20
746.8272204903
 30
0.0
 11
2136.78264751
 21
746.8272204903
 31
0.0
  0
ARC
  5
49D
330
1F
100
AcDbEntity
  8
0
  6
Continuous
 62
     7
370
    25
100
AcDbCircle
 10
2136.78264751
 20
743.5772204903
 30
0.0
 40
3.250000000000114
100
AcDbArc
 50
90.0
 51
170.9353855112
  0
ARC
  5
49E
330
1F
100
AcDbEntity
  8
0
  6
Continuous
 62
     7
370
    25
100
AcDbCircle
 10
2128.6356793192
 20
744.8769932773
 30
0.0
 40
5.000000000000006
100
AcDbArc
 50
281.5154699283
 51
350.9353855112
  0
ARC
  5
49F
330
1F
100
AcDbEntity
  8
0
  6
Continuous
 62
     7
370
    25
100
AcDbCircle
 10
2130.28264751
 20
736.7930588528
 30
0.0
 40
3.25
100
AcDbArc
 50
101.5154699283
 51
180.0
  0
LINE
  5
4A0
330
1F
100
AcDbEntity
  8
0
  6
Continuous
 62
     7
370
    25
100
AcDbLine
 10
2127.03264751
 20
736.7930588528
 30
0.0
 11
2127.03264751
 21
689.7930588528
 31
0.0
  0
ARC
  5
4A1
330
1F
100
AcDbEntity
  8
0
  6
Continuous
 62
     7
370
    25
100
AcDbCircle
 10
2130.28264751
 20
689.7930588528
 30
0.0
 40
3.250000000000045
100
AcDbArc
 50
180.0
 51
264.7840914295
  0
ARC
  5
4A2
330
1F
100
AcDbEntity
  8
0
  6
Continuous
 62
     7
370
    25
100
AcDbCircle
 10
2129.53264751
 20
681.5772204903
 30
0.0
 40
5.000000000000105
100
AcDbArc
 50
275.2159085705
 51
84.7840914295
  0
ARC
  5
4A3
330
1F
100
AcDbEntity
  8
0
  6
Continuous
 62
     7
370
    25
100
AcDbCircle
 10
2130.28264751
 20
673.3613821277
 30
0.0
 40
3.250000000000045
100
AcDbArc
 50
95.2159085705
 51
180.0
  0
LINE
  5
4A4
330
1F
100
AcDbEntity
  8
0
  6
Continuous
 62
     7
370
    25
100
AcDbLine
 10
2127.03264751
 20
673.3613821277
 30
0.0
 11
2127.03264751
 21
626.3613821277
 31
0.0
  0
ARC
  5
4A5
330
1F
100
AcDbEntity
  8
0
  6
Continuous
 62
     7
370
    25
100
AcDbCircle
 10
2130.28264751
 20
626.3613821277
 30
0.0
 40
3.25
100
AcDbArc
 50
180.0
 51
258.4845300717
  0
ARC
  5
4A6
330
1F
100
AcDbEntity
  8
0
  6
Continuous
 62
     7
370
    25
100
AcDbCircle
 10
2128.6356793192
 20
618.2774477033
 30
0.0
 40
5.000000000000117
100
AcDbArc
 50
9.0646144888
 51
78.4845300717
  0
ARC
  5
4A7
330
1F
100
AcDbEntity
  8
0
  6
Continuous
 62
     7
370
    25
100
AcDbCircle
 10
2136.78264751
 20
619.5772204903
 30
0.0
 40
3.25000000000002
100
AcDbArc
 50
189.0646144888
 51
270.0
  0
LINE
  5
4A8
330
1F
100
AcDbEntity
  8
0
  6
Continuous
 62
     7
370
    25
100
AcDbLine
 10
2136.78264751
 20
616.3272204903
 30
0.0
 11
2189.78264751
 21
616.3272204903
 31
0.0
  0
ARC
  5
4A9
330
1F
100
AcDbEntity
  8
0
  6
Continuous
 62
     7
370
    25
100
AcDbCircle
 10
2189.78264751
 20
619.5772204903
 30
0.0
 40
3.250000000000003
100
AcDbArc
 50
270.0
 51
350.9353855112
  0
LINE
  5
4AA
330
1F
100
AcDbEntity
  8
0
  6
Continuous
 62
     7
370
    25
100
AcDbLine
 10
2186.53264751
 20
620.9272204903
 30
0.0
 11
2186.53264751
 21
633.6772204903
 31
0.0
  0
LINE
  5
4AB
330
1F
100
AcDbEntity
  8
0
  6
Continuous
 62
     7
370
    25
100
AcDbLine
 10
2140.03264751
 20
633.6772204903
 30
0.0
 11
2140.03264751
 21
620.9272204903
 31
0.0
  0
LINE
  5
4AC
330
1F
100
AcDbEntity
  8
0
  6
Continuous
 62
     7
370
    25
100
AcDbLine
 10
2186.53264751
 20
633.6772204903
 30
0.0
 11
2140.03264751
 21
633.6772204903
 31
0.0
  0
LINE
  5
4AD
330
1F
100
AcDbEntity
  8
0
  6
Continuous
 62
     7
370
    25
100
AcDbLine
 10
2140.03264751
 20
620.9272204903
 30
0.0
 11
2186.53264751
 21
620.9272204903
 31
0.0
  0
CIRCLE
  5
4AE
330
1F
100
AcDbEntity
  8
0
  6
Continuous
 62
     7
370
    25
100
AcDbCircle
 10
2165.53264751
 20
663.3272204903
 30
0.0
 40
8.927999999999884
  0
CIRCLE
  5
4AF
330
1F
100
AcDbEntity
  8
0
  6
Continuous
 62
     7
370
    25
100
AcDbCircle
 10
2165.53264751
 20
703.3272204903
 30
0.0
 40
8.927999999999884
  0
CIRCLE
  5
4B0
330
1F
100
AcDbEntity
  8
0
  6
Continuous
 62
     7
370
    25
100
AcDbCircle
 10
2165.53264751
 20
703.3272204903
 30
0.0
 40
6.096000000000004
  0
CIRCLE
  5
4B1
330
1F
100
AcDbEntity
  8
0
  6
Continuous
 62
     7
370
    25
100
AcDbCircle
 10
2165.53264751
 20
703.3272204903
 30
0.0
 40
3.492999999999938
  0
CIRCLE
  5
4B2
330
1F
100
AcDbEntity
  8
0
  6
Continuous
 62
     7
370
    25
100
AcDbCircle
 10
2165.53264751
 20
663.3272204903
 30
0.0
 40
6.096000000000004
  0
CIRCLE
  5
4B3
330
1F
100
AcDbEntity
  8
0
  6
Continuous
 62
     7
370
    25
100
AcDbCircle
 10
2165.53264751
 20
663.3272204903
 30
0.0
 40
3.492999999999938
  0
LINE
  5
4B4
330
1F
100
AcDbEntity
  8
SLD-0
100
AcDbLine
 10
2137.88264751
 20
899.4772204903
 30
0.0
 11
2188.68264751
 21
899.4772204903
 31
0.0
  0
LINE
  5
4B5
330
1F
100
AcDbEntity
  8
SLD-0
100
AcDbLine
 10
2188.68264751
 20
899.4772204903
 30
0.0
 11
2188.68264751
 21
791.5772204903
 31
0.0
  0
LINE
  5
4B6
330
1F
100
AcDbEntity
  8
SLD-0
100
AcDbLine
 10
2188.68264751
 20
791.5772204903
 30
0.0
 11
2137.88264751
 21
791.5772204903
 31
0.0
  0
LINE
  5
4B7
330
1F
100
AcDbEntity
  8
SLD-0
100
AcDbLine
 10
2137.88264751
 20
791.5772204903
 30
0.0
 11
2137.88264751
 21
899.4772204903
 31
0.0
  0
DIMENSION
  5
4B8
330
1F
100
AcDbEntity
  8
SLD-0
100
AcDbDimension
  2
_D_19
 10
2223.78264751
 20
433.0005279984
 30
0.0
 11
2163.28264751
 21
433.0005279984
 31
0.0
 70
   160
  1
<>
 71
     2
 42
-1.0
  3
SLDDIMSTYLE5
100
AcDbAlignedDimension
 13
2102.78264751
 23
615.0772204903
 33
0.0
 14
2223.78264751
 24
615.0772204903
 34
0.0
100
AcDbRotatedDimension
  0
DIMENSION
  5
4CD
330
1F
100
AcDbEntity
  8
SLD-0
100
AcDbDimension
  2
_D_20
 10
1962.68264751
 20
604.0772204903
 30
0.0
 11
1962.68264751
 21
681.5772204903
 31
0.0
 70
   160
  1
<>
 71
     2
 42
-1.0
  3
SLDDIMSTYLE5
100
AcDbAlignedDimension
 13
2113.78264751
 23
759.0772204903
 33
0.0
 14
2113.78264751
 24
604.0772204903
 34
0.0
 50
90.0
100
AcDbRotatedDimension
  0
DIMENSION
  5
4E1
330
1F
100
AcDbEntity
  8
SLD-0
100
AcDbDimension
  2
_D_21
 10
1962.68264751
 20
544.3272204903
 30
0.0
 11
1962.68264751
 21
484.3272204903
 31
0.0
 70
   160
  1
<>
 71
     2
 42
-1.0
  3
SLDDIMSTYLE0
100
AcDbAlignedDimension
 13
2113.78264751
 23
604.0772204903
 33
0.0
 14
2023.28264751
 24
544.3272204903
 34
0.0
 50
90.0
100
AcDbRotatedDimension
  0
DIMENSION
  5
4F6
330
1F
100
AcDbEntity
  8
SLD-0
100
AcDbDimension
  2
_D_22
 10
2303.28264751
 20
433.0005279984
 30
0.0
 11
2263.53264751
 21
433.0005279984
 31
0.0
 70
   160
  1
<>
 71
     2
 42
-1.0
  3
SLDDIMSTYLE2
100
AcDbAlignedDimension
 13
2223.78264751
 23
615.0772204903
 33
0.0
 14
2303.28264751
 24
544.3272204903
 34
0.0
100
AcDbRotatedDimension
  0
DIMENSION
  5
50A
330
1F
100
AcDbEntity
  8
SLD-0
100
AcDbDimension
  2
_D_23
 10
2363.88264751
 20
791.5772204903
 30
0.0
 11
2363.88264751
 21
845.5272204903
 31
0.0
 70
   160
  1
<>
 71
     2
 42
-1.0
  3
SLDDIMSTYLE0
100
AcDbAlignedDimension
 13
2197.68264751
 23
899.4772204903
 33
0.0
 14
2197.68264751
 24
791.5772204903
 34
0.0
 50
90.0
100
AcDbRotatedDimension
  0
DIMENSION
  5
51E
330
1F
100
AcDbEntity
  8
SLD-0
100
AcDbDimension
  2
_D_24
 10
2363.88264751
 20
954.3272204903
 30
0.0
 11
2363.88264751
 21
1014.3272204903
 31
0.0
 70
   160
  1
<>
 71
     2
 42
-1.0
  3
SLDDIMSTYLE0
100
AcDbAlignedDimension
 13
2197.68264751
 23
899.4772204903
 33
0.0
 14
2303.28264751
 24
954.3272204903
 34
0.0
 50
90.0
100
AcDbRotatedDimension
  0
DIMENSION
  5
533
330
1F
100
AcDbEntity
  8
SLD-0
100
AcDbDimension
  2
_D_25
 10
2137.88264751
 20
1014.3272204903
 30
0.0
 11
2095.6242009437
 21
1014.3272204903
 31
0.0
 70
   160
  1
<>
 71
     2
 42
-1.0
  3
SLDDIMSTYLE0
100
AcDbAlignedDimension
 13
2188.68264751
 23
908.4772204903
 33
0.0
 14
2137.88264751
 24
908.4772204903
 34
0.0
100
AcDbRotatedDimension
  0
DIMENSION
  5
547
330
1F
100
AcDbEntity
  8
SLD-0
100
AcDbDimension
  2
_D_26
 10
2303.28264751
 20
1014.3272204903
 30
0.0
 11
2245.98264751
 21
1014.3272204903
 31
0.0
 70
   160
  1
<>
 71
     2
 42
-1.0
  3
SLDDIMSTYLE0
100
AcDbAlignedDimension
 13
2188.68264751
 23
908.4772204903
 33
0.0
 14
2303.28264751
 24
954.3272204903
 34
0.0
100
AcDbRotatedDimension
  0
DIMENSION
  5
55B
330
1F
100
AcDbEntity
  8
SLD-0
100
AcDbDimension
  2
_D_27
 10
2363.88264751
 20
584.7272204903
 30
0.0
 11
2363.88264751
 21
617.5868252231
 31
0.0
 70
   160
  1
<>
 71
     2
 42
-1.0
  3
SLDDIMSTYLE0
100
AcDbAlignedDimension
 13
2303.28264751
 23
544.3272204903
 33
0.0
 14
2176.03264751
 24
584.7272204903
 34
0.0
 50
90.0
100
AcDbRotatedDimension
  0
DIMENSION
  5
570
330
1F
100
AcDbEntity
  8
SLD-0
100
AcDbDimension
  2
_D_28
 10
2303.28264751
 20
495.5930829644
 30
0.0
 11
2384.3383331577
 21
495.5930829644
 31
0.0
 70
   160
  1
<>
 71
     2
 42
-1.0
  3
SLDDIMSTYLE1
100
AcDbAlignedDimension
 13
2163.28264751
 23
571.9772204903
 33
0.0
 14
2303.28264751
 24
544.3272204903
 34
0.0
100
AcDbRotatedDimension
  0
INSERT
  5
58C
102
{ACAD_REACTORS
330
58D
102
}
330
1F
100
AcDbEntity
  8
SLD-0
100
AcDbBlockReference
  2
SW_NOTE_0_9
 10
1979.9247176913
 20
881.5558343789
 30
0.0
  0
LEADER
  5
58D
330
1F
100
AcDbEntity
  8
SLD-0
100
AcDbLeader
  3
SLDDIMSTYLE3
 73
     2
 76
     3
 10
2132.7179881445
 20
796.302291245
 30
0.0
 10
1991.9247176913
 20
881.5558343789
 30
0.0
 10
1979.9247176913
 20
881.5558343789
 30
0.0
340
58C
  0
INSERT
  5
596
102
{ACAD_REACTORS
330
597
102
}
330
1F
100
AcDbEntity
  8
SLD-0
100
AcDbBlockReference
  2
SW_NOTE_0_10
 10
2055.2070263488
 20
492.3462986198
 30
0.0
  0
LEADER
  5
597
330
1F
100
AcDbEntity
  8
SLD-0
100
AcDbLeader
  3
SLDDIMSTYLE3
 73
     2
 76
     3
 10
2156.3949395164
 20
576.4736165141
 30
0.0
 10
2067.2070263488
 20
492.3462986198
 30
0.0
 10
2055.2070263488
 20
492.3462986198
 30
0.0
340
596
  0
MTEXT
  5
598
330
1F
100
AcDbEntity
  8
SLD-0
100
AcDbMText
 10
1916.9584486772
 20
888.8371586809
 30
0.0
 40
14.2875
 41
0.0
 71
     1
 72
     1
  1
4X
  7
SLDTEXTSTYLE0
 73
     1
 44
1.0
  0
INSERT
  5
5A4
330
1F
100
AcDbEntity
  8
SLD-0
100
AcDbBlockReference
  2
SW_CENTERMARKSYMBOL_9
 10
2163.28264751
 20
584.7272204903
 30
0.0
  0
INSERT
  5
5B0
330
1F
100
AcDbEntity
  8
SLD-0
100
AcDbBlockReference
  2
SW_CENTERMARKSYMBOL_10
 10
2137.88264751
 20
899.4772204903
 30
0.0
  0
INSERT
  5
5BC
330
1F
100
AcDbEntity
  8
SLD-0
100
AcDbBlockReference
  2
SW_CENTERMARKSYMBOL_11
 10
2188.68264751
 20
899.4772204903
 30
0.0
  0
INSERT
  5
5C8
330
1F
100
AcDbEntity
  8
SLD-0
100
AcDbBlockReference
  2
SW_CENTERMARKSYMBOL_12
 10
2137.88264751
 20
791.5772204903
 30
0.0
  0
INSERT
  5
5D4
330
1F
100
AcDbEntity
  8
SLD-0
100
AcDbBlockReference
  2
SW_CENTERMARKSYMBOL_13
 10
2188.68264751
 20
791.5772204903
 30
0.0
  0
OLE2FRAME
  5
5D5
330
1F
100
AcDbEntity
  8
0
100
AcDbOle2Frame
 70
     2
  3
Picture (Enhanced Metafile)
 10
40.2142068518
 20
93.4009085513
 30
0.0
 11
263.4886833936
 21
46.0179006679
 31
0.0
 71
     3
 72
     0
 73
     1
 90
     5248
310
80557B8D4F216B1B44402629577CA859574000000000000000000A99ADA5D177
310
70402629577CA859574000000000000000000A99ADA5D1777040D686AF914A02
310
474000000000000000007B8D4F216B1B4440D686AF914A024740000000000000
310
0000000000000100000000010000010000000100000000000100000000140000
310
D0CF11E0A1B11AE1000000000000000000000000000000003E000300FEFF0900
310
0600000000000000000000000100000001000000000000000010000002000000
310
01000000FEFFFFFF0000000000000000FFFFFFFFFFFFFFFFFFFFFFFFFFFFFFFF
310
FFFFFFFFFFFFFFFFFFFFFFFFFFFFFFFFFFFFFFFFFFFFFFFFFFFFFFFFFFFFFFFF
310
FFFFFFFFFFFFFFFFFFFFFFFFFFFFFFFFFFFFFFFFFFFFFFFFFFFFFFFFFFFFFFFF
310
FFFFFFFFFFFFFFFFFFFFFFFFFFFFFFFFFFFFFFFFFFFFFFFFFFFFFFFFFFFFFFFF
310
FFFFFFFFFFFFFFFFFFFFFFFFFFFFFFFFFFFFFFFFFFFFFFFFFFFFFFFFFFFFFFFF
310
FFFFFFFFFFFFFFFFFFFFFFFFFFFFFFFFFFFFFFFFFFFFFFFFFFFFFFFFFFFFFFFF
310
FFFFFFFFFFFFFFFFFFFFFFFFFFFFFFFFFFFFFFFFFFFFFFFFFFFFFFFFFFFFFFFF
310
FFFFFFFFFFFFFFFFFFFFFFFFFFFFFFFFFFFFFFFFFFFFFFFFFFFFFFFFFFFFFFFF
310
FFFFFFFFFFFFFFFFFFFFFFFFFFFFFFFFFFFFFFFFFFFFFFFFFFFFFFFFFFFFFFFF
310
FFFFFFFFFFFFFFFFFFFFFFFFFFFFFFFFFFFFFFFFFFFFFFFFFFFFFFFFFFFFFFFF
310
FFFFFFFFFFFFFFFFFFFFFFFFFFFFFFFFFFFFFFFFFFFFFFFFFFFFFFFFFFFFFFFF
310
FFFFFFFFFFFFFFFFFFFFFFFFFFFFFFFFFFFFFFFFFFFFFFFFFFFFFFFFFFFFFFFF
310
FFFFFFFFFFFFFFFFFFFFFFFFFFFFFFFFFFFFFFFFFFFFFFFFFFFFFFFFFFFFFFFF
310
FFFFFFFFFFFFFFFFFFFFFFFFFFFFFFFFFFFFFFFFFFFFFFFFFFFFFFFFFFFFFFFF
310
FDFFFFFFFEFFFFFFFEFFFFFF0400000005000000060000000700000008000000
310
FEFFFFFFFFFFFFFFFFFFFFFFFFFFFFFFFFFFFFFFFFFFFFFFFFFFFFFFFFFFFFFF
310
FFFFFFFFFFFFFFFFFFFFFFFFFFFFFFFFFFFFFFFFFFFFFFFFFFFFFFFFFFFFFFFF
310
FFFFFFFFFFFFFFFFFFFFFFFFFFFFFFFFFFFFFFFFFFFFFFFFFFFFFFFFFFFFFFFF
310
FFFFFFFFFFFFFFFFFFFFFFFFFFFFFFFFFFFFFFFFFFFFFFFFFFFFFFFFFFFFFFFF
310
FFFFFFFFFFFFFFFFFFFFFFFFFFFFFFFFFFFFFFFFFFFFFFFFFFFFFFFFFFFFFFFF
310
FFFFFFFFFFFFFFFFFFFFFFFFFFFFFFFFFFFFFFFFFFFFFFFFFFFFFFFFFFFFFFFF
310
FFFFFFFFFFFFFFFFFFFFFFFFFFFFFFFFFFFFFFFFFFFFFFFFFFFFFFFFFFFFFFFF
310
FFFFFFFFFFFFFFFFFFFFFFFFFFFFFFFFFFFFFFFFFFFFFFFFFFFFFFFFFFFFFFFF
310
FFFFFFFFFFFFFFFFFFFFFFFFFFFFFFFFFFFFFFFFFFFFFFFFFFFFFFFFFFFFFFFF
310
FFFFFFFFFFFFFFFFFFFFFFFFFFFFFFFFFFFFFFFFFFFFFFFFFFFFFFFFFFFFFFFF
310
FFFFFFFFFFFFFFFFFFFFFFFFFFFFFFFFFFFFFFFFFFFFFFFFFFFFFFFFFFFFFFFF
310
FFFFFFFFFFFFFFFFFFFFFFFFFFFFFFFFFFFFFFFFFFFFFFFFFFFFFFFFFFFFFFFF
310
FFFFFFFFFFFFFFFFFFFFFFFFFFFFFFFFFFFFFFFFFFFFFFFFFFFFFFFFFFFFFFFF
310
FFFFFFFFFFFFFFFFFFFFFFFFFFFFFFFFFFFFFFFFFFFFFFFFFFFFFFFFFFFFFFFF
310
FFFFFFFFFFFFFFFFFFFFFFFFFFFFFFFFFFFFFFFFFFFFFFFFFFFFFFFFFFFFFFFF
310
52006F006F007400200045006E00740072007900000000000000000000000000
310
0000000000000000000000000000000000000000000000000000000000000000
310
16000500FFFFFFFFFFFFFFFF020000001903000000000000C000000000000046
310
00000000000000000000000040AB99A3B6B2DA0103000000000C000000000000
310
01004F006C006500000000000000000000000000000000000000000000000000
310
0000000000000000000000000000000000000000000000000000000000000000
310
0A000200FFFFFFFFFFFFFFFFFFFFFFFF00000000000000000000000000000000
310
0000000000000000000000000000000000000000000000001400000000000000
310
010043006F006D0070004F0062006A0000000000000000000000000000000000
310
0000000000000000000000000000000000000000000000000000000000000000
310
120002010100000003000000FFFFFFFF00000000000000000000000000000000
310
0000000000000000000000000000000000000000010000005800000000000000
310
43004F004E00540045004E005400530000000000000000000000000000000000
310
0000000000000000000000000000000000000000000000000000000000000000
310
12000200FFFFFFFFFFFFFFFFFFFFFFFF00000000000000000000000000000000
310
000000000000000000000000000000000000000003000000040B000000000000
310
FEFFFFFF02000000FEFFFFFF0400000005000000060000000700000008000000
310
090000000A0000000B0000000C0000000D0000000E0000000F00000010000000
310
1100000012000000130000001400000015000000160000001700000018000000
310
190000001A0000001B0000001C0000001D0000001E0000001F00000020000000
310
2100000022000000230000002400000025000000260000002700000028000000
310
290000002A0000002B0000002C0000002D0000002E0000002F000000FEFFFFFF
310
FFFFFFFFFFFFFFFFFFFFFFFFFFFFFFFFFFFFFFFFFFFFFFFFFFFFFFFFFFFFFFFF
310
FFFFFFFFFFFFFFFFFFFFFFFFFFFFFFFFFFFFFFFFFFFFFFFFFFFFFFFFFFFFFFFF
310
FFFFFFFFFFFFFFFFFFFFFFFFFFFFFFFFFFFFFFFFFFFFFFFFFFFFFFFFFFFFFFFF
310
FFFFFFFFFFFFFFFFFFFFFFFFFFFFFFFFFFFFFFFFFFFFFFFFFFFFFFFFFFFFFFFF
310
FFFFFFFFFFFFFFFFFFFFFFFFFFFFFFFFFFFFFFFFFFFFFFFFFFFFFFFFFFFFFFFF
310
FFFFFFFFFFFFFFFFFFFFFFFFFFFFFFFFFFFFFFFFFFFFFFFFFFFFFFFFFFFFFFFF
310
FFFFFFFFFFFFFFFFFFFFFFFFFFFFFFFFFFFFFFFFFFFFFFFFFFFFFFFFFFFFFFFF
310
FFFFFFFFFFFFFFFFFFFFFFFFFFFFFFFFFFFFFFFFFFFFFFFFFFFFFFFFFFFFFFFF
310
FFFFFFFFFFFFFFFFFFFFFFFFFFFFFFFFFFFFFFFFFFFFFFFFFFFFFFFFFFFFFFFF
310
FFFFFFFFFFFFFFFFFFFFFFFFFFFFFFFFFFFFFFFFFFFFFFFFFFFFFFFFFFFFFFFF
310
0100000200000000000000000000000000000000000000000000000000000000
310
0000000000000000000000000000000000000000000000000000000000000000
310
0100FEFF030A0000FFFFFFFF1903000000000000C0000000000000461C000000
310
506963747572652028456E68616E636564204D65746166696C652900FFFFFFFF
310
0E00000000000000F439B2710000000000000000000000000000000000000000
310
0000000000000000000000000000000000000000000000000000000000000000
310
74000000010000006C000000FD0A000094000000870B0000B200000062570100
310
111200003B680100BB15000020454D46000001008C0A00003800000003000000
310
0D0000005800000000000000000400000003000040010000F000000041006400
310
6F00620065002000530079007300740069260000000000000100000074000000
310
FD0A000094000000870B0000B200000062570100111200003B680100BB150000
310
20454D46000001008C0A000038000000030000000D0000005800000000000000
310
000400000003000040010000F0000000410064006F0062006500200053007900
310
7300740065006D0073000000110000000C00000008000000120000000C000000
310
010000000A0000001000000000000000000000000C0000001000000000000000
310
000000000900000010000000D7040000110100000B000000100000009D010000
310
5B000000130000000C0000000200000027000000180000000100000000000000
310
0000000000000000250000000C000000010000005F0000003400000002000000
310
2C000000000000002C0000000000000005000000000000000000000000000000
310
0000000000000000250000000C000000020000003B000000080000001B000000
310
100000003D210000F20100005800000048010000FC0A000093000000190B0000
310
B30000004B0000004921F9014921F9014921F9014921DA014921DA014921DA01
310
4921D5014621D0014221CD012821BE012821BE012821BE012321BB011D21BB01
310
1821BE01FE20CD01FE20CD01FE20CD01FA20D001F720D501F720DA01F720F801
310
F720F801F720F801F720FE01FA200302FE200602182115021821150218211502
310
1D21170223211702282115024321050243210502432105023721FE013721FE01
310
3721FE013521FD013521FD013521FD0122210902222109022221090221210902
310
1F2109021E2109020621FA010621FA010621FA010521FA010421F9010421F701
310
0421DB010421DB010421DB010421DA010521D9010621D8011E21CA011E21CA01
310
1E21CA011F21CA012121CA012221CA013A21D8013A21D8013A21D8013B21D901
310
3C21DA013C21DB013C21F2013C21F2013C21F2013D000000080000003C000000
310
080000003E000000180000009F8601009F8601006179FEFF6179FEFF13000000
310
0C000000020000003B000000080000001B000000100000002F210000E4010000
310
58000000C4000000050B00009D000000100B0000A90000002A0000002F21EF01
310
2F21EF012F21EF012F21F1012E21F2012C21F3012321F9012321F9012321F901
310
2221FA012121FA012021FA011F21FA011E21FA011D21F9011421F4011421F401
310
1421F4011221F3011121F1011121EF011121E4011121E4011121E4011121E201
310
1221E0011321DF011D21DA011D21DA011D21DA011E21D9011F21D9012021D901
310
2121D9012221D9012321DA012C21DF012C21DF012C21DF012E21E0012F21E201
310
2F21E4013D000000080000003C000000080000003E000000180000009F860100
310
9F8601006179FEFF6179FEFF130000000C000000020000005B00000038000000
310
3D0B0000A3000000430B0000A6000000010000000500000005000000B821F001
310
C821F001C821EB01B821EB01B821F001130000000C000000020000003B000000
310
080000001B0000001000000004220000E70100005800000084010000450B0000
310
9B000000590B0000AA0000005A0000000122E601FD21E501F621E501E421E501
310
E421E501E421E501D921E501D921E301D921E001D921DD01DA21DB01DC21DA01
310
DE21DA01E221D901E921D901EF21D901EF21D901EF21D9010022D9010022DB01
310
0022E0010022E1010022E1010022E1010722E1010722E1010722E1010722DF01
310
0722DF010722DF010722DB010622D8010322D6010022D401FB21D401F321D401
310
E521D401E521D401E521D401D921D401D121D601D121DF01D121E501D321E801
310
D721E901DB21EB01E221EB01EC21EB01F821EB01F821EB01F821EB010022EB01
310
0122ED010122F1010122F5010022F701F621F701E221F701E221F701E221F701
310
DA21F701D921F501D921F201D921EF01D921EF01D921EF01D121EF01D121EF01
310
D121EF01D121F201D121F201D121F201D121FC01DB21FD01E421FD01F521FD01
310
F521FD01F521FD01F921FD01FE21FD010222FB010622FA010922F6010922F201
310
0922EF010922EF010922EF010922EC010722E9010422E7013C00000008000000
310
3E000000180000009F8601009F8601006179FEFF6179FEFF130000000C000000
310
020000005B0000004C000000590B00009B0000006F0B0000AA00000001000000
310
0A0000000A0000002C22E6011722D4010C22D4012822EC012822FC013022FC01
310
3022EC014C22D4014122D4012C22E601130000000C000000020000003B000000
310
080000001B0000001000000082220000E701000058000000780100006F0B0000
310
9B000000830B0000AA000000570000007F22E6017B22E5017422E5016122E501
310
6122E5016122E5015722E5015722E3015722E0015722DB015822D9016622D901
310
6D22D9016D22D9016D22D9017E22D9017E22DB017E22E0017E22E1017E22E101
310
7E22E1018522E1018522E1018522E1018522DF018522DF018522DF018522DB01
310
8422D8018122D6017E22D4017922D4017122D4016322D4016322D4016322D401
310
5722D4014F22D6014F22DF014F22E5015122E8015522E9015922EB015F22EB01
310
6A22EB017622EB017622EB017622EB017E22EB017F22ED017F22F1017F22F501
310
7D22F7017422F7016022F7016022F7016022F7015822F7015722F5015722F201
310
5722EF015722EF015722EF014F22EF014F22EF014F22EF014F22F2014F22F201
310
4F22F2014F22FC015822FD016122FD017322FD017322FD017322FD017722FD01
310
7C22FD018022FB018422FA018622F6018622F2018622EF018622EF018622EF01
310
8622EC018522E9018222E7013C000000080000003E000000180000009F860100
310
9F8601006179FEFF6179FEFF130000000C000000020000005B00000038000000
310
300B0000A6000000340B0000AC00000001000000050000000500000093210202
310
9A2102029A21F3019321F30193210202130000000C000000020000003B000000
310
080000001B000000100000009B210000D40100005800000018010000240B0000
310
9B0000003A0B0000AA0000003F0000008021D4018021D4018021D4017421D401
310
6F21D8016F21E3016F21EE016F21EE016F21EE016F21F8017421FD018021FD01
310
8F21FD018F21FD018F21FD018F21F7018F21F7018F21F7018121F7018121F701
310
8121F7017921F7017621F5017621F0017621E1017621E1017621E1017621DC01
310
7921D9018121D9019A21D9019A21D9019A21D901A121D901A421DC01A421E101
310
A421F001A421F001A421F001A421F401A321F6019E21F7019E21F7019E21F701
310
9E21F7019E21FD019E21FD019E21FD019F21FD019F21FD019F21FD01A421FC01
310
A721FB01A921F801AB21F601AC21F201AC21EE01AC21E301AC21E301AC21E301
310
AC21D801A721D4019B21D4013C000000080000003E000000180000009F860100
310
9F8601006179FEFF6179FEFF130000000C000000020000005B0000006C000000
310
840B00009B000000870B00009F0000000100000012000000120000009222D401
310
9122D8019022D4018E22D4018E22DA018F22DA018F22D6018F22D5019022D601
310
9122DA019122DA019222D6019322D5019322D6019322DA019422DA019422D401
310
9222D401130000000C000000020000005B00000048000000830B00009B000000
310
850B00009F0000000100000009000000090000008A22D5018B22D5018B22DA01
310
8C22DA018C22D5018E22D5018E22D4018A22D4018A22D501280000000C000000
310
01000000280000000C000000020000000E000000140000000000000010000000
310
1400000000000000000000000000000000000000000000000000000000000000
310
0000000000000000000000000000000000000000000000000000000000000000
  1
OLE
  0
ENDSEC
  0
SECTION
  2
OBJECTS
  0
DICTIONARY
  5
C
330
0
100
AcDbDictionary
281
     1
  3
ACAD_GROUP
350
D
  3
ACAD_LAYOUT
350
1A
  3
ACAD_MLINESTYLE
350
17
  3
ACAD_PLOTSETTINGS
350
19
  3
ACAD_PLOTSTYLENAME
350
E
  3
ACAD_SCALELIST
350
47
  3
DWGPROPS
350
5D6
  0
DICTIONARY
  5
D
102
{ACAD_REACTORS
330
C
102
}
330
C
100
AcDbDictionary
281
     1
  0
DICTIONARY
  5
1A
102
{ACAD_REACTORS
330
C
102
}
330
C
100
AcDbDictionary
281
     1
  3
Layout1
350
1E
  3
Layout2
350
26
  3
Model
350
22
  0
DICTIONARY
  5
17
102
{ACAD_REACTORS
330
C
102
}
330
C
100
AcDbDictionary
281
     1
  3
Standard
350
18
  0
DICTIONARY
  5
19
102
{ACAD_REACTORS
330
C
102
}
330
C
100
AcDbDictionary
281
     1
  0
ACDBDICTIONARYWDFLT
  5
E
102
{ACAD_REACTORS
330
C
102
}
330
C
100
AcDbDictionary
281
     1
  3
Normal
350
F
100
AcDbDictionaryWithDefault
340
F
  0
DICTIONARY
  5
47
102
{ACAD_REACTORS
330
C
102
}
330
C
100
AcDbDictionary
281
     1
  3
A0
350
48
  3
A1
350
49
  3
A2
350
4A
  3
A3
350
4B
  3
A4
350
4C
  3
A5
350
4D
  3
A6
350
4E
  3
A7
350
4F
  3
A8
350
50
  3
A9
350
51
  3
B0
350
52
  3
B1
350
53
  3
B2
350
54
  3
B3
350
55
  3
B4
350
56
  3
B5
350
57
  3
B6
350
58
  0
XRECORD
  5
5D6
102
{ACAD_REACTORS
330
C
102
}
330
C
100
AcDbXrecord
280
     1
  1
DWGPROPS COOKIE
  2

  3

  4

  6

  7

  8
Kevin.Castro
  9

300
=
301
=
302
=
303
=
304
=
305
=
306
=
307
=
308
=
309
=
 40
0.0
 41
2460461.727378264
 42
2460461.727383565
  1

 90
        0
  0
LAYOUT
  5
1E
102
{ACAD_REACTORS
330
1A
102
}
330
1A
100
AcDbPlotSettings
  1

  2
none_device
  4

  6

 40
0.0
 41
0.0
 42
0.0
 43
0.0
 44
0.0
 45
0.0
 46
0.0
 47
0.0
 48
0.0
 49
0.0
140
0.0
141
0.0
142
1.0
143
1.0
 70
   688
 72
     1
 73
     0
 74
     5
  7

 75
    16
147
1.0
148
0.0
149
0.0
100
AcDbLayout
  1
Layout1
 70
     1
 71
     1
 10
0.0
 20
0.0
 11
420.0
 21
297.0
 12
0.0
 22
0.0
 32
0.0
 14
1.0000000000E+20
 24
1.0000000000E+20
 34
1.0000000000E+20
 15
-1.0000000000E+20
 25
-1.0000000000E+20
 35
-1.0000000000E+20
146
0.0
 13
0.0
 23
0.0
 33
0.0
 16
1.0
 26
0.0
 36
0.0
 17
0.0
 27
1.0
 37
0.0
 76
     0
330
1B
  0
LAYOUT
  5
26
102
{ACAD_REACTORS
330
1A
102
}
330
1A
100
AcDbPlotSettings
  1

  2
none_device
  4

  6

 40
0.0
 41
0.0
 42
0.0
 43
0.0
 44
0.0
 45
0.0
 46
0.0
 47
0.0
 48
0.0
 49
0.0
140
0.0
141
0.0
142
1.0
143
1.0
 70
   688
 72
     1
 73
     0
 74
     5
  7

 75
    16
147
1.0
148
0.0
149
0.0
100
AcDbLayout
  1
Layout2
 70
     1
 71
     2
 10
0.0
 20
0.0
 11
0.0
 21
0.0
 12
0.0
 22
0.0
 32
0.0
 14
0.0
 24
0.0
 34
0.0
 15
0.0
 25
0.0
 35
0.0
146
0.0
 13
0.0
 23
0.0
 33
0.0
 16
1.0
 26
0.0
 36
0.0
 17
0.0
 27
1.0
 37
0.0
 76
     0
330
23
  0
LAYOUT
  5
22
102
{ACAD_REACTORS
330
1A
102
}
330
1A
100
AcDbPlotSettings
  1

  2
none_device
  4
Letter_(8.50_x_11.00_Inches)
  6

 40
6.35
 41
6.35
 42
6.35000508
 43
6.35000508
 44
215.9
 45
279.4
 46
0.0
 47
0.0
 48
0.0
 49
0.0
140
0.0
141
0.0
142
1.0
143
1.0
 70
  1712
 72
     1
 73
     0
 74
     0
  7

 75
     0
147
1.0
148
0.0
149
0.0
100
AcDbLayout
  1
Model
 70
     1
 71
     0
 10
0.0
 20
0.0
 11
2590.8
 21
1676.4
 12
0.0
 22
0.0
 32
0.0
 14
0.0
 24
0.0
 34
0.0
 15
2590.8
 25
1676.4
 35
0.0
146
0.0
 13
0.0
 23
0.0
 33
0.0
 16
1.0
 26
0.0
 36
0.0
 17
0.0
 27
1.0
 37
0.0
 76
     0
330
1F
331
29
  0
MLINESTYLE
  5
18
102
{ACAD_REACTORS
330
17
102
}
330
17
100
AcDbMlineStyle
  2
Standard
 70
     0
  3

 62
   256
 51
90.0
 52
90.0
 71
     2
 49
0.5
 62
   256
  6
BYLAYER
 49
-0.5
 62
   256
  6
BYLAYER
  0
ACDBPLACEHOLDER
  5
F
102
{ACAD_REACTORS
330
E
102
}
330
E
  0
SCALE
  5
48
102
{ACAD_REACTORS
330
47
102
}
330
47
100
AcDbScale
 70
     0
300
1:1
140
1.0
141
1.0
290
     1
  0
SCALE
  5
49
102
{ACAD_REACTORS
330
47
102
}
330
47
100
AcDbScale
 70
     0
300
1:2
140
1.0
141
2.0
290
     0
  0
SCALE
  5
4A
102
{ACAD_REACTORS
330
47
102
}
330
47
100
AcDbScale
 70
     0
300
1:4
140
1.0
141
4.0
290
     0
  0
SCALE
  5
4B
102
{ACAD_REACTORS
330
47
102
}
330
47
100
AcDbScale
 70
     0
300
1:5
140
1.0
141
5.0
290
     0
  0
SCALE
  5
4C
102
{ACAD_REACTORS
330
47
102
}
330
47
100
AcDbScale
 70
     0
300
1:8
140
1.0
141
8.0
290
     0
  0
SCALE
  5
4D
102
{ACAD_REACTORS
330
47
102
}
330
47
100
AcDbScale
 70
     0
300
1:10
140
1.0
141
10.0
290
     0
  0
SCALE
  5
4E
102
{ACAD_REACTORS
330
47
102
}
330
47
100
AcDbScale
 70
     0
300
1:16
140
1.0
141
16.0
290
     0
  0
SCALE
  5
4F
102
{ACAD_REACTORS
330
47
102
}
330
47
100
AcDbScale
 70
     0
300
1:20
140
1.0
141
20.0
290
     0
  0
SCALE
  5
50
102
{ACAD_REACTORS
330
47
102
}
330
47
100
AcDbScale
 70
     0
300
1:30
140
1.0
141
30.0
290
     0
  0
SCALE
  5
51
102
{ACAD_REACTORS
330
47
102
}
330
47
100
AcDbScale
 70
     0
300
1:40
140
1.0
141
40.0
290
     0
  0
SCALE
  5
52
102
{ACAD_REACTORS
330
47
102
}
330
47
100
AcDbScale
 70
     0
300
1:50
140
1.0
141
50.0
290
     0
  0
SCALE
  5
53
102
{ACAD_REACTORS
330
47
102
}
330
47
100
AcDbScale
 70
     0
300
1:100
140
1.0
141
100.0
290
     0
  0
SCALE
  5
54
102
{ACAD_REACTORS
330
47
102
}
330
47
100
AcDbScale
 70
     0
300
2:1
140
2.0
141
1.0
290
     0
  0
SCALE
  5
55
102
{ACAD_REACTORS
330
47
102
}
330
47
100
AcDbScale
 70
     0
300
4:1
140
4.0
141
1.0
290
     0
  0
SCALE
  5
56
102
{ACAD_REACTORS
330
47
102
}
330
47
100
AcDbScale
 70
     0
300
8:1
140
8.0
141
1.0
290
     0
  0
SCALE
  5
57
102
{ACAD_REACTORS
330
47
102
}
330
47
100
AcDbScale
 70
     0
300
10:1
140
10.0
141
1.0
290
     0
  0
SCALE
  5
58
102
{ACAD_REACTORS
330
47
102
}
330
47
100
AcDbScale
 70
     0
300
100:1
140
100.0
141
1.0
290
     0
  0
ENDSEC
  0
EOF
