  0
SECTION
  2
HEADER
  9
$ACADVER
  1
AC1015
  9
$ACADMAINTVER
 70
     6
  9
$DWGCODEPAGE
  3
ANSI_1252
  9
$INSBASE
 10
0.0
 20
0.0
 30
0.0
  9
$EXTMIN
 10
0.0
 20
0.0
 30
0.0
  9
$EXTMAX
 10
2159.0
 20
1397.0
 30
0.0
  9
$LIMMIN
 10
0.0
 20
0.0
  9
$LIMMAX
 10
2159.0
 20
1397.0
  9
$ORTHOMODE
 70
     0
  9
$REGENMODE
 70
     1
  9
$FILLMODE
 70
     1
  9
$QTEXTMODE
 70
     0
  9
$MIRRTEXT
 70
     1
  9
$LTSCALE
 40
5.0
  9
$ATTMODE
 70
     1
  9
$TEXTSIZE
 40
15.875
  9
$TRACEWID
 40
1.0
  9
$TEXTSTYLE
  7
STANDARD
  9
$CLAYER
  8
0
  9
$CELTYPE
  6
ByLayer
  9
$CECOLOR
 62
   256
  9
$CELTSCALE
 40
1.0
  9
$DISPSILH
 70
     0
  9
$DIMSCALE
 40
1.0
  9
$DIMASZ
 40
10.0
  9
$DIMEXO
 40
3.81
  9
$DIMDLI
 40
3.75
  9
$DIMRND
 40
0.0
  9
$DIMDLE
 40
0.0
  9
$DIMEXE
 40
3.81
  9
$DIMTP
 40
0.0
  9
$DIMTM
 40
0.0
  9
$DIMTXT
 40
15.875
  9
$DIMCEN
 40
2.5
  9
$DIMTSZ
 40
0.0
  9
$DIMTOL
 70
     0
  9
$DIMLIM
 70
     0
  9
$DIMTIH
 70
     1
  9
$DIMTOH
 70
     1
  9
$DIMSE1
 70
     0
  9
$DIMSE2
 70
     0
  9
$DIMTAD
 70
     0
  9
$DIMZIN
 70
     1
  9
$DIMBLK
  1

  9
$DIMASO
 70
     1
  9
$DIMSHO
 70
     1
  9
$DIMPOST
  1

  9
$DIMAPOST
  1

  9
$DIMALT
 70
     0
  9
$DIMALTD
 70
     3
  9
$DIMALTF
 40
0.0393700787
  9
$DIMLFAC
 40
1.0
  9
$DIMTOFL
 70
     1
  9
$DIMTVP
 40
0.0
  9
$DIMTIX
 70
     0
  9
$DIMSOXD
 70
     0
  9
$DIMSAH
 70
     0
  9
$DIMBLK1
  1

  9
$DIMBLK2
  1

  9
$DIMSTYLE
  2
ISO-25
  9
$DIMCLRD
 70
     0
  9
$DIMCLRE
 70
     0
  9
$DIMCLRT
 70
     0
  9
$DIMTFAC
 40
1.0
  9
$DIMGAP
 40
7.62
  9
$DIMJUST
 70
     0
  9
$DIMSD1
 70
     0
  9
$DIMSD2
 70
     0
  9
$DIMTOLJ
 70
     0
  9
$DIMTZIN
 70
     1
  9
$DIMALTZ
 70
     0
  9
$DIMALTTZ
 70
     0
  9
$DIMUPT
 70
     0
  9
$DIMDEC
 70
     2
  9
$DIMTDEC
 70
     2
  9
$DIMALTU
 70
     2
  9
$DIMALTTD
 70
     3
  9
$DIMTXSTY
  7
STANDARD
  9
$DIMAUNIT
 70
     0
  9
$DIMADEC
 70
     0
  9
$DIMALTRND
 40
0.0
  9
$DIMAZIN
 70
     0
  9
$DIMDSEP
 70
    44
  9
$DIMATFIT
 70
     3
  9
$DIMFRAC
 70
     0
  9
$DIMLDRBLK
  1

  9
$DIMLUNIT
 70
     2
  9
$DIMLWD
 70
    -2
  9
$DIMLWE
 70
    -2
  9
$DIMTMOVE
 70
     0
  9
$LUNITS
 70
     2
  9
$LUPREC
 70
     6
  9
$SKETCHINC
 40
1.0
  9
$FILLETRAD
 40
0.0
  9
$AUNITS
 70
     0
  9
$AUPREC
 70
     0
  9
$MENU
  1
.
  9
$ELEVATION
 40
0.0
  9
$PELEVATION
 40
0.0
  9
$THICKNESS
 40
0.0
  9
$LIMCHECK
 70
     0
  9
$CHAMFERA
 40
0.0
  9
$CHAMFERB
 40
0.0
  9
$CHAMFERC
 40
0.0
  9
$CHAMFERD
 40
0.0
  9
$SKPOLY
 70
     0
  9
$TDCREATE
 40
2460461.430226551
  9
$TDUCREATE
 40
2460461.721893218
  9
$TDUPDATE
 40
2460461.430230498
  9
$TDUUPDATE
 40
2460461.721897165
  9
$TDINDWG
 40
0.0000000116
  9
$TDUSRTIMER
 40
0.0000000116
  9
$USRTIMER
 70
     1
  9
$ANGBASE
 50
0.0
  9
$ANGDIR
 70
     0
  9
$PDMODE
 70
     0
  9
$PDSIZE
 40
-1.0
  9
$PLINEWID
 40
0.0
  9
$SPLFRAME
 70
     0
  9
$SPLINETYPE
 70
     6
  9
$SPLINESEGS
 70
     8
  9
$HANDSEED
  5
3C9
  9
$SURFTAB1
 70
     6
  9
$SURFTAB2
 70
     6
  9
$SURFTYPE
 70
     6
  9
$SURFU
 70
     6
  9
$SURFV
 70
     6
  9
$UCSBASE
  2

  9
$UCSNAME
  2

  9
$UCSORG
 10
0.0
 20
0.0
 30
0.0
  9
$UCSXDIR
 10
1.0
 20
0.0
 30
0.0
  9
$UCSYDIR
 10
0.0
 20
1.0
 30
0.0
  9
$UCSORTHOREF
  2

  9
$UCSORTHOVIEW
 70
     0
  9
$UCSORGTOP
 10
0.0
 20
0.0
 30
0.0
  9
$UCSORGBOTTOM
 10
0.0
 20
0.0
 30
0.0
  9
$UCSORGLEFT
 10
0.0
 20
0.0
 30
0.0
  9
$UCSORGRIGHT
 10
0.0
 20
0.0
 30
0.0
  9
$UCSORGFRONT
 10
0.0
 20
0.0
 30
0.0
  9
$UCSORGBACK
 10
0.0
 20
0.0
 30
0.0
  9
$PUCSBASE
  2

  9
$PUCSNAME
  2

  9
$PUCSORG
 10
0.0
 20
0.0
 30
0.0
  9
$PUCSXDIR
 10
1.0
 20
0.0
 30
0.0
  9
$PUCSYDIR
 10
0.0
 20
1.0
 30
0.0
  9
$PUCSORTHOREF
  2

  9
$PUCSORTHOVIEW
 70
     0
  9
$PUCSORGTOP
 10
0.0
 20
0.0
 30
0.0
  9
$PUCSORGBOTTOM
 10
0.0
 20
0.0
 30
0.0
  9
$PUCSORGLEFT
 10
0.0
 20
0.0
 30
0.0
  9
$PUCSORGRIGHT
 10
0.0
 20
0.0
 30
0.0
  9
$PUCSORGFRONT
 10
0.0
 20
0.0
 30
0.0
  9
$PUCSORGBACK
 10
0.0
 20
0.0
 30
0.0
  9
$USERI1
 70
     0
  9
$USERI2
 70
     0
  9
$USERI3
 70
     0
  9
$USERI4
 70
     0
  9
$USERI5
 70
     0
  9
$USERR1
 40
0.0
  9
$USERR2
 40
0.0
  9
$USERR3
 40
0.0
  9
$USERR4
 40
0.0
  9
$USERR5
 40
0.0
  9
$WORLDVIEW
 70
     1
  9
$SHADEDGE
 70
     3
  9
$SHADEDIF
 70
    70
  9
$TILEMODE
 70
     1
  9
$MAXACTVP
 70
    64
  9
$PINSBASE
 10
0.0
 20
0.0
 30
0.0
  9
$PLIMCHECK
 70
     0
  9
$PEXTMIN
 10
1.0000000000E+20
 20
1.0000000000E+20
 30
1.0000000000E+20
  9
$PEXTMAX
 10
-1.0000000000E+20
 20
-1.0000000000E+20
 30
-1.0000000000E+20
  9
$PLIMMIN
 10
0.0
 20
0.0
  9
$PLIMMAX
 10
420.0
 20
297.0
  9
$UNITMODE
 70
     0
  9
$VISRETAIN
 70
     1
  9
$PLINEGEN
 70
     0
  9
$PSLTSCALE
 70
     1
  9
$TREEDEPTH
 70
  3020
  9
$CMLSTYLE
  2
Standard
  9
$CMLJUST
 70
     0
  9
$CMLSCALE
 40
20.0
  9
$PROXYGRAPHICS
 70
     1
  9
$MEASUREMENT
 70
     1
  9
$CELWEIGHT
370
    -1
  9
$ENDCAPS
280
     0
  9
$JOINSTYLE
280
     0
  9
$LWDISPLAY
290
     1
  9
$INSUNITS
 70
     4
  9
$HYPERLINKBASE
  1

  9
$STYLESHEET
  1

  9
$XEDIT
290
     1
  9
$CEPSNTYPE
380
     0
  9
$PSTYLEMODE
290
     1
  9
$FINGERPRINTGUID
  2
{3aef85dd-9990-4679-8910-d79beb5205d3}
  9
$VERSIONGUID
  2
{FAEB1C32-E019-11D5-929B-00C0DF256EC4}
  9
$EXTNAMES
290
     1
  9
$PSVPSCALE
 40
0.0
  9
$OLESTARTUP
290
     0
  0
ENDSEC
  0
SECTION
  2
CLASSES
  0
CLASS
  1
ACDBDICTIONARYWDFLT
  2
AcDbDictionaryWithDefault
  3
ObjectDBX Classes
 90
        0
280
     0
281
     0
  0
CLASS
  1
VISUALSTYLE
  2
AcDbVisualStyle
  3
ObjectDBX Classes
 90
     4095
280
     0
281
     0
  0
CLASS
  1
MATERIAL
  2
AcDbMaterial
  3
ObjectDBX Classes
 90
     1153
280
     0
281
     0
  0
CLASS
  1
SCALE
  2
AcDbScale
  3
ObjectDBX Classes
 90
     1153
280
     0
281
     0
  0
CLASS
  1
TABLESTYLE
  2
AcDbTableStyle
  3
ObjectDBX Classes
 90
     4095
280
     0
281
     0
  0
CLASS
  1
MLEADERSTYLE
  2
AcDbMLeaderStyle
  3
ACDB_MLEADERSTYLE_CLASS
 90
     4095
280
     0
281
     0
  0
CLASS
  1
SUN
  2
AcDbSun
  3
SCENEOE
 90
     1153
280
     0
281
     0
  0
CLASS
  1
ACDBPLACEHOLDER
  2
AcDbPlaceHolder
  3
ObjectDBX Classes
 90
        0
280
     0
281
     0
  0
CLASS
  1
LAYOUT
  2
AcDbLayout
  3
ObjectDBX Classes
 90
        0
280
     0
281
     0
  0
ENDSEC
  0
SECTION
  2
TABLES
  0
TABLE
  2
VPORT
  5
8
330
0
100
AcDbSymbolTable
 70
     1
  0
VPORT
  5
29
330
8
100
AcDbSymbolTableRecord
100
AcDbViewportTableRecord
  2
*Active
 70
     0
 10
0.0
 20
0.0
 11
1.0
 21
1.0
 12
1079.5
 22
698.5
 13
0.0
 23
0.0
 14
10.0
 24
10.0
 15
10.0
 25
10.0
 16
0.0
 26
0.0
 36
1.0
 17
0.0
 27
0.0
 37
0.0
 40
1397.0
 41
1.5454545455
 42
50.0
 43
0.0
 44
0.0
 50
0.0
 51
0.0
 71
     0
 72
  2000
 73
     1
 74
     3
 75
     0
 76
     0
 77
     0
 78
     0
281
     0
 65
     1
110
0.0
120
0.0
130
0.0
111
1.0
121
0.0
131
0.0
112
0.0
122
1.0
132
0.0
 79
     0
146
0.0
  0
ENDTAB
  0
TABLE
  2
LTYPE
  5
5
330
0
100
AcDbSymbolTable
 70
     6
  0
LTYPE
  5
14
330
5
100
AcDbSymbolTableRecord
100
AcDbLinetypeTableRecord
  2
ByBlock
 70
     0
  3

 72
    65
 73
     0
 40
0.0
  0
LTYPE
  5
15
330
5
100
AcDbSymbolTableRecord
100
AcDbLinetypeTableRecord
  2
ByLayer
 70
     0
  3

 72
    65
 73
     0
 40
0.0
  0
LTYPE
  5
16
330
5
100
AcDbSymbolTableRecord
100
AcDbLinetypeTableRecord
  2
Continuous
 70
     0
  3
Solid line
 72
    65
 73
     0
 40
0.0
  0
LTYPE
  5
5E
330
5
100
AcDbSymbolTableRecord
100
AcDbLinetypeTableRecord
  2
HIDDEN
 70
     0
  3
Hidden __ __ __ __ __ __ __ __ __ __ __ __ __ __
 72
    65
 73
     2
 40
1.905
 49
1.27
 74
     0
 49
-0.635
 74
     0
  0
LTYPE
  5
5F
330
5
100
AcDbSymbolTableRecord
100
AcDbLinetypeTableRecord
  2
PHANTOM
 70
     0
  3
Phantom ______  __  __  ______  __  __  ______
 72
    65
 73
     6
 40
12.7
 49
6.35
 74
     0
 49
-1.27
 74
     0
 49
1.27
 74
     0
 49
-1.27
 74
     0
 49
1.27
 74
     0
 49
-1.27
 74
     0
  0
LTYPE
  5
60
330
5
100
AcDbSymbolTableRecord
100
AcDbLinetypeTableRecord
  2
CENTER
 70
     0
  3
Center ____ _ ____ _ ____ _ ____ _ ____ _ ____
 72
    65
 73
     4
 40
10.16
 49
6.35
 74
     0
 49
-1.27
 74
     0
 49
1.27
 74
     0
 49
-1.27
 74
     0
  0
LTYPE
  5
61
330
5
100
AcDbSymbolTableRecord
100
AcDbLinetypeTableRecord
  2
CENTERX2
 70
     0
  3
Center (2x) ________  __  ________  __  _____
 72
    65
 73
     4
 40
20.32
 49
12.7
 74
     0
 49
-2.54
 74
     0
 49
2.54
 74
     0
 49
-2.54
 74
     0
  0
LTYPE
  5
62
330
5
100
AcDbSymbolTableRecord
100
AcDbLinetypeTableRecord
  2
DOT2
 70
     0
  3
Dot (.5x) ........................................
 72
    65
 73
     2
 40
0.635
 49
0.0
 74
     0
 49
-0.635
 74
     0
  0
ENDTAB
  0
TABLE
  2
LAYER
  5
2
330
0
100
AcDbSymbolTable
 70
     6
  0
LAYER
  5
10
330
2
100
AcDbSymbolTableRecord
100
AcDbLayerTableRecord
  2
0
 70
     0
 62
     7
  6
Continuous
370
    -3
390
F
  0
LAYER
  5
63
330
2
100
AcDbSymbolTableRecord
100
AcDbLayerTableRecord
  2
SLD-0
 70
     0
 62
   179
  6
Continuous
370
    -3
390
F
  0
LAYER
  5
64
330
2
100
AcDbSymbolTableRecord
100
AcDbLayerTableRecord
  2
WIRE_BOND
 70
     0
 62
     6
  6
Continuous
370
   100
390
F
  0
LAYER
  5
65
330
2
100
AcDbSymbolTableRecord
100
AcDbLayerTableRecord
  2
HIGHLIGHT-BLUE
 70
     0
 62
     5
  6
Continuous
370
    70
390
F
  0
LAYER
  5
66
330
2
100
AcDbSymbolTableRecord
100
AcDbLayerTableRecord
  2
MANUAL_DIM
 70
     0
 62
   114
  6
Continuous
370
    -3
390
F
  0
LAYER
  5
67
330
2
100
AcDbSymbolTableRecord
100
AcDbLayerTableRecord
  2
TORQUE_9-10
 70
     0
 62
   155
  6
Continuous
370
    -3
390
F
  0
ENDTAB
  0
TABLE
  2
STYLE
  5
3
330
0
100
AcDbSymbolTable
 70
     5
  0
STYLE
  5
11
330
3
100
AcDbSymbolTableRecord
100
AcDbTextStyleTableRecord
  2
STANDARD
 70
     0
 40
0.0
 41
1.0
 50
0.0
 71
     0
 42
15.875
  3
GOTHIC.TTF
  4

1001
ACAD
1000
CENTURY GOTHIC
1071
       34
  0
STYLE
  5
7E
330
3
100
AcDbSymbolTableRecord
100
AcDbTextStyleTableRecord
  2
SLDTEXTSTYLE0
 70
     0
 40
0.0
 41
0.913
 50
0.0
 71
     0
 42
15.875
  3
GOTHIC.TTF
  4

1001
ACAD
1000
Century Gothic
1071
      290
  0
STYLE
  5
B9
330
3
100
AcDbSymbolTableRecord
100
AcDbTextStyleTableRecord
  2
SLDTEXTSTYLE1
 70
     0
 40
0.0
 41
0.87
 50
0.0
 71
     0
 42
15.875
  3
ARIALN.TTF
  4

1001
ACAD
1000
Arial Narrow
1071
      290
  0
STYLE
  5
C4
330
3
100
AcDbSymbolTableRecord
100
AcDbTextStyleTableRecord
  2
SLDTEXTSTYLE2
 70
     0
 40
0.0
 41
0.8969072165
 50
0.0
 71
     0
 42
15.875
  3
ARIALN.TTF
  4

1001
ACAD
1000
Arial Narrow
1071
      290
  0
STYLE
  5
C9
330
3
100
AcDbSymbolTableRecord
100
AcDbTextStyleTableRecord
  2
SLDTEXTSTYLE3
 70
     0
 40
0.0
 41
0.8969072165
 50
0.0
 71
     0
 42
15.875
  3
ARIALN.TTF
  4
bigfont
1001
ACAD
1000
Arial Narrow
1071
      290
  0
ENDTAB
  0
TABLE
  2
VIEW
  5
6
330
0
100
AcDbSymbolTable
 70
     0
  0
ENDTAB
  0
TABLE
  2
UCS
  5
7
330
0
100
AcDbSymbolTable
 70
     0
  0
ENDTAB
  0
TABLE
  2
APPID
  5
9
330
0
100
AcDbSymbolTable
 70
     1
  0
APPID
  5
12
330
9
100
AcDbSymbolTableRecord
100
AcDbRegAppTableRecord
  2
ACAD
 70
     0
  0
ENDTAB
  0
TABLE
  2
DIMSTYLE
  5
A
330
0
100
AcDbSymbolTable
 70
     7
100
AcDbDimStyleTable
  0
DIMSTYLE
105
27
330
A
100
AcDbSymbolTableRecord
100
AcDbDimStyleTableRecord
  2
ISO-25
 70
     0
 41
2.5
 42
0.625
 43
3.75
 44
1.25
 73
     0
 74
     0
 77
     1
 78
     8
140
2.5
141
2.5
143
0.0393700787
147
0.625
171
     3
172
     1
178
     0
271
     2
272
     2
274
     3
278
    44
283
     0
284
     8
340
11
  0
DIMSTYLE
105
168
102
{ACAD_REACTORS
330
167
330
1AF
330
1C3
330
200
330
290
330
2A4
330
2F9
330
32B
330
3B2
102
}
330
A
100
AcDbSymbolTableRecord
100
AcDbDimStyleTableRecord
  2
SLDDIMSTYLE0
 70
     0
 41
10.0
 44
0.0
 45
0.000000001
 78
    12
 79
     3
140
11.90625
143
0.0393700787
147
2.9765625
148
0.000000001
170
     1
173
     1
178
     0
271
     1
272
     2
276
     2
284
    12
340
7E
  0
DIMSTYLE
105
17D
102
{ACAD_REACTORS
330
17C
330
1D8
330
1EC
330
375
330
389
102
}
330
A
100
AcDbSymbolTableRecord
100
AcDbDimStyleTableRecord
  2
SLDDIMSTYLE1
 70
     0
 41
10.0
 44
0.0
 45
0.000000001
 78
     4
 79
     1
140
11.90625
143
0.0393700787
147
2.9765625
148
0.000000001
170
     1
173
     1
178
     0
271
     1
272
     2
276
     2
284
    12
340
7E
  0
DIMSTYLE
105
215
102
{ACAD_REACTORS
330
214
102
}
330
A
100
AcDbSymbolTableRecord
100
AcDbDimStyleTableRecord
  2
SLDDIMSTYLE2
 70
     0
 41
10.0
 44
0.0
 45
0.000000001
 78
    12
 79
     3
140
11.90625
143
0.0393700787
147
2.9765625
148
0.000000001
170
     1
172
     1
173
     1
178
     0
271
     1
272
     2
276
     2
284
    12
289
     0
340
7E
  0
DIMSTYLE
105
233
330
A
100
AcDbSymbolTableRecord
100
AcDbDimStyleTableRecord
  2
SLDDIMSTYLE3
 70
     0
 41
10.0
 44
0.0
 45
0.000000001
146
10.0
147
0.0
173
     1
178
     0
271
     0
272
     0
276
     2
340
11
  0
DIMSTYLE
105
2B9
102
{ACAD_REACTORS
330
2B8
102
}
330
A
100
AcDbSymbolTableRecord
100
AcDbDimStyleTableRecord
  2
SLDDIMSTYLE4
 70
     0
 41
10.0
 44
0.0
 78
    12
 79
     3
140
11.90625
144
5.0
147
2.9765625
173
     1
178
     0
272
     2
276
     2
284
    12
340
7E
  0
DIMSTYLE
105
39E
102
{ACAD_REACTORS
330
39D
102
}
330
A
100
AcDbSymbolTableRecord
100
AcDbDimStyleTableRecord
  2
SLDDIMSTYLE5
 70
     0
 41
10.0
 44
0.0
 45
0.000000001
 78
     4
 79
     1
140
11.90625
143
0.0393700787
147
2.9765625
148
0.000000001
170
     1
172
     1
173
     1
178
     0
271
     1
272
     2
276
     2
284
    12
289
     0
340
7E
  0
ENDTAB
  0
TABLE
  2
BLOCK_RECORD
  5
1
330
0
100
AcDbSymbolTable
 70
    31
  0
BLOCK_RECORD
  5
1F
330
1
100
AcDbSymbolTableRecord
100
AcDbBlockTableRecord
  2
*Model_Space
340
22
  0
BLOCK_RECORD
  5
1B
330
1
100
AcDbSymbolTableRecord
100
AcDbBlockTableRecord
  2
*Paper_Space
340
1E
  0
BLOCK_RECORD
  5
23
330
1
100
AcDbSymbolTableRecord
100
AcDbBlockTableRecord
  2
*Paper_Space0
340
26
  0
BLOCK_RECORD
  5
73
330
1
100
AcDbSymbolTableRecord
100
AcDbBlockTableRecord
  2
SW_NOTE_0
340
0
102
{BLKREFS
331
A5
102
}
  0
BLOCK_RECORD
  5
85
330
1
100
AcDbSymbolTableRecord
100
AcDbBlockTableRecord
  2
SW_SYMBOL_MOD_COM
340
0
102
{BLKREFS
331
91
331
197
331
2C4
102
}
  0
BLOCK_RECORD
  5
95
330
1
100
AcDbSymbolTableRecord
100
AcDbBlockTableRecord
  2
SW_SYMBOL_GTOL_CONC
340
0
102
{BLKREFS
331
9A
331
9F
102
}
  0
BLOCK_RECORD
  5
169
330
1
100
AcDbSymbolTableRecord
100
AcDbBlockTableRecord
  2
_D
340
0
  0
BLOCK_RECORD
  5
17E
330
1
100
AcDbSymbolTableRecord
100
AcDbBlockTableRecord
  2
_D_1
340
0
  0
BLOCK_RECORD
  5
191
330
1
100
AcDbSymbolTableRecord
100
AcDbBlockTableRecord
  2
SW_SYMBOL_MOD_CL
340
0
102
{BLKREFS
331
196
102
}
  0
BLOCK_RECORD
  5
1B0
330
1
100
AcDbSymbolTableRecord
100
AcDbBlockTableRecord
  2
_D_2
340
0
  0
BLOCK_RECORD
  5
1C4
330
1
100
AcDbSymbolTableRecord
100
AcDbBlockTableRecord
  2
_D_3
340
0
  0
BLOCK_RECORD
  5
1D9
330
1
100
AcDbSymbolTableRecord
100
AcDbBlockTableRecord
  2
_D_4
340
0
  0
BLOCK_RECORD
  5
1ED
330
1
100
AcDbSymbolTableRecord
100
AcDbBlockTableRecord
  2
_D_5
340
0
  0
BLOCK_RECORD
  5
201
330
1
100
AcDbSymbolTableRecord
100
AcDbBlockTableRecord
  2
_D_6
340
0
  0
BLOCK_RECORD
  5
216
330
1
100
AcDbSymbolTableRecord
100
AcDbBlockTableRecord
  2
_D_7
340
0
  0
BLOCK_RECORD
  5
22A
330
1
100
AcDbSymbolTableRecord
100
AcDbBlockTableRecord
  2
SW_NOTE_0_1
340
0
102
{BLKREFS
331
232
102
}
  0
BLOCK_RECORD
  5
235
330
1
100
AcDbSymbolTableRecord
100
AcDbBlockTableRecord
  2
SW_NOTE_0_2
340
0
102
{BLKREFS
331
23D
102
}
  0
BLOCK_RECORD
  5
240
330
1
100
AcDbSymbolTableRecord
100
AcDbBlockTableRecord
  2
SW_CENTERMARKSYMBOL_0
340
0
102
{BLKREFS
331
24B
102
}
  0
BLOCK_RECORD
  5
24C
330
1
100
AcDbSymbolTableRecord
100
AcDbBlockTableRecord
  2
SW_CENTERMARKSYMBOL_1
340
0
102
{BLKREFS
331
257
102
}
  0
BLOCK_RECORD
  5
258
330
1
100
AcDbSymbolTableRecord
100
AcDbBlockTableRecord
  2
SW_CENTERMARKSYMBOL_2
340
0
102
{BLKREFS
331
263
102
}
  0
BLOCK_RECORD
  5
264
330
1
100
AcDbSymbolTableRecord
100
AcDbBlockTableRecord
  2
SW_CENTERMARKSYMBOL_3
340
0
102
{BLKREFS
331
26F
102
}
  0
BLOCK_RECORD
  5
270
330
1
100
AcDbSymbolTableRecord
100
AcDbBlockTableRecord
  2
SW_CENTERMARKSYMBOL_4
340
0
102
{BLKREFS
331
27B
102
}
  0
BLOCK_RECORD
  5
291
330
1
100
AcDbSymbolTableRecord
100
AcDbBlockTableRecord
  2
_D_8
340
0
  0
BLOCK_RECORD
  5
2A5
330
1
100
AcDbSymbolTableRecord
100
AcDbBlockTableRecord
  2
_D_9
340
0
  0
BLOCK_RECORD
  5
2BA
330
1
100
AcDbSymbolTableRecord
100
AcDbBlockTableRecord
  2
_D_10
340
0
  0
BLOCK_RECORD
  5
2C5
330
1
100
AcDbSymbolTableRecord
100
AcDbBlockTableRecord
  2
SW_NOTE_0_3
340
0
102
{BLKREFS
331
2CD
102
}
  0
BLOCK_RECORD
  5
2D0
330
1
100
AcDbSymbolTableRecord
100
AcDbBlockTableRecord
  2
SW_NOTE_0_4
340
0
102
{BLKREFS
331
2D8
102
}
  0
BLOCK_RECORD
  5
2FA
330
1
100
AcDbSymbolTableRecord
100
AcDbBlockTableRecord
  2
_D_11
340
0
  0
BLOCK_RECORD
  5
32C
330
1
100
AcDbSymbolTableRecord
100
AcDbBlockTableRecord
  2
_D_12
340
0
  0
BLOCK_RECORD
  5
376
330
1
100
AcDbSymbolTableRecord
100
AcDbBlockTableRecord
  2
_D_13
340
0
  0
BLOCK_RECORD
  5
38A
330
1
100
AcDbSymbolTableRecord
100
AcDbBlockTableRecord
  2
_D_14
340
0
  0
BLOCK_RECORD
  5
39F
330
1
100
AcDbSymbolTableRecord
100
AcDbBlockTableRecord
  2
_D_15
340
0
  0
BLOCK_RECORD
  5
3B3
330
1
100
AcDbSymbolTableRecord
100
AcDbBlockTableRecord
  2
_D_16
340
0
  0
ENDTAB
  0
ENDSEC
  0
SECTION
  2
BLOCKS
  0
BLOCK
  5
20
330
1F
100
AcDbEntity
  8
0
100
AcDbBlockBegin
  2
*Model_Space
 70
     0
 10
0.0
 20
0.0
 30
0.0
  3
*Model_Space
  1

  0
ENDBLK
  5
21
330
1F
100
AcDbEntity
  8
0
100
AcDbBlockEnd
  0
BLOCK
  5
1C
330
1B
100
AcDbEntity
 67
     1
  8
0
100
AcDbBlockBegin
  2
*Paper_Space
 70
     0
 10
0.0
 20
0.0
 30
0.0
  3
*Paper_Space
  1

  0
ENDBLK
  5
1D
330
1B
100
AcDbEntity
 67
     1
  8
0
100
AcDbBlockEnd
  0
BLOCK
  5
24
330
23
100
AcDbEntity
  8
0
100
AcDbBlockBegin
  2
*Paper_Space0
 70
     0
 10
0.0
 20
0.0
 30
0.0
  3
*Paper_Space0
  1

  0
ENDBLK
  5
25
330
23
100
AcDbEntity
  8
0
100
AcDbBlockEnd
  0
BLOCK
  5
74
330
73
100
AcDbEntity
  8
0
100
AcDbBlockBegin
  2
SW_NOTE_0
 70
     0
 10
0.0
 20
0.0
 30
0.0
  3
SW_NOTE_0
  1

  0
LINE
  5
76
330
73
100
AcDbEntity
  8
0
  6
Continuous
 62
     0
370
     0
100
AcDbLine
 10
-5.2585938829
 20
-84.3539048219
 30
0.0
 11
-5.2585938829
 21
-65.0393211981
 31
0.0
  0
LINE
  5
77
330
73
100
AcDbEntity
  8
0
  6
Continuous
 62
     0
370
     0
100
AcDbLine
 10
-5.2585938829
 20
-65.0393211981
 30
0.0
 11
14.0559897409
 21
-65.0393211981
 31
0.0
  0
LINE
  5
78
330
73
100
AcDbEntity
  8
0
  6
Continuous
 62
     0
370
     0
100
AcDbLine
 10
14.0559897409
 20
-65.0393211981
 30
0.0
 11
14.0559897409
 21
-84.3539048219
 31
0.0
  0
LINE
  5
79
330
73
100
AcDbEntity
  8
0
  6
Continuous
 62
     0
370
     0
100
AcDbLine
 10
14.0559897409
 20
-84.3539048219
 30
0.0
 11
-5.2585938829
 21
-84.3539048219
 31
0.0
  0
LINE
  5
7A
330
73
100
AcDbEntity
  8
0
  6
Continuous
 62
     0
370
     0
100
AcDbLine
 10
-5.2585938829
 20
-129.3721335242
 30
0.0
 11
-5.2585938829
 21
-110.0575499004
 31
0.0
  0
LINE
  5
7B
330
73
100
AcDbEntity
  8
0
  6
Continuous
 62
     0
370
     0
100
AcDbLine
 10
-5.2585938829
 20
-110.0575499004
 30
0.0
 11
14.0559897409
 21
-110.0575499004
 31
0.0
  0
LINE
  5
7C
330
73
100
AcDbEntity
  8
0
  6
Continuous
 62
     0
370
     0
100
AcDbLine
 10
14.0559897409
 20
-110.0575499004
 30
0.0
 11
14.0559897409
 21
-129.3721335242
 31
0.0
  0
LINE
  5
7D
330
73
100
AcDbEntity
  8
0
  6
Continuous
 62
     0
370
     0
100
AcDbLine
 10
14.0559897409
 20
-129.3721335242
 30
0.0
 11
-5.2585938829
 21
-129.3721335242
 31
0.0
  0
MTEXT
  5
7F
330
73
100
AcDbEntity
  8
0
  6
Continuous
 62
     0
370
     0
100
AcDbMText
 10
0.0
 20
15.2083740234
 30
0.0
 40
11.90625
 41
0.0
 71
     1
 72
     1
  1
NOTES: UNLESS OTHERWISE SPECIFIED
  7
SLDTEXTSTYLE0
 73
     1
 44
1.0
  0
MTEXT
  5
80
330
73
100
AcDbEntity
  8
0
  6
Continuous
 62
     0
370
     0
100
AcDbMText
 10
49.9999988824
 20
-5.6666254401
 30
0.0
 40
11.90625
 41
0.0
 71
     1
 72
     1
  1
NET WEIGHT APPROX. 6.8 KG [15.0 LBS].
  7
SLDTEXTSTYLE0
 73
     1
 44
1.0
  0
MTEXT
  5
81
330
73
100
AcDbEntity
  8
0
  6
Continuous
 62
     0
370
     0
100
AcDbMText
 10
0.0
 20
-5.6666254401
 30
0.0
 40
11.90625
 41
0.0
 71
     1
 72
     1
  1
1.
  7
SLDTEXTSTYLE0
 73
     1
 44
1.0
  0
MTEXT
  5
82
330
73
100
AcDbEntity
  8
0
  6
Continuous
 62
     0
370
     0
100
AcDbMText
 10
49.9999988824
 20
-26.5416249037
 30
0.0
 40
11.90625
 41
0.0
 71
     1
 72
     1
  1
PARTS ARE SYMMETRICAL ABOUT CENTER LINES UNLESS OTHERWISE NOTED.
  7
SLDTEXTSTYLE0
 73
     1
 44
1.0
  0
MTEXT
  5
83
330
73
100
AcDbEntity
  8
0
  6
Continuous
 62
     0
370
     0
100
AcDbMText
 10
0.0
 20
-26.5416249037
 30
0.0
 40
11.90625
 41
0.0
 71
     1
 72
     1
  1
2.
  7
SLDTEXTSTYLE0
 73
     1
 44
1.0
  0
MTEXT
  5
84
330
73
100
AcDbEntity
  8
0
  6
Continuous
 62
     0
370
     0
100
AcDbMText
 10
49.9999988824
 20
-47.4166243672
 30
0.0
 40
11.90625
 41
0.0
 71
     1
 72
     1
  1
SYMBOL
  7
SLDTEXTSTYLE0
 73
     1
 44
1.0
  0
INSERT
  5
91
330
73
100
AcDbEntity
  8
0
  6
Continuous
 62
     0
370
     0
100
AcDbBlockReference
  2
SW_SYMBOL_MOD_COM
 10
123.8554995507
 20
-60.7678620468
 30
0.0
 41
0.0027037109
 42
0.0027037109
 43
0.0027037109
  0
MTEXT
  5
92
330
73
100
AcDbEntity
  8
0
  6
Continuous
 62
     0
370
     0
100
AcDbMText
 10
150.7606822997
 20
-47.4166243672
 30
0.0
 40
11.90625
 41
0.0
 71
     1
 72
     1
  1
INDICATES CENTER OF GRAVITY.
  7
SLDTEXTSTYLE0
 73
     1
 44
1.0
  0
MTEXT
  5
93
330
73
100
AcDbEntity
  8
0
  6
Continuous
 62
     0
370
     0
100
AcDbMText
 10
0.0
 20
-47.4166243672
 30
0.0
 40
11.90625
 41
0.0
 71
     1
 72
     1
  1
3.
  7
SLDTEXTSTYLE0
 73
     1
 44
1.0
  0
MTEXT
  5
94
330
73
100
AcDbEntity
  8
0
  6
Continuous
 62
     0
370
     0
100
AcDbMText
 10
49.9999988824
 20
-67.4257394727
 30
0.0
 40
11.90625
 41
0.0
 71
     1
 72
     1
  1
SYMBOL 
  7
SLDTEXTSTYLE0
 73
     1
 44
1.0
  0
INSERT
  5
9A
330
73
100
AcDbEntity
  8
0
  6
Continuous
 62
     0
370
     0
100
AcDbBlockReference
  2
SW_SYMBOL_GTOL_CONC
 10
116.5427081287
 20
-80.3648290699
 30
0.0
 41
0.0020277832
 42
0.0020277832
 43
0.0020277832
  0
MTEXT
  5
9B
330
73
100
AcDbEntity
  8
0
  6
Continuous
 62
     0
370
     0
100
AcDbMText
 10
136.7215998471
 20
-67.4257394727
 30
0.0
 40
11.90625
 41
0.0
 71
     1
 72
     1
  1
INDICATES SUSPENSION POINT.
  7
SLDTEXTSTYLE0
 73
     1
 44
1.0
  0
MTEXT
  5
9C
330
73
100
AcDbEntity
  8
0
  6
Continuous
 62
     0
370
     0
100
AcDbMText
 10
0.0
 20
-67.4257394727
 30
0.0
 40
11.90625
 41
0.0
 71
     1
 72
     1
  1
4
  7
SLDTEXTSTYLE0
 73
     1
 44
1.0
  0
MTEXT
  5
9D
330
73
100
AcDbEntity
  8
0
  6
Continuous
 62
     0
370
     0
100
AcDbMText
 10
50.0
 20
-92.4348530695
 30
0.0
 40
11.90625
 41
0.0
 71
     1
 72
     1
  1
8 TOTAL: M6-1 THD
  7
SLDTEXTSTYLE0
 73
     1
 44
1.0
  0
MTEXT
  5
9E
330
73
100
AcDbEntity
  8
0
  6
Continuous
 62
     0
370
     0
100
AcDbMText
 10
49.9999988824
 20
-112.443968175
 30
0.0
 40
11.90625
 41
0.0
 71
     1
 72
     1
  1
SYMBOL 
  7
SLDTEXTSTYLE0
 73
     1
 44
1.0
  0
INSERT
  5
9F
330
73
100
AcDbEntity
  8
0
  6
Continuous
 62
     0
370
     0
100
AcDbBlockReference
  2
SW_SYMBOL_GTOL_CONC
 10
116.5427081287
 20
-125.3830577722
 30
0.0
 41
0.0020277832
 42
0.0020277832
 43
0.0020277832
  0
MTEXT
  5
A0
330
73
100
AcDbEntity
  8
0
  6
Continuous
 62
     0
370
     0
100
AcDbMText
 10
136.7215998471
 20
-112.443968175
 30
0.0
 40
11.90625
 41
0.0
 71
     1
 72
     1
  1
INDICATES SUSPENSION POINT.
  7
SLDTEXTSTYLE0
 73
     1
 44
1.0
  0
MTEXT
  5
A1
330
73
100
AcDbEntity
  8
0
  6
Continuous
 62
     0
370
     0
100
AcDbMText
 10
0.0
 20
-112.443968175
 30
0.0
 40
11.90625
 41
0.0
 71
     1
 72
     1
  1
5
  7
SLDTEXTSTYLE0
 73
     1
 44
1.0
  0
MTEXT
  5
A2
330
73
100
AcDbEntity
  8
0
  6
Continuous
 62
     0
370
     0
100
AcDbMText
 10
50.0
 20
-137.4530817717
 30
0.0
 40
11.90625
 41
0.0
 71
     1
 72
     1
  1
2 TOTAL: M8-1.25 THD
  7
SLDTEXTSTYLE0
 73
     1
 44
1.0
  0
MTEXT
  5
A3
330
73
100
AcDbEntity
  8
0
  6
Continuous
 62
     0
370
     0
100
AcDbMText
 10
49.9999988824
 20
-158.3280812353
 30
0.0
 40
11.90625
 41
0.0
 71
     1
 72
     1
  1
GRILLE NOT SHOWN FOR CLARITY.
  7
SLDTEXTSTYLE0
 73
     1
 44
1.0
  0
MTEXT
  5
A4
330
73
100
AcDbEntity
  8
0
  6
Continuous
 62
     0
370
     0
100
AcDbMText
 10
0.0
 20
-158.3280812353
 30
0.0
 40
11.90625
 41
0.0
 71
     1
 72
     1
  1
6.
  7
SLDTEXTSTYLE0
 73
     1
 44
1.0
  0
ENDBLK
  5
75
330
73
100
AcDbEntity
  8
0
100
AcDbBlockEnd
  0
BLOCK
  5
86
330
85
100
AcDbEntity
  8
0
100
AcDbBlockBegin
  2
SW_SYMBOL_MOD_COM
 70
     0
 10
0.0
 20
0.0
 30
0.0
  3
SW_SYMBOL_MOD_COM
  1

  0
CIRCLE
  5
88
330
85
100
AcDbEntity
  8
0
  6
Continuous
 62
     0
370
     0
100
AcDbCircle
 10
2500.0
 20
2500.0
 30
0.0
 40
2500.0
  0
LINE
  5
89
330
85
100
AcDbEntity
  8
0
  6
Continuous
 62
     0
370
     0
100
AcDbLine
 10
6250.0
 20
2500.0
 30
0.0
 11
7500.0
 21
2500.0
 31
0.0
  0
LINE
  5
8A
330
85
100
AcDbEntity
  8
0
  6
Continuous
 62
     0
370
     0
100
AcDbLine
 10
2500.0
 20
7500.0
 30
0.0
 11
2500.0
 21
6250.0
 31
0.0
  0
LINE
  5
8B
330
85
100
AcDbEntity
  8
0
  6
Continuous
 62
     0
370
     0
100
AcDbLine
 10
-2500.0
 20
2500.0
 30
0.0
 11
-1250.0
 21
2500.0
 31
0.0
  0
LINE
  5
8C
330
85
100
AcDbEntity
  8
0
  6
Continuous
 62
     0
370
     0
100
AcDbLine
 10
2500.0
 20
-2500.0
 30
0.0
 11
2500.0
 21
-1250.0
 31
0.0
  0
SOLID
  5
8D
330
85
100
AcDbEntity
  8
0
  6
Continuous
 62
     0
370
     0
100
AcDbTrace
 10
2500.0
 20
2500.0
 30
0.0
 11
0.0
 21
2500.0
 31
0.0
 12
2500.0
 22
5000.0
 32
0.0
 13
2500.0
 23
5000.0
 33
0.0
  0
SOLID
  5
8E
330
85
100
AcDbEntity
  8
0
  6
Continuous
 62
     0
370
     0
100
AcDbTrace
 10
2500.0
 20
2500.0
 30
0.0
 11
5000.0
 21
2500.0
 31
0.0
 12
2500.0
 22
0.0
 32
0.0
 13
2500.0
 23
0.0
 33
0.0
  0
HATCH
  5
8F
330
85
100
AcDbEntity
  8
0
  6
Continuous
 62
     0
100
AcDbHatch
 10
0.0
 20
0.0
 30
0.0
210
0.0
220
0.0
230
1.0
  2
SOLID
 70
     1
 71
     0
 91
        1
 92
        0
 93
        2
 72
     2
 10
2500.0
 20
2500.0
 40
2500.0
 50
90.0000000000002
 51
180.0000000000012
 73
     1
 72
     1
 10
0.0
 20
2499.999999999983
 11
2499.999999999992
 21
5000.0
 97
        0
 75
     0
 76
     1
 98
        1
 10
0.0
 20
0.0
  0
HATCH
  5
90
330
85
100
AcDbEntity
  8
0
  6
Continuous
 62
     0
100
AcDbHatch
 10
0.0
 20
0.0
 30
0.0
210
0.0
220
0.0
230
1.0
  2
SOLID
 70
     1
 71
     0
 91
        1
 92
        0
 93
        2
 72
     2
 10
2500.0
 20
2500.0
 40
2500.0
 50
270.0000000000014
 51
360.0000000000016
 73
     1
 72
     1
 10
5000.0
 20
2500.000000000035
 11
2500.000000000026
 21
0.0
 97
        0
 75
     0
 76
     1
 98
        1
 10
0.0
 20
0.0
  0
ENDBLK
  5
87
330
85
100
AcDbEntity
  8
0
100
AcDbBlockEnd
  0
BLOCK
  5
96
330
95
100
AcDbEntity
  8
0
100
AcDbBlockBegin
  2
SW_SYMBOL_GTOL_CONC
 70
     0
 10
0.0
 20
0.0
 30
0.0
  3
SW_SYMBOL_GTOL_CONC
  1

  0
CIRCLE
  5
98
330
95
100
AcDbEntity
  8
0
  6
Continuous
 62
     0
370
     0
100
AcDbCircle
 10
3750.0
 20
2500.0
 30
0.0
 40
3750.0
  0
CIRCLE
  5
99
330
95
100
AcDbEntity
  8
0
  6
Continuous
 62
     0
370
     0
100
AcDbCircle
 10
3750.0
 20
2500.0
 30
0.0
 40
2500.0
  0
ENDBLK
  5
97
330
95
100
AcDbEntity
  8
0
100
AcDbBlockEnd
  0
BLOCK
  5
16A
330
169
100
AcDbEntity
  8
0
100
AcDbBlockBegin
  2
_D
 70
     0
 10
0.0
 20
0.0
 30
0.0
  3
_D
  1

  0
SOLID
  5
16C
330
169
100
AcDbEntity
  8
SLD-0
100
AcDbTrace
 10
1034.9485088267
 20
648.5352167224
 30
0.0
 11
1033.6985088267
 21
638.5352167224
 31
0.0
 12
1036.1985088267
 22
638.5352167224
 32
0.0
 13
1036.1985088267
 23
638.5352167224
 33
0.0
  0
SOLID
  5
16D
330
169
100
AcDbEntity
  8
SLD-0
100
AcDbTrace
 10
1034.9485088267
 20
485.1752167224
 30
0.0
 11
1036.1985088267
 21
495.1752167224
 31
0.0
 12
1033.6985088267
 22
495.1752167224
 32
0.0
 13
1033.6985088267
 23
495.1752167224
 33
0.0
  0
LINE
  5
16E
330
169
100
AcDbEntity
  8
SLD-0
100
AcDbLine
 10
1019.5585779042
 20
566.8552190507
 30
0.0
 11
1015.937093402
 21
566.8552190507
 31
0.0
  0
LINE
  5
16F
330
169
100
AcDbEntity
  8
SLD-0
100
AcDbLine
 10
1015.937093402
 20
566.8552190507
 30
0.0
 11
1015.937093402
 21
547.937510393
 31
0.0
  0
LINE
  5
170
330
169
100
AcDbEntity
  8
SLD-0
100
AcDbLine
 10
1015.937093402
 20
547.937510393
 30
0.0
 11
1019.5585779042
 21
547.937510393
 31
0.0
  0
LINE
  5
171
330
169
100
AcDbEntity
  8
SLD-0
100
AcDbLine
 10
1050.3384397493
 20
566.8552190507
 30
0.0
 11
1053.9599242515
 21
566.8552190507
 31
0.0
  0
LINE
  5
172
330
169
100
AcDbEntity
  8
SLD-0
100
AcDbLine
 10
1053.9599242515
 20
566.8552190507
 30
0.0
 11
1053.9599242515
 21
547.937510393
 31
0.0
  0
LINE
  5
173
330
169
100
AcDbEntity
  8
SLD-0
100
AcDbLine
 10
1053.9599242515
 20
547.937510393
 30
0.0
 11
1050.3384397493
 21
547.937510393
 31
0.0
  0
LINE
  5
174
330
169
100
AcDbEntity
  8
SLD-0
100
AcDbLine
 10
870.9709180971
 20
648.5352167224
 30
0.0
 11
1038.7585088267
 21
648.5352167224
 31
0.0
  0
LINE
  5
175
330
169
100
AcDbEntity
  8
SLD-0
100
AcDbLine
 10
973.5542566383
 20
485.1752167224
 30
0.0
 11
1038.7585088267
 21
485.1752167224
 31
0.0
  0
LINE
  5
176
330
169
100
AcDbEntity
  8
SLD-0
100
AcDbLine
 10
1034.9485088267
 20
648.5352167224
 30
0.0
 11
1034.9485088267
 21
588.1872487696
 31
0.0
  0
LINE
  5
177
330
169
100
AcDbEntity
  8
SLD-0
100
AcDbLine
 10
1034.9485088267
 20
485.1752167224
 30
0.0
 11
1034.9485088267
 21
545.5231846752
 31
0.0
  0
MTEXT
  5
178
330
169
100
AcDbEntity
  8
SLD-0
100
AcDbMText
 10
1007.9279352107
 20
584.4779147174
 30
0.0
 40
11.90625
 41
0.0
 71
     1
 72
     1
  1
 
  7
SLDTEXTSTYLE0
 73
     1
 44
1.0
  0
MTEXT
  5
179
330
169
100
AcDbEntity
  8
SLD-0
100
AcDbMText
 10
1015.1598796842
 20
584.4779158816
 30
0.0
 40
11.90625
 41
0.0
 71
     1
 72
     1
  1
163.4
  7
SLDTEXTSTYLE0
 73
     1
 44
1.0
  0
MTEXT
  5
17A
330
169
100
AcDbEntity
  8
SLD-0
100
AcDbMText
 10
1019.5585779042
 20
563.1458849985
 30
0.0
 40
11.90625
 41
0.0
 71
     1
 72
     1
  1
6.43
  7
SLDTEXTSTYLE0
 73
     1
 44
1.0
  0
MTEXT
  5
17B
330
169
100
AcDbEntity
  8
SLD-0
100
AcDbMText
 10
1057.5814075895
 20
584.4779147174
 30
0.0
 40
11.90625
 41
0.0
 71
     1
 72
     1
  1
 
  7
SLDTEXTSTYLE0
 73
     1
 44
1.0
  0
ENDBLK
  5
16B
330
169
100
AcDbEntity
  8
0
100
AcDbBlockEnd
  0
BLOCK
  5
17F
330
17E
100
AcDbEntity
  8
0
100
AcDbBlockBegin
  2
_D_1
 70
     0
 10
0.0
 20
0.0
 30
0.0
  3
_D_1
  1

  0
SOLID
  5
181
330
17E
100
AcDbEntity
  8
SLD-0
100
AcDbTrace
 10
749.7722566383
 20
871.1515377582
 30
0.0
 11
759.7722566383
 21
869.9015377582
 31
0.0
 12
759.7722566383
 22
872.4015377582
 32
0.0
 13
759.7722566383
 23
872.4015377582
 33
0.0
  0
SOLID
  5
182
330
17E
100
AcDbEntity
  8
SLD-0
100
AcDbTrace
 10
969.7442566383
 20
871.1515377582
 30
0.0
 11
959.7442566383
 21
872.4015377582
 31
0.0
 12
959.7442566383
 22
869.9015377582
 32
0.0
 13
959.7442566383
 23
869.9015377582
 33
0.0
  0
LINE
  5
183
330
17E
100
AcDbEntity
  8
SLD-0
100
AcDbLine
 10
844.3683257158
 20
871.1515400865
 30
0.0
 11
840.7468412136
 21
871.1515400865
 31
0.0
  0
LINE
  5
184
330
17E
100
AcDbEntity
  8
SLD-0
100
AcDbLine
 10
840.7468412136
 20
871.1515400865
 30
0.0
 11
840.7468412136
 21
852.2338314288
 31
0.0
  0
LINE
  5
185
330
17E
100
AcDbEntity
  8
SLD-0
100
AcDbLine
 10
840.7468412136
 20
852.2338314288
 30
0.0
 11
844.3683257158
 21
852.2338314288
 31
0.0
  0
LINE
  5
186
330
17E
100
AcDbEntity
  8
SLD-0
100
AcDbLine
 10
875.1481875609
 20
871.1515400865
 30
0.0
 11
878.7696720631
 21
871.1515400865
 31
0.0
  0
LINE
  5
187
330
17E
100
AcDbEntity
  8
SLD-0
100
AcDbLine
 10
878.7696720631
 20
871.1515400865
 30
0.0
 11
878.7696720631
 21
852.2338314288
 31
0.0
  0
LINE
  5
188
330
17E
100
AcDbEntity
  8
SLD-0
100
AcDbLine
 10
878.7696720631
 20
852.2338314288
 30
0.0
 11
875.1481875609
 21
852.2338314288
 31
0.0
  0
LINE
  5
189
330
17E
100
AcDbEntity
  8
SLD-0
100
AcDbLine
 10
749.7722566383
 20
805.3852167224
 30
0.0
 11
749.7722566383
 21
874.9615377582
 31
0.0
  0
LINE
  5
18A
330
17E
100
AcDbEntity
  8
SLD-0
100
AcDbLine
 10
969.7442566383
 20
805.3852167224
 30
0.0
 11
969.7442566383
 21
874.9615377582
 31
0.0
  0
LINE
  5
18B
330
17E
100
AcDbEntity
  8
SLD-0
100
AcDbLine
 10
749.7722566383
 20
871.1515377582
 30
0.0
 11
830.3240456321
 21
871.1515377582
 31
0.0
  0
LINE
  5
18C
330
17E
100
AcDbEntity
  8
SLD-0
100
AcDbLine
 10
969.7442566383
 20
871.1515377582
 30
0.0
 11
889.1924676446
 21
871.1515377582
 31
0.0
  0
MTEXT
  5
18D
330
17E
100
AcDbEntity
  8
SLD-0
100
AcDbMText
 10
832.7376830223
 20
888.7742357532
 30
0.0
 40
11.90625
 41
0.0
 71
     1
 72
     1
  1
 
  7
SLDTEXTSTYLE0
 73
     1
 44
1.0
  0
MTEXT
  5
18E
330
17E
100
AcDbEntity
  8
SLD-0
100
AcDbMText
 10
839.9696274958
 20
888.7742369173
 30
0.0
 40
11.90625
 41
0.0
 71
     1
 72
     1
  1
220.0
  7
SLDTEXTSTYLE0
 73
     1
 44
1.0
  0
MTEXT
  5
18F
330
17E
100
AcDbEntity
  8
SLD-0
100
AcDbMText
 10
844.3683257158
 20
867.4422060343
 30
0.0
 40
11.90625
 41
0.0
 71
     1
 72
     1
  1
8.66
  7
SLDTEXTSTYLE0
 73
     1
 44
1.0
  0
MTEXT
  5
190
330
17E
100
AcDbEntity
  8
SLD-0
100
AcDbMText
 10
882.3911554011
 20
888.7742357532
 30
0.0
 40
11.90625
 41
0.0
 71
     1
 72
     1
  1
 
  7
SLDTEXTSTYLE0
 73
     1
 44
1.0
  0
ENDBLK
  5
180
330
17E
100
AcDbEntity
  8
0
100
AcDbBlockEnd
  0
BLOCK
  5
192
330
191
100
AcDbEntity
  8
0
100
AcDbBlockBegin
  2
SW_SYMBOL_MOD_CL
 70
     0
 10
0.0
 20
0.0
 30
0.0
  3
SW_SYMBOL_MOD_CL
  1

  0
MTEXT
  5
194
330
191
100
AcDbEntity
  8
SLD-0
 62
     0
100
AcDbMText
 10
2000.0
 20
3000.0
 30
0.0
 40
3914.373088685
 41
0.0
 71
     5
 72
     1
  1
C
  7
SLDTEXTSTYLE0
 73
     1
 44
1.0
  0
MTEXT
  5
195
330
191
100
AcDbEntity
  8
SLD-0
 62
     0
100
AcDbMText
 10
3000.0
 20
1500.0
 30
0.0
 40
3914.373088685
 41
0.0
 71
     5
 72
     1
  1
L
  7
SLDTEXTSTYLE0
 73
     1
 44
1.0
  0
ENDBLK
  5
193
330
191
100
AcDbEntity
  8
0
100
AcDbBlockEnd
  0
BLOCK
  5
1B1
330
1B0
100
AcDbEntity
  8
0
100
AcDbBlockBegin
  2
_D_2
 70
     0
 10
0.0
 20
0.0
 30
0.0
  3
_D_2
  1

  0
SOLID
  5
1B3
330
1B0
100
AcDbEntity
  8
SLD-0
100
AcDbTrace
 10
805.8082566383
 20
1012.9332855504
 30
0.0
 11
815.8082566383
 21
1011.6832855504
 31
0.0
 12
815.8082566383
 22
1014.1832855504
 32
0.0
 13
815.8082566383
 23
1014.1832855504
 33
0.0
  0
SOLID
  5
1B4
330
1B0
100
AcDbEntity
  8
SLD-0
100
AcDbTrace
 10
913.7082566383
 20
1012.9332855504
 30
0.0
 11
903.7082566383
 21
1014.1832855504
 31
0.0
 12
903.7082566383
 22
1011.6832855504
 32
0.0
 13
903.7082566383
 23
1011.6832855504
 33
0.0
  0
LINE
  5
1B5
330
1B0
100
AcDbEntity
  8
SLD-0
100
AcDbLine
 10
844.3683257158
 20
1012.9332878787
 30
0.0
 11
840.7468412136
 21
1012.9332878787
 31
0.0
  0
LINE
  5
1B6
330
1B0
100
AcDbEntity
  8
SLD-0
100
AcDbLine
 10
840.7468412136
 20
1012.9332878787
 30
0.0
 11
840.7468412136
 21
994.015579221
 31
0.0
  0
LINE
  5
1B7
330
1B0
100
AcDbEntity
  8
SLD-0
100
AcDbLine
 10
840.7468412136
 20
994.015579221
 30
0.0
 11
844.3683257158
 21
994.015579221
 31
0.0
  0
LINE
  5
1B8
330
1B0
100
AcDbEntity
  8
SLD-0
100
AcDbLine
 10
875.1481875609
 20
1012.9332878787
 30
0.0
 11
878.7696720631
 21
1012.9332878787
 31
0.0
  0
LINE
  5
1B9
330
1B0
100
AcDbEntity
  8
SLD-0
100
AcDbLine
 10
878.7696720631
 20
1012.9332878787
 30
0.0
 11
878.7696720631
 21
994.015579221
 31
0.0
  0
LINE
  5
1BA
330
1B0
100
AcDbEntity
  8
SLD-0
100
AcDbLine
 10
878.7696720631
 20
994.015579221
 30
0.0
 11
875.1481875609
 21
994.015579221
 31
0.0
  0
LINE
  5
1BB
330
1B0
100
AcDbEntity
  8
SLD-0
100
AcDbLine
 10
805.8082566383
 20
1106.815415642
 30
0.0
 11
805.8082566383
 21
1009.1232855504
 31
0.0
  0
LINE
  5
1BC
330
1B0
100
AcDbEntity
  8
SLD-0
100
AcDbLine
 10
913.7082566383
 20
1106.815415642
 30
0.0
 11
913.7082566383
 21
1009.1232855504
 31
0.0
  0
LINE
  5
1BD
330
1B0
100
AcDbEntity
  8
SLD-0
100
AcDbLine
 10
805.8082566383
 20
1012.9332855504
 30
0.0
 11
830.3240456321
 21
1012.9332855504
 31
0.0
  0
LINE
  5
1BE
330
1B0
100
AcDbEntity
  8
SLD-0
100
AcDbLine
 10
913.7082566383
 20
1012.9332855504
 30
0.0
 11
889.1924676446
 21
1012.9332855504
 31
0.0
  0
MTEXT
  5
1BF
330
1B0
100
AcDbEntity
  8
SLD-0
100
AcDbMText
 10
832.7376830223
 20
1030.5559835454
 30
0.0
 40
11.90625
 41
0.0
 71
     1
 72
     1
  1
 
  7
SLDTEXTSTYLE0
 73
     1
 44
1.0
  0
MTEXT
  5
1C0
330
1B0
100
AcDbEntity
  8
SLD-0
100
AcDbMText
 10
839.9696274958
 20
1030.5559847096
 30
0.0
 40
11.90625
 41
0.0
 71
     1
 72
     1
  1
107.9
  7
SLDTEXTSTYLE0
 73
     1
 44
1.0
  0
MTEXT
  5
1C1
330
1B0
100
AcDbEntity
  8
SLD-0
100
AcDbMText
 10
844.3683257158
 20
1009.2239538265
 30
0.0
 40
11.90625
 41
0.0
 71
     1
 72
     1
  1
4.25
  7
SLDTEXTSTYLE0
 73
     1
 44
1.0
  0
MTEXT
  5
1C2
330
1B0
100
AcDbEntity
  8
SLD-0
100
AcDbMText
 10
882.3911554011
 20
1030.5559835454
 30
0.0
 40
11.90625
 41
0.0
 71
     1
 72
     1
  1
 
  7
SLDTEXTSTYLE0
 73
     1
 44
1.0
  0
ENDBLK
  5
1B2
330
1B0
100
AcDbEntity
  8
0
100
AcDbBlockEnd
  0
BLOCK
  5
1C5
330
1C4
100
AcDbEntity
  8
0
100
AcDbBlockBegin
  2
_D_3
 70
     0
 10
0.0
 20
0.0
 30
0.0
  3
_D_3
  1

  0
SOLID
  5
1C7
330
1C4
100
AcDbEntity
  8
SLD-0
100
AcDbTrace
 10
725.1256410133
 20
1170.425415642
 30
0.0
 11
723.8756410133
 21
1160.425415642
 31
0.0
 12
726.3756410133
 22
1160.425415642
 32
0.0
 13
726.3756410133
 23
1160.425415642
 33
0.0
  0
SOLID
  5
1C8
330
1C4
100
AcDbEntity
  8
SLD-0
100
AcDbTrace
 10
725.1256410133
 20
1119.625415642
 30
0.0
 11
726.3756410133
 21
1129.625415642
 31
0.0
 12
723.8756410133
 22
1129.625415642
 32
0.0
 13
723.8756410133
 23
1129.625415642
 33
0.0
  0
LINE
  5
1C9
330
1C4
100
AcDbEntity
  8
SLD-0
100
AcDbLine
 10
665.4742243041
 20
1209.6746132948
 30
0.0
 11
661.8527398019
 21
1209.6746132948
 31
0.0
  0
LINE
  5
1CA
330
1C4
100
AcDbEntity
  8
SLD-0
100
AcDbLine
 10
661.8527398019
 20
1209.6746132948
 30
0.0
 11
661.8527398019
 21
1190.7569046371
 31
0.0
  0
LINE
  5
1CB
330
1C4
100
AcDbEntity
  8
SLD-0
100
AcDbLine
 10
661.8527398019
 20
1190.7569046371
 30
0.0
 11
665.4742243041
 21
1190.7569046371
 31
0.0
  0
LINE
  5
1CC
330
1C4
100
AcDbEntity
  8
SLD-0
100
AcDbLine
 10
696.2540861492
 20
1209.6746132948
 30
0.0
 11
699.8755706514
 21
1209.6746132948
 31
0.0
  0
LINE
  5
1CD
330
1C4
100
AcDbEntity
  8
SLD-0
100
AcDbLine
 10
699.8755706514
 20
1209.6746132948
 30
0.0
 11
699.8755706514
 21
1190.7569046371
 31
0.0
  0
LINE
  5
1CE
330
1C4
100
AcDbEntity
  8
SLD-0
100
AcDbLine
 10
699.8755706514
 20
1190.7569046371
 30
0.0
 11
696.2540861492
 21
1190.7569046371
 31
0.0
  0
LINE
  5
1CF
330
1C4
100
AcDbEntity
  8
SLD-0
100
AcDbLine
 10
792.9982566383
 20
1170.425415642
 30
0.0
 11
721.3156410133
 21
1170.425415642
 31
0.0
  0
LINE
  5
1D0
330
1C4
100
AcDbEntity
  8
SLD-0
100
AcDbLine
 10
792.9982566383
 20
1119.625415642
 30
0.0
 11
721.3156410133
 21
1119.625415642
 31
0.0
  0
LINE
  5
1D1
330
1C4
100
AcDbEntity
  8
SLD-0
100
AcDbLine
 10
715.1256410133
 20
1209.6746109665
 30
0.0
 11
725.1256410133
 21
1209.6746109665
 31
0.0
  0
LINE
  5
1D2
330
1C4
100
AcDbEntity
  8
SLD-0
100
AcDbLine
 10
725.1256410133
 20
1209.6746109665
 30
0.0
 11
725.1256410133
 21
1170.425415642
 31
0.0
  0
LINE
  5
1D3
330
1C4
100
AcDbEntity
  8
SLD-0
100
AcDbLine
 10
725.1256410133
 20
1170.425415642
 30
0.0
 11
725.1256410133
 21
1119.625415642
 31
0.0
  0
MTEXT
  5
1D4
330
1C4
100
AcDbEntity
  8
SLD-0
100
AcDbMText
 10
653.8435816106
 20
1227.2973089615
 30
0.0
 40
11.90625
 41
0.0
 71
     1
 72
     1
  1
 
  7
SLDTEXTSTYLE0
 73
     1
 44
1.0
  0
MTEXT
  5
1D5
330
1C4
100
AcDbEntity
  8
SLD-0
100
AcDbMText
 10
665.4742231399
 20
1227.2973101257
 30
0.0
 40
11.90625
 41
0.0
 71
     1
 72
     1
  1
50.8
  7
SLDTEXTSTYLE0
 73
     1
 44
1.0
  0
MTEXT
  5
1D6
330
1C4
100
AcDbEntity
  8
SLD-0
100
AcDbMText
 10
665.4742243041
 20
1205.9652792426
 30
0.0
 40
11.90625
 41
0.0
 71
     1
 72
     1
  1
2.00
  7
SLDTEXTSTYLE0
 73
     1
 44
1.0
  0
MTEXT
  5
1D7
330
1C4
100
AcDbEntity
  8
SLD-0
100
AcDbMText
 10
703.4970539894
 20
1227.2973089615
 30
0.0
 40
11.90625
 41
0.0
 71
     1
 72
     1
  1
 
  7
SLDTEXTSTYLE0
 73
     1
 44
1.0
  0
ENDBLK
  5
1C6
330
1C4
100
AcDbEntity
  8
0
100
AcDbBlockEnd
  0
BLOCK
  5
1DA
330
1D9
100
AcDbEntity
  8
0
100
AcDbBlockBegin
  2
_D_4
 70
     0
 10
0.0
 20
0.0
 30
0.0
  3
_D_4
  1

  0
SOLID
  5
1DC
330
1D9
100
AcDbEntity
  8
SLD-0
100
AcDbTrace
 10
913.7082566383
 20
1012.9332855504
 30
0.0
 11
923.7082566383
 21
1011.6832855504
 31
0.0
 12
923.7082566383
 22
1014.1832855504
 32
0.0
 13
923.7082566383
 23
1014.1832855504
 33
0.0
  0
SOLID
  5
1DD
330
1D9
100
AcDbEntity
  8
SLD-0
100
AcDbTrace
 10
969.7442566383
 20
1012.9332855504
 30
0.0
 11
959.7442566383
 21
1014.1832855504
 31
0.0
 12
959.7442566383
 22
1011.6832855504
 32
0.0
 13
959.7442566383
 23
1011.6832855504
 33
0.0
  0
LINE
  5
1DE
330
1D9
100
AcDbEntity
  8
SLD-0
100
AcDbLine
 10
999.0448603584
 20
1012.9332878787
 30
0.0
 11
995.4233758562
 21
1012.9332878787
 31
0.0
  0
LINE
  5
1DF
330
1D9
100
AcDbEntity
  8
SLD-0
100
AcDbLine
 10
995.4233758562
 20
1012.9332878787
 30
0.0
 11
995.4233758562
 21
994.015579221
 31
0.0
  0
LINE
  5
1E0
330
1D9
100
AcDbEntity
  8
SLD-0
100
AcDbLine
 10
995.4233758562
 20
994.015579221
 30
0.0
 11
999.0448603584
 21
994.015579221
 31
0.0
  0
LINE
  5
1E1
330
1D9
100
AcDbEntity
  8
SLD-0
100
AcDbLine
 10
1029.8247222034
 20
1012.9332878787
 30
0.0
 11
1033.4462067057
 21
1012.9332878787
 31
0.0
  0
LINE
  5
1E2
330
1D9
100
AcDbEntity
  8
SLD-0
100
AcDbLine
 10
1033.4462067057
 20
1012.9332878787
 30
0.0
 11
1033.4462067057
 21
994.015579221
 31
0.0
  0
LINE
  5
1E3
330
1D9
100
AcDbEntity
  8
SLD-0
100
AcDbLine
 10
1033.4462067057
 20
994.015579221
 30
0.0
 11
1029.8247222034
 21
994.015579221
 31
0.0
  0
LINE
  5
1E4
330
1D9
100
AcDbEntity
  8
SLD-0
100
AcDbLine
 10
913.7082566383
 20
1106.815415642
 30
0.0
 11
913.7082566383
 21
1009.1232855504
 31
0.0
  0
LINE
  5
1E5
330
1D9
100
AcDbEntity
  8
SLD-0
100
AcDbLine
 10
969.7442566383
 20
1079.9844970595
 30
0.0
 11
969.7442566383
 21
1009.1232855504
 31
0.0
  0
LINE
  5
1E6
330
1D9
100
AcDbEntity
  8
SLD-0
100
AcDbLine
 10
913.7082566383
 20
1012.9332855504
 30
0.0
 11
969.7442566383
 21
1012.9332855504
 31
0.0
  0
LINE
  5
1E7
330
1D9
100
AcDbEntity
  8
SLD-0
100
AcDbLine
 10
969.7442566383
 20
1012.9332855504
 30
0.0
 11
985.0005802747
 21
1012.9332855504
 31
0.0
  0
MTEXT
  5
1E8
330
1D9
100
AcDbEntity
  8
SLD-0
100
AcDbMText
 10
987.4142176649
 20
1030.5559835454
 30
0.0
 40
11.90625
 41
0.0
 71
     1
 72
     1
  1
 
  7
SLDTEXTSTYLE0
 73
     1
 44
1.0
  0
MTEXT
  5
1E9
330
1D9
100
AcDbEntity
  8
SLD-0
100
AcDbMText
 10
999.0448591942
 20
1030.5559847096
 30
0.0
 40
11.90625
 41
0.0
 71
     1
 72
     1
  1
56.0
  7
SLDTEXTSTYLE0
 73
     1
 44
1.0
  0
MTEXT
  5
1EA
330
1D9
100
AcDbEntity
  8
SLD-0
100
AcDbMText
 10
999.0448603584
 20
1009.2239538265
 30
0.0
 40
11.90625
 41
0.0
 71
     1
 72
     1
  1
2.21
  7
SLDTEXTSTYLE0
 73
     1
 44
1.0
  0
MTEXT
  5
1EB
330
1D9
100
AcDbEntity
  8
SLD-0
100
AcDbMText
 10
1037.0676900437
 20
1030.5559835454
 30
0.0
 40
11.90625
 41
0.0
 71
     1
 72
     1
  1
 
  7
SLDTEXTSTYLE0
 73
     1
 44
1.0
  0
ENDBLK
  5
1DB
330
1D9
100
AcDbEntity
  8
0
100
AcDbBlockEnd
  0
BLOCK
  5
1EE
330
1ED
100
AcDbEntity
  8
0
100
AcDbBlockBegin
  2
_D_5
 70
     0
 10
0.0
 20
0.0
 30
0.0
  3
_D_5
  1

  0
SOLID
  5
1F0
330
1ED
100
AcDbEntity
  8
SLD-0
100
AcDbTrace
 10
859.7582566383
 20
1287.025415642
 30
0.0
 11
869.7582566383
 21
1285.775415642
 31
0.0
 12
869.7582566383
 22
1288.275415642
 32
0.0
 13
869.7582566383
 23
1288.275415642
 33
0.0
  0
SOLID
  5
1F1
330
1ED
100
AcDbEntity
  8
SLD-0
100
AcDbTrace
 10
969.7442566383
 20
1287.025415642
 30
0.0
 11
959.7442566383
 21
1288.275415642
 31
0.0
 12
959.7442566383
 22
1285.775415642
 32
0.0
 13
959.7442566383
 23
1285.775415642
 33
0.0
  0
LINE
  5
1F2
330
1ED
100
AcDbEntity
  8
SLD-0
100
AcDbLine
 10
899.3613257158
 20
1287.0254179703
 30
0.0
 11
895.7398412136
 21
1287.0254179703
 31
0.0
  0
LINE
  5
1F3
330
1ED
100
AcDbEntity
  8
SLD-0
100
AcDbLine
 10
895.7398412136
 20
1287.0254179703
 30
0.0
 11
895.7398412136
 21
1268.1077093126
 31
0.0
  0
LINE
  5
1F4
330
1ED
100
AcDbEntity
  8
SLD-0
100
AcDbLine
 10
895.7398412136
 20
1268.1077093126
 30
0.0
 11
899.3613257158
 21
1268.1077093126
 31
0.0
  0
LINE
  5
1F5
330
1ED
100
AcDbEntity
  8
SLD-0
100
AcDbLine
 10
930.1411875609
 20
1287.0254179703
 30
0.0
 11
933.7626720631
 21
1287.0254179703
 31
0.0
  0
LINE
  5
1F6
330
1ED
100
AcDbEntity
  8
SLD-0
100
AcDbLine
 10
933.7626720631
 20
1287.0254179703
 30
0.0
 11
933.7626720631
 21
1268.1077093126
 31
0.0
  0
LINE
  5
1F7
330
1ED
100
AcDbEntity
  8
SLD-0
100
AcDbLine
 10
933.7626720631
 20
1268.1077093126
 30
0.0
 11
930.1411875609
 21
1268.1077093126
 31
0.0
  0
LINE
  5
1F8
330
1ED
100
AcDbEntity
  8
SLD-0
100
AcDbLine
 10
859.7582566383
 20
1159.635415642
 30
0.0
 11
859.7582566383
 21
1290.835415642
 31
0.0
  0
LINE
  5
1F9
330
1ED
100
AcDbEntity
  8
SLD-0
100
AcDbLine
 10
969.7442566383
 20
1149.0627923444
 30
0.0
 11
969.7442566383
 21
1290.835415642
 31
0.0
  0
LINE
  5
1FA
330
1ED
100
AcDbEntity
  8
SLD-0
100
AcDbLine
 10
859.7582566383
 20
1287.025415642
 30
0.0
 11
885.3170456321
 21
1287.025415642
 31
0.0
  0
LINE
  5
1FB
330
1ED
100
AcDbEntity
  8
SLD-0
100
AcDbLine
 10
969.7442566383
 20
1287.025415642
 30
0.0
 11
944.1854676446
 21
1287.025415642
 31
0.0
  0
MTEXT
  5
1FC
330
1ED
100
AcDbEntity
  8
SLD-0
100
AcDbMText
 10
887.7306830223
 20
1304.648113637
 30
0.0
 40
11.90625
 41
0.0
 71
     1
 72
     1
  1
 
  7
SLDTEXTSTYLE0
 73
     1
 44
1.0
  0
MTEXT
  5
1FD
330
1ED
100
AcDbEntity
  8
SLD-0
100
AcDbMText
 10
894.9626274958
 20
1304.6481148012
 30
0.0
 40
11.90625
 41
0.0
 71
     1
 72
     1
  1
110.0
  7
SLDTEXTSTYLE0
 73
     1
 44
1.0
  0
MTEXT
  5
1FE
330
1ED
100
AcDbEntity
  8
SLD-0
100
AcDbMText
 10
899.3613257158
 20
1283.3160839181
 30
0.0
 40
11.90625
 41
0.0
 71
     1
 72
     1
  1
4.33
  7
SLDTEXTSTYLE0
 73
     1
 44
1.0
  0
MTEXT
  5
1FF
330
1ED
100
AcDbEntity
  8
SLD-0
100
AcDbMText
 10
937.3841554011
 20
1304.648113637
 30
0.0
 40
11.90625
 41
0.0
 71
     1
 72
     1
  1
 
  7
SLDTEXTSTYLE0
 73
     1
 44
1.0
  0
ENDBLK
  5
1EF
330
1ED
100
AcDbEntity
  8
0
100
AcDbBlockEnd
  0
BLOCK
  5
202
330
201
100
AcDbEntity
  8
0
100
AcDbBlockBegin
  2
_D_6
 70
     0
 10
0.0
 20
0.0
 30
0.0
  3
_D_6
  1

  0
SOLID
  5
204
330
201
100
AcDbEntity
  8
SLD-0
100
AcDbTrace
 10
1101.9636995872
 20
1144.825415642
 30
0.0
 11
1103.2136995872
 21
1154.825415642
 31
0.0
 12
1100.7136995872
 22
1154.825415642
 32
0.0
 13
1100.7136995872
 23
1154.825415642
 33
0.0
  0
SOLID
  5
205
330
201
100
AcDbEntity
  8
SLD-0
100
AcDbTrace
 10
1101.9636995872
 20
1237.025415642
 30
0.0
 11
1100.7136995872
 21
1227.025415642
 31
0.0
 12
1103.2136995872
 22
1227.025415642
 32
0.0
 13
1103.2136995872
 23
1227.025415642
 33
0.0
  0
LINE
  5
206
330
201
100
AcDbEntity
  8
SLD-0
100
AcDbLine
 10
1086.5737686647
 20
1190.9254179703
 30
0.0
 11
1082.9522841625
 21
1190.9254179703
 31
0.0
  0
LINE
  5
207
330
201
100
AcDbEntity
  8
SLD-0
100
AcDbLine
 10
1082.9522841625
 20
1190.9254179703
 30
0.0
 11
1082.9522841625
 21
1172.0077093126
 31
0.0
  0
LINE
  5
208
330
201
100
AcDbEntity
  8
SLD-0
100
AcDbLine
 10
1082.9522841625
 20
1172.0077093126
 30
0.0
 11
1086.5737686647
 21
1172.0077093126
 31
0.0
  0
LINE
  5
209
330
201
100
AcDbEntity
  8
SLD-0
100
AcDbLine
 10
1117.3536305098
 20
1190.9254179703
 30
0.0
 11
1120.975115012
 21
1190.9254179703
 31
0.0
  0
LINE
  5
20A
330
201
100
AcDbEntity
  8
SLD-0
100
AcDbLine
 10
1120.975115012
 20
1190.9254179703
 30
0.0
 11
1120.975115012
 21
1172.0077093126
 31
0.0
  0
LINE
  5
20B
330
201
100
AcDbEntity
  8
SLD-0
100
AcDbLine
 10
1120.975115012
 20
1172.0077093126
 30
0.0
 11
1117.3536305098
 21
1172.0077093126
 31
0.0
  0
LINE
  5
20C
330
201
100
AcDbEntity
  8
SLD-0
100
AcDbLine
 10
874.5682566383
 20
1144.825415642
 30
0.0
 11
1105.7736995872
 21
1144.825415642
 31
0.0
  0
LINE
  5
20D
330
201
100
AcDbEntity
  8
SLD-0
100
AcDbLine
 10
920.5693078732
 20
1237.025415642
 30
0.0
 11
1105.7736995872
 21
1237.025415642
 31
0.0
  0
LINE
  5
20E
330
201
100
AcDbEntity
  8
SLD-0
100
AcDbLine
 10
1101.9636995872
 20
1144.825415642
 30
0.0
 11
1101.9636995872
 21
1169.5933835948
 31
0.0
  0
LINE
  5
20F
330
201
100
AcDbEntity
  8
SLD-0
100
AcDbLine
 10
1101.9636995872
 20
1237.025415642
 30
0.0
 11
1101.9636995872
 21
1212.2574476892
 31
0.0
  0
MTEXT
  5
210
330
201
100
AcDbEntity
  8
SLD-0
100
AcDbMText
 10
1074.9431259712
 20
1208.548113637
 30
0.0
 40
11.90625
 41
0.0
 71
     1
 72
     1
  1
 
  7
SLDTEXTSTYLE0
 73
     1
 44
1.0
  0
MTEXT
  5
211
330
201
100
AcDbEntity
  8
SLD-0
100
AcDbMText
 10
1086.5737675005
 20
1208.5481148012
 30
0.0
 40
11.90625
 41
0.0
 71
     1
 72
     1
  1
92.2
  7
SLDTEXTSTYLE0
 73
     1
 44
1.0
  0
MTEXT
  5
212
330
201
100
AcDbEntity
  8
SLD-0
100
AcDbMText
 10
1086.5737686647
 20
1187.2160839181
 30
0.0
 40
11.90625
 41
0.0
 71
     1
 72
     1
  1
3.63
  7
SLDTEXTSTYLE0
 73
     1
 44
1.0
  0
MTEXT
  5
213
330
201
100
AcDbEntity
  8
SLD-0
100
AcDbMText
 10
1124.59659835
 20
1208.548113637
 30
0.0
 40
11.90625
 41
0.0
 71
     1
 72
     1
  1
 
  7
SLDTEXTSTYLE0
 73
     1
 44
1.0
  0
ENDBLK
  5
203
330
201
100
AcDbEntity
  8
0
100
AcDbBlockEnd
  0
BLOCK
  5
217
330
216
100
AcDbEntity
  8
0
100
AcDbBlockBegin
  2
_D_7
 70
     0
 10
0.0
 20
0.0
 30
0.0
  3
_D_7
  1

  0
SOLID
  5
219
330
216
100
AcDbEntity
  8
SLD-0
100
AcDbTrace
 10
1031.7580228153
 20
1237.025415642
 30
0.0
 11
1033.0080228153
 21
1247.025415642
 31
0.0
 12
1030.5080228153
 22
1247.025415642
 32
0.0
 13
1030.5080228153
 23
1247.025415642
 33
0.0
  0
SOLID
  5
21A
330
216
100
AcDbEntity
  8
SLD-0
100
AcDbTrace
 10
1031.7580228153
 20
1170.425415642
 30
0.0
 11
1030.5080228153
 21
1160.425415642
 31
0.0
 12
1033.0080228153
 22
1160.425415642
 32
0.0
 13
1033.0080228153
 23
1160.425415642
 33
0.0
  0
LINE
  5
21B
330
216
100
AcDbEntity
  8
SLD-0
100
AcDbLine
 10
1016.3680918928
 20
1203.7254179703
 30
0.0
 11
1012.7466073905
 21
1203.7254179703
 31
0.0
  0
LINE
  5
21C
330
216
100
AcDbEntity
  8
SLD-0
100
AcDbLine
 10
1012.7466073905
 20
1203.7254179703
 30
0.0
 11
1012.7466073905
 21
1184.8077093126
 31
0.0
  0
LINE
  5
21D
330
216
100
AcDbEntity
  8
SLD-0
100
AcDbLine
 10
1012.7466073905
 20
1184.8077093126
 30
0.0
 11
1016.3680918928
 21
1184.8077093126
 31
0.0
  0
LINE
  5
21E
330
216
100
AcDbEntity
  8
SLD-0
100
AcDbLine
 10
1047.1479537378
 20
1203.7254179703
 30
0.0
 11
1050.7694382401
 21
1203.7254179703
 31
0.0
  0
LINE
  5
21F
330
216
100
AcDbEntity
  8
SLD-0
100
AcDbLine
 10
1050.7694382401
 20
1203.7254179703
 30
0.0
 11
1050.7694382401
 21
1184.8077093126
 31
0.0
  0
LINE
  5
220
330
216
100
AcDbEntity
  8
SLD-0
100
AcDbLine
 10
1050.7694382401
 20
1184.8077093126
 30
0.0
 11
1047.1479537378
 21
1184.8077093126
 31
0.0
  0
LINE
  5
221
330
216
100
AcDbEntity
  8
SLD-0
100
AcDbLine
 10
920.5693078732
 20
1237.025415642
 30
0.0
 11
1035.5680228153
 21
1237.025415642
 31
0.0
  0
LINE
  5
222
330
216
100
AcDbEntity
  8
SLD-0
100
AcDbLine
 10
926.5182566383
 20
1170.425415642
 30
0.0
 11
1035.5680228153
 21
1170.425415642
 31
0.0
  0
LINE
  5
223
330
216
100
AcDbEntity
  8
SLD-0
100
AcDbLine
 10
1031.7580228153
 20
1237.025415642
 30
0.0
 11
1031.7580228153
 21
1257.025415642
 31
0.0
  0
LINE
  5
224
330
216
100
AcDbEntity
  8
SLD-0
100
AcDbLine
 10
1031.7580228153
 20
1170.425415642
 30
0.0
 11
1031.7580228153
 21
1150.425415642
 31
0.0
  0
MTEXT
  5
225
330
216
100
AcDbEntity
  8
SLD-0
100
AcDbMText
 10
1004.7374491993
 20
1221.348113637
 30
0.0
 40
11.90625
 41
0.0
 71
     1
 72
     1
  1
 
  7
SLDTEXTSTYLE0
 73
     1
 44
1.0
  0
MTEXT
  5
226
330
216
100
AcDbEntity
  8
SLD-0
100
AcDbMText
 10
1016.3680907286
 20
1221.3481148012
 30
0.0
 40
11.90625
 41
0.0
 71
     1
 72
     1
  1
66.6
  7
SLDTEXTSTYLE0
 73
     1
 44
1.0
  0
MTEXT
  5
227
330
216
100
AcDbEntity
  8
SLD-0
100
AcDbMText
 10
1016.3680918928
 20
1200.0160839181
 30
0.0
 40
11.90625
 41
0.0
 71
     1
 72
     1
  1
2.62
  7
SLDTEXTSTYLE0
 73
     1
 44
1.0
  0
MTEXT
  5
228
330
216
100
AcDbEntity
  8
SLD-0
100
AcDbMText
 10
1054.3909215781
 20
1221.348113637
 30
0.0
 40
11.90625
 41
0.0
 71
     1
 72
     1
  1
 
  7
SLDTEXTSTYLE0
 73
     1
 44
1.0
  0
ENDBLK
  5
218
330
216
100
AcDbEntity
  8
0
100
AcDbBlockEnd
  0
BLOCK
  5
22B
330
22A
100
AcDbEntity
  8
0
100
AcDbBlockBegin
  2
SW_NOTE_0_1
 70
     0
 10
0.0
 20
0.0
 30
0.0
  3
SW_NOTE_0_1
  1

  0
LINE
  5
22D
330
22A
100
AcDbEntity
  8
SLD-0
 62
     0
100
AcDbLine
 10
-28.8582183187
 20
-14.6186951067
 30
0.0
 11
-28.8582183187
 21
14.239523212
 31
0.0
  0
LINE
  5
22E
330
22A
100
AcDbEntity
  8
SLD-0
 62
     0
100
AcDbLine
 10
-28.8582183187
 20
14.239523212
 30
0.0
 11
0.0
 21
14.239523212
 31
0.0
  0
LINE
  5
22F
330
22A
100
AcDbEntity
  8
SLD-0
 62
     0
100
AcDbLine
 10
0.0
 20
14.239523212
 30
0.0
 11
0.0
 21
-14.6186951067
 31
0.0
  0
LINE
  5
230
330
22A
100
AcDbEntity
  8
SLD-0
 62
     0
100
AcDbLine
 10
0.0
 20
-14.6186951067
 30
0.0
 11
-28.8582183187
 21
-14.6186951067
 31
0.0
  0
MTEXT
  5
231
330
22A
100
AcDbEntity
  8
SLD-0
 62
     0
100
AcDbMText
 10
-14.5489984946
 20
5.6068993547
 30
0.0
 40
11.90625
 41
0.0
 71
     2
 72
     1
  1
5
  7
SLDTEXTSTYLE0
 73
     1
 44
1.0
  0
ENDBLK
  5
22C
330
22A
100
AcDbEntity
  8
0
100
AcDbBlockEnd
  0
BLOCK
  5
236
330
235
100
AcDbEntity
  8
0
100
AcDbBlockBegin
  2
SW_NOTE_0_2
 70
     0
 10
0.0
 20
0.0
 30
0.0
  3
SW_NOTE_0_2
  1

  0
LINE
  5
238
330
235
100
AcDbEntity
  8
SLD-0
 62
     0
100
AcDbLine
 10
-28.8582183187
 20
-14.6186951067
 30
0.0
 11
-28.8582183187
 21
14.239523212
 31
0.0
  0
LINE
  5
239
330
235
100
AcDbEntity
  8
SLD-0
 62
     0
100
AcDbLine
 10
-28.8582183187
 20
14.239523212
 30
0.0
 11
0.0
 21
14.239523212
 31
0.0
  0
LINE
  5
23A
330
235
100
AcDbEntity
  8
SLD-0
 62
     0
100
AcDbLine
 10
0.0
 20
14.239523212
 30
0.0
 11
0.0
 21
-14.6186951067
 31
0.0
  0
LINE
  5
23B
330
235
100
AcDbEntity
  8
SLD-0
 62
     0
100
AcDbLine
 10
0.0
 20
-14.6186951067
 30
0.0
 11
-28.8582183187
 21
-14.6186951067
 31
0.0
  0
MTEXT
  5
23C
330
235
100
AcDbEntity
  8
SLD-0
 62
     0
100
AcDbMText
 10
-14.5489984946
 20
5.6068993547
 30
0.0
 40
11.90625
 41
0.0
 71
     2
 72
     1
  1
4
  7
SLDTEXTSTYLE0
 73
     1
 44
1.0
  0
ENDBLK
  5
237
330
235
100
AcDbEntity
  8
0
100
AcDbBlockEnd
  0
BLOCK
  5
241
330
240
100
AcDbEntity
  8
0
100
AcDbBlockBegin
  2
SW_CENTERMARKSYMBOL_0
 70
     0
 10
0.0
 20
0.0
 30
0.0
  3
SW_CENTERMARKSYMBOL_0
  1

  0
LINE
  5
243
330
240
100
AcDbEntity
  8
SLD-0
 62
     0
100
AcDbLine
 10
0.0
 20
0.0
 30
0.0
 11
0.0
 21
2.0
 31
0.0
  0
LINE
  5
244
330
240
100
AcDbEntity
  8
SLD-0
 62
     0
100
AcDbLine
 10
0.0
 20
0.0
 30
0.0
 11
-2.0
 21
0.0
 31
0.0
  0
LINE
  5
245
330
240
100
AcDbEntity
  8
SLD-0
 62
     0
100
AcDbLine
 10
0.0
 20
0.0
 30
0.0
 11
0.0
 21
-2.0
 31
0.0
  0
LINE
  5
246
330
240
100
AcDbEntity
  8
SLD-0
 62
     0
100
AcDbLine
 10
0.0
 20
0.0
 30
0.0
 11
2.0
 21
0.0
 31
0.0
  0
LINE
  5
247
330
240
100
AcDbEntity
  8
SLD-0
 62
     0
100
AcDbLine
 10
0.0
 20
4.0
 30
0.0
 11
0.0
 21
9.0
 31
0.0
  0
LINE
  5
248
330
240
100
AcDbEntity
  8
SLD-0
 62
     0
100
AcDbLine
 10
-4.0
 20
0.0
 30
0.0
 11
-9.0
 21
0.0
 31
0.0
  0
LINE
  5
249
330
240
100
AcDbEntity
  8
SLD-0
 62
     0
100
AcDbLine
 10
0.0
 20
-4.0
 30
0.0
 11
0.0
 21
-9.0
 31
0.0
  0
LINE
  5
24A
330
240
100
AcDbEntity
  8
SLD-0
 62
     0
100
AcDbLine
 10
4.0
 20
0.0
 30
0.0
 11
9.0
 21
0.0
 31
0.0
  0
ENDBLK
  5
242
330
240
100
AcDbEntity
  8
0
100
AcDbBlockEnd
  0
BLOCK
  5
24D
330
24C
100
AcDbEntity
  8
0
100
AcDbBlockBegin
  2
SW_CENTERMARKSYMBOL_1
 70
     0
 10
0.0
 20
0.0
 30
0.0
  3
SW_CENTERMARKSYMBOL_1
  1

  0
LINE
  5
24F
330
24C
100
AcDbEntity
  8
SLD-0
 62
     0
100
AcDbLine
 10
0.0
 20
0.0
 30
0.0
 11
0.0
 21
2.0
 31
0.0
  0
LINE
  5
250
330
24C
100
AcDbEntity
  8
SLD-0
 62
     0
100
AcDbLine
 10
0.0
 20
0.0
 30
0.0
 11
-2.0
 21
0.0
 31
0.0
  0
LINE
  5
251
330
24C
100
AcDbEntity
  8
SLD-0
 62
     0
100
AcDbLine
 10
0.0
 20
0.0
 30
0.0
 11
0.0
 21
-2.0
 31
0.0
  0
LINE
  5
252
330
24C
100
AcDbEntity
  8
SLD-0
 62
     0
100
AcDbLine
 10
0.0
 20
0.0
 30
0.0
 11
2.0
 21
0.0
 31
0.0
  0
LINE
  5
253
330
24C
100
AcDbEntity
  8
SLD-0
 62
     0
100
AcDbLine
 10
0.0
 20
4.0
 30
0.0
 11
0.0
 21
9.0
 31
0.0
  0
LINE
  5
254
330
24C
100
AcDbEntity
  8
SLD-0
 62
     0
100
AcDbLine
 10
-4.0
 20
0.0
 30
0.0
 11
-9.0
 21
0.0
 31
0.0
  0
LINE
  5
255
330
24C
100
AcDbEntity
  8
SLD-0
 62
     0
100
AcDbLine
 10
0.0
 20
-4.0
 30
0.0
 11
0.0
 21
-9.0
 31
0.0
  0
LINE
  5
256
330
24C
100
AcDbEntity
  8
SLD-0
 62
     0
100
AcDbLine
 10
4.0
 20
0.0
 30
0.0
 11
9.0
 21
0.0
 31
0.0
  0
ENDBLK
  5
24E
330
24C
100
AcDbEntity
  8
0
100
AcDbBlockEnd
  0
BLOCK
  5
259
330
258
100
AcDbEntity
  8
0
100
AcDbBlockBegin
  2
SW_CENTERMARKSYMBOL_2
 70
     0
 10
0.0
 20
0.0
 30
0.0
  3
SW_CENTERMARKSYMBOL_2
  1

  0
LINE
  5
25B
330
258
100
AcDbEntity
  8
SLD-0
 62
     0
100
AcDbLine
 10
0.0
 20
0.0
 30
0.0
 11
0.0
 21
2.0
 31
0.0
  0
LINE
  5
25C
330
258
100
AcDbEntity
  8
SLD-0
 62
     0
100
AcDbLine
 10
0.0
 20
0.0
 30
0.0
 11
-2.0
 21
0.0
 31
0.0
  0
LINE
  5
25D
330
258
100
AcDbEntity
  8
SLD-0
 62
     0
100
AcDbLine
 10
0.0
 20
0.0
 30
0.0
 11
0.0
 21
-2.0
 31
0.0
  0
LINE
  5
25E
330
258
100
AcDbEntity
  8
SLD-0
 62
     0
100
AcDbLine
 10
0.0
 20
0.0
 30
0.0
 11
2.0
 21
0.0
 31
0.0
  0
LINE
  5
25F
330
258
100
AcDbEntity
  8
SLD-0
 62
     0
100
AcDbLine
 10
0.0
 20
4.0
 30
0.0
 11
0.0
 21
11.0
 31
0.0
  0
LINE
  5
260
330
258
100
AcDbEntity
  8
SLD-0
 62
     0
100
AcDbLine
 10
-4.0
 20
0.0
 30
0.0
 11
-11.0
 21
0.0
 31
0.0
  0
LINE
  5
261
330
258
100
AcDbEntity
  8
SLD-0
 62
     0
100
AcDbLine
 10
0.0
 20
-4.0
 30
0.0
 11
0.0
 21
-11.0
 31
0.0
  0
LINE
  5
262
330
258
100
AcDbEntity
  8
SLD-0
 62
     0
100
AcDbLine
 10
4.0
 20
0.0
 30
0.0
 11
11.0
 21
0.0
 31
0.0
  0
ENDBLK
  5
25A
330
258
100
AcDbEntity
  8
0
100
AcDbBlockEnd
  0
BLOCK
  5
265
330
264
100
AcDbEntity
  8
0
100
AcDbBlockBegin
  2
SW_CENTERMARKSYMBOL_3
 70
     0
 10
0.0
 20
0.0
 30
0.0
  3
SW_CENTERMARKSYMBOL_3
  1

  0
LINE
  5
267
330
264
100
AcDbEntity
  8
SLD-0
 62
     0
100
AcDbLine
 10
0.0
 20
0.0
 30
0.0
 11
0.0
 21
2.0
 31
0.0
  0
LINE
  5
268
330
264
100
AcDbEntity
  8
SLD-0
 62
     0
100
AcDbLine
 10
0.0
 20
0.0
 30
0.0
 11
-2.0
 21
0.0
 31
0.0
  0
LINE
  5
269
330
264
100
AcDbEntity
  8
SLD-0
 62
     0
100
AcDbLine
 10
0.0
 20
0.0
 30
0.0
 11
0.0
 21
-2.0
 31
0.0
  0
LINE
  5
26A
330
264
100
AcDbEntity
  8
SLD-0
 62
     0
100
AcDbLine
 10
0.0
 20
0.0
 30
0.0
 11
2.0
 21
0.0
 31
0.0
  0
LINE
  5
26B
330
264
100
AcDbEntity
  8
SLD-0
 62
     0
100
AcDbLine
 10
0.0
 20
4.0
 30
0.0
 11
0.0
 21
9.0
 31
0.0
  0
LINE
  5
26C
330
264
100
AcDbEntity
  8
SLD-0
 62
     0
100
AcDbLine
 10
-4.0
 20
0.0
 30
0.0
 11
-9.0
 21
0.0
 31
0.0
  0
LINE
  5
26D
330
264
100
AcDbEntity
  8
SLD-0
 62
     0
100
AcDbLine
 10
0.0
 20
-4.0
 30
0.0
 11
0.0
 21
-9.0
 31
0.0
  0
LINE
  5
26E
330
264
100
AcDbEntity
  8
SLD-0
 62
     0
100
AcDbLine
 10
4.0
 20
0.0
 30
0.0
 11
9.0
 21
0.0
 31
0.0
  0
ENDBLK
  5
266
330
264
100
AcDbEntity
  8
0
100
AcDbBlockEnd
  0
BLOCK
  5
271
330
270
100
AcDbEntity
  8
0
100
AcDbBlockBegin
  2
SW_CENTERMARKSYMBOL_4
 70
     0
 10
0.0
 20
0.0
 30
0.0
  3
SW_CENTERMARKSYMBOL_4
  1

  0
LINE
  5
273
330
270
100
AcDbEntity
  8
SLD-0
 62
     0
100
AcDbLine
 10
0.0
 20
0.0
 30
0.0
 11
0.0
 21
2.0
 31
0.0
  0
LINE
  5
274
330
270
100
AcDbEntity
  8
SLD-0
 62
     0
100
AcDbLine
 10
0.0
 20
0.0
 30
0.0
 11
-2.0
 21
0.0
 31
0.0
  0
LINE
  5
275
330
270
100
AcDbEntity
  8
SLD-0
 62
     0
100
AcDbLine
 10
0.0
 20
0.0
 30
0.0
 11
0.0
 21
-2.0
 31
0.0
  0
LINE
  5
276
330
270
100
AcDbEntity
  8
SLD-0
 62
     0
100
AcDbLine
 10
0.0
 20
0.0
 30
0.0
 11
2.0
 21
0.0
 31
0.0
  0
LINE
  5
277
330
270
100
AcDbEntity
  8
SLD-0
 62
     0
100
AcDbLine
 10
0.0
 20
4.0
 30
0.0
 11
0.0
 21
9.0
 31
0.0
  0
LINE
  5
278
330
270
100
AcDbEntity
  8
SLD-0
 62
     0
100
AcDbLine
 10
-4.0
 20
0.0
 30
0.0
 11
-9.0
 21
0.0
 31
0.0
  0
LINE
  5
279
330
270
100
AcDbEntity
  8
SLD-0
 62
     0
100
AcDbLine
 10
0.0
 20
-4.0
 30
0.0
 11
0.0
 21
-9.0
 31
0.0
  0
LINE
  5
27A
330
270
100
AcDbEntity
  8
SLD-0
 62
     0
100
AcDbLine
 10
4.0
 20
0.0
 30
0.0
 11
9.0
 21
0.0
 31
0.0
  0
ENDBLK
  5
272
330
270
100
AcDbEntity
  8
0
100
AcDbBlockEnd
  0
BLOCK
  5
292
330
291
100
AcDbEntity
  8
0
100
AcDbBlockBegin
  2
_D_8
 70
     0
 10
0.0
 20
0.0
 30
0.0
  3
_D_8
  1

  0
SOLID
  5
294
330
291
100
AcDbEntity
  8
SLD-0
100
AcDbTrace
 10
1017.0719415762
 20
273.3807156364
 30
0.0
 11
1015.8219415762
 21
263.3807156364
 31
0.0
 12
1018.3219415762
 22
263.3807156364
 32
0.0
 13
1018.3219415762
 23
263.3807156364
 33
0.0
  0
SOLID
  5
295
330
291
100
AcDbEntity
  8
SLD-0
100
AcDbTrace
 10
1017.0719415762
 20
182.9007156364
 30
0.0
 11
1018.3219415762
 21
192.9007156364
 31
0.0
 12
1015.8219415762
 22
192.9007156364
 32
0.0
 13
1015.8219415762
 23
192.9007156364
 33
0.0
  0
LINE
  5
296
330
291
100
AcDbEntity
  8
SLD-0
100
AcDbLine
 10
1001.6820106537
 20
228.1407179647
 30
0.0
 11
998.0605261515
 21
228.1407179647
 31
0.0
  0
LINE
  5
297
330
291
100
AcDbEntity
  8
SLD-0
100
AcDbLine
 10
998.0605261515
 20
228.1407179647
 30
0.0
 11
998.0605261515
 21
209.223009307
 31
0.0
  0
LINE
  5
298
330
291
100
AcDbEntity
  8
SLD-0
100
AcDbLine
 10
998.0605261515
 20
209.223009307
 30
0.0
 11
1001.6820106537
 21
209.223009307
 31
0.0
  0
LINE
  5
299
330
291
100
AcDbEntity
  8
SLD-0
100
AcDbLine
 10
1032.4618724988
 20
228.1407179647
 30
0.0
 11
1036.083357001
 21
228.1407179647
 31
0.0
  0
LINE
  5
29A
330
291
100
AcDbEntity
  8
SLD-0
100
AcDbLine
 10
1036.083357001
 20
228.1407179647
 30
0.0
 11
1036.083357001
 21
209.223009307
 31
0.0
  0
LINE
  5
29B
330
291
100
AcDbEntity
  8
SLD-0
100
AcDbLine
 10
1036.083357001
 20
209.223009307
 30
0.0
 11
1032.4618724988
 21
209.223009307
 31
0.0
  0
LINE
  5
29C
330
291
100
AcDbEntity
  8
SLD-0
100
AcDbLine
 10
868.4912642119
 20
273.3807156364
 30
0.0
 11
1020.8819415762
 21
273.3807156364
 31
0.0
  0
LINE
  5
29D
330
291
100
AcDbEntity
  8
SLD-0
100
AcDbLine
 10
920.5693078732
 20
182.9007156364
 30
0.0
 11
1020.8819415762
 21
182.9007156364
 31
0.0
  0
LINE
  5
29E
330
291
100
AcDbEntity
  8
SLD-0
100
AcDbLine
 10
1017.0719415762
 20
273.3807156364
 30
0.0
 11
1017.0719415762
 21
249.4727476836
 31
0.0
  0
LINE
  5
29F
330
291
100
AcDbEntity
  8
SLD-0
100
AcDbLine
 10
1017.0719415762
 20
182.9007156364
 30
0.0
 11
1017.0719415762
 21
206.8086835891
 31
0.0
  0
MTEXT
  5
2A0
330
291
100
AcDbEntity
  8
SLD-0
100
AcDbMText
 10
990.0513679602
 20
245.7634136314
 30
0.0
 40
11.90625
 41
0.0
 71
     1
 72
     1
  1
 
  7
SLDTEXTSTYLE0
 73
     1
 44
1.0
  0
MTEXT
  5
2A1
330
291
100
AcDbEntity
  8
SLD-0
100
AcDbMText
 10
1001.6820094895
 20
245.7634147955
 30
0.0
 40
11.90625
 41
0.0
 71
     1
 72
     1
  1
90.5
  7
SLDTEXTSTYLE0
 73
     1
 44
1.0
  0
MTEXT
  5
2A2
330
291
100
AcDbEntity
  8
SLD-0
100
AcDbMText
 10
1001.6820106537
 20
224.4313839125
 30
0.0
 40
11.90625
 41
0.0
 71
     1
 72
     1
  1
3.56
  7
SLDTEXTSTYLE0
 73
     1
 44
1.0
  0
MTEXT
  5
2A3
330
291
100
AcDbEntity
  8
SLD-0
100
AcDbMText
 10
1039.7048403391
 20
245.7634136314
 30
0.0
 40
11.90625
 41
0.0
 71
     1
 72
     1
  1
 
  7
SLDTEXTSTYLE0
 73
     1
 44
1.0
  0
ENDBLK
  5
293
330
291
100
AcDbEntity
  8
0
100
AcDbBlockEnd
  0
BLOCK
  5
2A6
330
2A5
100
AcDbEntity
  8
0
100
AcDbBlockBegin
  2
_D_9
 70
     0
 10
0.0
 20
0.0
 30
0.0
  3
_D_9
  1

  0
SOLID
  5
2A8
330
2A5
100
AcDbEntity
  8
SLD-0
100
AcDbTrace
 10
749.7722566383
 20
407.4258141157
 30
0.0
 11
759.7722566383
 21
406.1758141157
 31
0.0
 12
759.7722566383
 22
408.6758141157
 32
0.0
 13
759.7722566383
 23
408.6758141157
 33
0.0
  0
SOLID
  5
2A9
330
2A5
100
AcDbEntity
  8
SLD-0
100
AcDbTrace
 10
863.8582566383
 20
407.4258141157
 30
0.0
 11
853.8582566383
 21
408.6758141157
 31
0.0
 12
853.8582566383
 22
406.1758141157
 32
0.0
 13
853.8582566383
 23
406.1758141157
 33
0.0
  0
LINE
  5
2AA
330
2A5
100
AcDbEntity
  8
SLD-0
100
AcDbLine
 10
791.4253257158
 20
407.425816444
 30
0.0
 11
787.8038412136
 21
407.425816444
 31
0.0
  0
LINE
  5
2AB
330
2A5
100
AcDbEntity
  8
SLD-0
100
AcDbLine
 10
787.8038412136
 20
407.425816444
 30
0.0
 11
787.8038412136
 21
388.5081077863
 31
0.0
  0
LINE
  5
2AC
330
2A5
100
AcDbEntity
  8
SLD-0
100
AcDbLine
 10
787.8038412136
 20
388.5081077863
 30
0.0
 11
791.4253257158
 21
388.5081077863
 31
0.0
  0
LINE
  5
2AD
330
2A5
100
AcDbEntity
  8
SLD-0
100
AcDbLine
 10
822.2051875609
 20
407.425816444
 30
0.0
 11
825.8266720631
 21
407.425816444
 31
0.0
  0
LINE
  5
2AE
330
2A5
100
AcDbEntity
  8
SLD-0
100
AcDbLine
 10
825.8266720631
 20
407.425816444
 30
0.0
 11
825.8266720631
 21
388.5081077863
 31
0.0
  0
LINE
  5
2AF
330
2A5
100
AcDbEntity
  8
SLD-0
100
AcDbLine
 10
825.8266720631
 20
388.5081077863
 30
0.0
 11
822.2051875609
 21
388.5081077863
 31
0.0
  0
LINE
  5
2B0
330
2A5
100
AcDbEntity
  8
SLD-0
100
AcDbLine
 10
749.7722566383
 20
344.3396964929
 30
0.0
 11
749.7722566383
 21
411.2358141157
 31
0.0
  0
LINE
  5
2B1
330
2A5
100
AcDbEntity
  8
SLD-0
100
AcDbLine
 10
863.8582566383
 20
278.0137232099
 30
0.0
 11
863.8582566383
 21
411.2358141157
 31
0.0
  0
LINE
  5
2B2
330
2A5
100
AcDbEntity
  8
SLD-0
100
AcDbLine
 10
749.7722566383
 20
407.4258141157
 30
0.0
 11
777.3810456321
 21
407.4258141157
 31
0.0
  0
LINE
  5
2B3
330
2A5
100
AcDbEntity
  8
SLD-0
100
AcDbLine
 10
863.8582566383
 20
407.4258141157
 30
0.0
 11
836.2494676446
 21
407.4258141157
 31
0.0
  0
MTEXT
  5
2B4
330
2A5
100
AcDbEntity
  8
SLD-0
100
AcDbMText
 10
779.7946830223
 20
425.0485121108
 30
0.0
 40
11.90625
 41
0.0
 71
     1
 72
     1
  1
 
  7
SLDTEXTSTYLE0
 73
     1
 44
1.0
  0
MTEXT
  5
2B5
330
2A5
100
AcDbEntity
  8
SLD-0
100
AcDbMText
 10
787.0266274958
 20
425.0485132749
 30
0.0
 40
11.90625
 41
0.0
 71
     1
 72
     1
  1
114.1
  7
SLDTEXTSTYLE0
 73
     1
 44
1.0
  0
MTEXT
  5
2B6
330
2A5
100
AcDbEntity
  8
SLD-0
100
AcDbMText
 10
791.4253257158
 20
403.7164823918
 30
0.0
 40
11.90625
 41
0.0
 71
     1
 72
     1
  1
4.49
  7
SLDTEXTSTYLE0
 73
     1
 44
1.0
  0
MTEXT
  5
2B7
330
2A5
100
AcDbEntity
  8
SLD-0
100
AcDbMText
 10
829.4481554011
 20
425.0485121108
 30
0.0
 40
11.90625
 41
0.0
 71
     1
 72
     1
  1
 
  7
SLDTEXTSTYLE0
 73
     1
 44
1.0
  0
ENDBLK
  5
2A7
330
2A5
100
AcDbEntity
  8
0
100
AcDbBlockEnd
  0
BLOCK
  5
2BB
330
2BA
100
AcDbEntity
  8
0
100
AcDbBlockBegin
  2
_D_10
 70
     0
 10
0.0
 20
0.0
 30
0.0
  3
_D_10
  1

  0
ARC
  5
2BD
330
2BA
100
AcDbEntity
  8
SLD-0
100
AcDbCircle
 10
859.7582566383
 20
84.1719988126
 30
0.0
 40
66.40347840168965
100
AcDbArc
 50
60.0
 51
79.6128980094
  0
ARC
  5
2BE
330
2BA
100
AcDbEntity
  8
SLD-0
100
AcDbCircle
 10
859.7582566383
 20
84.1719988126
 30
0.0
 40
66.4034784016896
100
AcDbArc
 50
100.3871019906
 51
120.0
  0
SOLID
  5
2BF
330
2BA
100
AcDbEntity
  8
SLD-0
100
AcDbTrace
 10
892.9599958392
 20
141.6790980081
 30
0.0
 11
884.4930124754
 21
147.1446897161
 31
0.0
 12
883.40815862
 22
144.8923371432
 32
0.0
 13
883.40815862
 23
144.8923371432
 33
0.0
  0
SOLID
  5
2C0
330
2BA
100
AcDbEntity
  8
SLD-0
100
AcDbTrace
 10
826.5565174375
 20
141.6790980081
 30
0.0
 11
836.1083546566
 21
144.8923371432
 31
0.0
 12
835.0235008012
 22
147.1446897161
 32
0.0
 13
835.0235008012
 23
147.1446897161
 33
0.0
  0
LINE
  5
2C1
330
2BA
100
AcDbEntity
  8
SLD-0
100
AcDbLine
 10
914.8543078732
 20
179.6011588479
 30
0.0
 11
891.0549958392
 21
138.3795412197
 31
0.0
  0
LINE
  5
2C2
330
2BA
100
AcDbEntity
  8
SLD-0
100
AcDbLine
 10
804.6622054034
 20
179.6011588479
 30
0.0
 11
828.4615174375
 21
138.3795412197
 31
0.0
  0
MTEXT
  5
2C3
330
2BA
100
AcDbEntity
  8
SLD-0
100
AcDbMText
 10
847.7858604695
 20
156.324997491
 30
0.0
 40
11.90625
 41
0.0
 71
     1
 72
     1
  1
60°
  7
SLDTEXTSTYLE0
 73
     1
 44
1.0
  0
ENDBLK
  5
2BC
330
2BA
100
AcDbEntity
  8
0
100
AcDbBlockEnd
  0
BLOCK
  5
2C6
330
2C5
100
AcDbEntity
  8
0
100
AcDbBlockBegin
  2
SW_NOTE_0_3
 70
     0
 10
0.0
 20
0.0
 30
0.0
  3
SW_NOTE_0_3
  1

  0
LINE
  5
2C8
330
2C5
100
AcDbEntity
  8
SLD-0
 62
     0
100
AcDbLine
 10
0.0
 20
-15.2460476788
 30
0.0
 11
0.0
 21
13.6121706399
 31
0.0
  0
LINE
  5
2C9
330
2C5
100
AcDbEntity
  8
SLD-0
 62
     0
100
AcDbLine
 10
0.0
 20
13.6121706399
 30
0.0
 11
28.8582183187
 21
13.6121706399
 31
0.0
  0
LINE
  5
2CA
330
2C5
100
AcDbEntity
  8
SLD-0
 62
     0
100
AcDbLine
 10
28.8582183187
 20
13.6121706399
 30
0.0
 11
28.8582183187
 21
-15.2460476788
 31
0.0
  0
LINE
  5
2CB
330
2C5
100
AcDbEntity
  8
SLD-0
 62
     0
100
AcDbLine
 10
28.8582183187
 20
-15.2460476788
 30
0.0
 11
0.0
 21
-15.2460476788
 31
0.0
  0
MTEXT
  5
2CC
330
2C5
100
AcDbEntity
  8
SLD-0
 62
     0
100
AcDbMText
 10
14.3092198241
 20
4.9795467825
 30
0.0
 40
11.90625
 41
0.0
 71
     2
 72
     1
  1
4
  7
SLDTEXTSTYLE0
 73
     1
 44
1.0
  0
ENDBLK
  5
2C7
330
2C5
100
AcDbEntity
  8
0
100
AcDbBlockEnd
  0
BLOCK
  5
2D1
330
2D0
100
AcDbEntity
  8
0
100
AcDbBlockBegin
  2
SW_NOTE_0_4
 70
     0
 10
0.0
 20
0.0
 30
0.0
  3
SW_NOTE_0_4
  1

  0
LINE
  5
2D3
330
2D0
100
AcDbEntity
  8
SLD-0
 62
     0
100
AcDbLine
 10
-28.8582183187
 20
-14.6186951067
 30
0.0
 11
-28.8582183187
 21
14.239523212
 31
0.0
  0
LINE
  5
2D4
330
2D0
100
AcDbEntity
  8
SLD-0
 62
     0
100
AcDbLine
 10
-28.8582183187
 20
14.239523212
 30
0.0
 11
0.0
 21
14.239523212
 31
0.0
  0
LINE
  5
2D5
330
2D0
100
AcDbEntity
  8
SLD-0
 62
     0
100
AcDbLine
 10
0.0
 20
14.239523212
 30
0.0
 11
0.0
 21
-14.6186951067
 31
0.0
  0
LINE
  5
2D6
330
2D0
100
AcDbEntity
  8
SLD-0
 62
     0
100
AcDbLine
 10
0.0
 20
-14.6186951067
 30
0.0
 11
-28.8582183187
 21
-14.6186951067
 31
0.0
  0
MTEXT
  5
2D7
330
2D0
100
AcDbEntity
  8
SLD-0
 62
     0
100
AcDbMText
 10
-14.5489984946
 20
5.6068993547
 30
0.0
 40
11.90625
 41
0.0
 71
     2
 72
     1
  1
5
  7
SLDTEXTSTYLE0
 73
     1
 44
1.0
  0
ENDBLK
  5
2D2
330
2D0
100
AcDbEntity
  8
0
100
AcDbBlockEnd
  0
BLOCK
  5
2FB
330
2FA
100
AcDbEntity
  8
0
100
AcDbBlockBegin
  2
_D_11
 70
     0
 10
0.0
 20
0.0
 30
0.0
  3
_D_11
  1

  0
SOLID
  5
2FD
330
2FA
100
AcDbEntity
  8
SLD-0
100
AcDbTrace
 10
1202.2118657594
 20
867.5743042145
 30
0.0
 11
1212.2118657594
 21
866.3243042145
 31
0.0
 12
1212.2118657594
 22
868.8243042145
 32
0.0
 13
1212.2118657594
 23
868.8243042145
 33
0.0
  0
SOLID
  5
2FE
330
2FA
100
AcDbEntity
  8
SLD-0
100
AcDbTrace
 10
1382.76155587
 20
867.5743042145
 30
0.0
 11
1372.76155587
 21
868.8243042145
 31
0.0
 12
1372.76155587
 22
866.3243042145
 32
0.0
 13
1372.76155587
 23
866.3243042145
 33
0.0
  0
LINE
  5
2FF
330
2FA
100
AcDbEntity
  8
SLD-0
100
AcDbLine
 10
1277.0967798922
 20
867.5743065428
 30
0.0
 11
1273.47529539
 21
867.5743065428
 31
0.0
  0
LINE
  5
300
330
2FA
100
AcDbEntity
  8
SLD-0
100
AcDbLine
 10
1273.47529539
 20
867.5743065428
 30
0.0
 11
1273.47529539
 21
848.6565978851
 31
0.0
  0
LINE
  5
301
330
2FA
100
AcDbEntity
  8
SLD-0
100
AcDbLine
 10
1273.47529539
 20
848.6565978851
 30
0.0
 11
1277.0967798922
 21
848.6565978851
 31
0.0
  0
LINE
  5
302
330
2FA
100
AcDbEntity
  8
SLD-0
100
AcDbLine
 10
1307.8766417373
 20
867.5743065428
 30
0.0
 11
1311.4981262395
 21
867.5743065428
 31
0.0
  0
LINE
  5
303
330
2FA
100
AcDbEntity
  8
SLD-0
100
AcDbLine
 10
1311.4981262395
 20
867.5743065428
 30
0.0
 11
1311.4981262395
 21
848.6565978851
 31
0.0
  0
LINE
  5
304
330
2FA
100
AcDbEntity
  8
SLD-0
100
AcDbLine
 10
1311.4981262395
 20
848.6565978851
 30
0.0
 11
1307.8766417373
 21
848.6565978851
 31
0.0
  0
LINE
  5
305
330
2FA
100
AcDbEntity
  8
SLD-0
100
AcDbLine
 10
1202.2118657594
 20
805.3852167224
 30
0.0
 11
1202.2118657594
 21
871.3843042145
 31
0.0
  0
LINE
  5
306
330
2FA
100
AcDbEntity
  8
SLD-0
100
AcDbLine
 10
1382.76155587
 20
805.3852167224
 30
0.0
 11
1382.76155587
 21
871.3843042145
 31
0.0
  0
LINE
  5
307
330
2FA
100
AcDbEntity
  8
SLD-0
100
AcDbLine
 10
1202.2118657594
 20
867.5743042145
 30
0.0
 11
1263.0524998085
 21
867.5743042145
 31
0.0
  0
LINE
  5
308
330
2FA
100
AcDbEntity
  8
SLD-0
100
AcDbLine
 10
1382.76155587
 20
867.5743042145
 30
0.0
 11
1321.920921821
 21
867.5743042145
 31
0.0
  0
MTEXT
  5
309
330
2FA
100
AcDbEntity
  8
SLD-0
100
AcDbMText
 10
1265.4661371987
 20
885.1970022095
 30
0.0
 40
11.90625
 41
0.0
 71
     1
 72
     1
  1
 
  7
SLDTEXTSTYLE0
 73
     1
 44
1.0
  0
MTEXT
  5
30A
330
2FA
100
AcDbEntity
  8
SLD-0
100
AcDbMText
 10
1272.6980816722
 20
885.1970033737
 30
0.0
 40
11.90625
 41
0.0
 71
     1
 72
     1
  1
180.5
  7
SLDTEXTSTYLE0
 73
     1
 44
1.0
  0
MTEXT
  5
30B
330
2FA
100
AcDbEntity
  8
SLD-0
100
AcDbMText
 10
1277.0967798922
 20
863.8649724906
 30
0.0
 40
11.90625
 41
0.0
 71
     1
 72
     1
  1
7.11
  7
SLDTEXTSTYLE0
 73
     1
 44
1.0
  0
MTEXT
  5
30C
330
2FA
100
AcDbEntity
  8
SLD-0
100
AcDbMText
 10
1315.1196095776
 20
885.1970022095
 30
0.0
 40
11.90625
 41
0.0
 71
     1
 72
     1
  1
 
  7
SLDTEXTSTYLE0
 73
     1
 44
1.0
  0
ENDBLK
  5
2FC
330
2FA
100
AcDbEntity
  8
0
100
AcDbBlockEnd
  0
BLOCK
  5
32D
330
32C
100
AcDbEntity
  8
0
100
AcDbBlockBegin
  2
_D_12
 70
     0
 10
0.0
 20
0.0
 30
0.0
  3
_D_12
  1

  0
SOLID
  5
32F
330
32C
100
AcDbEntity
  8
SLD-0
100
AcDbTrace
 10
270.2895829964
 20
801.5752167224
 30
0.0
 11
269.0395829964
 21
791.5752167224
 31
0.0
 12
271.5395829964
 22
791.5752167224
 32
0.0
 13
271.5395829964
 23
791.5752167224
 33
0.0
  0
SOLID
  5
330
330
32C
100
AcDbEntity
  8
SLD-0
100
AcDbTrace
 10
270.2895829964
 20
485.1752167224
 30
0.0
 11
271.5395829964
 21
495.1752167224
 31
0.0
 12
269.0395829964
 22
495.1752167224
 32
0.0
 13
269.0395829964
 23
495.1752167224
 33
0.0
  0
LINE
  5
331
330
32C
100
AcDbEntity
  8
SLD-0
100
AcDbLine
 10
250.500955018
 20
643.3752190507
 30
0.0
 11
246.8794705157
 21
643.3752190507
 31
0.0
  0
LINE
  5
332
330
32C
100
AcDbEntity
  8
SLD-0
100
AcDbLine
 10
246.8794705157
 20
643.3752190507
 30
0.0
 11
246.8794705157
 21
624.457510393
 31
0.0
  0
LINE
  5
333
330
32C
100
AcDbEntity
  8
SLD-0
100
AcDbLine
 10
246.8794705157
 20
624.457510393
 30
0.0
 11
250.500955018
 21
624.457510393
 31
0.0
  0
LINE
  5
334
330
32C
100
AcDbEntity
  8
SLD-0
100
AcDbLine
 10
290.0782109748
 20
643.3752190507
 30
0.0
 11
293.699695477
 21
643.3752190507
 31
0.0
  0
LINE
  5
335
330
32C
100
AcDbEntity
  8
SLD-0
100
AcDbLine
 10
293.699695477
 20
643.3752190507
 30
0.0
 11
293.699695477
 21
624.457510393
 31
0.0
  0
LINE
  5
336
330
32C
100
AcDbEntity
  8
SLD-0
100
AcDbLine
 10
293.699695477
 20
624.457510393
 30
0.0
 11
290.0782109748
 21
624.457510393
 31
0.0
  0
LINE
  5
337
330
32C
100
AcDbEntity
  8
SLD-0
100
AcDbLine
 10
350.3138361853
 20
801.5752167224
 30
0.0
 11
266.4795829964
 21
801.5752167224
 31
0.0
  0
LINE
  5
338
330
32C
100
AcDbEntity
  8
SLD-0
100
AcDbLine
 10
350.3138361853
 20
485.1752167224
 30
0.0
 11
266.4795829964
 21
485.1752167224
 31
0.0
  0
LINE
  5
339
330
32C
100
AcDbEntity
  8
SLD-0
100
AcDbLine
 10
270.2895829964
 20
801.5752167224
 30
0.0
 11
270.2895829964
 21
664.7072487696
 31
0.0
  0
LINE
  5
33A
330
32C
100
AcDbEntity
  8
SLD-0
100
AcDbLine
 10
270.2895829964
 20
485.1752167224
 30
0.0
 11
270.2895829964
 21
622.0431846751
 31
0.0
  0
MTEXT
  5
33B
330
32C
100
AcDbEntity
  8
SLD-0
100
AcDbMText
 10
238.8703123245
 20
660.9979147174
 30
0.0
 40
11.90625
 41
0.0
 71
     1
 72
     1
  1
 
  7
SLDTEXTSTYLE0
 73
     1
 44
1.0
  0
MTEXT
  5
33C
330
32C
100
AcDbEntity
  8
SLD-0
100
AcDbMText
 10
250.5009538538
 20
660.9979158816
 30
0.0
 40
11.90625
 41
0.0
 71
     1
 72
     1
  1
316.4
  7
SLDTEXTSTYLE0
 73
     1
 44
1.0
  0
MTEXT
  5
33D
330
32C
100
AcDbEntity
  8
SLD-0
100
AcDbMText
 10
250.500955018
 20
639.6658849985
 30
0.0
 40
11.90625
 41
0.0
 71
     1
 72
     1
  1
12.46
  7
SLDTEXTSTYLE0
 73
     1
 44
1.0
  0
MTEXT
  5
33E
330
32C
100
AcDbEntity
  8
SLD-0
100
AcDbMText
 10
297.3211788151
 20
660.9979147174
 30
0.0
 40
11.90625
 41
0.0
 71
     1
 72
     1
  1
 
  7
SLDTEXTSTYLE0
 73
     1
 44
1.0
  0
ENDBLK
  5
32E
330
32C
100
AcDbEntity
  8
0
100
AcDbBlockEnd
  0
BLOCK
  5
377
330
376
100
AcDbEntity
  8
0
100
AcDbBlockBegin
  2
_D_13
 70
     0
 10
0.0
 20
0.0
 30
0.0
  3
_D_13
  1

  0
SOLID
  5
379
330
376
100
AcDbEntity
  8
SLD-0
100
AcDbTrace
 10
1599.0558342334
 20
605.6752167224
 30
0.0
 11
1597.8058342334
 21
595.6752167224
 31
0.0
 12
1600.3058342334
 22
595.6752167224
 32
0.0
 13
1600.3058342334
 23
595.6752167224
 33
0.0
  0
SOLID
  5
37A
330
376
100
AcDbEntity
  8
SLD-0
100
AcDbTrace
 10
1599.0558342334
 20
524.6752167224
 30
0.0
 11
1600.3058342334
 21
534.6752167224
 31
0.0
 12
1597.8058342334
 22
534.6752167224
 32
0.0
 13
1597.8058342334
 23
534.6752167224
 33
0.0
  0
LINE
  5
37B
330
376
100
AcDbEntity
  8
SLD-0
100
AcDbLine
 10
1583.6659033109
 20
565.1752190507
 30
0.0
 11
1580.0444188086
 21
565.1752190507
 31
0.0
  0
LINE
  5
37C
330
376
100
AcDbEntity
  8
SLD-0
100
AcDbLine
 10
1580.0444188086
 20
565.1752190507
 30
0.0
 11
1580.0444188086
 21
546.257510393
 31
0.0
  0
LINE
  5
37D
330
376
100
AcDbEntity
  8
SLD-0
100
AcDbLine
 10
1580.0444188086
 20
546.257510393
 30
0.0
 11
1583.6659033109
 21
546.257510393
 31
0.0
  0
LINE
  5
37E
330
376
100
AcDbEntity
  8
SLD-0
100
AcDbLine
 10
1614.4457651559
 20
565.1752190507
 30
0.0
 11
1618.0672496582
 21
565.1752190507
 31
0.0
  0
LINE
  5
37F
330
376
100
AcDbEntity
  8
SLD-0
100
AcDbLine
 10
1618.0672496582
 20
565.1752190507
 30
0.0
 11
1618.0672496582
 21
546.257510393
 31
0.0
  0
LINE
  5
380
330
376
100
AcDbEntity
  8
SLD-0
100
AcDbLine
 10
1618.0672496582
 20
546.257510393
 30
0.0
 11
1614.4457651559
 21
546.257510393
 31
0.0
  0
LINE
  5
381
330
376
100
AcDbEntity
  8
SLD-0
100
AcDbLine
 10
1711.7249309649
 20
605.6752167224
 30
0.0
 11
1595.2458342334
 21
605.6752167224
 31
0.0
  0
LINE
  5
382
330
376
100
AcDbEntity
  8
SLD-0
100
AcDbLine
 10
1711.7249309649
 20
524.6752167224
 30
0.0
 11
1595.2458342334
 21
524.6752167224
 31
0.0
  0
LINE
  5
383
330
376
100
AcDbEntity
  8
SLD-0
100
AcDbLine
 10
1599.0558342334
 20
605.6752167224
 30
0.0
 11
1599.0558342334
 21
586.5072487696
 31
0.0
  0
LINE
  5
384
330
376
100
AcDbEntity
  8
SLD-0
100
AcDbLine
 10
1599.0558342334
 20
524.6752167224
 30
0.0
 11
1599.0558342334
 21
543.8431846751
 31
0.0
  0
MTEXT
  5
385
330
376
100
AcDbEntity
  8
SLD-0
100
AcDbMText
 10
1572.0352606174
 20
582.7979147174
 30
0.0
 40
11.90625
 41
0.0
 71
     1
 72
     1
  1
 
  7
SLDTEXTSTYLE0
 73
     1
 44
1.0
  0
MTEXT
  5
386
330
376
100
AcDbEntity
  8
SLD-0
100
AcDbMText
 10
1583.6659021467
 20
582.7979158816
 30
0.0
 40
11.90625
 41
0.0
 71
     1
 72
     1
  1
81.0
  7
SLDTEXTSTYLE0
 73
     1
 44
1.0
  0
MTEXT
  5
387
330
376
100
AcDbEntity
  8
SLD-0
100
AcDbMText
 10
1583.6659033109
 20
561.4658849985
 30
0.0
 40
11.90625
 41
0.0
 71
     1
 72
     1
  1
3.19
  7
SLDTEXTSTYLE0
 73
     1
 44
1.0
  0
MTEXT
  5
388
330
376
100
AcDbEntity
  8
SLD-0
100
AcDbMText
 10
1621.6887329962
 20
582.7979147174
 30
0.0
 40
11.90625
 41
0.0
 71
     1
 72
     1
  1
 
  7
SLDTEXTSTYLE0
 73
     1
 44
1.0
  0
ENDBLK
  5
378
330
376
100
AcDbEntity
  8
0
100
AcDbBlockEnd
  0
BLOCK
  5
38B
330
38A
100
AcDbEntity
  8
0
100
AcDbBlockBegin
  2
_D_14
 70
     0
 10
0.0
 20
0.0
 30
0.0
  3
_D_14
  1

  0
SOLID
  5
38D
330
38A
100
AcDbEntity
  8
SLD-0
100
AcDbTrace
 10
1708.7849309649
 20
435.1752167224
 30
0.0
 11
1718.7849309649
 21
433.9252167224
 31
0.0
 12
1718.7849309649
 22
436.4252167224
 32
0.0
 13
1718.7849309649
 23
436.4252167224
 33
0.0
  0
SOLID
  5
38E
330
38A
100
AcDbEntity
  8
SLD-0
100
AcDbTrace
 10
1778.7849309649
 20
435.1752167224
 30
0.0
 11
1768.7849309649
 21
436.4252167224
 31
0.0
 12
1768.7849309649
 22
433.9252167224
 32
0.0
 13
1768.7849309649
 23
433.9252167224
 33
0.0
  0
LINE
  5
38F
330
38A
100
AcDbEntity
  8
SLD-0
100
AcDbLine
 10
1648.7434552911
 20
435.1752190507
 30
0.0
 11
1645.1219707889
 21
435.1752190507
 31
0.0
  0
LINE
  5
390
330
38A
100
AcDbEntity
  8
SLD-0
100
AcDbLine
 10
1645.1219707889
 20
435.1752190507
 30
0.0
 11
1645.1219707889
 21
416.257510393
 31
0.0
  0
LINE
  5
391
330
38A
100
AcDbEntity
  8
SLD-0
100
AcDbLine
 10
1645.1219707889
 20
416.257510393
 30
0.0
 11
1648.7434552911
 21
416.257510393
 31
0.0
  0
LINE
  5
392
330
38A
100
AcDbEntity
  8
SLD-0
100
AcDbLine
 10
1679.5233171362
 20
435.1752190507
 30
0.0
 11
1683.1448016384
 21
435.1752190507
 31
0.0
  0
LINE
  5
393
330
38A
100
AcDbEntity
  8
SLD-0
100
AcDbLine
 10
1683.1448016384
 20
435.1752190507
 30
0.0
 11
1683.1448016384
 21
416.257510393
 31
0.0
  0
LINE
  5
394
330
38A
100
AcDbEntity
  8
SLD-0
100
AcDbLine
 10
1683.1448016384
 20
416.257510393
 30
0.0
 11
1679.5233171362
 21
416.257510393
 31
0.0
  0
LINE
  5
395
330
38A
100
AcDbEntity
  8
SLD-0
100
AcDbLine
 10
1708.7849309649
 20
527.6152167224
 30
0.0
 11
1708.7849309649
 21
431.3652167224
 31
0.0
  0
LINE
  5
396
330
38A
100
AcDbEntity
  8
SLD-0
100
AcDbLine
 10
1778.7849309649
 20
527.6152167224
 30
0.0
 11
1778.7849309649
 21
431.3652167224
 31
0.0
  0
LINE
  5
397
330
38A
100
AcDbEntity
  8
SLD-0
100
AcDbLine
 10
1708.7849309649
 20
435.1752167224
 30
0.0
 11
1693.5675972199
 21
435.1752167224
 31
0.0
  0
LINE
  5
398
330
38A
100
AcDbEntity
  8
SLD-0
100
AcDbLine
 10
1778.7849309649
 20
435.1752167224
 30
0.0
 11
1708.7849309649
 21
435.1752167224
 31
0.0
  0
MTEXT
  5
399
330
38A
100
AcDbEntity
  8
SLD-0
100
AcDbMText
 10
1637.1128125976
 20
452.7979147174
 30
0.0
 40
11.90625
 41
0.0
 71
     1
 72
     1
  1
 
  7
SLDTEXTSTYLE0
 73
     1
 44
1.0
  0
MTEXT
  5
39A
330
38A
100
AcDbEntity
  8
SLD-0
100
AcDbMText
 10
1648.7434541269
 20
452.7979158816
 30
0.0
 40
11.90625
 41
0.0
 71
     1
 72
     1
  1
70.0
  7
SLDTEXTSTYLE0
 73
     1
 44
1.0
  0
MTEXT
  5
39B
330
38A
100
AcDbEntity
  8
SLD-0
100
AcDbMText
 10
1648.7434552911
 20
431.4658849985
 30
0.0
 40
11.90625
 41
0.0
 71
     1
 72
     1
  1
2.76
  7
SLDTEXTSTYLE0
 73
     1
 44
1.0
  0
MTEXT
  5
39C
330
38A
100
AcDbEntity
  8
SLD-0
100
AcDbMText
 10
1686.7662849764
 20
452.7979147174
 30
0.0
 40
11.90625
 41
0.0
 71
     1
 72
     1
  1
 
  7
SLDTEXTSTYLE0
 73
     1
 44
1.0
  0
ENDBLK
  5
38C
330
38A
100
AcDbEntity
  8
0
100
AcDbBlockEnd
  0
BLOCK
  5
3A0
330
39F
100
AcDbEntity
  8
0
100
AcDbBlockBegin
  2
_D_15
 70
     0
 10
0.0
 20
0.0
 30
0.0
  3
_D_15
  1

  0
SOLID
  5
3A2
330
39F
100
AcDbEntity
  8
SLD-0
100
AcDbTrace
 10
1778.7849309649
 20
435.1752167224
 30
0.0
 11
1768.7849309649
 21
436.4252167224
 31
0.0
 12
1768.7849309649
 22
433.9252167224
 32
0.0
 13
1768.7849309649
 23
433.9252167224
 33
0.0
  0
SOLID
  5
3A3
330
39F
100
AcDbEntity
  8
SLD-0
100
AcDbTrace
 10
1853.7709309649
 20
435.1752167224
 30
0.0
 11
1863.7709309649
 21
433.9252167224
 31
0.0
 12
1863.7709309649
 22
436.4252167224
 32
0.0
 13
1863.7709309649
 23
436.4252167224
 33
0.0
  0
LINE
  5
3A4
330
39F
100
AcDbEntity
  8
SLD-0
100
AcDbLine
 10
1800.8880000423
 20
435.1752190507
 30
0.0
 11
1797.2665155401
 21
435.1752190507
 31
0.0
  0
LINE
  5
3A5
330
39F
100
AcDbEntity
  8
SLD-0
100
AcDbLine
 10
1797.2665155401
 20
435.1752190507
 30
0.0
 11
1797.2665155401
 21
416.257510393
 31
0.0
  0
LINE
  5
3A6
330
39F
100
AcDbEntity
  8
SLD-0
100
AcDbLine
 10
1797.2665155401
 20
416.257510393
 30
0.0
 11
1800.8880000423
 21
416.257510393
 31
0.0
  0
LINE
  5
3A7
330
39F
100
AcDbEntity
  8
SLD-0
100
AcDbLine
 10
1831.6678618874
 20
435.1752190507
 30
0.0
 11
1835.2893463896
 21
435.1752190507
 31
0.0
  0
LINE
  5
3A8
330
39F
100
AcDbEntity
  8
SLD-0
100
AcDbLine
 10
1835.2893463896
 20
435.1752190507
 30
0.0
 11
1835.2893463896
 21
416.257510393
 31
0.0
  0
LINE
  5
3A9
330
39F
100
AcDbEntity
  8
SLD-0
100
AcDbLine
 10
1835.2893463896
 20
416.257510393
 30
0.0
 11
1831.6678618874
 21
416.257510393
 31
0.0
  0
LINE
  5
3AA
330
39F
100
AcDbEntity
  8
SLD-0
100
AcDbLine
 10
1778.7849309649
 20
527.6152167224
 30
0.0
 11
1778.7849309649
 21
431.3652167224
 31
0.0
  0
LINE
  5
3AB
330
39F
100
AcDbEntity
  8
SLD-0
100
AcDbLine
 10
1853.7709309649
 20
481.3652167224
 30
0.0
 11
1853.7709309649
 21
431.3652167224
 31
0.0
  0
LINE
  5
3AC
330
39F
100
AcDbEntity
  8
SLD-0
100
AcDbLine
 10
1778.7849309649
 20
435.1752167224
 30
0.0
 11
1758.7849309649
 21
435.1752167224
 31
0.0
  0
LINE
  5
3AD
330
39F
100
AcDbEntity
  8
SLD-0
100
AcDbLine
 10
1853.7709309649
 20
435.1752167224
 30
0.0
 11
1873.7709309649
 21
435.1752167224
 31
0.0
  0
MTEXT
  5
3AE
330
39F
100
AcDbEntity
  8
SLD-0
100
AcDbMText
 10
1789.2573573488
 20
452.7979147174
 30
0.0
 40
11.90625
 41
0.0
 71
     1
 72
     1
  1
 
  7
SLDTEXTSTYLE0
 73
     1
 44
1.0
  0
MTEXT
  5
3AF
330
39F
100
AcDbEntity
  8
SLD-0
100
AcDbMText
 10
1800.8879988782
 20
452.7979158816
 30
0.0
 40
11.90625
 41
0.0
 71
     1
 72
     1
  1
75.0
  7
SLDTEXTSTYLE0
 73
     1
 44
1.0
  0
MTEXT
  5
3B0
330
39F
100
AcDbEntity
  8
SLD-0
100
AcDbMText
 10
1800.8880000423
 20
431.4658849985
 30
0.0
 40
11.90625
 41
0.0
 71
     1
 72
     1
  1
2.95
  7
SLDTEXTSTYLE0
 73
     1
 44
1.0
  0
MTEXT
  5
3B1
330
39F
100
AcDbEntity
  8
SLD-0
100
AcDbMText
 10
1838.9108297277
 20
452.7979147174
 30
0.0
 40
11.90625
 41
0.0
 71
     1
 72
     1
  1
 
  7
SLDTEXTSTYLE0
 73
     1
 44
1.0
  0
ENDBLK
  5
3A1
330
39F
100
AcDbEntity
  8
0
100
AcDbBlockEnd
  0
BLOCK
  5
3B4
330
3B3
100
AcDbEntity
  8
0
100
AcDbBlockBegin
  2
_D_16
 70
     0
 10
0.0
 20
0.0
 30
0.0
  3
_D_16
  1

  0
SOLID
  5
3B6
330
3B3
100
AcDbEntity
  8
SLD-0
100
AcDbTrace
 10
1599.0558342334
 20
524.6752167224
 30
0.0
 11
1597.8058342334
 21
514.6752167224
 31
0.0
 12
1600.3058342334
 22
514.6752167224
 32
0.0
 13
1600.3058342334
 23
514.6752167224
 33
0.0
  0
SOLID
  5
3B7
330
3B3
100
AcDbEntity
  8
SLD-0
100
AcDbTrace
 10
1599.0558342334
 20
485.1752167224
 30
0.0
 11
1600.3058342334
 21
495.1752167224
 31
0.0
 12
1597.8058342334
 22
495.1752167224
 32
0.0
 13
1597.8058342334
 23
495.1752167224
 33
0.0
  0
LINE
  5
3B8
330
3B3
100
AcDbEntity
  8
SLD-0
100
AcDbLine
 10
1539.4044175242
 20
458.1483921885
 30
0.0
 11
1535.782933022
 21
458.1483921885
 31
0.0
  0
LINE
  5
3B9
330
3B3
100
AcDbEntity
  8
SLD-0
100
AcDbLine
 10
1535.782933022
 20
458.1483921885
 30
0.0
 11
1535.782933022
 21
439.2306835308
 31
0.0
  0
LINE
  5
3BA
330
3B3
100
AcDbEntity
  8
SLD-0
100
AcDbLine
 10
1535.782933022
 20
439.2306835308
 30
0.0
 11
1539.4044175242
 21
439.2306835308
 31
0.0
  0
LINE
  5
3BB
330
3B3
100
AcDbEntity
  8
SLD-0
100
AcDbLine
 10
1570.1842793693
 20
458.1483921885
 30
0.0
 11
1573.8057638715
 21
458.1483921885
 31
0.0
  0
LINE
  5
3BC
330
3B3
100
AcDbEntity
  8
SLD-0
100
AcDbLine
 10
1573.8057638715
 20
458.1483921885
 30
0.0
 11
1573.8057638715
 21
439.2306835308
 31
0.0
  0
LINE
  5
3BD
330
3B3
100
AcDbEntity
  8
SLD-0
100
AcDbLine
 10
1573.8057638715
 20
439.2306835308
 30
0.0
 11
1570.1842793693
 21
439.2306835308
 31
0.0
  0
LINE
  5
3BE
330
3B3
100
AcDbEntity
  8
SLD-0
100
AcDbLine
 10
1711.7249309649
 20
524.6752167224
 30
0.0
 11
1595.2458342334
 21
524.6752167224
 31
0.0
  0
LINE
  5
3BF
330
3B3
100
AcDbEntity
  8
SLD-0
100
AcDbLine
 10
1629.9889309649
 20
485.1752167224
 30
0.0
 11
1595.2458342334
 21
485.1752167224
 31
0.0
  0
LINE
  5
3C0
330
3B3
100
AcDbEntity
  8
SLD-0
100
AcDbLine
 10
1589.0558342334
 20
458.1483898602
 30
0.0
 11
1599.0558342334
 21
458.1483898602
 31
0.0
  0
LINE
  5
3C1
330
3B3
100
AcDbEntity
  8
SLD-0
100
AcDbLine
 10
1599.0558342334
 20
458.1483898602
 30
0.0
 11
1599.0558342334
 21
485.1752167224
 31
0.0
  0
LINE
  5
3C2
330
3B3
100
AcDbEntity
  8
SLD-0
100
AcDbLine
 10
1599.0558342334
 20
524.6752167224
 30
0.0
 11
1599.0558342334
 21
485.1752167224
 31
0.0
  0
MTEXT
  5
3C3
330
3B3
100
AcDbEntity
  8
SLD-0
100
AcDbMText
 10
1527.7737748307
 20
475.7710878553
 30
0.0
 40
11.90625
 41
0.0
 71
     1
 72
     1
  1
 
  7
SLDTEXTSTYLE0
 73
     1
 44
1.0
  0
MTEXT
  5
3C4
330
3B3
100
AcDbEntity
  8
SLD-0
100
AcDbMText
 10
1539.40441636
 20
475.7710890194
 30
0.0
 40
11.90625
 41
0.0
 71
     1
 72
     1
  1
39.5
  7
SLDTEXTSTYLE0
 73
     1
 44
1.0
  0
MTEXT
  5
3C5
330
3B3
100
AcDbEntity
  8
SLD-0
100
AcDbMText
 10
1539.4044175242
 20
454.4390581364
 30
0.0
 40
11.90625
 41
0.0
 71
     1
 72
     1
  1
1.56
  7
SLDTEXTSTYLE0
 73
     1
 44
1.0
  0
MTEXT
  5
3C6
330
3B3
100
AcDbEntity
  8
SLD-0
100
AcDbMText
 10
1577.4272472096
 20
475.7710878553
 30
0.0
 40
11.90625
 41
0.0
 71
     1
 72
     1
  1
 
  7
SLDTEXTSTYLE0
 73
     1
 44
1.0
  0
ENDBLK
  5
3B5
330
3B3
100
AcDbEntity
  8
0
100
AcDbBlockEnd
  0
ENDSEC
  0
SECTION
  2
ENTITIES
  0
LINE
  5
68
330
1F
100
AcDbEntity
  8
SLD-0
 62
     7
100
AcDbLine
 10
32.5
 20
1364.5
 30
0.0
 11
2126.5
 21
1364.5
 31
0.0
  0
LINE
  5
69
330
1F
100
AcDbEntity
  8
0
  6
Continuous
 62
     7
370
    18
100
AcDbLine
 10
32.5
 20
90.0
 30
0.0
 11
2126.5
 21
90.0
 31
0.0
  0
LINE
  5
6A
330
1F
100
AcDbEntity
  8
0
  6
CENTER
 62
     7
370
    18
100
AcDbLine
 10
917.2756290652
 20
44.6338483896
 30
0.0
 11
940.6332040622
 21
44.6338483896
 31
0.0
  0
LINE
  5
6B
330
1F
100
AcDbEntity
  8
0
  6
Continuous
 62
     7
370
    18
100
AcDbLine
 10
919.6400615246
 20
41.4588483896
 30
0.0
 11
938.6900615246
 21
38.2838483896
 31
0.0
  0
LINE
  5
6C
330
1F
100
AcDbEntity
  8
0
  6
Continuous
 62
     7
370
    18
100
AcDbLine
 10
919.6400615246
 20
47.8088483896
 30
0.0
 11
938.6900615246
 21
50.9838483896
 31
0.0
  0
LINE
  5
6D
330
1F
100
AcDbEntity
  8
0
  6
CENTER
 62
     7
370
    18
100
AcDbLine
 10
898.7104615246
 20
44.6338483896
 30
0.0
 11
915.0221975947
 21
44.6338483896
 31
0.0
  0
LINE
  5
6E
330
1F
100
AcDbEntity
  8
0
  6
CENTER
 62
     7
370
    18
100
AcDbLine
 10
906.8663295596
 20
36.3944886005
 30
0.0
 11
906.8663295596
 21
52.8732081786
 31
0.0
  0
LINE
  5
6F
330
1F
100
AcDbEntity
  8
0
  6
Continuous
 62
     7
370
    18
100
AcDbLine
 10
919.6400615246
 20
47.8088483896
 30
0.0
 11
919.6400615246
 21
41.4588483896
 31
0.0
  0
LINE
  5
70
330
1F
100
AcDbEntity
  8
0
  6
Continuous
 62
     7
370
    18
100
AcDbLine
 10
938.6900615246
 20
50.9838483896
 30
0.0
 11
938.6900615246
 21
38.2838483896
 31
0.0
  0
CIRCLE
  5
71
330
1F
100
AcDbEntity
  8
0
  6
Continuous
 62
     7
370
    18
100
AcDbCircle
 10
906.8663295596
 20
44.6338483896
 30
0.0
 40
6.349999999999588
  0
CIRCLE
  5
72
330
1F
100
AcDbEntity
  8
0
  6
Continuous
 62
     7
370
    18
100
AcDbCircle
 10
906.8663295596
 20
44.6338483896
 30
0.0
 40
3.174999999999693
  0
INSERT
  5
A5
330
1F
100
AcDbEntity
  8
0
  6
Continuous
 62
     7
370
     0
100
AcDbBlockReference
  2
SW_NOTE_0
 10
40.0769527033
 20
1333.5092272943
 30
0.0
  0
MTEXT
  5
A6
330
1F
100
AcDbEntity
  8
0
  6
Continuous
 62
     7
370
     0
100
AcDbMText
 10
738.7607547533
 20
72.4548919392
 30
0.0
 40
9.2604166667
 41
0.0
 71
     2
 72
     1
  1
00PW4
  7
SLDTEXTSTYLE0
 73
     1
 44
1.0
  0
MTEXT
  5
A7
330
1F
100
AcDbEntity
  8
0
  6
Continuous
 62
     7
370
     0
100
AcDbMText
 10
1133.5029264691
 20
44.471065744
 30
0.0
 40
9.2604166667
 41
0.0
 71
     1
 72
     1
  1
B.HAWKINS
  7
SLDTEXTSTYLE0
 73
     1
 44
1.0
  0
MTEXT
  5
A8
330
1F
100
AcDbEntity
  8
0
  6
Continuous
 62
     7
370
     0
100
AcDbMText
 10
807.8221334032
 20
82.6943610387
 30
0.0
 40
7.9375
 41
0.0
 71
     1
 72
     1
  1
UNLESS  OTHERWISE  SPECIFIED
  7
SLDTEXTSTYLE0
 73
     1
 44
1.0
  0
MTEXT
  5
A9
330
1F
100
AcDbEntity
  8
0
  6
Continuous
 62
     7
370
     0
100
AcDbMText
 10
807.8221334032
 20
72.1110278333
 30
0.0
 40
7.9375
 41
0.0
 71
     1
 72
     1
  1
DIMENSIONS  ARE  IN  MM [IN]
  7
SLDTEXTSTYLE0
 73
     1
 44
1.0
  0
MTEXT
  5
AA
330
1F
100
AcDbEntity
  8
0
  6
Continuous
 62
     7
370
     0
100
AcDbMText
 10
1964.6988223707
 20
44.9623113386
 30
0.0
 40
9.2604166667
 41
0.0
 71
     2
 72
     1
  1
1:5
  7
SLDTEXTSTYLE0
 73
     1
 44
1.0
  0
MTEXT
  5
AB
330
1F
100
AcDbEntity
  8
0
  6
Continuous
 62
     7
370
     0
100
AcDbMText
 10
819.9013214703
 20
49.2296798408
 30
0.0
 40
7.9375
 41
0.0
 71
     1
 72
     1
  1
PROJECTION
  7
SLDTEXTSTYLE0
 73
     1
 44
1.0
  0
MTEXT
  5
AC
330
1F
100
AcDbEntity
  8
0
  6
Continuous
 62
     7
370
     0
100
AcDbMText
 10
1063.7879415343
 20
54.521931989
 30
0.0
 40
7.9375
 41
0.0
 71
     1
 72
     1
  1
%%p
  7
SLDTEXTSTYLE0
 73
     1
 44
1.0
  0
MTEXT
  5
AD
330
1F
100
AcDbEntity
  8
0
  6
Continuous
 62
     7
370
     0
100
AcDbMText
 10
1071.3550247646
 20
54.521931989
 30
0.0
 40
7.9375
 41
0.0
 71
     1
 72
     1
  1
1
  7
SLDTEXTSTYLE0
 73
     1
 44
1.0
  0
MTEXT
  5
AE
330
1F
100
AcDbEntity
  8
0
  6
Continuous
 62
     7
370
     0
100
AcDbMText
 10
1077.2199553366
 20
54.521931989
 30
0.0
 40
7.9375
 41
0.0
 71
     1
 72
     1
  1
%%d
  7
SLDTEXTSTYLE0
 73
     1
 44
1.0
  0
MTEXT
  5
AF
330
1F
100
AcDbEntity
  8
0
  6
Continuous
 62
     7
370
     0
100
AcDbMText
 10
985.1843876179
 20
54.521931989
 30
0.0
 40
7.9375
 41
0.0
 71
     1
 72
     1
  1
.X 
  7
SLDTEXTSTYLE0
 73
     1
 44
1.0
  0
MTEXT
  5
B0
330
1F
100
AcDbEntity
  8
0
  6
Continuous
 62
     7
370
     0
100
AcDbMText
 10
997.4728141326
 20
54.521931989
 30
0.0
 40
7.9375
 41
0.0
 71
     1
 72
     1
  1
%%p
  7
SLDTEXTSTYLE0
 73
     1
 44
1.0
  0
MTEXT
  5
B1
330
1F
100
AcDbEntity
  8
0
  6
Continuous
 62
     7
370
     0
100
AcDbMText
 10
1005.0398961987
 20
54.521931989
 30
0.0
 40
7.9375
 41
0.0
 71
     1
 72
     1
  1
 3
  7
SLDTEXTSTYLE0
 73
     1
 44
1.0
  0
MTEXT
  5
B2
330
1F
100
AcDbEntity
  8
0
  6
Continuous
 62
     7
370
     0
100
AcDbMText
 10
985.1843876179
 20
43.9385987835
 30
0.0
 40
7.9375
 41
0.0
 71
     1
 72
     1
  1
.XX 
  7
SLDTEXTSTYLE0
 73
     1
 44
1.0
  0
MTEXT
  5
B3
330
1F
100
AcDbEntity
  8
0
  6
Continuous
 62
     7
370
     0
100
AcDbMText
 10
1003.9110075097
 20
43.9385987835
 30
0.0
 40
7.9375
 41
0.0
 71
     1
 72
     1
  1
%%p
  7
SLDTEXTSTYLE0
 73
     1
 44
1.0
  0
MTEXT
  5
B4
330
1F
100
AcDbEntity
  8
0
  6
Continuous
 62
     7
370
     0
100
AcDbMText
 10
1705.3903921363
 20
67.6144706122
 30
0.0
 40
15.875
 41
0.0
 71
     2
 72
     1
  1
LOUDSPEAKER,PL-CA6-BK,BK,6" COAXIAL
  7
SLDTEXTSTYLE0
 73
     1
 44
1.0
  0
MTEXT
  5
B5
330
1F
100
AcDbEntity
  8
0
  6
Continuous
 62
     7
370
     0
100
AcDbMText
 10
985.3229654607
 20
82.6943610387
 30
0.0
 40
7.9375
 41
0.0
 71
     1
 72
     1
  1
TOLERANCES  ARE:
  7
SLDTEXTSTYLE0
 73
     1
 44
1.0
  0
MTEXT
  5
B6
330
1F
100
AcDbEntity
  8
0
  6
Continuous
 62
     7
370
     0
100
AcDbMText
 10
985.3229654607
 20
72.1110278333
 30
0.0
 40
7.9375
 41
0.0
 71
     1
 72
     1
  1
DECIMALS          ANGLES
  7
SLDTEXTSTYLE0
 73
     1
 44
1.0
  0
MTEXT
  5
B7
330
1F
100
AcDbEntity
  8
0
  6
Continuous
 62
     7
370
     0
100
AcDbMText
 10
1268.0922181333
 20
54.5156008113
 30
0.0
 40
6.6145833333
 41
0.0
 71
     1
 72
     1
  1
MFG ENGINEER
  7
SLDTEXTSTYLE0
 73
     1
 44
1.0
  0
MTEXT
  5
B8
330
1F
100
AcDbEntity
  8
0
  6
Continuous
 62
     7
370
     0
100
AcDbMText
 10
1133.5029264691
 20
54.5156008113
 30
0.0
 40
6.6145833333
 41
0.0
 71
     1
 72
     1
  1
MECH ENGINEER
  7
SLDTEXTSTYLE0
 73
     1
 44
1.0
  0
MTEXT
  5
BA
330
1F
100
AcDbEntity
  8
0
  6
Continuous
 62
     7
370
     0
100
AcDbMText
 10
1927.4524873269
 20
43.8993809041
 30
0.0
 40
6.6145833333
 41
0.0
 71
     1
 72
     1
  1
SCALE:  
  7
SLDTEXTSTYLE1
 73
     1
 44
1.0
  0
MTEXT
  5
BB
330
1F
100
AcDbEntity
  8
SLD-0
 62
     7
100
AcDbMText
 10
1927.0675854965
 20
69.4383989419
 30
0.0
 40
15.875
 41
0.0
 71
     1
 72
     1
  1
FG-901568-2D
  7
SLDTEXTSTYLE0
 73
     1
 44
1.0
  0
MTEXT
  5
BC
330
1F
100
AcDbEntity
  8
0
  6
Continuous
 62
     7
370
     0
100
AcDbMText
 10
2109.423061559
 20
69.6308498571
 30
0.0
 40
15.875
 41
0.0
 71
     2
 72
     1
  1
A
  7
SLDTEXTSTYLE0
 73
     1
 44
1.0
  0
MTEXT
  5
BD
330
1F
100
AcDbEntity
  8
0
  6
Continuous
 62
     7
370
     0
100
AcDbMText
 10
2103.9926966714
 20
44.9623113386
 30
0.0
 40
9.2604166667
 41
0.0
 71
     2
 72
     1
  1
1  OF  1
  7
SLDTEXTSTYLE0
 73
     1
 44
1.0
  0
MTEXT
  5
BE
330
1F
100
AcDbEntity
  8
0
  6
Continuous
 62
     7
370
     0
100
AcDbMText
 10
1927.4524873269
 20
82.1296521963
 30
0.0
 40
6.6145833333
 41
0.0
 71
     1
 72
     1
  1
DRAWING NUMBER
  7
SLDTEXTSTYLE0
 73
     1
 44
1.0
  0
MTEXT
  5
BF
330
1F
100
AcDbEntity
  8
SLD-0
 62
     7
100
AcDbMText
 10
1268.0922181333
 20
82.0460282027
 30
0.0
 40
6.6145833333
 41
0.0
 71
     1
 72
     1
  1
TECH DIRECTOR
  7
SLDTEXTSTYLE0
 73
     1
 44
1.0
  0
MTEXT
  5
C0
330
1F
100
AcDbEntity
  8
SLD-0
 62
     7
100
AcDbMText
 10
1133.5029264691
 20
82.0460282027
 30
0.0
 40
6.6145833333
 41
0.0
 71
     1
 72
     1
  1
DRAWN BY
  7
SLDTEXTSTYLE0
 73
     1
 44
1.0
  0
MTEXT
  5
C1
330
1F
100
AcDbEntity
  8
SLD-0
 62
     7
100
AcDbMText
 10
1133.5029264691
 20
72.5883567663
 30
0.0
 40
9.2604166667
 41
0.0
 71
     1
 72
     1
  1
K.CASTRO
  7
SLDTEXTSTYLE0
 73
     1
 44
1.0
  0
MTEXT
  5
C2
330
1F
100
AcDbEntity
  8
SLD-0
 62
     7
100
AcDbMText
 10
1268.0922181333
 20
44.471065744
 30
0.0
 40
9.2604166667
 41
0.0
 71
     1
 72
     1
  1
A.TRAN
  7
SLDTEXTSTYLE0
 73
     1
 44
1.0
  0
MTEXT
  5
C3
330
1F
100
AcDbEntity
  8
SLD-0
 62
     7
100
AcDbMText
 10
1268.0922181333
 20
72.5883567663
 30
0.0
 40
9.2604166667
 41
0.0
 71
     1
 72
     1
  1
R.VAUCHER
  7
SLDTEXTSTYLE0
 73
     1
 44
1.0
  0
MTEXT
  5
C5
330
1F
100
AcDbEntity
  8
0
  6
Continuous
 62
     7
370
     0
100
AcDbMText
 10
548.1349679254
 20
74.908932574
 30
0.0
 40
5.2916666667
 41
0.0
 71
     2
 72
     1
  1
THIS DOCUMENT CONTAINS CONFIDENTIAL OR PROPRIETARY INFORMATION WHICH 
  7
SLDTEXTSTYLE2
 73
     1
 44
1.0
  0
MTEXT
  5
C6
330
1F
100
AcDbEntity
  8
0
  6
Continuous
 62
     7
370
     0
100
AcDbMText
 10
548.5921615868
 20
67.8533771037
 30
0.0
 40
5.2916666667
 41
0.0
 71
     2
 72
     1
  1
IS THE PROPERTY OF QSC, LLC THAT MAY NOT BE DISCLOSED, REPRODUCED OR 
  7
SLDTEXTSTYLE2
 73
     1
 44
1.0
  0
MTEXT
  5
C7
330
1F
100
AcDbEntity
  8
0
  6
Continuous
 62
     7
370
     0
100
AcDbMText
 10
548.4894507606
 20
60.7978216334
 30
0.0
 40
5.2916666667
 41
0.0
 71
     2
 72
     1
  1
USED WITHOUT EXPRESS WRITTEN CONSENT FROM QSC, LLC. NO PORTION OF THIS 
  7
SLDTEXTSTYLE2
 73
     1
 44
1.0
  0
MTEXT
  5
C8
330
1F
100
AcDbEntity
  8
0
  6
Continuous
 62
     7
370
     0
100
AcDbMText
 10
548.3130582649
 20
53.7422661632
 30
0.0
 40
5.2916666667
 41
0.0
 71
     2
 72
     1
  1
DOCUMENT MAY BE REPRODUCED, REDISTRIBUTED, OR OTHERWISE DISCLOSED TO 
  7
SLDTEXTSTYLE2
 73
     1
 44
1.0
  0
MTEXT
  5
CA
330
1F
100
AcDbEntity
  8
0
  6
Continuous
 62
     7
370
     0
100
AcDbMText
 10
547.4411087001
 20
46.6867106929
 30
0.0
 40
5.2916666667
 41
0.0
 71
     2
 72
     1
  1
ANY THIRD PARTY WITHOUT QSC\U+2019S WRITTEN PERMISSION.
  7
SLDTEXTSTYLE3
 73
     1
 44
1.0
  0
MTEXT
  5
CB
330
1F
100
AcDbEntity
  8
0
  6
Continuous
 62
     7
370
     0
100
AcDbMText
 10
2050.7221221897
 20
43.7360870556
 30
0.0
 40
6.6145833333
 41
0.0
 71
     1
 72
     1
  1
SHEET:
  7
SLDTEXTSTYLE0
 73
     1
 44
1.0
  0
MTEXT
  5
CC
330
1F
100
AcDbEntity
  8
SLD-0
100
AcDbMText
 10
244.5768009597
 20
76.4828708309
 30
0.0
 40
10.5833333333
 41
0.0
 71
     1
 72
     1
  1
QSC, LLC
  7
SLDTEXTSTYLE0
 73
     1
 44
1.0
  0
MTEXT
  5
CD
330
1F
100
AcDbEntity
  8
0
  6
Continuous
 62
     7
370
     0
100
AcDbMText
 10
2110.0045931308
 20
82.2627282594
 30
0.0
 40
6.6145833333
 41
0.0
 71
     2
 72
     1
  1
REV
  7
SLDTEXTSTYLE0
 73
     1
 44
1.0
  0
MTEXT
  5
CE
330
1F
100
AcDbEntity
  8
SLD-0
 62
     7
100
AcDbMText
 10
1401.3653838674
 20
82.0460282027
 30
0.0
 40
6.6145833333
 41
0.0
 71
     1
 72
     1
  1
REV BY
  7
SLDTEXTSTYLE0
 73
     1
 44
1.0
  0
MTEXT
  5
CF
330
1F
100
AcDbEntity
  8
SLD-0
 62
     7
100
AcDbMText
 10
1401.3653838674
 20
72.5883567663
 30
0.0
 40
9.2604166667
 41
0.0
 71
     1
 72
     1
  1
KC
  7
SLDTEXTSTYLE0
 73
     1
 44
1.0
  0
MTEXT
  5
D0
330
1F
100
AcDbEntity
  8
SLD-0
 62
     7
100
AcDbMText
 10
1401.3653838674
 20
44.471065744
 30
0.0
 40
9.2604166667
 41
0.0
 71
     1
 72
     1
  1
13-MAR-2024
  7
SLDTEXTSTYLE0
 73
     1
 44
1.0
  0
MTEXT
  5
D1
330
1F
100
AcDbEntity
  8
0
  6
Continuous
 62
     7
370
     0
100
AcDbMText
 10
1401.3653838674
 20
54.5156008113
 30
0.0
 40
6.6145833333
 41
0.0
 71
     1
 72
     1
  1
REV DATE
  7
SLDTEXTSTYLE0
 73
     1
 44
1.0
  0
MTEXT
  5
D2
330
1F
100
AcDbEntity
  8
SLD-0
100
AcDbMText
 10
738.8679193582
 20
55.6572678387
 30
0.0
 40
6.6145833333
 41
0.0
 71
     2
 72
     1
  1
FORM
  7
SLDTEXTSTYLE0
 73
     1
 44
1.0
  0
MTEXT
  5
D3
330
1F
100
AcDbEntity
  8
0
  6
Continuous
 62
     7
370
     0
100
AcDbMText
 10
739.9034151258
 20
45.7021669978
 30
0.0
 40
9.2604166667
 41
0.0
 71
     2
 72
     1
  1
QOS40169 B
  7
SLDTEXTSTYLE0
 73
     1
 44
1.0
  0
MTEXT
  5
D4
330
1F
100
AcDbEntity
  8
SLD-0
100
AcDbMText
 10
246.1068118437
 20
46.1502401771
 30
0.0
 40
7.9375
 41
0.0
 71
     1
 72
     1
  1
COSTA MESA, CA 92626 USA
  7
SLDTEXTSTYLE0
 73
     1
 44
1.0
  0
MTEXT
  5
D5
330
1F
100
AcDbEntity
  8
SLD-0
100
AcDbMText
 10
245.7467532476
 20
59.6932417653
 30
0.0
 40
7.9375
 41
0.0
 71
     1
 72
     1
  1
1675 MACARTHUR BLVD
  7
SLDTEXTSTYLE0
 73
     1
 44
1.0
  0
MTEXT
  5
D6
330
1F
100
AcDbEntity
  8
SLD-0
 62
     7
100
AcDbMText
 10
739.2058997469
 20
82.8599375267
 30
0.0
 40
6.6145833333
 41
0.0
 71
     2
 72
     1
  1
CAGE CODE
  7
SLDTEXTSTYLE0
 73
     1
 44
1.0
  0
LINE
  5
D7
330
1F
100
AcDbEntity
  8
0
  6
Continuous
 62
     7
370
    25
100
AcDbLine
 10
1813.5397355938
 20
1167.9089063015
 30
0.0
 11
1811.0648618596
 21
1166.4801921058
 31
0.0
  0
LINE
  5
D8
330
1F
100
AcDbEntity
  8
0
  6
Continuous
 62
     7
370
    25
100
AcDbLine
 10
1889.5584823715
 20
1030.510520712
 30
0.0
 11
1892.0333561057
 21
1031.9392349077
 31
0.0
  0
LINE
  5
D9
330
1F
100
AcDbEntity
  8
0
  6
Continuous
 62
     7
370
    25
100
AcDbLine
 10
1773.9430925157
 20
1264.2226483956
 30
0.0
 11
1773.9430925157
 21
1254.424158653
 31
0.0
  0
LINE
  5
DA
330
1F
100
AcDbEntity
  8
0
  6
Continuous
 62
     7
370
    25
100
AcDbLine
 10
1773.9430925157
 20
1015.6676252576
 30
0.0
 11
1773.9430925157
 21
1005.8691355149
 31
0.0
  0
LINE
  5
DB
330
1F
100
AcDbEntity
  8
0
  6
Continuous
 62
     7
370
    25
100
AcDbLine
 10
1820.2400437232
 20
1300.1055938828
 30
0.0
 11
1922.5991045568
 21
1315.9388799464
 31
0.0
  0
LINE
  5
DC
330
1F
100
AcDbEntity
  8
0
  6
Continuous
 62
     7
370
    25
100
AcDbLine
 10
1922.5991045568
 20
1315.9388799464
 30
0.0
 11
2003.2107642828
 21
1269.4027593358
 31
0.0
  0
LINE
  5
DD
330
1F
100
AcDbEntity
  8
0
  6
Continuous
 62
     7
370
    25
100
AcDbLine
 10
2003.2107642828
 20
1269.4027593358
 30
0.0
 11
1975.7837365944
 21
1210.3121312959
 31
0.0
  0
LINE
  5
DE
330
1F
100
AcDbEntity
  8
0
  6
Continuous
 62
     7
370
    25
100
AcDbLine
 10
1975.7837365944
 20
1210.3121312959
 30
0.0
 11
1932.3261592383
 21
1185.2246058912
 31
0.0
  0
ARC
  5
DF
330
1F
100
AcDbEntity
  8
0
  6
Continuous
 62
     7
370
    25
100
AcDbCircle
 10
1913.6112765385
 20
1291.0116645524
 30
0.0
 40
107.4297380367515
100
AcDbArc
 50
265.0729499619
 51
280.0324434879
  0
LWPOLYLINE
  5
E0
330
1F
100
AcDbEntity
  8
0
  6
Continuous
 62
     7
370
    25
100
AcDbPolyline
 90
       13
 70
   128
 43
0.0
 10
1774.6245972555
 20
1258.8876494309
 10
1784.0876854139
 20
1251.9207151434
 10
1793.8127041894
 20
1245.0750436037
 10
1803.7949923113
 20
1238.3539159905
 10
1814.029765198
 20
1231.7605537883
 10
1824.51211725
 20
1225.2981172423
 10
1835.2370242015
 20
1218.9697038444
 10
1846.1993455283
 20
1212.778346848
 10
1857.393826912
 20
1206.7270138147
 10
1868.815102758
 20
1200.8186051912
 10
1880.4576987677
 20
1195.0559529199
 10
1892.3160345619
 20
1189.4418190811
 10
1904.384426356
 20
1183.9788945688
  0
ARC
  5
E1
330
1F
100
AcDbEntity
  8
0
  6
Continuous
 62
     7
370
    25
100
AcDbCircle
 10
1795.9227200518
 20
1264.2480090905
 30
0.0
 40
21.96231978472621
100
AcDbArc
 50
150.6339091914
 51
194.1269240592
  0
LINE
  5
E2
330
1F
100
AcDbEntity
  8
0
  6
Continuous
 62
     7
370
    25
100
AcDbLine
 10
1776.7824663671
 20
1275.0180684782
 30
0.0
 11
1820.2400437232
 21
1300.1055938828
 31
0.0
  0
LWPOLYLINE
  5
E3
330
1F
100
AcDbEntity
  8
0
  6
Continuous
 62
     7
370
    25
100
AcDbPolyline
 90
       31
 70
   128
 43
0.0
 10
1949.0102861695
 20
1240.6043923096
 10
1950.1475603927
 20
1240.0727412074
 10
1951.451457991
 20
1239.6892091417
 10
1952.8649923825
 20
1239.4705583042
 10
1954.3263853315
 20
1239.4263447856
 10
1955.7717669535
 20
1239.5585009288
 10
1957.137967136
 20
1239.8612508763
 10
1958.3652763751
 20
1240.3213630026
 10
1959.400055368
 20
1240.9187281999
 10
1960.1970793071
 20
1241.6272387426
 10
1960.7215144218
 20
1242.4159293202
 10
1960.9504403811
 20
1243.2503303699
 10
1960.873852022
 20
1244.0939745619
 10
1960.4950966233
 20
1244.9099905967
 10
1959.8307276134
 20
1245.662714658
 10
1958.9097811061
 20
1246.3192490923
 10
1957.7725068829
 20
1246.8509001945
 10
1956.4686092846
 20
1247.2344322602
 10
1955.0550748931
 20
1247.4530830977
 10
1953.5936819441
 20
1247.4972966163
 10
1952.1483003221
 20
1247.3651404731
 10
1950.7821001396
 20
1247.0623905256
 10
1949.5547909004
 20
1246.6022783993
 10
1948.5200119076
 20
1246.004913202
 10
1947.7229879685
 20
1245.2964026593
 10
1947.1985528538
 20
1244.5077120817
 10
1946.9696268945
 20
1243.673311032
 10
1947.0462152536
 20
1242.8296668401
 10
1947.4249706523
 20
1242.0136508052
 10
1948.0893396622
 20
1241.2609267439
 10
1949.0102861695
 20
1240.6043923096
  0
LWPOLYLINE
  5
E4
330
1F
100
AcDbEntity
  8
0
  6
Continuous
 62
     7
370
    25
100
AcDbPolyline
 90
       31
 70
   128
 43
0.0
 10
1913.0892616852
 20
1219.8676262693
 10
1914.2265359084
 20
1219.3359751671
 10
1915.5304335067
 20
1218.9524431014
 10
1916.9439678982
 20
1218.7337922639
 10
1918.4053608472
 20
1218.6895787453
 10
1919.8507424692
 20
1218.8217348885
 10
1921.2169426517
 20
1219.124484836
 10
1922.4442518909
 20
1219.5845969623
 10
1923.4790308837
 20
1220.1819621596
 10
1924.2760548228
 20
1220.8904727023
 10
1924.8004899375
 20
1221.6791632799
 10
1925.0294158968
 20
1222.5135643296
 10
1924.9528275377
 20
1223.3572085216
 10
1924.574072139
 20
1224.1732245564
 10
1923.9097031291
 20
1224.9259486177
 10
1922.9887566218
 20
1225.582483052
 10
1921.8514823986
 20
1226.1141341542
 10
1920.5475848003
 20
1226.4976662199
 10
1919.1340504088
 20
1226.7163170574
 10
1917.6726574598
 20
1226.760530576
 10
1916.2272758378
 20
1226.6283744328
 10
1914.8610756553
 20
1226.3256244853
 10
1913.6337664162
 20
1225.865512359
 10
1912.5989874233
 20
1225.2681471617
 10
1911.8019634842
 20
1224.559636619
 10
1911.2775283695
 20
1223.7709460414
 10
1911.0486024102
 20
1222.9365449917
 10
1911.1251907693
 20
1222.0929007998
 10
1911.503946168
 20
1221.2768847649
 10
1912.1683151779
 20
1220.5241607036
 10
1913.0892616852
 20
1219.8676262693
  0
LWPOLYLINE
  5
E5
330
1F
100
AcDbEntity
  8
0
  6
Continuous
 62
     7
370
    25
100
AcDbPolyline
 90
       31
 70
   128
 43
0.0
 10
1836.7924399952
 20
1263.9128439021
 10
1837.9297142184
 20
1263.3811928
 10
1839.2336118167
 20
1262.9976607343
 10
1840.6471462082
 20
1262.7790098967
 10
1842.1085391572
 20
1262.7347963781
 10
1843.5539207792
 20
1262.8669525214
 10
1844.9201209617
 20
1263.1697024689
 10
1846.1474302008
 20
1263.6298145952
 10
1847.1822091937
 20
1264.2271797925
 10
1847.9792331328
 20
1264.9356903352
 10
1848.5036682475
 20
1265.7243809128
 10
1848.7325942068
 20
1266.5587819624
 10
1848.6560058476
 20
1267.4024261544
 10
1848.277250449
 20
1268.2184421892
 10
1847.6128814391
 20
1268.9711662505
 10
1846.6919349318
 20
1269.6277006849
 10
1845.5546607086
 20
1270.159351787
 10
1844.2507631103
 20
1270.5428838527
 10
1842.8372287188
 20
1270.7615346903
 10
1841.3758357698
 20
1270.8057482089
 10
1839.9304541478
 20
1270.6735920656
 10
1838.5642539653
 20
1270.3708421181
 10
1837.3369447261
 20
1269.9107299918
 10
1836.3021657333
 20
1269.3133647945
 10
1835.5051417942
 20
1268.6048542518
 10
1834.9807066795
 20
1267.8161636742
 10
1834.7517807202
 20
1266.9817626246
 10
1834.8283690793
 20
1266.1381184326
 10
1835.207124478
 20
1265.3221023977
 10
1835.8714934879
 20
1264.5693783364
 10
1836.7924399952
 20
1263.9128439021
  0
LWPOLYLINE
  5
E6
330
1F
100
AcDbEntity
  8
0
  6
Continuous
 62
     7
370
    25
100
AcDbPolyline
 90
       31
 70
   128
 43
0.0
 10
1872.7134644795
 20
1284.6496099424
 10
1873.8507387027
 20
1284.1179588403
 10
1875.1546363009
 20
1283.7344267746
 10
1876.5681706925
 20
1283.515775937
 10
1878.0295636415
 20
1283.4715624184
 10
1879.4749452635
 20
1283.6037185617
 10
1880.8411454459
 20
1283.9064685092
 10
1882.0684546851
 20
1284.3665806355
 10
1883.103233678
 20
1284.9639458328
 10
1883.9002576171
 20
1285.6724563755
 10
1884.4246927318
 20
1286.4611469531
 10
1884.653618691
 20
1287.2955480027
 10
1884.5770303319
 20
1288.1391921947
 10
1884.1982749332
 20
1288.9552082295
 10
1883.5339059234
 20
1289.7079322908
 10
1882.6129594161
 20
1290.3644667252
 10
1881.4756851929
 20
1290.8961178273
 10
1880.1717875946
 20
1291.279649893
 10
1878.758253203
 20
1291.4983007306
 10
1877.2968602541
 20
1291.5425142492
 10
1875.851478632
 20
1291.4103581059
 10
1874.4852784496
 20
1291.1076081584
 10
1873.2579692104
 20
1290.6474960321
 10
1872.2231902176
 20
1290.0501308348
 10
1871.4261662784
 20
1289.3416202921
 10
1870.9017311637
 20
1288.5529297145
 10
1870.6728052045
 20
1287.7185286649
 10
1870.7493935636
 20
1286.8748844729
 10
1871.1281489623
 20
1286.058868438
 10
1871.7925179721
 20
1285.3061443767
 10
1872.7134644795
 20
1284.6496099424
  0
LWPOLYLINE
  5
E7
330
1F
100
AcDbEntity
  8
0
  6
Continuous
 62
     7
370
    25
100
AcDbPolyline
 90
       35
 70
   128
 43
0.0
 10
1891.3457281637
 20
1251.3605691828
 10
1892.6234614646
 20
1250.7480575448
 10
1894.0744001505
 20
1250.2815123517
 10
1895.6491342448
 20
1249.9768212407
 10
1897.2940380666
 20
1249.8443601021
 10
1898.953096389
 20
1249.8886397411
 10
1900.5698119706
 20
1250.1081522676
 10
1902.0891295015
 20
1250.4954224459
 10
1903.4593104453
 20
1251.0372622546
 10
1904.6336949332
 20
1251.7152199888
 10
1905.5722907102
 20
1252.5062086109
 10
1906.2431350227
 20
1253.3832919523
 10
1906.6233830723
 20
1254.3166019915
 10
1906.7000859676
 20
1255.2743559746
 10
1906.4706316836
 20
1256.2239387385
 10
1905.9428340108
 20
1257.1330133809
 10
1905.1346664658
 20
1257.9706224553
 10
1904.0736502251
 20
1258.7082421892
 10
1902.7959169242
 20
1259.3207538273
 10
1901.3449782382
 20
1259.7872990204
 10
1899.7702441439
 20
1260.0919901314
 10
1898.1253403222
 20
1260.22445127
 10
1896.4662819998
 20
1260.180171631
 10
1894.8495664182
 20
1259.9606591045
 10
1893.3302488873
 20
1259.5733889261
 10
1891.9600679435
 20
1259.0315491175
 10
1890.7856834556
 20
1258.3535913833
 10
1889.8470876786
 20
1257.5626027611
 10
1889.1762433661
 20
1256.6855194198
 10
1888.7959953165
 20
1255.7522093806
 10
1888.7192924212
 20
1254.7944553974
 10
1888.9487467052
 20
1253.8448726336
 10
1889.476544378
 20
1252.9357979912
 10
1890.284711923
 20
1252.0981889168
 10
1891.3457281637
 20
1251.3605691828
  0
LINE
  5
E8
330
1F
100
AcDbEntity
  8
0
  6
Continuous
 62
     7
370
    25
100
AcDbLine
 10
1932.3261592383
 20
1175.4261161486
 30
0.0
 11
1932.3261592383
 21
1185.2246058912
 31
0.0
  0
ARC
  5
E9
330
1F
100
AcDbEntity
  8
0
  6
Continuous
 62
     7
370
    25
100
AcDbCircle
 10
1913.6112765385
 20
1281.2131748097
 30
0.0
 40
107.4297380367353
100
AcDbArc
 50
265.0729499619
 51
280.0324434879
  0
LINE
  5
EA
330
1F
100
AcDbEntity
  8
0
  6
Continuous
 62
     7
370
    25
100
AcDbLine
 10
1904.384426356
 20
1183.9788945688
 30
0.0
 11
1904.384426356
 21
1174.1804048262
 31
0.0
  0
LINE
  5
EB
330
1F
100
AcDbEntity
  8
0
  6
Continuous
 62
     7
370
    25
100
AcDbLine
 10
1774.6245972555
 20
1258.8876494309
 30
0.0
 11
1774.6245972555
 21
1249.0891596882
 31
0.0
  0
LWPOLYLINE
  5
EC
330
1F
100
AcDbEntity
  8
0
  6
Continuous
 62
     7
370
    25
100
AcDbPolyline
 90
       13
 70
   128
 43
0.0
 10
1774.6245972555
 20
1249.0891596882
 10
1784.0876854139
 20
1242.1222254008
 10
1793.8127041894
 20
1235.276553861
 10
1803.7949923113
 20
1228.5554262479
 10
1814.029765198
 20
1221.9620640457
 10
1824.51211725
 20
1215.4996274997
 10
1835.2370242015
 20
1209.1712141018
 10
1846.1993455283
 20
1202.9798571054
 10
1857.393826912
 20
1196.928524072
 10
1868.815102758
 20
1191.0201154486
 10
1880.4576987677
 20
1185.2574631773
 10
1892.3160345619
 20
1179.6433293384
 10
1904.384426356
 20
1174.1804048262
  0
ARC
  5
ED
330
1F
100
AcDbEntity
  8
0
  6
Continuous
 62
     7
370
    25
100
AcDbCircle
 10
1939.3877728238
 20
946.0641546682
 30
0.0
 40
4.610414422716056
100
AcDbArc
 50
302.60547834
 51
357.3945215143
  0
LINE
  5
EE
330
1F
100
AcDbEntity
  8
0
  6
Continuous
 62
     7
370
    25
100
AcDbLine
 10
1943.9934211279
 20
945.8545721114
 30
0.0
 11
1943.9934211279
 21
1179.7118606355
 31
0.0
  0
ARC
  5
EF
330
1F
100
AcDbEntity
  8
0
  6
Continuous
 62
     7
370
    25
100
AcDbCircle
 10
1942.7001980256
 20
1179.9216422262
 30
0.0
 40
1.310127592285503
100
AcDbArc
 50
350.7859630095
 51
129.2032852357
  0
LINE
  5
F0
330
1F
100
AcDbEntity
  8
0
  6
Continuous
 62
     7
370
    25
100
AcDbLine
 10
1975.7837365944
 20
951.9586184153
 30
0.0
 11
1975.7837365944
 21
1210.3121312959
 31
0.0
  0
LINE
  5
F1
330
1F
100
AcDbEntity
  8
0
  6
Continuous
 62
     7
370
    25
100
AcDbLine
 10
1975.7837365944
 20
951.9586184153
 30
0.0
 11
1932.3261592383
 21
926.8710930106
 31
0.0
  0
LINE
  5
F2
330
1F
100
AcDbEntity
  8
0
  6
Continuous
 62
     7
370
    25
100
AcDbLine
 10
1932.3261592383
 20
926.8710930106
 30
0.0
 11
1932.3261592383
 21
936.6695827532
 31
0.0
  0
LINE
  5
F3
330
1F
100
AcDbEntity
  8
0
  6
Continuous
 62
     7
370
    25
100
AcDbLine
 10
1932.3261592383
 20
936.6695827532
 30
0.0
 11
1941.8721007843
 21
942.180337508
 31
0.0
  0
LINE
  5
F4
330
1F
100
AcDbEntity
  8
0
  6
Continuous
 62
     7
370
    25
100
AcDbLine
 10
1932.3261592383
 20
1175.4261161486
 30
0.0
 11
1941.8721007843
 21
1180.9368709034
 31
0.0
  0
LINE
  5
F5
330
1F
100
AcDbEntity
  8
0
  6
Continuous
 62
     7
370
    25
100
AcDbLine
 10
1930.2432102353
 20
938.2802476734
 30
0.0
 11
1930.2432102353
 21
1175.0749369344
 31
0.0
  0
ARC
  5
F6
330
1F
100
AcDbEntity
  8
0
  6
Continuous
 62
     7
370
    25
100
AcDbCircle
 10
1914.8692295777
 20
1035.2168006531
 30
0.0
 40
98.14812573270765
100
AcDbArc
 50
277.0007527573
 51
279.0119577005
  0
LINE
  5
F7
330
1F
100
AcDbEntity
  8
0
  6
Continuous
 62
     7
370
    25
100
AcDbLine
 10
1926.8317570838
 20
1174.5949687663
 30
0.0
 11
1926.8317570838
 21
937.8004133227
 31
0.0
  0
LINE
  5
F8
330
1F
100
AcDbEntity
  8
0
  6
Continuous
 62
     7
370
    25
100
AcDbLine
 10
1778.7413346157
 20
1023.2911944911
 30
0.0
 11
1778.7413346157
 21
1246.0196552085
 31
0.0
  0
LINE
  5
F9
330
1F
100
AcDbEntity
  8
0
  6
Continuous
 62
     7
370
    25
100
AcDbLine
 10
1778.7413346157
 20
1023.2911944911
 30
0.0
 11
1926.8317570838
 21
937.8004133227
 31
0.0
  0
LWPOLYLINE
  5
FA
330
1F
100
AcDbEntity
  8
0
  6
Continuous
 62
     7
370
    25
100
AcDbPolyline
 90
       53
 70
   128
 43
0.0
 10
1799.7535372607
 20
1042.2713130331
 10
1799.8566493521
 20
1040.2433253146
 10
1800.1644820197
 20
1038.1258595371
 10
1800.67254637
 20
1035.9497931197
 10
1801.3734336808
 20
1033.7468580109
 10
1802.2569234369
 20
1031.549177965
 10
1803.310132368
 20
1029.388800106
 10
1804.5177023165
 20
1027.2972276077
 10
1805.8620241931
 20
1025.3049603071
 10
1807.3234947579
 20
1023.4410499474
 10
1808.8808024791
 20
1021.732676539
 10
1810.5112383032
 20
1020.2047520131
 10
1812.1910268047
 20
1018.8795569497
 10
1813.8956728845
 20
1017.7764156771
 10
1815.6003189643
 20
1016.9114144791
 10
1817.2801074657
 20
1016.2971670209
 10
1818.9105432899
 20
1015.9426304136
 10
1820.467851011
 20
1015.8529745993
 10
1821.9293215758
 20
1016.0295069616
 10
1823.2736434525
 20
1016.4696532613
 10
1824.4812134009
 20
1017.1669951741
 10
1825.5344223321
 20
1018.1113638847
 10
1826.4179120881
 20
1019.2889883708
 10
1827.1187993989
 20
1020.6826962154
 10
1827.6268637493
 20
1022.27216402
 10
1827.9346964169
 20
1024.0342137648
 10
1828.0378085082
 20
1025.9431507966
 10
1827.9346964169
 20
1027.9711385151
 10
1827.6268637493
 20
1030.0886042926
 10
1827.1187993989
 20
1032.26467071
 10
1826.4179120881
 20
1034.4676058189
 10
1825.5344223321
 20
1036.6652858647
 10
1824.4812134009
 20
1038.8256637237
 10
1823.2736434525
 20
1040.917236222
 10
1821.9293215758
 20
1042.9095035227
 10
1820.467851011
 20
1044.7734138823
 10
1818.9105432899
 20
1046.4817872907
 10
1817.2801074657
 20
1048.0097118167
 10
1815.6003189643
 20
1049.33490688
 10
1813.8956728845
 20
1050.4380481526
 10
1812.1910268047
 20
1051.3030493506
 10
1810.5112383032
 20
1051.9172968089
 10
1808.8808024791
 20
1052.2718334162
 10
1807.3234947579
 20
1052.3614892305
 10
1805.8620241931
 20
1052.1849568681
 10
1804.5177023165
 20
1051.7448105684
 10
1803.310132368
 20
1051.0474686556
 10
1802.2569234369
 20
1050.103099945
 10
1801.3734336808
 20
1048.925475459
 10
1800.67254637
 20
1047.5317676143
 10
1800.1644820197
 20
1045.9422998097
 10
1799.8566493521
 20
1044.1802500649
 10
1799.7535372607
 20
1042.2713130331
  0
LWPOLYLINE
  5
FB
330
1F
100
AcDbEntity
  8
0
  6
Continuous
 62
     7
370
    25
100
AcDbPolyline
 90
       20
 70
   128
 43
0.0
 10
1901.1349720134
 20
1016.182140269
 10
1896.2740806825
 20
1016.7768716245
 10
1891.3375827305
 20
1017.6511699845
 10
1886.3340606613
 20
1018.8035153102
 10
1881.2722135053
 20
1020.2319041554
 10
1876.1608416961
 20
1021.9338531496
 10
1871.00883177
 20
1023.9064033161
 10
1865.8251409157
 20
1026.1461252155
 10
1860.618781402
 20
1028.6491249091
 10
1855.3988049089
 20
1031.411050728
 10
1850.1742867906
 20
1034.4271008393
 10
1844.9543102975
 20
1037.6920315941
 10
1839.7479507838
 20
1041.2001666444
 10
1834.5642599295
 20
1044.9454068118
 10
1829.4122500033
 20
1048.9212406912
 10
1824.3008781942
 20
1053.1207559716
 10
1819.2390310382
 20
1057.5366514537
 10
1814.2355089689
 20
1062.1612497434
 10
1809.299011017
 20
1066.9865106001
 10
1804.4381196861
 20
1072.0040449148
  0
LWPOLYLINE
  5
FC
330
1F
100
AcDbEntity
  8
0
  6
Continuous
 62
     7
370
    25
100
AcDbPolyline
 90
       20
 70
   128
 43
0.0
 10
1901.1349720134
 20
1127.8440962943
 10
1903.0499981326
 20
1121.1253973521
 10
1904.7607224056
 20
1114.4373316197
 10
1906.2641705989
 20
1107.7915268444
 10
1907.5577288455
 20
1101.1995372988
 10
1908.639148189
 20
1094.6728236937
 10
1909.5065484937
 20
1088.2227332522
 10
1910.1584217136
 20
1081.8604799819
 10
1910.593634514
 20
1075.5971251783
 10
1910.811430242
 20
1069.4435581938
 10
1910.811430242
 20
1063.4104775057
 10
1910.593634514
 20
1057.5083721162
 10
1910.1584217136
 20
1051.7475033162
 10
1909.5065484937
 20
1046.1378868453
 10
1908.639148189
 20
1040.6892754786
 10
1907.5577288455
 20
1035.4111420707
 10
1906.2641705989
 20
1030.3126630863
 10
1904.7607224056
 20
1025.4027026465
 10
1903.0499981326
 20
1020.6897971174
 10
1901.1349720134
 20
1016.182140269
  0
LWPOLYLINE
  5
FD
330
1F
100
AcDbEntity
  8
0
  6
Continuous
 62
     7
370
    25
100
AcDbPolyline
 90
       20
 70
   128
 43
0.0
 10
1804.4381196861
 20
1183.6660009402
 10
1809.299011017
 20
1183.0712695847
 10
1814.2355089689
 20
1182.1969712246
 10
1819.2390310382
 20
1181.0446258989
 10
1824.3008781942
 20
1179.6162370538
 10
1829.4122500033
 20
1177.9142880595
 10
1834.5642599295
 20
1175.9417378931
 10
1839.7479507838
 20
1173.7020159936
 10
1844.9543102975
 20
1171.1990163
 10
1850.1742867906
 20
1168.4370904811
 10
1855.3988049089
 20
1165.4210403699
 10
1860.618781402
 20
1162.1561096151
 10
1865.8251409157
 20
1158.6479745648
 10
1871.00883177
 20
1154.9027343974
 10
1876.1608416961
 20
1150.926900518
 10
1881.2722135053
 20
1146.7273852376
 10
1886.3340606613
 20
1142.3114897555
 10
1891.3375827305
 20
1137.6868914657
 10
1896.2740806825
 20
1132.861630609
 10
1901.1349720134
 20
1127.8440962943
  0
LWPOLYLINE
  5
FE
330
1F
100
AcDbEntity
  8
0
  6
Continuous
 62
     7
370
    25
100
AcDbPolyline
 90
       20
 70
   128
 43
0.0
 10
1804.4381196861
 20
1072.0040449148
 10
1802.5230935669
 20
1078.7227438571
 10
1800.8123692939
 20
1085.4108095894
 10
1799.3089211005
 20
1092.0566143648
 10
1798.0153628539
 20
1098.6486039104
 10
1796.9339435105
 20
1105.1753175155
 10
1796.0665432058
 20
1111.625407957
 10
1795.4146699859
 20
1117.9876612273
 10
1794.9794571855
 20
1124.2510160309
 10
1794.7616614575
 20
1130.4045830154
 10
1794.7616614575
 20
1136.4376637035
 10
1794.9794571855
 20
1142.3397690929
 10
1795.4146699859
 20
1148.1006378929
 10
1796.0665432058
 20
1153.7102543638
 10
1796.9339435105
 20
1159.1588657306
 10
1798.0153628539
 20
1164.4369991385
 10
1799.3089211005
 20
1169.5354781228
 10
1800.8123692939
 20
1174.4454385626
 10
1802.5230935669
 20
1179.1583440918
 10
1804.4381196861
 20
1183.6660009402
  0
ARC
  5
FF
330
1F
100
AcDbEntity
  8
0
  6
Continuous
 62
     7
370
    25
100
AcDbCircle
 10
1936.9512704302
 20
947.4707175605
 30
0.0
 40
4.610414422716056
100
AcDbArc
 50
302.60547834
 51
357.3945215143
  0
LINE
  5
100
330
1F
100
AcDbEntity
  8
0
  6
Continuous
 62
     7
370
    25
100
AcDbLine
 10
1939.4355983907
 20
943.5869004003
 30
0.0
 11
1930.2432102353
 21
938.2802476734
 31
0.0
  0
LINE
  5
101
330
1F
100
AcDbEntity
  8
0
  6
Continuous
 62
     7
370
    25
100
AcDbLine
 10
1941.5569187343
 20
947.2611350037
 30
0.0
 11
1941.5569187343
 21
1180.7549201788
 31
0.0
  0
LINE
  5
102
330
1F
100
AcDbEntity
  8
0
  6
Continuous
 62
     7
370
    25
100
AcDbLine
 10
1941.5569187343
 20
947.2611350037
 30
0.0
 11
1943.9934211279
 21
945.8545721114
 31
0.0
  0
LINE
  5
103
330
1F
100
AcDbEntity
  8
0
  6
Continuous
 62
     7
370
    25
100
AcDbLine
 10
2003.2107642828
 20
1011.0492464551
 30
0.0
 11
2003.2107642828
 21
1269.4027593358
 31
0.0
  0
LINE
  5
104
330
1F
100
AcDbEntity
  8
0
  6
Continuous
 62
     7
370
    25
100
AcDbLine
 10
2003.2107642828
 20
1011.0492464551
 30
0.0
 11
1975.7837365944
 21
951.9586184153
 31
0.0
  0
LWPOLYLINE
  5
105
330
1F
100
AcDbEntity
  8
0
  6
Continuous
 62
     7
370
    25
100
AcDbPolyline
 90
       15
 70
   128
 43
0.0
 10
1921.3133392621
 20
1219.1533852274
 10
1921.4197495455
 20
1219.3442161287
 10
1921.5365616203
 20
1219.9427109885
 10
1921.3426008096
 20
1220.5344929731
 10
1920.8551013827
 20
1221.0669796562
 10
1920.117379803
 20
1221.4928572591
 10
1919.1949858704
 20
1221.7742846879
 10
1918.1698783335
 20
1221.8862558805
 10
1917.1331424957
 20
1221.8188217051
 10
1916.1768968857
 20
1221.5779739841
 10
1915.3861081225
 20
1221.1851130945
 10
1914.831041258
 20
1220.6751464504
 10
1914.5610164189
 20
1220.0933868259
 10
1914.6000264972
 20
1219.4915261168
 10
1914.7646790449
 20
1219.1533852274
  0
LWPOLYLINE
  5
106
330
1F
100
AcDbEntity
  8
0
  6
Continuous
 62
     7
370
    25
100
AcDbPolyline
 90
       20
 70
   128
 43
0.0
 10
1900.4278652322
 20
1127.4357595384
 10
1895.6303096629
 20
1132.3467678132
 10
1890.7608031265
 20
1137.0705298378
 10
1885.8275233757
 20
1141.5991126198
 10
1880.8387552626
 20
1145.9249109473
 10
1875.8028768255
 20
1150.0406601601
 10
1870.7283452186
 20
1153.9394483509
 10
1865.6236825099
 20
1157.614727972
 10
1860.4974613684
 20
1161.0603268317
 10
1855.3582906684
 20
1164.2704584596
 10
1850.2148010311
 20
1167.2397318245
 10
1845.0756303311
 20
1169.9631603874
 10
1839.9494091896
 20
1172.4361704765
 10
1834.8447464808
 20
1174.6546089676
 10
1829.770214874
 20
1176.6147502593
 10
1824.7343364369
 20
1178.313302529
 10
1819.7455683238
 20
1179.7474132619
 10
1814.812288573
 20
1180.9146740407
 10
1809.9427820366
 20
1181.8131245909
 10
1805.1452264673
 20
1182.4412560724
  0
LWPOLYLINE
  5
107
330
1F
100
AcDbEntity
  8
0
  6
Continuous
 62
     7
370
    25
100
AcDbPolyline
 90
       20
 70
   128
 43
0.0
 10
1900.4278652322
 20
1017.4068851368
 10
1902.2823048263
 20
1021.8763800418
 10
1903.9386235579
 20
1026.5433340075
 10
1905.3940398382
 20
1031.3999094438
 10
1906.6461094699
 20
1036.4379503143
 10
1907.6927297521
 20
1041.6489958331
 10
1908.5321430115
 20
1047.0242946737
 10
1909.1629395541
 20
1052.5548196658
 10
1909.5840600327
 20
1058.2312829556
 10
1909.7947972259
 20
1064.0441516031
 10
1909.7947972259
 20
1069.9836635921
 10
1909.5840600327
 20
1076.0398442239
 10
1909.1629395541
 20
1082.2025228689
 10
1908.5321430115
 20
1088.4613500468
 10
1907.6927297521
 20
1094.8058148075
 10
1906.6461094699
 20
1101.2252623825
 10
1905.3940398382
 20
1107.7089120791
 10
1903.9386235579
 20
1114.2458753846
 10
1902.2823048263
 20
1120.8251742523
 10
1900.4278652322
 20
1127.4357595384
  0
ARC
  5
108
330
1F
100
AcDbEntity
  8
0
  6
Continuous
 62
     7
370
    25
100
AcDbCircle
 10
1975.5494088507
 20
1233.4607792701
 30
0.0
 40
234.4657154959593
100
AcDbArc
 50
223.3831633276
 51
233.042827332
  0
ARC
  5
109
330
1F
100
AcDbEntity
  8
0
  6
Continuous
 62
     7
370
    25
100
AcDbCircle
 10
1914.2218464453
 20
1131.3789073891
 30
0.0
 40
114.8037271781079
100
AcDbArc
 50
243.106079137
 51
263.0990828707
  0
ARC
  5
10A
330
1F
100
AcDbEntity
  8
0
  6
Continuous
 62
     7
370
    25
100
AcDbCircle
 10
1910.777914568
 20
1137.4019093896
 30
0.0
 40
114.8338257874727
100
AcDbArc
 50
156.9077161688
 51
176.8954314018
  0
ARC
  5
10B
330
1F
100
AcDbEntity
  8
0
  6
Continuous
 62
     7
370
    25
100
AcDbCircle
 10
2029.8574882465
 20
1139.4760517148
 30
0.0
 40
234.506154362128
100
AcDbArc
 50
186.9593813237
 51
196.6173348112
  0
LWPOLYLINE
  5
10C
330
1F
100
AcDbEntity
  8
0
  6
Continuous
 62
     7
370
    25
100
AcDbPolyline
 90
       27
 70
   128
 43
0.0
 10
1812.8350127127
 20
1172.7965892886
 10
1812.732276523
 20
1173.8329526626
 10
1812.4300386077
 20
1174.9277030442
 10
1811.9458639359
 20
1176.0172175204
 10
1811.3078909796
 20
1177.0381774701
 10
1810.5531964081
 20
1177.9312484121
 10
1809.7256403267
 20
1178.6445283094
 10
1808.8733172868
 20
1179.1365639271
 10
1808.0457612054
 20
1179.3787599435
 10
1807.2910666339
 20
1179.3570408065
 10
1806.6530936776
 20
1179.0726687533
 10
1806.1689190059
 20
1178.5421704542
 10
1805.8666810906
 20
1177.7963765419
 10
1805.7639449008
 20
1176.8786298477
 10
1805.8666810906
 20
1175.8422664737
 10
1806.1689190059
 20
1174.7475160922
 10
1806.6530936776
 20
1173.6580016159
 10
1807.2910666339
 20
1172.6370416662
 10
1808.0457612054
 20
1171.7439707242
 10
1808.8733172868
 20
1171.0306908269
 10
1809.7256403267
 20
1170.5386552092
 10
1810.5531964081
 20
1170.2964591928
 10
1811.3078909796
 20
1170.3181783299
 10
1811.9458639359
 20
1170.602550383
 10
1812.4300386077
 20
1171.1330486821
 10
1812.732276523
 20
1171.8788425945
 10
1812.8350127127
 20
1172.7965892886
  0
LWPOLYLINE
  5
10D
330
1F
100
AcDbEntity
  8
0
  6
Continuous
 62
     7
370
    25
100
AcDbPolyline
 90
       27
 70
   128
 43
0.0
 10
1899.8091467986
 20
1122.5874904115
 10
1899.7064106089
 20
1123.6238537855
 10
1899.4041726936
 20
1124.7186041671
 10
1898.9199980218
 20
1125.8081186433
 10
1898.2820250655
 20
1126.829078593
 10
1897.5273304941
 20
1127.722149535
 10
1896.6997744127
 20
1128.4354294323
 10
1895.8474513728
 20
1128.92746505
 10
1895.0198952914
 20
1129.1696610664
 10
1894.2652007199
 20
1129.1479419294
 10
1893.6272277636
 20
1128.8635698763
 10
1893.1430530918
 20
1128.3330715771
 10
1892.8408151765
 20
1127.5872776648
 10
1892.7380789868
 20
1126.6695309706
 10
1892.8408151765
 20
1125.6331675966
 10
1893.1430530918
 20
1124.5384172151
 10
1893.6272277636
 20
1123.4489027389
 10
1894.2652007199
 20
1122.4279427891
 10
1895.0198952914
 20
1121.5348718471
 10
1895.8474513728
 20
1120.8215919498
 10
1896.6997744127
 20
1120.3295563321
 10
1897.5273304941
 20
1120.0873603157
 10
1898.2820250655
 20
1120.1090794528
 10
1898.9199980218
 20
1120.3934515059
 10
1899.4041726936
 20
1120.923949805
 10
1899.7064106089
 20
1121.6697437174
 10
1899.8091467986
 20
1122.5874904115
  0
LWPOLYLINE
  5
10E
330
1F
100
AcDbEntity
  8
0
  6
Continuous
 62
     7
370
    25
100
AcDbPolyline
 90
       27
 70
   128
 43
0.0
 10
1899.8091467986
 20
1022.9695113614
 10
1899.7064106089
 20
1024.0058747354
 10
1899.4041726936
 20
1025.100625117
 10
1898.9199980218
 20
1026.1901395932
 10
1898.2820250655
 20
1027.211099543
 10
1897.5273304941
 20
1028.104170485
 10
1896.6997744127
 20
1028.8174503823
 10
1895.8474513728
 20
1029.3094859999
 10
1895.0198952914
 20
1029.5516820163
 10
1894.2652007199
 20
1029.5299628793
 10
1893.6272277636
 20
1029.2455908262
 10
1893.1430530918
 20
1028.715092527
 10
1892.8408151765
 20
1027.9692986147
 10
1892.7380789868
 20
1027.0515519206
 10
1892.8408151765
 20
1026.0151885466
 10
1893.1430530918
 20
1024.920438165
 10
1893.6272277636
 20
1023.8309236888
 10
1894.2652007199
 20
1022.8099637391
 10
1895.0198952914
 20
1021.916892797
 10
1895.8474513728
 20
1021.2036128997
 10
1896.6997744127
 20
1020.7115772821
 10
1897.5273304941
 20
1020.4693812657
 10
1898.2820250655
 20
1020.4911004027
 10
1898.9199980218
 20
1020.7754724558
 10
1899.4041726936
 20
1021.305970755
 10
1899.7064106089
 20
1022.0517646673
 10
1899.8091467986
 20
1022.9695113614
  0
LWPOLYLINE
  5
10F
330
1F
100
AcDbEntity
  8
0
  6
Continuous
 62
     7
370
    25
100
AcDbPolyline
 90
       21
 70
   128
 43
0.0
 10
1809.052391648
 20
1079.4349924538
 10
1808.8733172868
 20
1079.518584877
 10
1808.0457612054
 20
1079.7607808934
 10
1807.2910666339
 20
1079.7390617564
 10
1806.6530936776
 20
1079.4546897033
 10
1806.1689190059
 20
1078.9241914041
 10
1805.8666810906
 20
1078.1783974918
 10
1805.7639449008
 20
1077.2606507977
 10
1805.8666810906
 20
1076.2242874237
 10
1806.1689190059
 20
1075.1295370421
 10
1806.6530936776
 20
1074.0400225659
 10
1807.2910666339
 20
1073.0190626162
 10
1808.0457612054
 20
1072.1259916741
 10
1808.8733172868
 20
1071.4127117768
 10
1809.7256403267
 20
1070.9206761592
 10
1810.5531964081
 20
1070.6784801428
 10
1811.3078909796
 20
1070.7001992798
 10
1811.9458639359
 20
1070.9845713329
 10
1812.4300386077
 20
1071.5150696321
 10
1812.732276523
 20
1072.2608635444
 10
1812.8240993946
 20
1072.8643731888
  0
LWPOLYLINE
  5
110
330
1F
100
AcDbEntity
  8
0
  6
Continuous
 62
     7
370
    25
100
AcDbPolyline
 90
       54
 70
   128
 43
0.0
 10
1892.0333561057
 20
1031.9392349077
 10
1892.9240685277
 20
1032.4773161933
 10
1895.1868883266
 20
1034.0790119432
 10
1897.2919760666
 20
1035.9256556361
 10
1899.2315006831
 20
1038.010377636
 10
1900.9982470171
 20
1040.3254226403
 10
1902.5856426562
 20
1042.8621785295
 10
1903.9877823843
 20
1045.611208405
 10
1905.1994501497
 20
1048.5622856952
 10
1906.2161384685
 20
1051.7044321987
 10
1907.0340651936
 20
1055.0259589242
 10
1907.6501875836
 20
1058.514509574
 10
1908.062213623
 20
1062.1571065107
 10
1908.2686105478
 20
1065.9401990343
 10
1908.2686105478
 20
1069.8497137922
 10
1908.062213623
 20
1073.8711071328
 10
1907.6501875836
 20
1077.9894192086
 10
1907.0340651936
 20
1082.1893296284
 10
1906.2161384685
 20
1086.4552144493
 10
1905.1994501497
 20
1090.7712042998
 10
1903.9877823843
 20
1095.1212434141
 10
1902.5856426562
 20
1099.489149361
 10
1900.9982470171
 20
1103.8586732435
 10
1899.2315006831
 20
1108.2135601458
 10
1897.2919760666
 20
1112.5376096025
 10
1895.1868883266
 20
1116.8147358657
 10
1892.9240685277
 20
1121.0290277447
 10
1890.5119345082
 20
1125.164807797
 10
1887.9594595651
 20
1129.2066906491
 10
1885.2761390728
 20
1133.1396402314
 10
1882.4719551598
 20
1136.949025713
 10
1879.5573395744
 20
1140.6206759299
 10
1876.5431348781
 20
1144.1409321019
 10
1873.4405541102
 20
1147.496698645
 10
1870.261139075
 20
1150.6754918873
 10
1867.0167174053
 20
1153.6654865089
 10
1863.7193585628
 20
1156.4555595337
 10
1860.3813289389
 20
1159.0353317067
 10
1857.0150462231
 20
1161.3952061059
 10
1853.6330332082
 20
1163.5264038436
 10
1850.2478712047
 20
1165.4209967243
 10
1846.8721532376
 20
1167.0719367379
 10
1843.5184371995
 20
1168.4730822793
 10
1840.1991991343
 20
1169.6192209949
 10
1836.9267868256
 20
1170.5060891734
 10
1833.7133738622
 20
1171.130387607
 10
1830.5709143513
 20
1171.4897938646
 10
1827.5110984487
 20
1171.5829709311
 10
1824.5453088705
 20
1171.4095721819
 10
1821.6845785488
 20
1170.9702426716
 10
1818.9395495882
 20
1170.2666167349
 10
1816.3204336768
 20
1169.3013119065
 10
1813.8369740978
 20
1168.0779191837
 10
1813.5397355938
 20
1167.9089063015
  0
LINE
  5
111
330
1F
100
AcDbEntity
  8
0
  6
Continuous
 62
     7
370
    25
100
AcDbLine
 10
1900.8740014908
 20
1017.6644341168
 30
0.0
 11
1901.7523407648
 21
1017.5617817242
 31
0.0
  0
LINE
  5
112
330
1F
100
AcDbEntity
  8
0
  6
Continuous
 62
     7
370
    25
100
AcDbLine
 10
1805.9420712782
 20
1183.5109716527
 30
0.0
 11
1805.5919894244
 21
1182.6991668378
 31
0.0
  0
LWPOLYLINE
  5
113
330
1F
100
AcDbEntity
  8
0
  6
Continuous
 62
     7
370
    25
100
AcDbPolyline
 90
      100
 70
   128
 43
0.0
 10
1901.5769137516
 20
1068.9005623553
 10
1901.4737002344
 20
1072.7147921171
 10
1901.1644752874
 20
1076.6328311121
 10
1900.6504840501
 20
1080.6389027803
 10
1899.9337961839
 20
1084.716876085
 10
1899.017297538
 20
1088.8503304669
 10
1897.9046785288
 20
1093.022621964
 10
1896.6004192804
 20
1097.2169502313
 10
1895.1097715846
 20
1101.416426189
 10
1893.4387377533
 20
1105.6041400296
 10
1891.5940464502
 20
1109.7632293077
 10
1889.583125596
 20
1113.8769468385
 10
1887.4140724593
 20
1117.9287281334
 10
1885.0956210514
 20
1121.9022580994
 10
1882.6371069579
 20
1125.7815367335
 10
1880.0484297474
 20
1129.5509435499
 10
1877.3400131093
 20
1133.1953004779
 10
1874.5227628815
 20
1136.6999329781
 10
1871.6080231364
 20
1140.0507291326
 10
1868.6075305021
 20
1143.2341964679
 10
1865.5333669034
 20
1146.2375162845
 10
1862.3979109123
 20
1149.0485952736
 10
1859.2137879033
 20
1151.6561142123
 10
1855.993819216
 20
1154.049573542
 10
1852.7509705278
 20
1156.2193356469
 10
1849.4982996458
 20
1158.1566636606
 10
1846.2489039277
 20
1159.8537566472
 10
1843.0158675431
 20
1161.3037810121
 10
1839.8122087886
 20
1162.5008980189
 10
1836.6508276671
 20
1163.4402873
 10
1833.5444539447
 20
1164.1181662664
 10
1830.505595892
 20
1164.5318053386
 10
1827.5464899179
 20
1164.6795389381
 10
1824.6790512976
 20
1164.5607721939
 10
1821.9148261944
 20
1164.1759833376
 10
1819.2649451674
 20
1163.5267217784
 10
1816.7400783519
 20
1162.6156018631
 10
1814.3503924957
 20
1161.4462923503
 10
1812.1055100202
 20
1160.0235016366
 10
1810.0144702748
 20
1158.352958798
 10
1808.0856931386
 20
1156.441390521
 10
1806.3269451164
 20
1154.2964940163
 10
1804.7453080656
 20
1151.9269060251
 10
1803.3471506805
 20
1149.3421680419
 10
1802.1381028474
 20
1146.5526878944
 10
1801.1230329752
 20
1143.5696978345
 10
1800.3060283919
 20
1140.4052093104
 10
1799.6903788868
 20
1137.0719646004
 10
1799.278563463
 20
1133.5833855047
 10
1799.0722403559
 20
1129.9535192999
 10
1799.0722403559
 20
1126.1969821761
 10
1799.278563463
 20
1122.3289003824
 10
1799.6903788868
 20
1118.3648493191
 10
1800.3060283919
 20
1114.3207908206
 10
1801.1230329752
 20
1110.2130088833
 10
1802.1381028474
 20
1106.0580440951
 10
1803.3471506805
 20
1101.8726270328
 10
1804.7453080656
 20
1097.6736108936
 10
1806.3269451164
 20
1093.4779036337
 10
1808.0856931386
 20
1089.3023998852
 10
1810.0144702748
 20
1085.163912928
 10
1812.1055100202
 20
1081.0791069884
 10
1814.3503924957
 20
1077.0644301383
 10
1816.7400783519
 20
1073.1360480644
 10
1819.2649451674
 20
1069.3097789748
 10
1821.9148261944
 20
1065.6010299047
 10
1824.6790512976
 20
1062.0247346775
 10
1827.5464899179
 20
1058.595293772
 10
1830.505595892
 20
1055.3265163362
 10
1833.5444539447
 20
1052.2315645832
 10
1836.6508276671
 20
1049.3229007914
 10
1839.8122087886
 20
1046.6122371233
 10
1843.0158675431
 20
1044.1104884646
 10
1846.2489039277
 20
1041.8277284744
 10
1849.4982996458
 20
1039.7731490215
 10
1852.7509705278
 20
1037.955023172
 10
1855.993819216
 20
1036.3806718771
 10
1859.2137879033
 20
1035.0564344939
 10
1862.3979109123
 20
1033.9876432588
 10
1865.5333669034
 20
1033.178601817
 10
1868.6075305021
 20
1032.6325678928
 10
1871.6080231364
 20
1032.3517401721
 10
1874.5227628815
 20
1032.3372494489
 10
1877.3400131093
 20
1032.5891540725
 10
1880.0484297474
 20
1033.1064397116
 10
1882.6371069579
 20
1033.8870234397
 10
1885.0956210514
 20
1034.9277621215
 10
1887.4140724593
 20
1036.2244650698
 10
1889.583125596
 20
1037.7719109193
 10
1891.5940464502
 20
1039.5638686519
 10
1893.4387377533
 20
1041.5931226862
 10
1895.1097715846
 20
1043.8515019324
 10
1896.6004192804
 20
1046.3299126943
 10
1897.9046785288
 20
1049.0183752867
 10
1899.017297538
 20
1051.9060642194
 10
1899.9337961839
 20
1054.9813517883
 10
1900.6504840501
 20
1058.2318548959
 10
1901.1644752874
 20
1061.6444849133
 10
1901.4737002344
 20
1065.2055003839
 10
1901.5769137516
 20
1068.9005623553
  0
LWPOLYLINE
  5
114
330
1F
100
AcDbEntity
  8
0
  6
Continuous
 62
     7
370
    25
100
AcDbPolyline
 90
      104
 70
   128
 43
0.0
 10
1905.8195544387
 20
1066.4513380199
 10
1905.7163079547
 20
1070.418637325
 10
1905.4069525864
 20
1074.4903838692
 10
1904.8926391561
 20
1078.6514304879
 10
1904.1752809435
 20
1082.8862978144
 10
1903.2575465682
 20
1087.179231864
 10
1902.1428500625
 20
1091.5142626402
 10
1900.8353381706
 20
1095.8752635438
 10
1899.3398749225
 20
1100.2460113649
 10
1897.6620235398
 20
1104.6102466346
 10
1895.8080257399
 20
1108.951734111
 10
1893.7847785162
 20
1113.2543231756
 10
1891.5998084814
 20
1117.5020079144
 10
1889.2612438675
 20
1121.6789866613
 10
1886.7777842885
 20
1125.7697207809
 10
1884.1586683771
 20
1129.7589924737
 10
1881.4136394165
 20
1133.6319613869
 10
1878.5529090948
 20
1137.3742198218
 10
1875.5871195166
 20
1140.9718463313
 10
1872.527303614
 20
1144.4114575084
 10
1869.3848441031
 20
1147.6802577736
 10
1866.1714311397
 20
1150.7660869752
 10
1862.899018831
 20
1153.657465626
 10
1859.5797807658
 20
1156.3436376075
 10
1856.2260647277
 20
1158.8146101834
 10
1852.8503467606
 20
1161.0611911735
 10
1849.4651847571
 20
1163.0750231489
 10
1846.0831717422
 20
1164.8486145224
 10
1842.7168890264
 20
1166.3753674177
 10
1839.3788594025
 20
1167.6496022136
 10
1836.08150056
 20
1168.6665786731
 10
1832.8370788903
 20
1169.4225135769
 10
1829.6576638551
 20
1169.9145947975
 10
1826.5550830872
 20
1170.1409917605
 10
1823.5408783909
 20
1170.1008622543
 10
1820.6262628055
 20
1169.7943555632
 10
1817.8220788925
 20
1169.2226119124
 10
1815.1387584002
 20
1168.3877582257
 10
1812.5862834571
 20
1167.2929002137
 10
1810.1741494376
 20
1165.9421108202
 10
1807.9113296387
 20
1164.3404150703
 10
1805.8062418987
 20
1162.4937713774
 10
1803.8667172822
 20
1160.4090493775
 10
1802.0999709482
 20
1158.0940043732
 10
1800.5125753091
 20
1155.557248484
 10
1799.110435581
 20
1152.8082186085
 10
1797.8987678156
 20
1149.8571413183
 10
1796.8820794968
 20
1146.7149948147
 10
1796.0641527718
 20
1143.3934680893
 10
1795.4480303817
 20
1139.9049174394
 10
1795.0360043423
 20
1136.2623205028
 10
1794.8296074175
 20
1132.4792279792
 10
1794.8296074175
 20
1128.5697132212
 10
1795.0360043423
 20
1124.5483198807
 10
1795.4480303817
 20
1120.4300078048
 10
1796.0641527718
 20
1116.2300973851
 10
1796.8820794968
 20
1111.9642125642
 10
1797.8987678157
 20
1107.6482227137
 10
1799.110435581
 20
1103.2981835994
 10
1800.5125753091
 20
1098.9302776524
 10
1802.0999709482
 20
1094.5607537699
 10
1803.8667172822
 20
1090.2058668677
 10
1805.8062418987
 20
1085.881817411
 10
1807.9113296387
 20
1081.6046911478
 10
1810.1741494376
 20
1077.3903992688
 10
1812.5862834571
 20
1073.2546192165
 10
1815.1387584002
 20
1069.2127363644
 10
1817.8220788925
 20
1065.2797867821
 10
1820.6262628055
 20
1061.4704013005
 10
1823.5408783909
 20
1057.7987510836
 10
1826.5550830872
 20
1054.2784949116
 10
1829.6576638551
 20
1050.9227283685
 10
1832.8370788903
 20
1047.7439351262
 10
1836.08150056
 20
1044.7539405045
 10
1839.3788594025
 20
1041.9638674798
 10
1842.7168890264
 20
1039.3840953068
 10
1846.0831717422
 20
1037.0242209076
 10
1849.4651847571
 20
1034.8930231698
 10
1852.8503467606
 20
1032.9984302892
 10
1856.2260647277
 20
1031.3474902756
 10
1859.5797807658
 20
1029.9463447342
 10
1862.899018831
 20
1028.8002060186
 10
1866.1714311397
 20
1027.9133378401
 10
1869.3848441031
 20
1027.2890394064
 10
1872.527303614
 20
1026.9296331489
 10
1875.5871195166
 20
1026.8364560823
 10
1878.5529090948
 20
1027.0098548316
 10
1881.4136394165
 20
1027.4491843419
 10
1884.1586683771
 20
1028.1528102786
 10
1886.7777842885
 20
1029.118115107
 10
1889.2612438675
 20
1030.3415078297
 10
1891.5998084814
 20
1031.8184373456
 10
1893.7847785162
 20
1033.5434093797
 10
1895.8080257399
 20
1035.5100069228
 10
1897.6620235398
 20
1037.7109141029
 10
1899.3398749225
 20
1040.1379434007
 10
1900.8353381706
 20
1042.7820661079
 10
1902.1428500625
 20
1045.6334459142
 10
1903.2575465682
 20
1048.6814754995
 10
1904.1752809435
 20
1051.9148159936
 10
1904.8926391561
 20
1055.3214391575
 10
1905.4069525864
 20
1058.8886721292
 10
1905.7163079547
 20
1062.6032445678
 10
1905.8195544387
 20
1066.4513380199
  0
LWPOLYLINE
  5
115
330
1F
100
AcDbEntity
  8
0
  6
Continuous
 62
     7
370
    25
100
AcDbPolyline
 90
       51
 70
   128
 43
0.0
 10
1815.3231766199
 20
1161.9616682155
 10
1814.5803837544
 20
1161.4522158323
 10
1812.489344009
 20
1159.7816729937
 10
1810.5605668728
 20
1157.8701047167
 10
1808.8018188505
 20
1155.725208212
 10
1807.2201817998
 20
1153.3556202208
 10
1805.8220244147
 20
1150.7708822376
 10
1804.6129765816
 20
1147.9814020901
 10
1803.5979067093
 20
1144.9984120302
 10
1802.7809021261
 20
1141.833923506
 10
1802.1652526209
 20
1138.5006787961
 10
1801.7534371971
 20
1135.0120997004
 10
1801.5471140901
 20
1131.3822334956
 10
1801.5471140901
 20
1127.6256963718
 10
1801.7534371971
 20
1123.7576145781
 10
1802.1652526209
 20
1119.7935635148
 10
1802.7809021261
 20
1115.7495050163
 10
1803.5979067093
 20
1111.641723079
 10
1804.6129765816
 20
1107.4867582908
 10
1805.8220244147
 20
1103.3013412284
 10
1807.2201817998
 20
1099.1023250893
 10
1808.8018188505
 20
1094.9066178294
 10
1810.5605668728
 20
1090.7311140808
 10
1812.489344009
 20
1086.5926271237
 10
1814.5803837544
 20
1082.5078211841
 10
1816.8252662299
 20
1078.493144334
 10
1819.2149520861
 20
1074.5647622601
 10
1821.7398189015
 20
1070.7384931705
 10
1824.3896999286
 20
1067.0297441004
 10
1827.1539250317
 20
1063.4534488732
 10
1830.021363652
 20
1060.0240079677
 10
1832.9804696262
 20
1056.7552305319
 10
1836.0193276789
 20
1053.6602787789
 10
1839.1257014012
 20
1050.7516149871
 10
1842.2870825227
 20
1048.0409513189
 10
1845.4907412773
 20
1045.5392026603
 10
1848.7237776618
 20
1043.2564426701
 10
1851.97317338
 20
1041.2018632171
 10
1855.2258442619
 20
1039.3837373677
 10
1858.4686929502
 20
1037.8093860728
 10
1861.6886616375
 20
1036.4851486895
 10
1864.8727846465
 20
1035.4163574545
 10
1868.0082406376
 20
1034.6073160127
 10
1871.0824042362
 20
1034.0612820885
 10
1874.0828968705
 20
1033.7804543677
 10
1876.9976366157
 20
1033.7659636446
 10
1879.8148868435
 20
1034.0178682682
 10
1882.5233034815
 20
1034.5351539073
 10
1885.1119806921
 20
1035.3157376354
 10
1887.5704947855
 20
1036.3564763172
 10
1887.7750413453
 20
1036.4577587979
  0
LINE
  5
116
330
1F
100
AcDbEntity
  8
0
  6
Continuous
 62
     7
370
    25
100
AcDbLine
 10
1900.4278652322
 20
1017.4068851368
 30
0.0
 11
1902.1024226186
 21
1018.3735865391
 31
0.0
  0
LINE
  5
117
330
1F
100
AcDbEntity
  8
0
  6
Continuous
 62
     7
370
    25
100
AcDbLine
 10
1900.4278652322
 20
1127.4357595384
 30
0.0
 11
1901.1350059044
 21
1127.8439831592
 31
0.0
  0
LINE
  5
118
330
1F
100
AcDbEntity
  8
0
  6
Continuous
 62
     7
370
    25
100
AcDbLine
 10
1805.1452264673
 20
1182.4412560724
 30
0.0
 11
1806.8204105523
 21
1183.4083192601
 31
0.0
  0
LWPOLYLINE
  5
119
330
1F
100
AcDbEntity
  8
0
  6
Continuous
 62
     7
370
    25
100
AcDbPolyline
 90
       92
 70
   128
 43
0.0
 10
1895.9200595021
 20
1075.023623194
 10
1895.8172840844
 20
1078.5193333687
 10
1895.5094476029
 20
1082.117046864
 10
1894.9980170386
 20
1085.7996189367
 10
1894.2854295912
 20
1089.5495004539
 10
1893.3750810642
 20
1093.3488215223
 10
1892.271309683
 20
1097.179476647
 10
1890.9793754208
 20
1101.0232110118
 10
1889.5054349329
 20
1104.861707472
 10
1887.8565122167
 20
1108.6766738439
 10
1886.0404651401
 20
1112.4499300755
 10
1884.0659479943
 20
1116.1634948825
 10
1881.9423702527
 20
1119.7996714373
 10
1879.6798517303
 20
1123.341131703
 10
1877.2891743583
 20
1126.7709990084
 10
1874.781730803
 20
1130.0729284739
 10
1872.1694701748
 20
1133.231184902
 10
1869.4648410853
 20
1136.2307177625
 10
1866.6807323238
 20
1139.0572329153
 10
1863.8304114363
 20
1141.6972607285
 10
1860.9274614999
 20
1144.1382202674
 10
1857.9857163931
 20
1146.3684792482
 10
1855.019194871
 20
1148.3774094711
 10
1852.0420337596
 20
1150.1554374688
 10
1849.0684205873
 20
1151.6940901281
 10
1846.1125259751
 20
1152.9860350684
 10
1843.188436107
 20
1154.0251155838
 10
1840.3100856027
 20
1154.8063799824
 10
1837.4911911133
 20
1155.3261051836
 10
1834.7451859546
 20
1155.58181446
 10
1832.0851560919
 20
1155.5722892406
 10
1829.5237777787
 20
1155.2975749173
 10
1827.0732571491
 20
1154.7589806289
 10
1824.74527205
 20
1153.9590730227
 10
1822.5509163905
 20
1152.9016640225
 10
1820.5006472745
 20
1151.5917926638
 10
1818.6042351682
 20
1150.0357010802
 10
1816.8707173389
 20
1148.2408047566
 10
1815.3083547883
 20
1146.2156571915
 10
1813.9245928857
 20
1143.9699091352
 10
1812.7260258866
 20
1141.5142625999
 10
1811.7183655085
 20
1138.8604198597
 10
1810.9064137121
 20
1136.0210276838
 10
1810.2940398175
 20
1133.009617069
 10
1809.8841620651
 20
1129.8405387582
 10
1809.678733709
 20
1126.5288948527
 10
1809.678733709
 20
1123.0904668439
 10
1809.8841620651
 20
1119.5416404071
 10
1810.2940398175
 20
1115.8993273165
 10
1810.9064137121
 20
1112.1808848525
 10
1811.7183655085
 20
1108.4040330869
 10
1812.7260258866
 20
1104.5867704383
 10
1813.9245928857
 20
1100.7472879016
 10
1815.3083547883
 20
1096.9038823596
 10
1816.8707173389
 20
1093.07486939
 10
1818.6042351682
 20
1089.2784959832
 10
1820.5006472745
 20
1085.5328535876
 10
1822.5509163905
 20
1081.8557918947
 10
1824.74527205
 20
1078.2648337781
 10
1827.0732571491
 20
1074.7770917886
 10
1829.5237777787
 20
1071.409186605
 10
1832.0851560919
 20
1068.1771678292
 10
1834.7451859546
 20
1065.0964375027
 10
1837.4911911133
 20
1062.1816767083
 10
1840.3100856027
 20
1059.4467756086
 10
1843.188436107
 20
1056.9047672528
 10
1846.1125259751
 20
1054.5677654684
 10
1849.0684205873
 20
1052.4469071331
 10
1852.0420337596
 20
1050.5522991027
 10
1855.019194871
 20
1048.8929700473
 10
1857.9857163931
 20
1047.4768274255
 10
1860.9274614999
 20
1046.3106198018
 10
1863.8304114363
 20
1045.3999046866
 10
1866.6807323238
 20
1044.7490220521
 10
1869.4648410853
 20
1044.3610736506
 10
1872.1694701748
 20
1044.2379082329
 10
1874.781730803
 20
1044.3801127381
 10
1877.2891743583
 20
1044.7870094972
 10
1879.6798517303
 20
1045.4566594618
 10
1881.9423702527
 20
1046.3858714447
 10
1884.0659479943
 20
1047.5702173279
 10
1886.0404651401
 20
1049.0040531637
 10
1887.8565122167
 20
1050.6805460714
 10
1889.5054349329
 20
1052.5917067989
 10
1890.9793754208
 20
1054.728427795
 10
1892.271309683
 20
1057.0805266111
 10
1893.3750810642
 20
1059.6367944252
 10
1894.2854295912
 20
1062.3850494569
 10
1894.9980170386
 20
1065.3121950197
 10
1895.5094476029
 20
1068.4042819317
 10
1895.8172840844
 20
1071.6465749908
 10
1895.9200595021
 20
1075.023623194
  0
LWPOLYLINE
  5
11A
330
1F
100
AcDbEntity
  8
0
  6
Continuous
 62
     7
370
    25
100
AcDbPolyline
 90
       15
 70
   128
 43
0.0
 10
1957.2343637464
 20
1239.8901512677
 10
1957.3407740298
 20
1240.080982169
 10
1957.4575861045
 20
1240.6794770288
 10
1957.2636252939
 20
1241.2712590134
 10
1956.776125867
 20
1241.8037456965
 10
1956.0384042873
 20
1242.2296232994
 10
1955.1160103546
 20
1242.5110507282
 10
1954.0909028178
 20
1242.6230219208
 10
1953.0541669799
 20
1242.5555877454
 10
1952.09792137
 20
1242.3147400244
 10
1951.3071326068
 20
1241.9218791348
 10
1950.7520657422
 20
1241.4119124907
 10
1950.4820409032
 20
1240.8301528662
 10
1950.5210509815
 20
1240.2282921571
 10
1950.6857035292
 20
1239.8901512677
  0
LWPOLYLINE
  5
11B
330
1F
100
AcDbEntity
  8
0
  6
Continuous
 62
     7
370
    25
100
AcDbPolyline
 90
       14
 70
   128
 43
0.0
 10
1894.1524895722
 20
1129.1193429912
 10
1893.850159873
 20
1128.741275633
 10
1893.5479219577
 20
1127.9954817207
 10
1893.445185768
 20
1127.0777350265
 10
1893.5479219577
 20
1126.0413716525
 10
1893.850159873
 20
1124.946621271
 10
1894.3343345448
 20
1123.8571067948
 10
1894.9723075011
 20
1122.836146845
 10
1895.7270020725
 20
1121.943075903
 10
1896.5545581539
 20
1121.2297960057
 10
1897.4068811938
 20
1120.737760388
 10
1898.2344372752
 20
1120.4955643717
 10
1898.9891318467
 20
1120.5172835087
 10
1899.1018429944
 20
1120.5458824469
  0
LWPOLYLINE
  5
11C
330
1F
100
AcDbEntity
  8
0
  6
Continuous
 62
     7
370
    25
100
AcDbPolyline
 90
       47
 70
   128
 43
0.0
 10
1884.3774255607
 20
1047.7732361366
 10
1884.1697566134
 20
1047.6717142209
 10
1881.9072380911
 20
1046.7425022379
 10
1879.516560719
 20
1046.0728522733
 10
1877.0091171637
 20
1045.6659555143
 10
1874.3968565356
 20
1045.523751009
 10
1871.6922274461
 20
1045.6469164268
 10
1868.9081186845
 20
1046.0348648283
 10
1866.057797797
 20
1046.6857474627
 10
1863.1548478607
 20
1047.5964625779
 10
1860.2131027539
 20
1048.7626702016
 10
1857.2465812318
 20
1050.1788128234
 10
1854.2694201203
 20
1051.8381418788
 10
1851.2958069481
 20
1053.7327499092
 10
1848.3399123359
 20
1055.8536082445
 10
1845.4158224677
 20
1058.1906100289
 10
1842.5374719635
 20
1060.7326183847
 10
1839.718577474
 20
1063.4675194844
 10
1836.9725723154
 20
1066.3822802788
 10
1834.3125424526
 20
1069.4630106054
 10
1831.7511641394
 20
1072.6950293811
 10
1829.3006435099
 20
1076.0629345647
 10
1826.9726584107
 20
1079.5506765542
 10
1824.7783027512
 20
1083.1416346708
 10
1822.7280336353
 20
1086.8186963637
 10
1820.831621529
 20
1090.5643387594
 10
1819.0981036996
 20
1094.3607121661
 10
1817.5357411491
 20
1098.1897251357
 10
1816.1519792464
 20
1102.0331306777
 10
1814.9534122473
 20
1105.8726132144
 10
1813.9457518692
 20
1109.689875863
 10
1813.1338000729
 20
1113.4667276286
 10
1812.5214261782
 20
1117.1851700926
 10
1812.1115484258
 20
1120.8274831833
 10
1811.9061200698
 20
1124.37630962
 10
1811.9061200698
 20
1127.8147376288
 10
1812.1115484258
 20
1131.1263815343
 10
1812.5214261782
 20
1134.2954598451
 10
1813.1338000729
 20
1137.3068704599
 10
1813.9457518692
 20
1140.1462626358
 10
1814.9534122473
 20
1142.800105376
 10
1816.1519792464
 20
1145.2557519113
 10
1817.5357411491
 20
1147.5014999676
 10
1819.0981036996
 20
1149.5266475327
 10
1820.831621529
 20
1151.3215438563
 10
1822.7280336353
 20
1152.8776354399
 10
1823.4230524995
 20
1153.3607478487
  0
LWPOLYLINE
  5
11D
330
1F
100
AcDbEntity
  8
0
  6
Continuous
 62
     7
370
    25
100
AcDbPolyline
 90
       60
 70
   128
 43
0.0
 10
1887.2934413947
 20
1098.9035116129
 10
1887.1906895499
 20
1101.1890790339
 10
1886.8835982347
 20
1103.5673848177
 10
1886.3756469165
 20
1106.0114818094
 10
1885.6725908867
 20
1108.4936774134
 10
1884.782396051
 20
1110.9858473617
 10
1883.7151486727
 20
1113.4597543731
 10
1882.482941091
 20
1115.8873680925
 10
1881.0997347102
 20
1118.2411826865
 10
1879.5812018112
 20
1120.4945284951
 10
1877.9445479785
 20
1122.62187421
 10
1876.2083171541
 20
1124.5991161543
 10
1874.392181527
 20
1126.4038513865
 10
1872.5167186395
 20
1128.0156315354
 10
1870.6031782356
 20
1129.4161944879
 10
1868.6732414925
 20
1130.589671306
 10
1866.7487753648
 20
1131.5227660285
 10
1864.8515848228
 20
1132.2049063194
 10
1863.0031657932
 20
1132.6283632567
 10
1861.2244616023
 20
1132.7883389039
 10
1859.5356256793
 20
1132.6830206731
 10
1857.9557932101
 20
1132.313601862
 10
1856.5028643278
 20
1131.6842681332
 10
1855.1933012971
 20
1130.8021500894
 10
1854.0419419906
 20
1129.6772424805
 10
1853.0618317692
 20
1128.3222909592
 10
1852.2640756733
 20
1126.7526476677
 10
1851.6577125983
 20
1124.9860972916
 10
1851.2496128801
 20
1123.0426555526
 10
1851.0444004516
 20
1120.9443424221
 10
1851.0444004516
 20
1118.7149326264
 10
1851.2496128801
 20
1116.3796862693
 10
1851.6577125983
 20
1113.965062625
 10
1852.2640756733
 20
1111.4984203444
 10
1853.0618317692
 20
1109.0077074701
 10
1854.0419419906
 20
1106.5211447742
 10
1855.1933012971
 20
1104.0669060056
 10
1856.5028643278
 20
1101.6727986703
 10
1857.9557932101
 20
1099.3659489609
 10
1859.5356256793
 20
1097.1724944065
 10
1861.2244616023
 20
1095.1172877236
 10
1863.0031657932
 20
1093.2236152251
 10
1864.8515848228
 20
1091.5129329772
 10
1866.7487753648
 20
1090.0046236933
 10
1868.6732414925
 20
1088.7157771202
 10
1870.6031782356
 20
1087.6609964045
 10
1872.5167186395
 20
1086.8522326334
 10
1874.392181527
 20
1086.2986494235
 10
1876.2083171541
 20
1086.0065190937
 10
1877.9445479785
 20
1085.9791515974
 10
1879.5812018112
 20
1086.2168570193
 10
1881.0997347102
 20
1086.7169420619
 10
1882.482941091
 20
1087.473740562
 10
1883.7151486727
 20
1088.4786776901
 10
1884.782396051
 20
1089.7203671069
 10
1885.6725908867
 20
1091.1847399753
 10
1886.3756469165
 20
1092.8552043655
 10
1886.8835982347
 20
1094.7128332485
 10
1887.1906895499
 20
1096.7365789468
 10
1887.2934413947
 20
1098.9035116129
  0
LWPOLYLINE
  5
11E
330
1F
100
AcDbEntity
  8
0
  6
Continuous
 62
     7
370
    25
100
AcDbPolyline
 90
       17
 70
   128
 43
0.0
 10
1901.9195421912
 20
1250.4422592718
 10
1902.0563554127
 20
1250.6876132878
 10
1902.2096891944
 20
1251.3599720326
 10
1902.0563554127
 20
1252.0323307773
 10
1901.6068035114
 20
1252.6588693847
 10
1900.8916697097
 20
1253.1968902842
 10
1899.9596891944
 20
1253.6097282404
 10
1898.8743748974
 20
1253.8692490289
 10
1897.7096891944
 20
1253.9577667369
 10
1896.5450034914
 20
1253.8692490289
 10
1895.4596891944
 20
1253.6097282404
 10
1894.5277086791
 20
1253.1968902842
 10
1893.8125748774
 20
1252.6588693847
 10
1893.3630229761
 20
1252.0323307773
 10
1893.2096891944
 20
1251.3599720326
 10
1893.3630229761
 20
1250.6876132878
 10
1893.4998361976
 20
1250.4422592718
  0
ARC
  5
11F
330
1F
100
AcDbEntity
  8
0
  6
Continuous
 62
     7
370
    25
100
AcDbCircle
 10
1795.3126271185
 20
1254.442923003
 30
0.0
 40
21.36954284118652
100
AcDbArc
 50
180.0503107721
 51
194.5090203755
  0
LWPOLYLINE
  5
120
330
1F
100
AcDbEntity
  8
0
  6
Continuous
 62
     7
370
    25
100
AcDbPolyline
 90
       15
 70
   128
 43
0.0
 10
1845.0165175721
 20
1263.1986028602
 10
1845.1229278555
 20
1263.3894337615
 10
1845.2397399302
 20
1263.9879286214
 10
1845.0457791196
 20
1264.579710606
 10
1844.5582796927
 20
1265.112197289
 10
1843.820558113
 20
1265.5380748919
 10
1842.8981641803
 20
1265.8195023207
 10
1841.8730566434
 20
1265.9314735133
 10
1840.8363208056
 20
1265.864039338
 10
1839.8800751957
 20
1265.623191617
 10
1839.0892864325
 20
1265.2303307274
 10
1838.5342195679
 20
1264.7203640832
 10
1838.2641947289
 20
1264.1386044587
 10
1838.3032048072
 20
1263.5367437497
 10
1838.4678573549
 20
1263.1986028602
  0
LWPOLYLINE
  5
121
330
1F
100
AcDbEntity
  8
0
  6
Continuous
 62
     7
370
    25
100
AcDbPolyline
 90
       15
 70
   128
 43
0.0
 10
1880.9375420564
 20
1283.9353689005
 10
1881.0439523398
 20
1284.1261998018
 10
1881.1607644145
 20
1284.7246946617
 10
1880.9668036038
 20
1285.3164766463
 10
1880.4793041769
 20
1285.8489633293
 10
1879.7415825973
 20
1286.2748409322
 10
1878.8191886646
 20
1286.556268361
 10
1877.7940811277
 20
1286.6682395536
 10
1876.7573452899
 20
1286.6008053782
 10
1875.80109968
 20
1286.3599576573
 10
1875.0103109167
 20
1285.9670967677
 10
1874.4552440522
 20
1285.4571301235
 10
1874.1852192131
 20
1284.875370499
 10
1874.2242292914
 20
1284.27350979
 10
1874.3888818391
 20
1283.9353689005
  0
LWPOLYLINE
  5
122
330
1F
100
AcDbEntity
  8
0
  6
Continuous
 62
     7
370
    25
100
AcDbPolyline
 90
       14
 70
   128
 43
0.0
 10
1894.1524895722
 20
1029.5013639411
 10
1893.850159873
 20
1029.1232965829
 10
1893.5479219577
 20
1028.3775026706
 10
1893.445185768
 20
1027.4597559765
 10
1893.5479219577
 20
1026.4233926025
 10
1893.850159873
 20
1025.3286422209
 10
1894.3343345448
 20
1024.2391277447
 10
1894.9723075011
 20
1023.218167795
 10
1895.7270020725
 20
1022.325096853
 10
1896.5545581539
 20
1021.6118169556
 10
1897.4068811938
 20
1021.119781338
 10
1898.2344372752
 20
1020.8775853216
 10
1898.9891318467
 20
1020.8993044586
 10
1899.1018429944
 20
1020.9279033968
  0
LWPOLYLINE
  5
123
330
1F
100
AcDbEntity
  8
0
  6
Continuous
 62
     7
370
    25
100
AcDbPolyline
 90
       14
 70
   128
 43
0.0
 10
1807.1783554862
 20
1179.3284418683
 10
1806.876025787
 20
1178.9503745101
 10
1806.5737878718
 20
1178.2045805978
 10
1806.471051682
 20
1177.2868339036
 10
1806.5737878718
 20
1176.2504705296
 10
1806.876025787
 20
1175.1557201481
 10
1807.3602004588
 20
1174.0662056719
 10
1807.9981734151
 20
1173.0452457221
 10
1808.7528679866
 20
1172.1521747801
 10
1809.580424068
 20
1171.4388948828
 10
1810.4327471079
 20
1170.9468592651
 10
1811.2603031893
 20
1170.7046632487
 10
1812.0149977608
 20
1170.7263823858
 10
1812.1277089085
 20
1170.754981324
  0
LINE
  5
124
330
1F
100
AcDbEntity
  8
0
  6
Continuous
 62
     7
370
    25
100
AcDbLine
 10
1804.4381196861
 20
1072.0040449148
 30
0.0
 11
1805.1453079606
 21
1072.4122960159
 31
0.0
  0
LINE
  5
125
330
1F
100
AcDbEntity
  8
0
  6
Continuous
 62
     7
370
    25
100
AcDbLine
 10
1941.8721007843
 20
942.180337508
 30
0.0
 11
1939.4355983907
 21
943.5869004003
 31
0.0
  0
ARC
  5
126
330
1F
100
AcDbEntity
  8
0
  6
Continuous
 62
     7
370
    25
100
AcDbCircle
 10
1913.6112765385
 20
1042.4566414143
 30
0.0
 40
107.4297380367248
100
AcDbArc
 50
265.0729499619
 51
280.0324434879
  0
LWPOLYLINE
  5
127
330
1F
100
AcDbEntity
  8
0
  6
Continuous
 62
     7
370
    25
100
AcDbPolyline
 90
       13
 70
   128
 43
0.0
 10
1774.6245972555
 20
1010.3326262928
 10
1784.0876854139
 20
1003.3656920054
 10
1793.8127041894
 20
996.5200204656
 10
1803.7949923113
 20
989.7988928525
 10
1814.029765198
 20
983.2055306503
 10
1824.51211725
 20
976.7430941043
 10
1835.2370242015
 20
970.4146807064
 10
1846.1993455283
 20
964.22332371
 10
1857.393826912
 20
958.1719906766
 10
1868.815102758
 20
952.2635820532
 10
1880.4576987677
 20
946.5009297819
 10
1892.3160345619
 20
940.886795943
 10
1904.384426356
 20
935.4238714308
  0
ARC
  5
128
330
1F
100
AcDbEntity
  8
0
  6
Continuous
 62
     7
370
    25
100
AcDbCircle
 10
1795.9227200518
 20
1015.6929859525
 30
0.0
 40
21.96231978471924
100
AcDbArc
 50
150.6339091914
 51
194.1269240592
  0
LINE
  5
129
330
1F
100
AcDbEntity
  8
0
  6
Continuous
 62
     7
370
    25
100
AcDbLine
 10
1778.7413346157
 20
1027.5938759096
 30
0.0
 11
1776.7824663671
 21
1026.4630453401
 31
0.0
  0
ARC
  5
12A
330
1F
100
AcDbEntity
  8
0
  6
Continuous
 62
     7
370
    25
100
AcDbCircle
 10
1913.6112765385
 20
1032.6581516717
 30
0.0
 40
107.4297380367375
100
AcDbArc
 50
265.0729499619
 51
280.0324434879
  0
LINE
  5
12B
330
1F
100
AcDbEntity
  8
0
  6
Continuous
 62
     7
370
    25
100
AcDbLine
 10
1904.384426356
 20
935.4238714308
 30
0.0
 11
1904.384426356
 21
925.6253816882
 31
0.0
  0
LINE
  5
12C
330
1F
100
AcDbEntity
  8
0
  6
Continuous
 62
     7
370
    25
100
AcDbLine
 10
1774.6245972555
 20
1010.3326262928
 30
0.0
 11
1774.6245972555
 21
1000.5341365502
 31
0.0
  0
LWPOLYLINE
  5
12D
330
1F
100
AcDbEntity
  8
0
  6
Continuous
 62
     7
370
    25
100
AcDbPolyline
 90
       13
 70
   128
 43
0.0
 10
1774.6245972555
 20
1000.5341365502
 10
1784.0876854139
 20
993.5672022628
 10
1793.8127041894
 20
986.721530723
 10
1803.7949923113
 20
980.0004031099
 10
1814.029765198
 20
973.4070409076
 10
1824.51211725
 20
966.9446043617
 10
1835.2370242015
 20
960.6161909637
 10
1846.1993455283
 20
954.4248339674
 10
1857.393826912
 20
948.373500934
 10
1868.815102758
 20
942.4650923106
 10
1880.4576987677
 20
936.7024400393
 10
1892.3160345619
 20
931.0883062004
 10
1904.384426356
 20
925.6253816882
  0
LWPOLYLINE
  5
12E
330
1F
100
AcDbEntity
  8
0
  6
Continuous
 62
     7
370
    25
100
AcDbPolyline
 90
       14
 70
   128
 43
0.0
 10
1807.1783554862
 20
1079.7104628182
 10
1806.876025787
 20
1079.33239546
 10
1806.5737878718
 20
1078.5866015477
 10
1806.471051682
 20
1077.6688548536
 10
1806.5737878718
 20
1076.6324914796
 10
1806.876025787
 20
1075.537741098
 10
1807.3602004588
 20
1074.4482266218
 10
1807.9981734151
 20
1073.4272666721
 10
1808.7528679866
 20
1072.5341957301
 10
1809.580424068
 20
1071.8209158327
 10
1810.4327471079
 20
1071.3288802151
 10
1811.2603031893
 20
1071.0866841987
 10
1812.0149977608
 20
1071.1084033357
 10
1812.1277089085
 20
1071.1370022739
  0
LWPOLYLINE
  5
12F
330
1F
100
AcDbEntity
  8
0
  6
Continuous
 62
     7
370
    25
100
AcDbPolyline
 90
       16
 70
   128
 43
0.0
 10
1813.1513431407
 20
1050.8451056077
 10
1813.1316205914
 20
1049.9943161512
 10
1813.2347326828
 20
1047.9663284327
 10
1813.5425653504
 20
1045.8488626552
 10
1814.0506297007
 20
1043.6727962378
 10
1814.7515170115
 20
1041.4698611289
 10
1815.6350067676
 20
1039.2721810831
 10
1816.6882156987
 20
1037.1118032241
 10
1817.8957856472
 20
1035.0202307258
 10
1819.2401075238
 20
1033.0279634251
 10
1820.7015780886
 20
1031.1640530655
 10
1822.2588858098
 20
1029.4556796571
 10
1823.8893216339
 20
1027.9277551311
 10
1825.5691101354
 20
1026.6025600678
 10
1827.2737562152
 20
1025.4994187952
 10
1828.0180859589
 20
1025.0923613401
  0
ARC
  5
130
330
1F
100
AcDbEntity
  8
0
  6
Continuous
 62
     7
370
    25
100
AcDbCircle
 10
1795.3126271185
 20
1005.887899865
 30
0.0
 40
21.3695428411724
100
AcDbArc
 50
180.0503107721
 51
194.5090203755
  0
LINE
  5
131
330
1F
100
AcDbEntity
  8
0
  6
Continuous
 62
     7
370
    25
100
AcDbLine
 10
1943.9934211279
 20
1179.7118606355
 30
0.0
 11
1941.8717559821
 21
1180.9366718533
 31
0.0
  0
LINE
  5
132
330
1F
100
AcDbEntity
  8
0
  6
Continuous
 62
     7
370
    25
100
AcDbLine
 10
768.0042015557
 20
801.5752167224
 30
0.0
 11
951.5123117209
 21
801.5752167224
 31
0.0
  0
LINE
  5
133
330
1F
100
AcDbEntity
  8
0
  6
Continuous
 62
     7
370
    25
100
AcDbLine
 10
951.5123117209
 20
801.5752167224
 30
0.0
 11
951.5123117209
 21
789.5752167224
 31
0.0
  0
LINE
  5
134
330
1F
100
AcDbEntity
  8
0
  6
Continuous
 62
     7
370
    25
100
AcDbLine
 10
768.0042015557
 20
789.5752167224
 30
0.0
 11
951.5123117209
 21
789.5752167224
 31
0.0
  0
LINE
  5
135
330
1F
100
AcDbEntity
  8
0
  6
Continuous
 62
     7
370
    25
100
AcDbLine
 10
768.0042015557
 20
801.5752167224
 30
0.0
 11
768.0042015557
 21
789.5752167224
 31
0.0
  0
LINE
  5
136
330
1F
100
AcDbEntity
  8
0
  6
Continuous
 62
     7
370
    25
100
AcDbLine
 10
951.5123117209
 20
497.1752167224
 30
0.0
 11
951.5123117209
 21
485.1752167224
 31
0.0
  0
LINE
  5
137
330
1F
100
AcDbEntity
  8
0
  6
Continuous
 62
     7
370
    25
100
AcDbLine
 10
768.0042015557
 20
485.1752167224
 30
0.0
 11
951.5123117209
 21
485.1752167224
 31
0.0
  0
LINE
  5
138
330
1F
100
AcDbEntity
  8
0
  6
Continuous
 62
     7
370
    25
100
AcDbLine
 10
768.0042015557
 20
497.1752167224
 30
0.0
 11
768.0042015557
 21
485.1752167224
 31
0.0
  0
LINE
  5
139
330
1F
100
AcDbEntity
  8
0
  6
Continuous
 62
     7
370
    25
100
AcDbLine
 10
768.0042015557
 20
497.1752167224
 30
0.0
 11
951.5123117209
 21
497.1752167224
 31
0.0
  0
LINE
  5
13A
330
1F
100
AcDbEntity
  8
0
  6
Continuous
 62
     7
370
    25
100
AcDbLine
 10
969.7442566383
 20
789.5752167224
 30
0.0
 11
969.7442566383
 21
801.5752167224
 31
0.0
  0
LINE
  5
13B
330
1F
100
AcDbEntity
  8
0
  6
Continuous
 62
     7
370
    25
100
AcDbLine
 10
951.5123117209
 20
801.5752167224
 30
0.0
 11
969.7442566383
 21
801.5752167224
 31
0.0
  0
LINE
  5
13C
330
1F
100
AcDbEntity
  8
0
  6
Continuous
 62
     7
370
    25
100
AcDbLine
 10
951.5123117209
 20
789.5752167224
 30
0.0
 11
969.7442566383
 21
789.5752167224
 31
0.0
  0
LINE
  5
13D
330
1F
100
AcDbEntity
  8
0
  6
Continuous
 62
     7
370
    25
100
AcDbLine
 10
969.7442566383
 20
485.1752167224
 30
0.0
 11
969.7442566383
 21
497.1752167224
 31
0.0
  0
LINE
  5
13E
330
1F
100
AcDbEntity
  8
0
  6
Continuous
 62
     7
370
    25
100
AcDbLine
 10
951.5123117209
 20
485.1752167224
 30
0.0
 11
969.7442566383
 21
485.1752167224
 31
0.0
  0
LINE
  5
13F
330
1F
100
AcDbEntity
  8
0
  6
Continuous
 62
     7
370
    25
100
AcDbLine
 10
951.5123117209
 20
497.1752167224
 30
0.0
 11
969.7442566383
 21
497.1752167224
 31
0.0
  0
LINE
  5
140
330
1F
100
AcDbEntity
  8
0
  6
Continuous
 62
     7
370
    25
100
AcDbLine
 10
749.7722566383
 20
789.5752167224
 30
0.0
 11
749.7722566383
 21
801.5752167224
 31
0.0
  0
LINE
  5
141
330
1F
100
AcDbEntity
  8
0
  6
Continuous
 62
     7
370
    25
100
AcDbLine
 10
749.7722566383
 20
801.5752167224
 30
0.0
 11
768.0042015557
 21
801.5752167224
 31
0.0
  0
LINE
  5
142
330
1F
100
AcDbEntity
  8
0
  6
Continuous
 62
     7
370
    25
100
AcDbLine
 10
749.7722566383
 20
789.5752167224
 30
0.0
 11
768.0042015557
 21
789.5752167224
 31
0.0
  0
LINE
  5
143
330
1F
100
AcDbEntity
  8
0
  6
Continuous
 62
     7
370
    25
100
AcDbLine
 10
749.7722566383
 20
485.1752167224
 30
0.0
 11
749.7722566383
 21
497.1752167224
 31
0.0
  0
LINE
  5
144
330
1F
100
AcDbEntity
  8
0
  6
Continuous
 62
     7
370
    25
100
AcDbLine
 10
749.7722566383
 20
485.1752167224
 30
0.0
 11
768.0042015557
 21
485.1752167224
 31
0.0
  0
LINE
  5
145
330
1F
100
AcDbEntity
  8
0
  6
Continuous
 62
     7
370
    25
100
AcDbLine
 10
749.7722566383
 20
497.1752167224
 30
0.0
 11
768.0042015557
 21
497.1752167224
 31
0.0
  0
CIRCLE
  5
146
330
1F
100
AcDbEntity
  8
0
  6
Continuous
 62
     7
370
    25
100
AcDbCircle
 10
859.7582566383
 20
643.3752167224
 30
0.0
 40
72.50000000000011
  0
CIRCLE
  5
147
330
1F
100
AcDbEntity
  8
0
  6
Continuous
 62
     7
370
    25
100
AcDbCircle
 10
859.7582566383
 20
643.3752167224
 30
0.0
 40
78.50000000000011
  0
ARC
  5
148
330
1F
100
AcDbEntity
  8
0
  6
Continuous
 62
     7
370
    25
100
AcDbCircle
 10
859.7582566383
 20
546.5343241449
 30
0.0
 40
177.5000000000001
100
AcDbArc
 50
67.6924876856
 51
112.3075123144
  0
ARC
  5
149
330
1F
100
AcDbEntity
  8
0
  6
Continuous
 62
     7
370
    25
100
AcDbCircle
 10
859.7582566383
 20
740.2161092998
 30
0.0
 40
177.5
100
AcDbArc
 50
247.6924876856
 51
292.3075123144
  0
ARC
  5
14A
330
1F
100
AcDbEntity
  8
0
  6
Continuous
 62
     7
370
    25
100
AcDbCircle
 10
956.5991492157
 20
643.3752167224
 30
0.0
 40
177.5
100
AcDbArc
 50
157.6924876856
 51
202.3075123144
  0
CIRCLE
  5
14B
330
1F
100
AcDbEntity
  8
0
  6
Continuous
 62
     7
370
    25
100
AcDbCircle
 10
798.2582566383
 20
704.3752167224
 30
0.0
 40
5.0
  0
CIRCLE
  5
14C
330
1F
100
AcDbEntity
  8
0
  6
Continuous
 62
     7
370
    25
100
AcDbCircle
 10
798.2582566383
 20
582.3752167224
 30
0.0
 40
5.0
  0
CIRCLE
  5
14D
330
1F
100
AcDbEntity
  8
0
  6
Continuous
 62
     7
370
    25
100
AcDbCircle
 10
921.2582566383
 20
704.3752167224
 30
0.0
 40
5.000000000000114
  0
CIRCLE
  5
14E
330
1F
100
AcDbEntity
  8
0
  6
Continuous
 62
     7
370
    25
100
AcDbCircle
 10
921.2582566383
 20
582.3752167224
 30
0.0
 40
5.0
  0
ARC
  5
14F
330
1F
100
AcDbEntity
  8
0
  6
Continuous
 62
     7
370
    25
100
AcDbCircle
 10
762.9173640609
 20
643.3752167224
 30
0.0
 40
177.5
100
AcDbArc
 50
337.6924876856
 51
22.3075123144
  0
LINE
  5
150
330
1F
100
AcDbEntity
  8
0
  6
Continuous
 62
     7
370
    25
100
AcDbLine
 10
966.2985219085
 20
497.1752167224
 30
0.0
 11
966.2985219085
 21
789.5752167224
 31
0.0
  0
LINE
  5
151
330
1F
100
AcDbEntity
  8
0
  6
Continuous
 62
     7
370
    25
100
AcDbLine
 10
964.4739985943
 20
789.5752167224
 30
0.0
 11
964.4739985943
 21
497.1752167224
 31
0.0
  0
CIRCLE
  5
152
330
1F
100
AcDbEntity
  8
0
  6
Continuous
 62
     7
370
    25
100
AcDbCircle
 10
859.7582566383
 20
643.3752167224
 30
0.0
 40
61.00000000000011
  0
LINE
  5
153
330
1F
100
AcDbEntity
  8
0
  6
Continuous
 62
     7
370
    25
100
AcDbLine
 10
753.2179913681
 20
497.1752167224
 30
0.0
 11
753.2179913681
 21
789.5752167224
 31
0.0
  0
LINE
  5
154
330
1F
100
AcDbEntity
  8
0
  6
Continuous
 62
     7
370
    25
100
AcDbLine
 10
755.0425146824
 20
497.1752167224
 30
0.0
 11
755.0425146824
 21
789.5752167224
 31
0.0
  0
ARC
  5
155
330
1F
100
AcDbEntity
  8
0
  6
Continuous
 62
     7
370
    25
100
AcDbCircle
 10
859.7582566383
 20
548.2733089494
 30
0.0
 40
177.2
100
AcDbArc
 50
67.302646413
 51
112.697353587
  0
CIRCLE
  5
156
330
1F
100
AcDbEntity
  8
0
  6
Continuous
 62
     7
370
    25
100
AcDbCircle
 10
804.7582566383
 20
535.2752167224
 30
0.0
 40
20.0
  0
ARC
  5
157
330
1F
100
AcDbEntity
  8
0
  6
Continuous
 62
     7
370
    25
100
AcDbCircle
 10
764.6563488654
 20
643.3752167224
 30
0.0
 40
177.1999999999999
100
AcDbArc
 50
337.302646413
 51
22.697353587
  0
ARC
  5
158
330
1F
100
AcDbEntity
  8
0
  6
Continuous
 62
     7
370
    25
100
AcDbCircle
 10
954.8601644113
 20
643.3752167224
 30
0.0
 40
177.1999999999999
100
AcDbArc
 50
157.302646413
 51
202.697353587
  0
ARC
  5
159
330
1F
100
AcDbEntity
  8
0
  6
Continuous
 62
     7
370
    25
100
AcDbCircle
 10
859.7582566383
 20
738.4771244953
 30
0.0
 40
177.1999999999999
100
AcDbArc
 50
247.302646413
 51
292.697353587
  0
CIRCLE
  5
15A
330
1F
100
AcDbEntity
  8
0
  6
Continuous
 62
     7
370
    25
100
AcDbCircle
 10
859.7582566383
 20
643.3752167224
 30
0.0
 40
25.6501196751417
  0
LINE
  5
15B
330
1F
100
AcDbEntity
  8
0
  6
Continuous
 62
     7
370
    25
100
AcDbLine
 10
966.2985219085
 20
500.1752167224
 30
0.0
 11
969.7442566383
 21
500.1752167224
 31
0.0
  0
LINE
  5
15C
330
1F
100
AcDbEntity
  8
0
  6
Continuous
 62
     7
370
    25
100
AcDbLine
 10
969.7442566383
 20
500.1752167224
 30
0.0
 11
969.7442566383
 21
497.1752167224
 31
0.0
  0
LINE
  5
15D
330
1F
100
AcDbEntity
  8
0
  6
Continuous
 62
     7
370
    25
100
AcDbLine
 10
969.7442566383
 20
786.5752167224
 30
0.0
 11
966.2985219085
 21
786.5752167224
 31
0.0
  0
LINE
  5
15E
330
1F
100
AcDbEntity
  8
0
  6
Continuous
 62
     7
370
    25
100
AcDbLine
 10
969.7442566383
 20
789.5752167224
 30
0.0
 11
969.7442566383
 21
786.5752167224
 31
0.0
  0
LINE
  5
15F
330
1F
100
AcDbEntity
  8
0
  6
Continuous
 62
     7
370
    25
100
AcDbLine
 10
753.2179913681
 20
786.5752167224
 30
0.0
 11
749.7722566383
 21
786.5752167224
 31
0.0
  0
LINE
  5
160
330
1F
100
AcDbEntity
  8
0
  6
Continuous
 62
     7
370
    25
100
AcDbLine
 10
749.7722566383
 20
786.5752167224
 30
0.0
 11
749.7722566383
 21
789.5752167224
 31
0.0
  0
LINE
  5
161
330
1F
100
AcDbEntity
  8
0
  6
Continuous
 62
     7
370
    25
100
AcDbLine
 10
749.7722566383
 20
500.1752167224
 30
0.0
 11
753.2179913681
 21
500.1752167224
 31
0.0
  0
LINE
  5
162
330
1F
100
AcDbEntity
  8
0
  6
Continuous
 62
     7
370
    25
100
AcDbLine
 10
749.7722566383
 20
497.1752167224
 30
0.0
 11
749.7722566383
 21
500.1752167224
 31
0.0
  0
LINE
  5
163
330
1F
100
AcDbEntity
  8
0
  6
Continuous
 62
     7
370
    25
100
AcDbLine
 10
969.7442566383
 20
500.1752167224
 30
0.0
 11
969.7442566383
 21
786.5752167224
 31
0.0
  0
LINE
  5
164
330
1F
100
AcDbEntity
  8
0
  6
Continuous
 62
     7
370
    25
100
AcDbLine
 10
749.7722566383
 20
500.1752167224
 30
0.0
 11
749.7722566383
 21
786.5752167224
 31
0.0
  0
LINE
  5
165
330
1F
100
AcDbEntity
  8
SLD-0
100
AcDbLine
 10
860.5555951795
 20
648.5352167224
 30
0.0
 11
867.1609180971
 21
648.5352167224
 31
0.0
  0
LINE
  5
166
330
1F
100
AcDbEntity
  8
SLD-0
100
AcDbLine
 10
863.8582566383
 20
651.8378781812
 30
0.0
 11
863.8582566383
 21
645.2325552636
 31
0.0
  0
DIMENSION
  5
167
330
1F
100
AcDbEntity
  8
SLD-0
100
AcDbDimension
  2
_D
 10
1034.9485088267
 20
485.1752167224
 30
0.0
 11
1034.9485088267
 21
566.8552167224
 31
0.0
 70
   160
  1
<>
 71
     2
 42
-1.0
  3
SLDDIMSTYLE0
100
AcDbAlignedDimension
 13
867.1609180971
 23
648.5352167224
 33
0.0
 14
969.7442566383
 24
485.1752167224
 34
0.0
 50
90.0
100
AcDbRotatedDimension
  0
DIMENSION
  5
17C
330
1F
100
AcDbEntity
  8
SLD-0
100
AcDbDimension
  2
_D_1
 10
969.7442566383
 20
871.1515377582
 30
0.0
 11
859.7582566383
 21
871.1515377582
 31
0.0
 70
   160
  1
<>
 71
     2
 42
-1.0
  3
SLDDIMSTYLE1
100
AcDbAlignedDimension
 13
749.7722566383
 23
801.5752167224
 33
0.0
 14
969.7442566383
 24
801.5752167224
 34
0.0
 50
0.0
100
AcDbRotatedDimension
  0
INSERT
  5
196
330
1F
100
AcDbEntity
  8
SLD-0
100
AcDbBlockReference
  2
SW_SYMBOL_MOD_CL
 10
850.9805756609
 20
821.1129088622
 30
0.0
 41
0.0030416748
 42
0.0030416748
 43
0.0030416748
  0
INSERT
  5
197
330
1F
100
AcDbEntity
  8
SLD-0
100
AcDbBlockReference
  2
SW_SYMBOL_MOD_COM
 10
854.3793056181
 20
640.7316086696
 30
0.0
 41
0.0030416748
 42
0.0030416748
 43
0.0030416748
  0
LINE
  5
198
330
1F
100
AcDbEntity
  8
SLD-0
  6
CENTERX2
370
    18
100
AcDbLine
 10
859.7582566383
 20
813.5760052144
 30
0.0
 11
859.7582566383
 21
471.8396846541
 31
0.0
  0
LINE
  5
199
330
1F
100
AcDbEntity
  8
0
  6
Continuous
 62
     7
370
    25
100
AcDbLine
 10
969.7442566383
 20
1145.2527923444
 30
0.0
 11
969.7442566383
 21
1083.7944970595
 31
0.0
  0
ARC
  5
19A
330
1F
100
AcDbEntity
  8
0
  6
Continuous
 62
     7
370
    25
100
AcDbCircle
 10
913.9812018006
 20
1113.111415642
 30
0.0
 40
63.00000000000045
100
AcDbArc
 50
306.5648254431
 51
332.2672592317
  0
ARC
  5
19B
330
1F
100
AcDbEntity
  8
0
  6
Continuous
 62
     7
370
    25
100
AcDbCircle
 10
859.7582566383
 20
1756.9757255314
 30
0.0
 40
700.500000000001
100
AcDbArc
 50
262.4735619462
 51
277.5264380538
  0
ARC
  5
19C
330
1F
100
AcDbEntity
  8
0
  6
Continuous
 62
     7
370
    25
100
AcDbCircle
 10
805.535311476
 20
1113.111415642
 30
0.0
 40
63.00000000000063
100
AcDbArc
 50
207.7327407683
 51
233.4351745569
  0
LINE
  5
19D
330
1F
100
AcDbEntity
  8
0
  6
Continuous
 62
     7
370
    25
100
AcDbLine
 10
749.7722566383
 20
1083.7944970595
 30
0.0
 11
749.7722566383
 21
1145.2527923444
 31
0.0
  0
CIRCLE
  5
19E
330
1F
100
AcDbEntity
  8
0
  6
Continuous
 62
     7
370
    25
100
AcDbCircle
 10
913.7082566383
 20
1170.425415642
 30
0.0
 40
7.0
  0
CIRCLE
  5
19F
330
1F
100
AcDbEntity
  8
0
  6
Continuous
 62
     7
370
    25
100
AcDbCircle
 10
913.7082566383
 20
1119.625415642
 30
0.0
 40
7.000000000000227
  0
CIRCLE
  5
1A0
330
1F
100
AcDbEntity
  8
0
  6
Continuous
 62
     7
370
    25
100
AcDbCircle
 10
805.8082566383
 20
1119.625415642
 30
0.0
 40
7.000000000000227
  0
CIRCLE
  5
1A1
330
1F
100
AcDbEntity
  8
0
  6
Continuous
 62
     7
370
    25
100
AcDbCircle
 10
805.8082566383
 20
1170.425415642
 30
0.0
 40
7.0
  0
CIRCLE
  5
1A2
330
1F
100
AcDbEntity
  8
0
  6
Continuous
 62
     7
370
    25
100
AcDbCircle
 10
859.7582566383
 20
1144.825415642
 30
0.0
 40
9.0
  0
LINE
  5
1A3
330
1F
100
AcDbEntity
  8
0
  6
Continuous
 62
     7
370
    25
100
AcDbLine
 10
916.7593078732
 20
1237.025415642
 30
0.0
 11
969.7442566383
 21
1145.2527923444
 31
0.0
  0
LINE
  5
1A4
330
1F
100
AcDbEntity
  8
0
  6
Continuous
 62
     7
370
    25
100
AcDbLine
 10
749.7722566383
 20
1145.2527923444
 30
0.0
 11
802.7572054034
 21
1237.025415642
 31
0.0
  0
LINE
  5
1A5
330
1F
100
AcDbEntity
  8
0
  6
Continuous
 62
     7
370
    25
100
AcDbLine
 10
802.7572054034
 20
1237.025415642
 30
0.0
 11
916.7593078732
 21
1237.025415642
 31
0.0
  0
CIRCLE
  5
1A6
330
1F
100
AcDbEntity
  8
0
  6
Continuous
 62
     7
370
    25
100
AcDbCircle
 10
913.7082566383
 20
1170.425415642
 30
0.0
 40
3.5
  0
CIRCLE
  5
1A7
330
1F
100
AcDbEntity
  8
0
  6
Continuous
 62
     7
370
    25
100
AcDbCircle
 10
805.8082566383
 20
1170.425415642
 30
0.0
 40
3.5
  0
CIRCLE
  5
1A8
330
1F
100
AcDbEntity
  8
0
  6
Continuous
 62
     7
370
    25
100
AcDbCircle
 10
859.7582566383
 20
1144.825415642
 30
0.0
 40
4.5
  0
CIRCLE
  5
1A9
330
1F
100
AcDbEntity
  8
0
  6
Continuous
 62
     7
370
    25
100
AcDbCircle
 10
805.8082566383
 20
1119.625415642
 30
0.0
 40
3.5
  0
CIRCLE
  5
1AA
330
1F
100
AcDbEntity
  8
0
  6
Continuous
 62
     7
370
    25
100
AcDbCircle
 10
913.7082566383
 20
1119.625415642
 30
0.0
 40
3.5
  0
LINE
  5
1AB
330
1F
100
AcDbEntity
  8
SLD-0
100
AcDbLine
 10
805.8082566383
 20
1170.425415642
 30
0.0
 11
913.7082566383
 21
1170.425415642
 31
0.0
  0
LINE
  5
1AC
330
1F
100
AcDbEntity
  8
SLD-0
100
AcDbLine
 10
913.7082566383
 20
1170.425415642
 30
0.0
 11
913.7082566383
 21
1119.625415642
 31
0.0
  0
LINE
  5
1AD
330
1F
100
AcDbEntity
  8
SLD-0
100
AcDbLine
 10
913.7082566383
 20
1119.625415642
 30
0.0
 11
805.8082566383
 21
1119.625415642
 31
0.0
  0
LINE
  5
1AE
330
1F
100
AcDbEntity
  8
SLD-0
100
AcDbLine
 10
805.8082566383
 20
1119.625415642
 30
0.0
 11
805.8082566383
 21
1170.425415642
 31
0.0
  0
DIMENSION
  5
1AF
330
1F
100
AcDbEntity
  8
SLD-0
100
AcDbDimension
  2
_D_2
 10
913.7082566383
 20
1012.9332855504
 30
0.0
 11
859.7582566383
 21
1012.9332855504
 31
0.0
 70
   160
  1
<>
 71
     2
 42
-1.0
  3
SLDDIMSTYLE0
100
AcDbAlignedDimension
 13
805.8082566383
 23
1110.625415642
 33
0.0
 14
913.7082566383
 24
1110.625415642
 34
0.0
100
AcDbRotatedDimension
  0
DIMENSION
  5
1C3
330
1F
100
AcDbEntity
  8
SLD-0
100
AcDbDimension
  2
_D_3
 10
725.1256410133
 20
1119.625415642
 30
0.0
 11
725.1256410133
 21
1209.6746109665
 31
0.0
 70
   160
  1
<>
 71
     2
 42
-1.0
  3
SLDDIMSTYLE0
100
AcDbAlignedDimension
 13
796.8082566383
 23
1170.425415642
 33
0.0
 14
796.8082566383
 24
1119.625415642
 34
0.0
 50
90.0
100
AcDbRotatedDimension
  0
DIMENSION
  5
1D8
330
1F
100
AcDbEntity
  8
SLD-0
100
AcDbDimension
  2
_D_4
 10
969.7442566383
 20
1012.9332855504
 30
0.0
 11
1014.4347912809
 21
1012.9332855504
 31
0.0
 70
   160
  1
<>
 71
     2
 42
-1.0
  3
SLDDIMSTYLE1
100
AcDbAlignedDimension
 13
913.7082566383
 23
1110.625415642
 33
0.0
 14
969.7442566383
 24
1083.7944970595
 34
0.0
100
AcDbRotatedDimension
  0
DIMENSION
  5
1EC
330
1F
100
AcDbEntity
  8
SLD-0
100
AcDbDimension
  2
_D_5
 10
969.7442566383
 20
1287.025415642
 30
0.0
 11
914.7512566383
 21
1287.025415642
 31
0.0
 70
   160
  1
<>
 71
     2
 42
-1.0
  3
SLDDIMSTYLE1
100
AcDbAlignedDimension
 13
859.7582566383
 23
1155.825415642
 33
0.0
 14
969.7442566383
 24
1145.2527923444
 34
0.0
100
AcDbRotatedDimension
  0
DIMENSION
  5
200
330
1F
100
AcDbEntity
  8
SLD-0
100
AcDbDimension
  2
_D_6
 10
1101.9636995872
 20
1237.025415642
 30
0.0
 11
1101.9636995872
 21
1190.925415642
 31
0.0
 70
   160
  1
<>
 71
     2
 42
-1.0
  3
SLDDIMSTYLE0
100
AcDbAlignedDimension
 13
870.7582566383
 23
1144.825415642
 33
0.0
 14
916.7593078732
 24
1237.025415642
 34
0.0
 50
90.0
100
AcDbRotatedDimension
  0
DIMENSION
  5
214
330
1F
100
AcDbEntity
  8
SLD-0
100
AcDbDimension
  2
_D_7
 10
1031.7580228153
 20
1170.425415642
 30
0.0
 11
1031.7580228153
 21
1203.725415642
 31
0.0
 70
   160
  1
<>
 71
     2
 42
-1.0
  3
SLDDIMSTYLE2
100
AcDbAlignedDimension
 13
916.7593078732
 23
1237.025415642
 33
0.0
 14
922.7082566383
 24
1170.425415642
 34
0.0
 50
90.0
100
AcDbRotatedDimension
  0
MTEXT
  5
229
330
1F
100
AcDbEntity
  8
SLD-0
100
AcDbMText
 10
757.8520253158
 20
960.7639876207
 30
0.0
 40
11.90625
 41
0.0
 71
     1
 72
     1
  1
DIMENSIONS TYP BOTH SIDES
  7
SLDTEXTSTYLE0
 73
     1
 44
1.0
  0
INSERT
  5
232
102
{ACAD_REACTORS
330
234
102
}
330
1F
100
AcDbEntity
  8
SLD-0
100
AcDbBlockReference
  2
SW_NOTE_0_1
 10
789.8368883312
 20
1292.3462986198
 30
0.0
  0
LEADER
  5
234
330
1F
100
AcDbEntity
  8
SLD-0
100
AcDbLeader
  3
SLDDIMSTYLE3
 73
     2
 76
     3
 10
853.7762975196
 20
1151.5497122671
 30
0.0
 10
799.8368883312
 20
1292.3462986198
 30
0.0
 10
789.8368883312
 20
1292.3462986198
 30
0.0
340
232
  0
INSERT
  5
23D
102
{ACAD_REACTORS
330
23E
102
}
330
1F
100
AcDbEntity
  8
SLD-0
100
AcDbBlockReference
  2
SW_NOTE_0_2
 10
728.9836888331
 20
1018.8205771644
 30
0.0
  0
LEADER
  5
23E
330
1F
100
AcDbEntity
  8
SLD-0
100
AcDbLeader
  3
SLDDIMSTYLE3
 73
     2
 76
     3
 10
801.1877283564
 20
1114.3670206021
 30
0.0
 10
738.9836888331
 20
1018.8205771644
 30
0.0
 10
728.9836888331
 20
1018.8205771644
 30
0.0
340
23D
  0
MTEXT
  5
23F
330
1F
100
AcDbEntity
  8
SLD-0
100
AcDbMText
 10
675.3038476006
 20
1024.6359303186
 30
0.0
 40
11.90625
 41
0.0
 71
     1
 72
     1
  1
4X
  7
SLDTEXTSTYLE0
 73
     1
 44
1.0
  0
INSERT
  5
24B
330
1F
100
AcDbEntity
  8
SLD-0
100
AcDbBlockReference
  2
SW_CENTERMARKSYMBOL_0
 10
805.8082566383
 20
1170.425415642
 30
0.0
  0
INSERT
  5
257
330
1F
100
AcDbEntity
  8
SLD-0
100
AcDbBlockReference
  2
SW_CENTERMARKSYMBOL_1
 10
805.8082566383
 20
1119.625415642
 30
0.0
  0
INSERT
  5
263
330
1F
100
AcDbEntity
  8
SLD-0
100
AcDbBlockReference
  2
SW_CENTERMARKSYMBOL_2
 10
859.7582566383
 20
1144.825415642
 30
0.0
  0
INSERT
  5
26F
330
1F
100
AcDbEntity
  8
SLD-0
100
AcDbBlockReference
  2
SW_CENTERMARKSYMBOL_3
 10
913.7082566383
 20
1119.625415642
 30
0.0
  0
INSERT
  5
27B
330
1F
100
AcDbEntity
  8
SLD-0
100
AcDbBlockReference
  2
SW_CENTERMARKSYMBOL_4
 10
913.7082566383
 20
1170.425415642
 30
0.0
  0
ARC
  5
27C
330
1F
100
AcDbEntity
  8
0
  6
Continuous
 62
     7
370
    25
100
AcDbCircle
 10
859.7582566383
 20
-337.0495942531
 30
0.0
 40
700.500000000001
100
AcDbArc
 50
82.4735619462
 51
97.5264380538
  0
ARC
  5
27D
330
1F
100
AcDbEntity
  8
0
  6
Continuous
 62
     7
370
    25
100
AcDbCircle
 10
913.9812018006
 20
306.8147156363
 30
0.0
 40
63.00000000000045
100
AcDbArc
 50
27.7327407683
 51
53.4351745569
  0
LINE
  5
27E
330
1F
100
AcDbEntity
  8
0
  6
Continuous
 62
     7
370
    25
100
AcDbLine
 10
969.7442566383
 20
274.6733389339
 30
0.0
 11
969.7442566383
 21
336.1316342188
 31
0.0
  0
LINE
  5
27F
330
1F
100
AcDbEntity
  8
0
  6
Continuous
 62
     7
370
    25
100
AcDbLine
 10
916.7593078732
 20
182.9007156363
 30
0.0
 11
969.7442566383
 21
274.6733389339
 31
0.0
  0
LINE
  5
280
330
1F
100
AcDbEntity
  8
0
  6
Continuous
 62
     7
370
    25
100
AcDbLine
 10
749.7722566383
 20
274.6733389339
 30
0.0
 11
802.7572054034
 21
182.9007156363
 31
0.0
  0
LINE
  5
281
330
1F
100
AcDbEntity
  8
0
  6
Continuous
 62
     7
370
    25
100
AcDbLine
 10
749.7722566383
 20
336.1316342188
 30
0.0
 11
749.7722566383
 21
274.6733389339
 31
0.0
  0
ARC
  5
282
330
1F
100
AcDbEntity
  8
0
  6
Continuous
 62
     7
370
    25
100
AcDbCircle
 10
805.535311476
 20
306.8147156363
 30
0.0
 40
63.00000000000059
100
AcDbArc
 50
126.5648254431
 51
152.2672592317
  0
CIRCLE
  5
283
330
1F
100
AcDbEntity
  8
0
  6
Continuous
 62
     7
370
    25
100
AcDbCircle
 10
913.7082566383
 20
249.5007156363
 30
0.0
 40
7.000000000000028
  0
CIRCLE
  5
284
330
1F
100
AcDbEntity
  8
0
  6
Continuous
 62
     7
370
    25
100
AcDbCircle
 10
913.7082566383
 20
300.3007156363
 30
0.0
 40
7.000000000000057
  0
CIRCLE
  5
285
330
1F
100
AcDbEntity
  8
0
  6
Continuous
 62
     7
370
    25
100
AcDbCircle
 10
805.8082566383
 20
300.3007156363
 30
0.0
 40
7.000000000000057
  0
CIRCLE
  5
286
330
1F
100
AcDbEntity
  8
0
  6
Continuous
 62
     7
370
    25
100
AcDbCircle
 10
805.8082566383
 20
249.5007156363
 30
0.0
 40
7.000000000000028
  0
CIRCLE
  5
287
330
1F
100
AcDbEntity
  8
0
  6
Continuous
 62
     7
370
    25
100
AcDbCircle
 10
859.7582566383
 20
275.1007156363
 30
0.0
 40
9.0
  0
LINE
  5
288
330
1F
100
AcDbEntity
  8
0
  6
Continuous
 62
     7
370
    25
100
AcDbLine
 10
802.7572054034
 20
182.9007156363
 30
0.0
 11
916.7593078732
 21
182.9007156363
 31
0.0
  0
CIRCLE
  5
289
330
1F
100
AcDbEntity
  8
0
  6
Continuous
 62
     7
370
    25
100
AcDbCircle
 10
805.8082566383
 20
249.5007156363
 30
0.0
 40
3.499999999999972
  0
CIRCLE
  5
28A
330
1F
100
AcDbEntity
  8
0
  6
Continuous
 62
     7
370
    25
100
AcDbCircle
 10
913.7082566383
 20
249.5007156363
 30
0.0
 40
3.499999999999972
  0
CIRCLE
  5
28B
330
1F
100
AcDbEntity
  8
0
  6
Continuous
 62
     7
370
    25
100
AcDbCircle
 10
859.7582566383
 20
275.1007156363
 30
0.0
 40
4.5
  0
CIRCLE
  5
28C
330
1F
100
AcDbEntity
  8
0
  6
Continuous
 62
     7
370
    25
100
AcDbCircle
 10
805.8082566383
 20
300.3007156363
 30
0.0
 40
3.499999999999943
  0
CIRCLE
  5
28D
330
1F
100
AcDbEntity
  8
0
  6
Continuous
 62
     7
370
    25
100
AcDbCircle
 10
913.7082566383
 20
300.3007156363
 30
0.0
 40
3.499999999999943
  0
LINE
  5
28E
330
1F
100
AcDbEntity
  8
SLD-0
100
AcDbLine
 10
863.8582566383
 20
274.2037232099
 30
0.0
 11
863.8582566383
 21
272.5577080628
 31
0.0
  0
LINE
  5
28F
330
1F
100
AcDbEntity
  8
SLD-0
100
AcDbLine
 10
863.0352490648
 20
273.3807156364
 30
0.0
 11
864.6812642119
 21
273.3807156364
 31
0.0
  0
DIMENSION
  5
290
330
1F
100
AcDbEntity
  8
SLD-0
100
AcDbDimension
  2
_D_8
 10
1017.0719415762
 20
182.9007156364
 30
0.0
 11
1017.0719415762
 21
228.1407156364
 31
0.0
 70
   160
  1
<>
 71
     2
 42
-1.0
  3
SLDDIMSTYLE0
100
AcDbAlignedDimension
 13
864.6812642119
 23
273.3807156364
 33
0.0
 14
916.7593078732
 24
182.9007156364
 34
0.0
 50
90.0
100
AcDbRotatedDimension
  0
DIMENSION
  5
2A4
330
1F
100
AcDbEntity
  8
SLD-0
100
AcDbDimension
  2
_D_9
 10
863.8582566383
 20
407.4258141157
 30
0.0
 11
806.8152566383
 21
407.4258141157
 31
0.0
 70
   160
  1
<>
 71
     2
 42
-1.0
  3
SLDDIMSTYLE0
100
AcDbAlignedDimension
 13
749.7722566383
 23
336.1316342188
 33
0.0
 14
863.8582566383
 24
274.2037232099
 34
0.0
100
AcDbRotatedDimension
  0
DIMENSION
  5
2B8
330
1F
100
AcDbEntity
  8
SLD-0
100
AcDbDimension
  2
_D_10
 10
749.7722566383
 20
274.6733389339
 30
0.0
 11
859.7582566383
 21
150.5754772143
 31
0.0
 70
   162
  1
<>
 71
     1
 42
-1.0
  3
SLDDIMSTYLE4
100
AcDb2LineAngularDimension
 13
969.7442566383
 23
274.6733389339
 33
0.0
 14
916.7593078732
 24
182.9007156364
 34
0.0
 15
802.7572054034
 25
182.9007156364
 35
0.0
 16
882.6802435697
 26
146.4937803899
 36
0.0
  0
INSERT
  5
2C4
330
1F
100
AcDbEntity
  8
SLD-0
100
AcDbBlockReference
  2
SW_SYMBOL_MOD_COM
 10
854.4156039029
 20
265.5387912558
 30
0.0
 41
0.0030416748
 42
0.0030416748
 43
0.0030416748
  0
INSERT
  5
2CD
102
{ACAD_REACTORS
330
2CE
102
}
330
1F
100
AcDbEntity
  8
SLD-0
100
AcDbBlockReference
  2
SW_NOTE_0_3
 10
1002.5094102886
 20
388.9585947302
 30
0.0
  0
LEADER
  5
2CE
330
1F
100
AcDbEntity
  8
SLD-0
100
AcDbLeader
  3
SLDDIMSTYLE3
 73
     2
 76
     3
 10
919.3709269328
 20
304.4158298676
 30
0.0
 10
992.5094102886
 20
388.9585947302
 30
0.0
 10
1002.5094102886
 20
388.9585947302
 30
0.0
340
2CD
  0
MTEXT
  5
2CF
330
1F
100
AcDbEntity
  8
SLD-0
100
AcDbMText
 10
1040.5050985423
 20
393.5138910651
 30
0.0
 40
11.90625
 41
0.0
 71
     1
 72
     1
  1
4X
  7
SLDTEXTSTYLE0
 73
     1
 44
1.0
  0
INSERT
  5
2D8
102
{ACAD_REACTORS
330
2D9
102
}
330
1F
100
AcDbEntity
  8
SLD-0
100
AcDbBlockReference
  2
SW_NOTE_0_4
 10
704.5169385194
 20
293.6010037641
 30
0.0
  0
LEADER
  5
2D9
330
1F
100
AcDbEntity
  8
SLD-0
100
AcDbLeader
  3
SLDDIMSTYLE3
 73
     2
 76
     3
 10
851.2723566328
 20
278.0989653084
 30
0.0
 10
714.5169385194
 20
293.6010037641
 30
0.0
 10
704.5169385194
 20
293.6010037641
 30
0.0
340
2D8
  0
LINE
  5
2DA
330
1F
100
AcDbEntity
  8
0
  6
Continuous
 62
     7
370
    25
100
AcDbLine
 10
1202.2118657594
 20
497.1752167224
 30
0.0
 11
1202.2118657594
 21
485.1752167224
 31
0.0
  0
LINE
  5
2DB
330
1F
100
AcDbEntity
  8
0
  6
Continuous
 62
     7
370
    25
100
AcDbLine
 10
1202.2118657594
 20
801.5752167224
 30
0.0
 11
1202.2118657594
 21
789.5752167224
 31
0.0
  0
LINE
  5
2DC
330
1F
100
AcDbEntity
  8
0
  6
Continuous
 62
     7
370
    25
100
AcDbLine
 10
1227.0306372876
 20
721.8752167224
 30
0.0
 11
1223.5306372876
 21
721.8752167224
 31
0.0
  0
LINE
  5
2DD
330
1F
100
AcDbEntity
  8
0
  6
Continuous
 62
     7
370
    25
100
AcDbLine
 10
1223.5306372876
 20
564.8752167224
 30
0.0
 11
1227.0306372876
 21
564.8752167224
 31
0.0
  0
LINE
  5
2DE
330
1F
100
AcDbEntity
  8
0
  6
Continuous
 62
     7
370
    25
100
AcDbLine
 10
1382.76155587
 20
485.1752167224
 30
0.0
 11
1382.76155587
 21
801.5752167224
 31
0.0
  0
LINE
  5
2DF
330
1F
100
AcDbEntity
  8
0
  6
Continuous
 62
     7
370
    25
100
AcDbLine
 10
1290.9889325725
 20
485.1752167224
 30
0.0
 11
1290.9889325725
 21
801.5752167224
 31
0.0
  0
LINE
  5
2E0
330
1F
100
AcDbEntity
  8
0
  6
Continuous
 62
     7
370
    25
100
AcDbLine
 10
1382.76155587
 20
485.1752167224
 30
0.0
 11
1290.9889325725
 21
485.1752167224
 31
0.0
  0
LINE
  5
2E1
330
1F
100
AcDbEntity
  8
0
  6
Continuous
 62
     7
370
    25
100
AcDbLine
 10
1382.76155587
 20
801.5752167224
 30
0.0
 11
1290.9889325725
 21
801.5752167224
 31
0.0
  0
ARC
  5
2E2
330
1F
100
AcDbEntity
  8
0
  6
Continuous
 62
     7
370
    25
100
AcDbCircle
 10
1243.0306372876
 20
500.1752167224
 30
0.0
 40
3.000000000000057
100
AcDbArc
 50
270.0
 51
0.0
  0
LINE
  5
2E3
330
1F
100
AcDbEntity
  8
0
  6
Continuous
 62
     7
370
    25
100
AcDbLine
 10
1246.0306372876
 20
500.1752167224
 30
0.0
 11
1246.0306372876
 21
786.5752167224
 31
0.0
  0
ARC
  5
2E4
330
1F
100
AcDbEntity
  8
0
  6
Continuous
 62
     7
370
    25
100
AcDbCircle
 10
1243.0306372876
 20
786.5752167224
 30
0.0
 40
3.000000000000114
100
AcDbArc
 50
0.0
 51
90.0
  0
LINE
  5
2E5
330
1F
100
AcDbEntity
  8
0
  6
Continuous
 62
     7
370
    25
100
AcDbLine
 10
1229.5306372876
 20
789.5752167224
 30
0.0
 11
1243.0306372876
 21
789.5752167224
 31
0.0
  0
LINE
  5
2E6
330
1F
100
AcDbEntity
  8
0
  6
Continuous
 62
     7
370
    25
100
AcDbLine
 10
1229.5306372876
 20
789.5752167224
 30
0.0
 11
1229.5306372876
 21
801.5752167224
 31
0.0
  0
LINE
  5
2E7
330
1F
100
AcDbEntity
  8
0
  6
Continuous
 62
     7
370
    25
100
AcDbLine
 10
1229.5306372876
 20
485.1752167224
 30
0.0
 11
1229.5306372876
 21
497.1752167224
 31
0.0
  0
LINE
  5
2E8
330
1F
100
AcDbEntity
  8
0
  6
Continuous
 62
     7
370
    25
100
AcDbLine
 10
1229.5306372876
 20
497.1752167224
 30
0.0
 11
1243.0306372876
 21
497.1752167224
 31
0.0
  0
LINE
  5
2E9
330
1F
100
AcDbEntity
  8
0
  6
Continuous
 62
     7
370
    25
100
AcDbLine
 10
1290.9889325725
 20
485.1752167224
 30
0.0
 11
1229.5306372876
 21
485.1752167224
 31
0.0
  0
LINE
  5
2EA
330
1F
100
AcDbEntity
  8
0
  6
Continuous
 62
     7
370
    25
100
AcDbLine
 10
1290.9889325725
 20
801.5752167224
 30
0.0
 11
1229.5306372876
 21
801.5752167224
 31
0.0
  0
LINE
  5
2EB
330
1F
100
AcDbEntity
  8
0
  6
Continuous
 62
     7
370
    25
100
AcDbLine
 10
1208.2470046067
 20
801.5752167224
 30
0.0
 11
1208.2470046067
 21
789.5752167224
 31
0.0
  0
LINE
  5
2EC
330
1F
100
AcDbEntity
  8
0
  6
Continuous
 62
     7
370
    25
100
AcDbLine
 10
1208.2470046067
 20
789.5752167224
 30
0.0
 11
1229.5306372876
 21
789.5752167224
 31
0.0
  0
LINE
  5
2ED
330
1F
100
AcDbEntity
  8
0
  6
Continuous
 62
     7
370
    25
100
AcDbLine
 10
1208.2470046067
 20
801.5752167224
 30
0.0
 11
1229.5306372876
 21
801.5752167224
 31
0.0
  0
LINE
  5
2EE
330
1F
100
AcDbEntity
  8
0
  6
Continuous
 62
     7
370
    25
100
AcDbLine
 10
1208.2470046067
 20
497.1752167224
 30
0.0
 11
1208.2470046067
 21
485.1752167224
 31
0.0
  0
LINE
  5
2EF
330
1F
100
AcDbEntity
  8
0
  6
Continuous
 62
     7
370
    25
100
AcDbLine
 10
1208.2470046067
 20
497.1752167224
 30
0.0
 11
1229.5306372876
 21
497.1752167224
 31
0.0
  0
LINE
  5
2F0
330
1F
100
AcDbEntity
  8
0
  6
Continuous
 62
     7
370
    25
100
AcDbLine
 10
1208.2470046067
 20
485.1752167224
 30
0.0
 11
1229.5306372876
 21
485.1752167224
 31
0.0
  0
LINE
  5
2F1
330
1F
100
AcDbEntity
  8
0
  6
Continuous
 62
     7
370
    25
100
AcDbLine
 10
1230.0306372876
 20
497.1752167224
 30
0.0
 11
1230.0306372876
 21
789.5752167224
 31
0.0
  0
LINE
  5
2F2
330
1F
100
AcDbEntity
  8
0
  6
Continuous
 62
     7
370
    25
100
AcDbLine
 10
1227.0306372876
 20
789.5752167224
 30
0.0
 11
1227.0306372876
 21
497.1752167224
 31
0.0
  0
LINE
  5
2F3
330
1F
100
AcDbEntity
  8
0
  6
Continuous
 62
     7
370
    25
100
AcDbLine
 10
1202.2118657594
 20
497.1752167224
 30
0.0
 11
1208.2470046067
 21
497.1752167224
 31
0.0
  0
LINE
  5
2F4
330
1F
100
AcDbEntity
  8
0
  6
Continuous
 62
     7
370
    25
100
AcDbLine
 10
1202.2118657594
 20
485.1752167224
 30
0.0
 11
1208.2470046067
 21
485.1752167224
 31
0.0
  0
LINE
  5
2F5
330
1F
100
AcDbEntity
  8
0
  6
Continuous
 62
     7
370
    25
100
AcDbLine
 10
1202.2118657594
 20
789.5752167224
 30
0.0
 11
1208.2470046067
 21
789.5752167224
 31
0.0
  0
LINE
  5
2F6
330
1F
100
AcDbEntity
  8
0
  6
Continuous
 62
     7
370
    25
100
AcDbLine
 10
1202.2118657594
 20
801.5752167224
 30
0.0
 11
1208.2470046067
 21
801.5752167224
 31
0.0
  0
LINE
  5
2F7
330
1F
100
AcDbEntity
  8
0
  6
Continuous
 62
     7
370
    25
100
AcDbLine
 10
1223.5306372876
 20
643.3752167224
 30
0.0
 11
1223.5306372876
 21
721.8752167224
 31
0.0
  0
LINE
  5
2F8
330
1F
100
AcDbEntity
  8
0
  6
Continuous
 62
     7
370
    25
100
AcDbLine
 10
1223.5306372876
 20
564.8752167224
 30
0.0
 11
1223.5306372876
 21
643.3752167224
 31
0.0
  0
DIMENSION
  5
2F9
330
1F
100
AcDbEntity
  8
SLD-0
100
AcDbDimension
  2
_D_11
 10
1382.76155587
 20
867.5743042145
 30
0.0
 11
1292.4867108147
 21
867.5743042145
 31
0.0
 70
   160
  1
<>
 71
     2
 42
-1.0
  3
SLDDIMSTYLE0
100
AcDbAlignedDimension
 13
1202.2118657594
 23
801.5752167224
 33
0.0
 14
1382.76155587
 24
801.5752167224
 34
0.0
100
AcDbRotatedDimension
  0
LINE
  5
30D
330
1F
100
AcDbEntity
  8
0
  6
Continuous
 62
     7
370
    25
100
AcDbLine
 10
534.6735262959
 20
485.1752167224
 30
0.0
 11
534.6735262959
 21
497.1752167224
 31
0.0
  0
LINE
  5
30E
330
1F
100
AcDbEntity
  8
0
  6
Continuous
 62
     7
370
    25
100
AcDbLine
 10
534.6735262959
 20
789.5752167224
 30
0.0
 11
534.6735262959
 21
801.5752167224
 31
0.0
  0
LINE
  5
30F
330
1F
100
AcDbEntity
  8
0
  6
Continuous
 62
     7
370
    25
100
AcDbLine
 10
509.8547547678
 20
564.8752167224
 30
0.0
 11
513.3547547678
 21
564.8752167224
 31
0.0
  0
LINE
  5
310
330
1F
100
AcDbEntity
  8
0
  6
Continuous
 62
     7
370
    25
100
AcDbLine
 10
513.3547547678
 20
721.8752167224
 30
0.0
 11
509.8547547678
 21
721.8752167224
 31
0.0
  0
LINE
  5
311
330
1F
100
AcDbEntity
  8
0
  6
Continuous
 62
     7
370
    25
100
AcDbLine
 10
445.8964594829
 20
485.1752167224
 30
0.0
 11
445.8964594829
 21
801.5752167224
 31
0.0
  0
LINE
  5
312
330
1F
100
AcDbEntity
  8
0
  6
Continuous
 62
     7
370
    25
100
AcDbLine
 10
445.8964594829
 20
485.1752167224
 30
0.0
 11
354.1238361853
 21
485.1752167224
 31
0.0
  0
LINE
  5
313
330
1F
100
AcDbEntity
  8
0
  6
Continuous
 62
     7
370
    25
100
AcDbLine
 10
354.1238361853
 20
485.1752167224
 30
0.0
 11
354.1238361853
 21
801.5752167224
 31
0.0
  0
LINE
  5
314
330
1F
100
AcDbEntity
  8
0
  6
Continuous
 62
     7
370
    25
100
AcDbLine
 10
445.8964594829
 20
801.5752167224
 30
0.0
 11
354.1238361853
 21
801.5752167224
 31
0.0
  0
LINE
  5
315
330
1F
100
AcDbEntity
  8
0
  6
Continuous
 62
     7
370
    25
100
AcDbLine
 10
507.3547547678
 20
485.1752167224
 30
0.0
 11
507.3547547678
 21
497.1752167224
 31
0.0
  0
LINE
  5
316
330
1F
100
AcDbEntity
  8
0
  6
Continuous
 62
     7
370
    25
100
AcDbLine
 10
507.3547547678
 20
789.5752167224
 30
0.0
 11
507.3547547678
 21
801.5752167224
 31
0.0
  0
LINE
  5
317
330
1F
100
AcDbEntity
  8
0
  6
Continuous
 62
     7
370
    25
100
AcDbLine
 10
493.8547547678
 20
789.5752167224
 30
0.0
 11
507.3547547678
 21
789.5752167224
 31
0.0
  0
ARC
  5
318
330
1F
100
AcDbEntity
  8
0
  6
Continuous
 62
     7
370
    25
100
AcDbCircle
 10
493.8547547678
 20
786.5752167224
 30
0.0
 40
3.000000000000114
100
AcDbArc
 50
90.0
 51
180.0
  0
LINE
  5
319
330
1F
100
AcDbEntity
  8
0
  6
Continuous
 62
     7
370
    25
100
AcDbLine
 10
490.8547547678
 20
500.1752167224
 30
0.0
 11
490.8547547678
 21
786.5752167224
 31
0.0
  0
ARC
  5
31A
330
1F
100
AcDbEntity
  8
0
  6
Continuous
 62
     7
370
    25
100
AcDbCircle
 10
493.8547547678
 20
500.1752167224
 30
0.0
 40
3.000000000000057
100
AcDbArc
 50
180.0
 51
270.0
  0
LINE
  5
31B
330
1F
100
AcDbEntity
  8
0
  6
Continuous
 62
     7
370
    25
100
AcDbLine
 10
493.8547547678
 20
497.1752167224
 30
0.0
 11
507.3547547678
 21
497.1752167224
 31
0.0
  0
LINE
  5
31C
330
1F
100
AcDbEntity
  8
0
  6
Continuous
 62
     7
370
    25
100
AcDbLine
 10
507.3547547678
 20
801.5752167224
 30
0.0
 11
445.8964594829
 21
801.5752167224
 31
0.0
  0
LINE
  5
31D
330
1F
100
AcDbEntity
  8
0
  6
Continuous
 62
     7
370
    25
100
AcDbLine
 10
507.3547547678
 20
485.1752167224
 30
0.0
 11
445.8964594829
 21
485.1752167224
 31
0.0
  0
LINE
  5
31E
330
1F
100
AcDbEntity
  8
0
  6
Continuous
 62
     7
370
    25
100
AcDbLine
 10
528.6383874487
 20
801.5752167224
 30
0.0
 11
528.6383874487
 21
789.5752167224
 31
0.0
  0
LINE
  5
31F
330
1F
100
AcDbEntity
  8
0
  6
Continuous
 62
     7
370
    25
100
AcDbLine
 10
507.3547547678
 20
789.5752167224
 30
0.0
 11
528.6383874487
 21
789.5752167224
 31
0.0
  0
LINE
  5
320
330
1F
100
AcDbEntity
  8
0
  6
Continuous
 62
     7
370
    25
100
AcDbLine
 10
507.3547547678
 20
801.5752167224
 30
0.0
 11
528.6383874487
 21
801.5752167224
 31
0.0
  0
LINE
  5
321
330
1F
100
AcDbEntity
  8
0
  6
Continuous
 62
     7
370
    25
100
AcDbLine
 10
528.6383874487
 20
497.1752167224
 30
0.0
 11
528.6383874487
 21
485.1752167224
 31
0.0
  0
LINE
  5
322
330
1F
100
AcDbEntity
  8
0
  6
Continuous
 62
     7
370
    25
100
AcDbLine
 10
507.3547547678
 20
497.1752167224
 30
0.0
 11
528.6383874487
 21
497.1752167224
 31
0.0
  0
LINE
  5
323
330
1F
100
AcDbEntity
  8
0
  6
Continuous
 62
     7
370
    25
100
AcDbLine
 10
507.3547547678
 20
485.1752167224
 30
0.0
 11
528.6383874487
 21
485.1752167224
 31
0.0
  0
LINE
  5
324
330
1F
100
AcDbEntity
  8
0
  6
Continuous
 62
     7
370
    25
100
AcDbLine
 10
506.8547547678
 20
497.1752167224
 30
0.0
 11
506.8547547678
 21
789.5752167224
 31
0.0
  0
LINE
  5
325
330
1F
100
AcDbEntity
  8
0
  6
Continuous
 62
     7
370
    25
100
AcDbLine
 10
509.8547547678
 20
497.1752167224
 30
0.0
 11
509.8547547678
 21
789.5752167224
 31
0.0
  0
LINE
  5
326
330
1F
100
AcDbEntity
  8
0
  6
Continuous
 62
     7
370
    25
100
AcDbLine
 10
528.6383874487
 20
497.1752167224
 30
0.0
 11
534.6735262959
 21
497.1752167224
 31
0.0
  0
LINE
  5
327
330
1F
100
AcDbEntity
  8
0
  6
Continuous
 62
     7
370
    25
100
AcDbLine
 10
528.6383874487
 20
485.1752167224
 30
0.0
 11
534.6735262959
 21
485.1752167224
 31
0.0
  0
LINE
  5
328
330
1F
100
AcDbEntity
  8
0
  6
Continuous
 62
     7
370
    25
100
AcDbLine
 10
528.6383874487
 20
789.5752167224
 30
0.0
 11
534.6735262959
 21
789.5752167224
 31
0.0
  0
LINE
  5
329
330
1F
100
AcDbEntity
  8
0
  6
Continuous
 62
     7
370
    25
100
AcDbLine
 10
528.6383874487
 20
801.5752167224
 30
0.0
 11
534.6735262959
 21
801.5752167224
 31
0.0
  0
LINE
  5
32A
330
1F
100
AcDbEntity
  8
0
  6
Continuous
 62
     7
370
    25
100
AcDbLine
 10
513.3547547678
 20
721.8752167224
 30
0.0
 11
513.3547547678
 21
564.8752167224
 31
0.0
  0
DIMENSION
  5
32B
330
1F
100
AcDbEntity
  8
SLD-0
100
AcDbDimension
  2
_D_12
 10
270.2895829964
 20
485.1752167224
 30
0.0
 11
270.2895829964
 21
643.3752167224
 31
0.0
 70
   160
  1
<>
 71
     2
 42
-1.0
  3
SLDDIMSTYLE0
100
AcDbAlignedDimension
 13
354.1238361853
 23
801.5752167224
 33
0.0
 14
354.1238361853
 24
485.1752167224
 34
0.0
 50
90.0
100
AcDbRotatedDimension
  0
LINE
  5
33F
330
1F
100
AcDbEntity
  8
0
  6
Continuous
 62
     7
370
    25
100
AcDbLine
 10
1853.7709309649
 20
485.1752167224
 30
0.0
 11
1853.7709309649
 21
801.5752167224
 31
0.0
  0
LINE
  5
340
330
1F
100
AcDbEntity
  8
0
  6
Continuous
 62
     7
370
    25
100
AcDbLine
 10
1800.7859821998
 20
485.1752167224
 30
0.0
 11
1800.7859821998
 21
801.5752167224
 31
0.0
  0
LINE
  5
341
330
1F
100
AcDbEntity
  8
0
  6
Continuous
 62
     7
370
    25
100
AcDbLine
 10
1853.7709309649
 20
485.1752167224
 30
0.0
 11
1800.7859821998
 21
485.1752167224
 31
0.0
  0
LINE
  5
342
330
1F
100
AcDbEntity
  8
0
  6
Continuous
 62
     7
370
    25
100
AcDbLine
 10
1853.7709309649
 20
801.5752167224
 30
0.0
 11
1800.7859821998
 21
801.5752167224
 31
0.0
  0
LINE
  5
343
330
1F
100
AcDbEntity
  8
0
  6
Continuous
 62
     7
370
    25
100
AcDbLine
 10
1686.7838797299
 20
485.1752167224
 30
0.0
 11
1686.7838797299
 21
801.5752167224
 31
0.0
  0
ARC
  5
344
330
1F
100
AcDbEntity
  8
0
  6
Continuous
 62
     7
370
    25
100
AcDbCircle
 10
1772.0349309649
 20
531.4252167224
 30
0.0
 40
6.750000000000227
100
AcDbArc
 50
270.0
 51
0.0
  0
LINE
  5
345
330
1F
100
AcDbEntity
  8
0
  6
Continuous
 62
     7
370
    25
100
AcDbLine
 10
1778.7849309649
 20
531.4252167224
 30
0.0
 11
1778.7849309649
 21
598.9252167224
 31
0.0
  0
ARC
  5
346
330
1F
100
AcDbEntity
  8
0
  6
Continuous
 62
     7
370
    25
100
AcDbCircle
 10
1772.0349309649
 20
598.9252167224
 30
0.0
 40
6.75
100
AcDbArc
 50
0.0
 51
90.0
  0
LINE
  5
347
330
1F
100
AcDbEntity
  8
0
  6
Continuous
 62
     7
370
    25
100
AcDbLine
 10
1772.0349309649
 20
605.6752167224
 30
0.0
 11
1715.5349309649
 21
605.6752167224
 31
0.0
  0
ARC
  5
348
330
1F
100
AcDbEntity
  8
0
  6
Continuous
 62
     7
370
    25
100
AcDbCircle
 10
1715.5349309649
 20
598.9252167224
 30
0.0
 40
6.749999999999886
100
AcDbArc
 50
90.0
 51
180.0
  0
LINE
  5
349
330
1F
100
AcDbEntity
  8
0
  6
Continuous
 62
     7
370
    25
100
AcDbLine
 10
1708.7849309649
 20
598.9252167224
 30
0.0
 11
1708.7849309649
 21
531.4252167224
 31
0.0
  0
ARC
  5
34A
330
1F
100
AcDbEntity
  8
0
  6
Continuous
 62
     7
370
    25
100
AcDbCircle
 10
1715.5349309649
 20
531.4252167224
 30
0.0
 40
6.750000000000114
100
AcDbArc
 50
180.0
 51
270.0
  0
LINE
  5
34B
330
1F
100
AcDbEntity
  8
0
  6
Continuous
 62
     7
370
    25
100
AcDbLine
 10
1715.5349309649
 20
524.6752167224
 30
0.0
 11
1772.0349309649
 21
524.6752167224
 31
0.0
  0
CIRCLE
  5
34C
330
1F
100
AcDbEntity
  8
0
  6
Continuous
 62
     7
370
    25
100
AcDbCircle
 10
1717.7849309649
 20
611.1752167224
 30
0.0
 40
4.700000000000045
  0
CIRCLE
  5
34D
330
1F
100
AcDbEntity
  8
0
  6
Continuous
 62
     7
370
    25
100
AcDbCircle
 10
1769.7849309649
 20
611.1752167224
 30
0.0
 40
4.700000000000045
  0
CIRCLE
  5
34E
330
1F
100
AcDbEntity
  8
0
  6
Continuous
 62
     7
370
    25
100
AcDbCircle
 10
1769.7849309649
 20
519.1752167224
 30
0.0
 40
4.700000000000045
  0
CIRCLE
  5
34F
330
1F
100
AcDbEntity
  8
0
  6
Continuous
 62
     7
370
    25
100
AcDbCircle
 10
1717.7849309649
 20
519.1752167224
 30
0.0
 40
4.699999999999818
  0
LINE
  5
350
330
1F
100
AcDbEntity
  8
0
  6
Continuous
 62
     7
370
    25
100
AcDbLine
 10
1800.7859821998
 20
485.1752167224
 30
0.0
 11
1686.7838797299
 21
485.1752167224
 31
0.0
  0
LINE
  5
351
330
1F
100
AcDbEntity
  8
0
  6
Continuous
 62
     7
370
    25
100
AcDbLine
 10
1800.7859821998
 20
801.5752167224
 30
0.0
 11
1686.7838797299
 21
801.5752167224
 31
0.0
  0
CIRCLE
  5
352
330
1F
100
AcDbEntity
  8
0
  6
Continuous
 62
     7
370
    25
100
AcDbCircle
 10
1769.7849309649
 20
519.1752167224
 30
0.0
 40
2.25
  0
CIRCLE
  5
353
330
1F
100
AcDbEntity
  8
0
  6
Continuous
 62
     7
370
    25
100
AcDbCircle
 10
1769.7849309649
 20
611.1752167224
 30
0.0
 40
2.25
  0
CIRCLE
  5
354
330
1F
100
AcDbEntity
  8
0
  6
Continuous
 62
     7
370
    25
100
AcDbCircle
 10
1717.7849309649
 20
519.1752167224
 30
0.0
 40
2.25
  0
CIRCLE
  5
355
330
1F
100
AcDbEntity
  8
0
  6
Continuous
 62
     7
370
    25
100
AcDbCircle
 10
1717.7849309649
 20
611.1752167224
 30
0.0
 40
2.25
  0
LINE
  5
356
330
1F
100
AcDbEntity
  8
0
  6
Continuous
 62
     7
370
    25
100
AcDbLine
 10
1633.7989309649
 20
485.1752167224
 30
0.0
 11
1633.7989309649
 21
801.5752167224
 31
0.0
  0
LINE
  5
357
330
1F
100
AcDbEntity
  8
0
  6
Continuous
 62
     7
370
    25
100
AcDbLine
 10
1686.7838797299
 20
485.1752167224
 30
0.0
 11
1633.7989309649
 21
485.1752167224
 31
0.0
  0
LINE
  5
358
330
1F
100
AcDbEntity
  8
0
  6
Continuous
 62
     7
370
    25
100
AcDbLine
 10
1686.7838797299
 20
801.5752167224
 30
0.0
 11
1633.7989309649
 21
801.5752167224
 31
0.0
  0
LINE
  5
359
330
1F
100
AcDbEntity
  8
0
  6
Continuous
 62
     7
370
    25
100
AcDbLine
 10
1766.0324309649
 20
531.4277167224
 30
0.0
 11
1766.0324309649
 21
532.4277167224
 31
0.0
  0
ARC
  5
35A
330
1F
100
AcDbEntity
  8
0
  6
Continuous
 62
     7
370
    25
100
AcDbCircle
 10
1771.0324309649
 20
532.4277167224
 30
0.0
 40
5.0
100
AcDbArc
 50
90.0
 51
180.0
  0
LINE
  5
35B
330
1F
100
AcDbEntity
  8
0
  6
Continuous
 62
     7
370
    25
100
AcDbLine
 10
1771.0324309649
 20
537.4277167224
 30
0.0
 11
1772.0324309649
 21
537.4277167224
 31
0.0
  0
ARC
  5
35C
330
1F
100
AcDbEntity
  8
0
  6
Continuous
 62
     7
370
    25
100
AcDbCircle
 10
1772.0324309649
 20
538.6777167224
 30
0.0
 40
1.25
100
AcDbArc
 50
270.0
 51
0.0
  0
LINE
  5
35D
330
1F
100
AcDbEntity
  8
0
  6
Continuous
 62
     7
370
    25
100
AcDbLine
 10
1773.2824309649
 20
538.6777167224
 30
0.0
 11
1773.2824309649
 21
591.6727167224
 31
0.0
  0
ARC
  5
35E
330
1F
100
AcDbEntity
  8
0
  6
Continuous
 62
     7
370
    25
100
AcDbCircle
 10
1772.0324309649
 20
591.6727167224
 30
0.0
 40
1.25
100
AcDbArc
 50
0.0
 51
90.0
  0
LINE
  5
35F
330
1F
100
AcDbEntity
  8
0
  6
Continuous
 62
     7
370
    25
100
AcDbLine
 10
1772.0324309649
 20
592.9227167224
 30
0.0
 11
1771.0324309649
 21
592.9227167224
 31
0.0
  0
ARC
  5
360
330
1F
100
AcDbEntity
  8
0
  6
Continuous
 62
     7
370
    25
100
AcDbCircle
 10
1771.0324309649
 20
597.9227167224
 30
0.0
 40
5.0
100
AcDbArc
 50
180.0
 51
270.0
  0
LINE
  5
361
330
1F
100
AcDbEntity
  8
0
  6
Continuous
 62
     7
370
    25
100
AcDbLine
 10
1766.0324309649
 20
597.9227167224
 30
0.0
 11
1766.0324309649
 21
598.9227167224
 31
0.0
  0
ARC
  5
362
330
1F
100
AcDbEntity
  8
0
  6
Continuous
 62
     7
370
    25
100
AcDbCircle
 10
1764.7824309649
 20
598.9227167224
 30
0.0
 40
1.250000000000227
100
AcDbArc
 50
0.0
 51
90.0
  0
LINE
  5
363
330
1F
100
AcDbEntity
  8
0
  6
Continuous
 62
     7
370
    25
100
AcDbLine
 10
1764.7824309649
 20
600.1727167224
 30
0.0
 11
1722.7874309649
 21
600.1727167224
 31
0.0
  0
ARC
  5
364
330
1F
100
AcDbEntity
  8
0
  6
Continuous
 62
     7
370
    25
100
AcDbCircle
 10
1722.7874309649
 20
598.9227167224
 30
0.0
 40
1.25
100
AcDbArc
 50
90.0
 51
180.0
  0
LINE
  5
365
330
1F
100
AcDbEntity
  8
0
  6
Continuous
 62
     7
370
    25
100
AcDbLine
 10
1721.5374309649
 20
598.9227167224
 30
0.0
 11
1721.5374309649
 21
597.9227167224
 31
0.0
  0
ARC
  5
366
330
1F
100
AcDbEntity
  8
0
  6
Continuous
 62
     7
370
    25
100
AcDbCircle
 10
1716.5374309649
 20
597.9227167224
 30
0.0
 40
5.0
100
AcDbArc
 50
270.0
 51
0.0
  0
LINE
  5
367
330
1F
100
AcDbEntity
  8
0
  6
Continuous
 62
     7
370
    25
100
AcDbLine
 10
1716.5374309649
 20
592.9227167224
 30
0.0
 11
1715.5374309649
 21
592.9227167224
 31
0.0
  0
ARC
  5
368
330
1F
100
AcDbEntity
  8
0
  6
Continuous
 62
     7
370
    25
100
AcDbCircle
 10
1715.5374309649
 20
591.6727167224
 30
0.0
 40
1.25
100
AcDbArc
 50
90.0
 51
180.0
  0
LINE
  5
369
330
1F
100
AcDbEntity
  8
0
  6
Continuous
 62
     7
370
    25
100
AcDbLine
 10
1714.2874309649
 20
591.6727167224
 30
0.0
 11
1714.2874309649
 21
538.6777167224
 31
0.0
  0
ARC
  5
36A
330
1F
100
AcDbEntity
  8
0
  6
Continuous
 62
     7
370
    25
100
AcDbCircle
 10
1715.5374309649
 20
538.6777167224
 30
0.0
 40
1.25
100
AcDbArc
 50
180.0
 51
270.0
  0
LINE
  5
36B
330
1F
100
AcDbEntity
  8
0
  6
Continuous
 62
     7
370
    25
100
AcDbLine
 10
1715.5374309649
 20
537.4277167224
 30
0.0
 11
1716.5374309649
 21
537.4277167224
 31
0.0
  0
ARC
  5
36C
330
1F
100
AcDbEntity
  8
0
  6
Continuous
 62
     7
370
    25
100
AcDbCircle
 10
1716.5374309649
 20
532.4277167224
 30
0.0
 40
5.0
100
AcDbArc
 50
0.0
 51
90.0
  0
LINE
  5
36D
330
1F
100
AcDbEntity
  8
0
  6
Continuous
 62
     7
370
    25
100
AcDbLine
 10
1721.5374309649
 20
532.4277167224
 30
0.0
 11
1721.5374309649
 21
531.4277167224
 31
0.0
  0
ARC
  5
36E
330
1F
100
AcDbEntity
  8
0
  6
Continuous
 62
     7
370
    25
100
AcDbCircle
 10
1722.7874309649
 20
531.4277167224
 30
0.0
 40
1.25
100
AcDbArc
 50
180.0
 51
270.0
  0
LINE
  5
36F
330
1F
100
AcDbEntity
  8
0
  6
Continuous
 62
     7
370
    25
100
AcDbLine
 10
1722.7874309649
 20
530.1777167224
 30
0.0
 11
1764.7824309649
 21
530.1777167224
 31
0.0
  0
ARC
  5
370
330
1F
100
AcDbEntity
  8
0
  6
Continuous
 62
     7
370
    25
100
AcDbCircle
 10
1764.7824309649
 20
531.4277167224
 30
0.0
 40
1.250000000000227
100
AcDbArc
 50
270.0
 51
0.0
  0
LINE
  5
371
330
1F
100
AcDbEntity
  8
0
  6
Continuous
 62
     7
370
    25
100
AcDbLine
 10
1727.1349309649
 20
549.9652167224
 30
0.0
 11
1727.1349309649
 21
580.4452167224
 31
0.0
  0
LINE
  5
372
330
1F
100
AcDbEntity
  8
0
  6
Continuous
 62
     7
370
    25
100
AcDbLine
 10
1719.0349309649
 20
549.9652167224
 30
0.0
 11
1727.1349309649
 21
549.9652167224
 31
0.0
  0
LINE
  5
373
330
1F
100
AcDbEntity
  8
0
  6
Continuous
 62
     7
370
    25
100
AcDbLine
 10
1719.0349309649
 20
580.4452167224
 30
0.0
 11
1719.0349309649
 21
549.9652167224
 31
0.0
  0
LINE
  5
374
330
1F
100
AcDbEntity
  8
0
  6
Continuous
 62
     7
370
    25
100
AcDbLine
 10
1727.1349309649
 20
580.4452167224
 30
0.0
 11
1719.0349309649
 21
580.4452167224
 31
0.0
  0
DIMENSION
  5
375
330
1F
100
AcDbEntity
  8
SLD-0
100
AcDbDimension
  2
_D_13
 10
1599.0558342334
 20
524.6752167224
 30
0.0
 11
1599.0558342334
 21
565.1752167224
 31
0.0
 70
   160
  1
<>
 71
     2
 42
-1.0
  3
SLDDIMSTYLE1
100
AcDbAlignedDimension
 13
1715.5349309649
 23
605.6752167224
 33
0.0
 14
1715.5349309649
 24
524.6752167224
 34
0.0
 50
90.0
100
AcDbRotatedDimension
  0
DIMENSION
  5
389
330
1F
100
AcDbEntity
  8
SLD-0
100
AcDbDimension
  2
_D_14
 10
1778.7849309649
 20
435.1752167224
 30
0.0
 11
1664.1333862136
 21
435.1752167224
 31
0.0
 70
   160
  1
<>
 71
     2
 42
-1.0
  3
SLDDIMSTYLE1
100
AcDbAlignedDimension
 13
1708.7849309649
 23
531.4252167224
 33
0.0
 14
1778.7849309649
 24
531.4252167224
 34
0.0
100
AcDbRotatedDimension
  0
DIMENSION
  5
39D
330
1F
100
AcDbEntity
  8
SLD-0
100
AcDbDimension
  2
_D_15
 10
1853.7709309649
 20
435.1752167224
 30
0.0
 11
1816.2779309649
 21
435.1752167224
 31
0.0
 70
   160
  1
<>
 71
     2
 42
-1.0
  3
SLDDIMSTYLE5
100
AcDbAlignedDimension
 13
1778.7849309649
 23
531.4252167224
 33
0.0
 14
1853.7709309649
 24
485.1752167224
 34
0.0
100
AcDbRotatedDimension
  0
DIMENSION
  5
3B2
330
1F
100
AcDbEntity
  8
SLD-0
100
AcDbDimension
  2
_D_16
 10
1599.0558342334
 20
485.1752167224
 30
0.0
 11
1599.0558342334
 21
458.1483898602
 31
0.0
 70
   160
  1
<>
 71
     2
 42
-1.0
  3
SLDDIMSTYLE0
100
AcDbAlignedDimension
 13
1715.5349309649
 23
524.6752167224
 33
0.0
 14
1633.7989309649
 24
485.1752167224
 34
0.0
 50
90.0
100
AcDbRotatedDimension
  0
OLE2FRAME
  5
3C7
330
1F
100
AcDbEntity
  8
0
100
AcDbOle2Frame
 70
     2
  3
Picture (Enhanced Metafile)
 10
33.5118390432
 20
77.8340904594
 30
0.0
 11
219.573902828
 21
38.3482505566
 31
0.0
 71
     3
 72
     0
 73
     1
 90
     5248
310
805591A017F183C14040F54CF3BC617553400000000000000000BBA976695D72
310
6B40F54CF3BC617553400000000000000000BBA976695D726B40079B6779932C
310
4340000000000000000091A017F183C14040079B6779932C4340000000000000
310
0000000000000100000000010000010000000100000000000100000000140000
310
D0CF11E0A1B11AE1000000000000000000000000000000003E000300FEFF0900
310
0600000000000000000000000100000001000000000000000010000002000000
310
01000000FEFFFFFF0000000000000000FFFFFFFFFFFFFFFFFFFFFFFFFFFFFFFF
310
FFFFFFFFFFFFFFFFFFFFFFFFFFFFFFFFFFFFFFFFFFFFFFFFFFFFFFFFFFFFFFFF
310
FFFFFFFFFFFFFFFFFFFFFFFFFFFFFFFFFFFFFFFFFFFFFFFFFFFFFFFFFFFFFFFF
310
FFFFFFFFFFFFFFFFFFFFFFFFFFFFFFFFFFFFFFFFFFFFFFFFFFFFFFFFFFFFFFFF
310
FFFFFFFFFFFFFFFFFFFFFFFFFFFFFFFFFFFFFFFFFFFFFFFFFFFFFFFFFFFFFFFF
310
FFFFFFFFFFFFFFFFFFFFFFFFFFFFFFFFFFFFFFFFFFFFFFFFFFFFFFFFFFFFFFFF
310
FFFFFFFFFFFFFFFFFFFFFFFFFFFFFFFFFFFFFFFFFFFFFFFFFFFFFFFFFFFFFFFF
310
FFFFFFFFFFFFFFFFFFFFFFFFFFFFFFFFFFFFFFFFFFFFFFFFFFFFFFFFFFFFFFFF
310
FFFFFFFFFFFFFFFFFFFFFFFFFFFFFFFFFFFFFFFFFFFFFFFFFFFFFFFFFFFFFFFF
310
FFFFFFFFFFFFFFFFFFFFFFFFFFFFFFFFFFFFFFFFFFFFFFFFFFFFFFFFFFFFFFFF
310
FFFFFFFFFFFFFFFFFFFFFFFFFFFFFFFFFFFFFFFFFFFFFFFFFFFFFFFFFFFFFFFF
310
FFFFFFFFFFFFFFFFFFFFFFFFFFFFFFFFFFFFFFFFFFFFFFFFFFFFFFFFFFFFFFFF
310
FFFFFFFFFFFFFFFFFFFFFFFFFFFFFFFFFFFFFFFFFFFFFFFFFFFFFFFFFFFFFFFF
310
FFFFFFFFFFFFFFFFFFFFFFFFFFFFFFFFFFFFFFFFFFFFFFFFFFFFFFFFFFFFFFFF
310
FDFFFFFFFEFFFFFFFEFFFFFF0400000005000000060000000700000008000000
310
FEFFFFFFFFFFFFFFFFFFFFFFFFFFFFFFFFFFFFFFFFFFFFFFFFFFFFFFFFFFFFFF
310
FFFFFFFFFFFFFFFFFFFFFFFFFFFFFFFFFFFFFFFFFFFFFFFFFFFFFFFFFFFFFFFF
310
FFFFFFFFFFFFFFFFFFFFFFFFFFFFFFFFFFFFFFFFFFFFFFFFFFFFFFFFFFFFFFFF
310
FFFFFFFFFFFFFFFFFFFFFFFFFFFFFFFFFFFFFFFFFFFFFFFFFFFFFFFFFFFFFFFF
310
FFFFFFFFFFFFFFFFFFFFFFFFFFFFFFFFFFFFFFFFFFFFFFFFFFFFFFFFFFFFFFFF
310
FFFFFFFFFFFFFFFFFFFFFFFFFFFFFFFFFFFFFFFFFFFFFFFFFFFFFFFFFFFFFFFF
310
FFFFFFFFFFFFFFFFFFFFFFFFFFFFFFFFFFFFFFFFFFFFFFFFFFFFFFFFFFFFFFFF
310
FFFFFFFFFFFFFFFFFFFFFFFFFFFFFFFFFFFFFFFFFFFFFFFFFFFFFFFFFFFFFFFF
310
FFFFFFFFFFFFFFFFFFFFFFFFFFFFFFFFFFFFFFFFFFFFFFFFFFFFFFFFFFFFFFFF
310
FFFFFFFFFFFFFFFFFFFFFFFFFFFFFFFFFFFFFFFFFFFFFFFFFFFFFFFFFFFFFFFF
310
FFFFFFFFFFFFFFFFFFFFFFFFFFFFFFFFFFFFFFFFFFFFFFFFFFFFFFFFFFFFFFFF
310
FFFFFFFFFFFFFFFFFFFFFFFFFFFFFFFFFFFFFFFFFFFFFFFFFFFFFFFFFFFFFFFF
310
FFFFFFFFFFFFFFFFFFFFFFFFFFFFFFFFFFFFFFFFFFFFFFFFFFFFFFFFFFFFFFFF
310
FFFFFFFFFFFFFFFFFFFFFFFFFFFFFFFFFFFFFFFFFFFFFFFFFFFFFFFFFFFFFFFF
310
FFFFFFFFFFFFFFFFFFFFFFFFFFFFFFFFFFFFFFFFFFFFFFFFFFFFFFFFFFFFFFFF
310
52006F006F007400200045006E00740072007900000000000000000000000000
310
0000000000000000000000000000000000000000000000000000000000000000
310
16000500FFFFFFFFFFFFFFFF020000001903000000000000C000000000000046
310
000000000000000000000000B0310F89B5B2DA0103000000000C000000000000
310
01004F006C006500000000000000000000000000000000000000000000000000
310
0000000000000000000000000000000000000000000000000000000000000000
310
0A000200FFFFFFFFFFFFFFFFFFFFFFFF00000000000000000000000000000000
310
0000000000000000000000000000000000000000000000001400000000000000
310
010043006F006D0070004F0062006A0000000000000000000000000000000000
310
0000000000000000000000000000000000000000000000000000000000000000
310
120002010100000003000000FFFFFFFF00000000000000000000000000000000
310
0000000000000000000000000000000000000000010000005800000000000000
310
43004F004E00540045004E005400530000000000000000000000000000000000
310
0000000000000000000000000000000000000000000000000000000000000000
310
12000200FFFFFFFFFFFFFFFFFFFFFFFF00000000000000000000000000000000
310
000000000000000000000000000000000000000003000000040B000000000000
310
FEFFFFFF02000000FEFFFFFF0400000005000000060000000700000008000000
310
090000000A0000000B0000000C0000000D0000000E0000000F00000010000000
310
1100000012000000130000001400000015000000160000001700000018000000
310
190000001A0000001B0000001C0000001D0000001E0000001F00000020000000
310
2100000022000000230000002400000025000000260000002700000028000000
310
290000002A0000002B0000002C0000002D0000002E0000002F000000FEFFFFFF
310
FFFFFFFFFFFFFFFFFFFFFFFFFFFFFFFFFFFFFFFFFFFFFFFFFFFFFFFFFFFFFFFF
310
FFFFFFFFFFFFFFFFFFFFFFFFFFFFFFFFFFFFFFFFFFFFFFFFFFFFFFFFFFFFFFFF
310
FFFFFFFFFFFFFFFFFFFFFFFFFFFFFFFFFFFFFFFFFFFFFFFFFFFFFFFFFFFFFFFF
310
FFFFFFFFFFFFFFFFFFFFFFFFFFFFFFFFFFFFFFFFFFFFFFFFFFFFFFFFFFFFFFFF
310
FFFFFFFFFFFFFFFFFFFFFFFFFFFFFFFFFFFFFFFFFFFFFFFFFFFFFFFFFFFFFFFF
310
FFFFFFFFFFFFFFFFFFFFFFFFFFFFFFFFFFFFFFFFFFFFFFFFFFFFFFFFFFFFFFFF
310
FFFFFFFFFFFFFFFFFFFFFFFFFFFFFFFFFFFFFFFFFFFFFFFFFFFFFFFFFFFFFFFF
310
FFFFFFFFFFFFFFFFFFFFFFFFFFFFFFFFFFFFFFFFFFFFFFFFFFFFFFFFFFFFFFFF
310
FFFFFFFFFFFFFFFFFFFFFFFFFFFFFFFFFFFFFFFFFFFFFFFFFFFFFFFFFFFFFFFF
310
FFFFFFFFFFFFFFFFFFFFFFFFFFFFFFFFFFFFFFFFFFFFFFFFFFFFFFFFFFFFFFFF
310
0100000200000000000000000000000000000000000000000000000000000000
310
0000000000000000000000000000000000000000000000000000000000000000
310
0100FEFF030A0000FFFFFFFF1903000000000000C0000000000000461C000000
310
506963747572652028456E68616E636564204D65746166696C652900FFFFFFFF
310
0E00000000000000F439B2710000000000000000000000000000000000000000
310
0000000000000000000000000000000000000000000000000000000000000000
310
74000000010000006C000000FD0A000094000000870B0000B200000062570100
310
111200003B680100BB15000020454D46000001008C0A00003800000003000000
310
0D0000005800000000000000000400000003000040010000F000000041006400
310
6F00620065002000530079007300740000000000000000000100000074000000
310
FD0A000094000000870B0000B200000062570100111200003B680100BB150000
310
20454D46000001008C0A000038000000030000000D0000005800000000000000
310
000400000003000040010000F0000000410064006F0062006500200053007900
310
7300740065006D0073000000110000000C00000008000000120000000C000000
310
010000000A0000001000000000000000000000000C0000001000000000000000
310
000000000900000010000000D7040000110100000B000000100000009D010000
310
5B000000130000000C0000000200000027000000180000000100000000000000
310
0000000000000000250000000C000000010000005F0000003400000002000000
310
2C000000000000002C0000000000000005000000000000000000000000000000
310
0000000000000000250000000C000000020000003B000000080000001B000000
310
100000003D210000F20100005800000048010000FC0A000093000000190B0000
310
B30000004B0000004921F9014921F9014921F9014921DA014921DA014921DA01
310
4921D5014621D0014221CD012821BE012821BE012821BE012321BB011D21BB01
310
1821BE01FE20CD01FE20CD01FE20CD01FA20D001F720D501F720DA01F720F801
310
F720F801F720F801F720FE01FA200302FE200602182115021821150218211502
310
1D21170223211702282115024321050243210502432105023721FE013721FE01
310
3721FE013521FD013521FD013521FD0122210902222109022221090221210902
310
1F2109021E2109020621FA010621FA010621FA010521FA010421F9010421F701
310
0421DB010421DB010421DB010421DA010521D9010621D8011E21CA011E21CA01
310
1E21CA011F21CA012121CA012221CA013A21D8013A21D8013A21D8013B21D901
310
3C21DA013C21DB013C21F2013C21F2013C21F2013D000000080000003C000000
310
080000003E000000180000009F8601009F8601006179FEFF6179FEFF13000000
310
0C000000020000003B000000080000001B000000100000002F210000E4010000
310
58000000C4000000050B00009D000000100B0000A90000002A0000002F21EF01
310
2F21EF012F21EF012F21F1012E21F2012C21F3012321F9012321F9012321F901
310
2221FA012121FA012021FA011F21FA011E21FA011D21F9011421F4011421F401
310
1421F4011221F3011121F1011121EF011121E4011121E4011121E4011121E201
310
1221E0011321DF011D21DA011D21DA011D21DA011E21D9011F21D9012021D901
310
2121D9012221D9012321DA012C21DF012C21DF012C21DF012E21E0012F21E201
310
2F21E4013D000000080000003C000000080000003E000000180000009F860100
310
9F8601006179FEFF6179FEFF130000000C000000020000005B00000038000000
310
3D0B0000A3000000430B0000A6000000010000000500000005000000B821F001
310
C821F001C821EB01B821EB01B821F001130000000C000000020000003B000000
310
080000001B0000001000000004220000E70100005800000084010000450B0000
310
9B000000590B0000AA0000005A0000000122E601FD21E501F621E501E421E501
310
E421E501E421E501D921E501D921E301D921E001D921DD01DA21DB01DC21DA01
310
DE21DA01E221D901E921D901EF21D901EF21D901EF21D9010022D9010022DB01
310
0022E0010022E1010022E1010022E1010722E1010722E1010722E1010722DF01
310
0722DF010722DF010722DB010622D8010322D6010022D401FB21D401F321D401
310
E521D401E521D401E521D401D921D401D121D601D121DF01D121E501D321E801
310
D721E901DB21EB01E221EB01EC21EB01F821EB01F821EB01F821EB010022EB01
310
0122ED010122F1010122F5010022F701F621F701E221F701E221F701E221F701
310
DA21F701D921F501D921F201D921EF01D921EF01D921EF01D121EF01D121EF01
310
D121EF01D121F201D121F201D121F201D121FC01DB21FD01E421FD01F521FD01
310
F521FD01F521FD01F921FD01FE21FD010222FB010622FA010922F6010922F201
310
0922EF010922EF010922EF010922EC010722E9010422E7013C00000008000000
310
3E000000180000009F8601009F8601006179FEFF6179FEFF130000000C000000
310
020000005B0000004C000000590B00009B0000006F0B0000AA00000001000000
310
0A0000000A0000002C22E6011722D4010C22D4012822EC012822FC013022FC01
310
3022EC014C22D4014122D4012C22E601130000000C000000020000003B000000
310
080000001B0000001000000082220000E701000058000000780100006F0B0000
310
9B000000830B0000AA000000570000007F22E6017B22E5017422E5016122E501
310
6122E5016122E5015722E5015722E3015722E0015722DB015822D9016622D901
310
6D22D9016D22D9016D22D9017E22D9017E22DB017E22E0017E22E1017E22E101
310
7E22E1018522E1018522E1018522E1018522DF018522DF018522DF018522DB01
310
8422D8018122D6017E22D4017922D4017122D4016322D4016322D4016322D401
310
5722D4014F22D6014F22DF014F22E5015122E8015522E9015922EB015F22EB01
310
6A22EB017622EB017622EB017622EB017E22EB017F22ED017F22F1017F22F501
310
7D22F7017422F7016022F7016022F7016022F7015822F7015722F5015722F201
310
5722EF015722EF015722EF014F22EF014F22EF014F22EF014F22F2014F22F201
310
4F22F2014F22FC015822FD016122FD017322FD017322FD017322FD017722FD01
310
7C22FD018022FB018422FA018622F6018622F2018622EF018622EF018622EF01
310
8622EC018522E9018222E7013C000000080000003E000000180000009F860100
310
9F8601006179FEFF6179FEFF130000000C000000020000005B00000038000000
310
300B0000A6000000340B0000AC00000001000000050000000500000093210202
310
9A2102029A21F3019321F30193210202130000000C000000020000003B000000
310
080000001B000000100000009B210000D40100005800000018010000240B0000
310
9B0000003A0B0000AA0000003F0000008021D4018021D4018021D4017421D401
310
6F21D8016F21E3016F21EE016F21EE016F21EE016F21F8017421FD018021FD01
310
8F21FD018F21FD018F21FD018F21F7018F21F7018F21F7018121F7018121F701
310
8121F7017921F7017621F5017621F0017621E1017621E1017621E1017621DC01
310
7921D9018121D9019A21D9019A21D9019A21D901A121D901A421DC01A421E101
310
A421F001A421F001A421F001A421F401A321F6019E21F7019E21F7019E21F701
310
9E21F7019E21FD019E21FD019E21FD019F21FD019F21FD019F21FD01A421FC01
310
A721FB01A921F801AB21F601AC21F201AC21EE01AC21E301AC21E301AC21E301
310
AC21D801A721D4019B21D4013C000000080000003E000000180000009F860100
310
9F8601006179FEFF6179FEFF130000000C000000020000005B0000006C000000
310
840B00009B000000870B00009F0000000100000012000000120000009222D401
310
9122D8019022D4018E22D4018E22DA018F22DA018F22D6018F22D5019022D601
310
9122DA019122DA019222D6019322D5019322D6019322DA019422DA019422D401
310
9222D401130000000C000000020000005B00000048000000830B00009B000000
310
850B00009F0000000100000009000000090000008A22D5018B22D5018B22DA01
310
8C22DA018C22D5018E22D5018E22D4018A22D4018A22D501280000000C000000
310
01000000280000000C000000020000000E000000140000000000000010000000
310
1400000000000000000000000000000000000000000000000000000000000000
310
0000000000000000000000000000000000000000000000000000000000000000
  1
OLE
  0
ENDSEC
  0
SECTION
  2
OBJECTS
  0
DICTIONARY
  5
C
330
0
100
AcDbDictionary
281
     1
  3
ACAD_GROUP
350
D
  3
ACAD_LAYOUT
350
1A
  3
ACAD_MLINESTYLE
350
17
  3
ACAD_PLOTSETTINGS
350
19
  3
ACAD_PLOTSTYLENAME
350
E
  3
ACAD_SCALELIST
350
47
  3
DWGPROPS
350
3C8
  0
DICTIONARY
  5
D
102
{ACAD_REACTORS
330
C
102
}
330
C
100
AcDbDictionary
281
     1
  0
DICTIONARY
  5
1A
102
{ACAD_REACTORS
330
C
102
}
330
C
100
AcDbDictionary
281
     1
  3
Layout1
350
1E
  3
Layout2
350
26
  3
Model
350
22
  0
DICTIONARY
  5
17
102
{ACAD_REACTORS
330
C
102
}
330
C
100
AcDbDictionary
281
     1
  3
Standard
350
18
  0
DICTIONARY
  5
19
102
{ACAD_REACTORS
330
C
102
}
330
C
100
AcDbDictionary
281
     1
  0
ACDBDICTIONARYWDFLT
  5
E
102
{ACAD_REACTORS
330
C
102
}
330
C
100
AcDbDictionary
281
     1
  3
Normal
350
F
100
AcDbDictionaryWithDefault
340
F
  0
DICTIONARY
  5
47
102
{ACAD_REACTORS
330
C
102
}
330
C
100
AcDbDictionary
281
     1
  3
A0
350
48
  3
A1
350
49
  3
A2
350
4A
  3
A3
350
4B
  3
A4
350
4C
  3
A5
350
4D
  3
A6
350
4E
  3
A7
350
4F
  3
A8
350
50
  3
A9
350
51
  3
B0
350
52
  3
B1
350
53
  3
B2
350
54
  3
B3
350
55
  3
B4
350
56
  3
B5
350
57
  3
B6
350
58
  0
XRECORD
  5
3C8
102
{ACAD_REACTORS
330
C
102
}
330
C
100
AcDbXrecord
280
     1
  1
DWGPROPS COOKIE
  2

  3

  4

  6

  7

  8
Kevin.Castro
  9

300
=
301
=
302
=
303
=
304
=
305
=
306
=
307
=
308
=
309
=
 40
0.0
 41
2460461.721893218
 42
2460461.721897165
  1

 90
        0
  0
LAYOUT
  5
1E
102
{ACAD_REACTORS
330
1A
102
}
330
1A
100
AcDbPlotSettings
  1

  2
none_device
  4

  6

 40
0.0
 41
0.0
 42
0.0
 43
0.0
 44
0.0
 45
0.0
 46
0.0
 47
0.0
 48
0.0
 49
0.0
140
0.0
141
0.0
142
1.0
143
1.0
 70
   688
 72
     1
 73
     0
 74
     5
  7

 75
    16
147
1.0
148
0.0
149
0.0
100
AcDbLayout
  1
Layout1
 70
     1
 71
     1
 10
0.0
 20
0.0
 11
420.0
 21
297.0
 12
0.0
 22
0.0
 32
0.0
 14
1.0000000000E+20
 24
1.0000000000E+20
 34
1.0000000000E+20
 15
-1.0000000000E+20
 25
-1.0000000000E+20
 35
-1.0000000000E+20
146
0.0
 13
0.0
 23
0.0
 33
0.0
 16
1.0
 26
0.0
 36
0.0
 17
0.0
 27
1.0
 37
0.0
 76
     0
330
1B
  0
LAYOUT
  5
26
102
{ACAD_REACTORS
330
1A
102
}
330
1A
100
AcDbPlotSettings
  1

  2
none_device
  4

  6

 40
0.0
 41
0.0
 42
0.0
 43
0.0
 44
0.0
 45
0.0
 46
0.0
 47
0.0
 48
0.0
 49
0.0
140
0.0
141
0.0
142
1.0
143
1.0
 70
   688
 72
     1
 73
     0
 74
     5
  7

 75
    16
147
1.0
148
0.0
149
0.0
100
AcDbLayout
  1
Layout2
 70
     1
 71
     2
 10
0.0
 20
0.0
 11
0.0
 21
0.0
 12
0.0
 22
0.0
 32
0.0
 14
0.0
 24
0.0
 34
0.0
 15
0.0
 25
0.0
 35
0.0
146
0.0
 13
0.0
 23
0.0
 33
0.0
 16
1.0
 26
0.0
 36
0.0
 17
0.0
 27
1.0
 37
0.0
 76
     0
330
23
  0
LAYOUT
  5
22
102
{ACAD_REACTORS
330
1A
102
}
330
1A
100
AcDbPlotSettings
  1

  2
none_device
  4
Letter_(8.50_x_11.00_Inches)
  6

 40
6.35
 41
6.35
 42
6.35000508
 43
6.35000508
 44
215.9
 45
279.4
 46
0.0
 47
0.0
 48
0.0
 49
0.0
140
0.0
141
0.0
142
1.0
143
1.0
 70
  1712
 72
     1
 73
     0
 74
     0
  7

 75
     0
147
1.0
148
0.0
149
0.0
100
AcDbLayout
  1
Model
 70
     1
 71
     0
 10
0.0
 20
0.0
 11
2159.0
 21
1397.0
 12
0.0
 22
0.0
 32
0.0
 14
0.0
 24
0.0
 34
0.0
 15
2159.0
 25
1397.0
 35
0.0
146
0.0
 13
0.0
 23
0.0
 33
0.0
 16
1.0
 26
0.0
 36
0.0
 17
0.0
 27
1.0
 37
0.0
 76
     0
330
1F
331
29
  0
MLINESTYLE
  5
18
102
{ACAD_REACTORS
330
17
102
}
330
17
100
AcDbMlineStyle
  2
Standard
 70
     0
  3

 62
   256
 51
90.0
 52
90.0
 71
     2
 49
0.5
 62
   256
  6
BYLAYER
 49
-0.5
 62
   256
  6
BYLAYER
  0
ACDBPLACEHOLDER
  5
F
102
{ACAD_REACTORS
330
E
102
}
330
E
  0
SCALE
  5
48
102
{ACAD_REACTORS
330
47
102
}
330
47
100
AcDbScale
 70
     0
300
1:1
140
1.0
141
1.0
290
     1
  0
SCALE
  5
49
102
{ACAD_REACTORS
330
47
102
}
330
47
100
AcDbScale
 70
     0
300
1:2
140
1.0
141
2.0
290
     0
  0
SCALE
  5
4A
102
{ACAD_REACTORS
330
47
102
}
330
47
100
AcDbScale
 70
     0
300
1:4
140
1.0
141
4.0
290
     0
  0
SCALE
  5
4B
102
{ACAD_REACTORS
330
47
102
}
330
47
100
AcDbScale
 70
     0
300
1:5
140
1.0
141
5.0
290
     0
  0
SCALE
  5
4C
102
{ACAD_REACTORS
330
47
102
}
330
47
100
AcDbScale
 70
     0
300
1:8
140
1.0
141
8.0
290
     0
  0
SCALE
  5
4D
102
{ACAD_REACTORS
330
47
102
}
330
47
100
AcDbScale
 70
     0
300
1:10
140
1.0
141
10.0
290
     0
  0
SCALE
  5
4E
102
{ACAD_REACTORS
330
47
102
}
330
47
100
AcDbScale
 70
     0
300
1:16
140
1.0
141
16.0
290
     0
  0
SCALE
  5
4F
102
{ACAD_REACTORS
330
47
102
}
330
47
100
AcDbScale
 70
     0
300
1:20
140
1.0
141
20.0
290
     0
  0
SCALE
  5
50
102
{ACAD_REACTORS
330
47
102
}
330
47
100
AcDbScale
 70
     0
300
1:30
140
1.0
141
30.0
290
     0
  0
SCALE
  5
51
102
{ACAD_REACTORS
330
47
102
}
330
47
100
AcDbScale
 70
     0
300
1:40
140
1.0
141
40.0
290
     0
  0
SCALE
  5
52
102
{ACAD_REACTORS
330
47
102
}
330
47
100
AcDbScale
 70
     0
300
1:50
140
1.0
141
50.0
290
     0
  0
SCALE
  5
53
102
{ACAD_REACTORS
330
47
102
}
330
47
100
AcDbScale
 70
     0
300
1:100
140
1.0
141
100.0
290
     0
  0
SCALE
  5
54
102
{ACAD_REACTORS
330
47
102
}
330
47
100
AcDbScale
 70
     0
300
2:1
140
2.0
141
1.0
290
     0
  0
SCALE
  5
55
102
{ACAD_REACTORS
330
47
102
}
330
47
100
AcDbScale
 70
     0
300
4:1
140
4.0
141
1.0
290
     0
  0
SCALE
  5
56
102
{ACAD_REACTORS
330
47
102
}
330
47
100
AcDbScale
 70
     0
300
8:1
140
8.0
141
1.0
290
     0
  0
SCALE
  5
57
102
{ACAD_REACTORS
330
47
102
}
330
47
100
AcDbScale
 70
     0
300
10:1
140
10.0
141
1.0
290
     0
  0
SCALE
  5
58
102
{ACAD_REACTORS
330
47
102
}
330
47
100
AcDbScale
 70
     0
300
100:1
140
100.0
141
1.0
290
     0
  0
ENDSEC
  0
EOF
