  0
SECTION
  2
HEADER
  9
$ACADVER
  1
AC1015
  9
$ACADMAINTVER
 70
     6
  9
$DWGCODEPAGE
  3
ANSI_1252
  9
$INSBASE
 10
0.0
 20
0.0
 30
0.0
  9
$EXTMIN
 10
0.0
 20
0.0
 30
0.0
  9
$EXTMAX
 10
1439.3333333333
 20
931.3333333333
 30
0.0
  9
$LIMMIN
 10
0.0
 20
0.0
  9
$LIMMAX
 10
1439.3333333333
 20
931.3333333333
  9
$ORTHOMODE
 70
     0
  9
$REGENMODE
 70
     1
  9
$FILLMODE
 70
     1
  9
$QTEXTMODE
 70
     0
  9
$MIRRTEXT
 70
     1
  9
$LTSCALE
 40
3.3333333333
  9
$ATTMODE
 70
     1
  9
$TEXTSIZE
 40
10.5833333333
  9
$TRACEWID
 40
1.0
  9
$TEXTSTYLE
  7
STANDARD
  9
$CLAYER
  8
0
  9
$CELTYPE
  6
ByLayer
  9
$CECOLOR
 62
   256
  9
$CELTSCALE
 40
1.0
  9
$DISPSILH
 70
     0
  9
$DIMSCALE
 40
1.0
  9
$DIMASZ
 40
6.6666666667
  9
$DIMEXO
 40
2.54
  9
$DIMDLI
 40
3.75
  9
$DIMRND
 40
0.0
  9
$DIMDLE
 40
0.0
  9
$DIMEXE
 40
2.54
  9
$DIMTP
 40
0.0
  9
$DIMTM
 40
0.0
  9
$DIMTXT
 40
10.5833333333
  9
$DIMCEN
 40
2.5
  9
$DIMTSZ
 40
0.0
  9
$DIMTOL
 70
     0
  9
$DIMLIM
 70
     0
  9
$DIMTIH
 70
     1
  9
$DIMTOH
 70
     1
  9
$DIMSE1
 70
     0
  9
$DIMSE2
 70
     0
  9
$DIMTAD
 70
     0
  9
$DIMZIN
 70
     1
  9
$DIMBLK
  1

  9
$DIMASO
 70
     1
  9
$DIMSHO
 70
     1
  9
$DIMPOST
  1

  9
$DIMAPOST
  1

  9
$DIMALT
 70
     0
  9
$DIMALTD
 70
     3
  9
$DIMALTF
 40
0.0393700787
  9
$DIMLFAC
 40
1.0
  9
$DIMTOFL
 70
     1
  9
$DIMTVP
 40
0.0
  9
$DIMTIX
 70
     0
  9
$DIMSOXD
 70
     0
  9
$DIMSAH
 70
     0
  9
$DIMBLK1
  1

  9
$DIMBLK2
  1

  9
$DIMSTYLE
  2
ISO-25
  9
$DIMCLRD
 70
     0
  9
$DIMCLRE
 70
     0
  9
$DIMCLRT
 70
     0
  9
$DIMTFAC
 40
1.0
  9
$DIMGAP
 40
5.08
  9
$DIMJUST
 70
     0
  9
$DIMSD1
 70
     0
  9
$DIMSD2
 70
     0
  9
$DIMTOLJ
 70
     0
  9
$DIMTZIN
 70
     1
  9
$DIMALTZ
 70
     0
  9
$DIMALTTZ
 70
     0
  9
$DIMUPT
 70
     0
  9
$DIMDEC
 70
     2
  9
$DIMTDEC
 70
     2
  9
$DIMALTU
 70
     2
  9
$DIMALTTD
 70
     3
  9
$DIMTXSTY
  7
STANDARD
  9
$DIMAUNIT
 70
     0
  9
$DIMADEC
 70
     0
  9
$DIMALTRND
 40
0.0
  9
$DIMAZIN
 70
     0
  9
$DIMDSEP
 70
    44
  9
$DIMATFIT
 70
     3
  9
$DIMFRAC
 70
     0
  9
$DIMLDRBLK
  1

  9
$DIMLUNIT
 70
     2
  9
$DIMLWD
 70
    -2
  9
$DIMLWE
 70
    -2
  9
$DIMTMOVE
 70
     0
  9
$LUNITS
 70
     2
  9
$LUPREC
 70
     6
  9
$SKETCHINC
 40
1.0
  9
$FILLETRAD
 40
0.0
  9
$AUNITS
 70
     0
  9
$AUPREC
 70
     0
  9
$MENU
  1
.
  9
$ELEVATION
 40
0.0
  9
$PELEVATION
 40
0.0
  9
$THICKNESS
 40
0.0
  9
$LIMCHECK
 70
     0
  9
$CHAMFERA
 40
0.0
  9
$CHAMFERB
 40
0.0
  9
$CHAMFERC
 40
0.0
  9
$CHAMFERD
 40
0.0
  9
$SKPOLY
 70
     0
  9
$TDCREATE
 40
2460461.427646377
  9
$TDUCREATE
 40
2460461.719313044
  9
$TDUPDATE
 40
2460461.42765169
  9
$TDUUPDATE
 40
2460461.719318357
  9
$TDINDWG
 40
0.0000000116
  9
$TDUSRTIMER
 40
0.0000000116
  9
$USRTIMER
 70
     1
  9
$ANGBASE
 50
0.0
  9
$ANGDIR
 70
     0
  9
$PDMODE
 70
     0
  9
$PDSIZE
 40
-1.0
  9
$PLINEWID
 40
0.0
  9
$SPLFRAME
 70
     0
  9
$SPLINETYPE
 70
     6
  9
$SPLINESEGS
 70
     8
  9
$HANDSEED
  5
4D2
  9
$SURFTAB1
 70
     6
  9
$SURFTAB2
 70
     6
  9
$SURFTYPE
 70
     6
  9
$SURFU
 70
     6
  9
$SURFV
 70
     6
  9
$UCSBASE
  2

  9
$UCSNAME
  2

  9
$UCSORG
 10
0.0
 20
0.0
 30
0.0
  9
$UCSXDIR
 10
1.0
 20
0.0
 30
0.0
  9
$UCSYDIR
 10
0.0
 20
1.0
 30
0.0
  9
$UCSORTHOREF
  2

  9
$UCSORTHOVIEW
 70
     0
  9
$UCSORGTOP
 10
0.0
 20
0.0
 30
0.0
  9
$UCSORGBOTTOM
 10
0.0
 20
0.0
 30
0.0
  9
$UCSORGLEFT
 10
0.0
 20
0.0
 30
0.0
  9
$UCSORGRIGHT
 10
0.0
 20
0.0
 30
0.0
  9
$UCSORGFRONT
 10
0.0
 20
0.0
 30
0.0
  9
$UCSORGBACK
 10
0.0
 20
0.0
 30
0.0
  9
$PUCSBASE
  2

  9
$PUCSNAME
  2

  9
$PUCSORG
 10
0.0
 20
0.0
 30
0.0
  9
$PUCSXDIR
 10
1.0
 20
0.0
 30
0.0
  9
$PUCSYDIR
 10
0.0
 20
1.0
 30
0.0
  9
$PUCSORTHOREF
  2

  9
$PUCSORTHOVIEW
 70
     0
  9
$PUCSORGTOP
 10
0.0
 20
0.0
 30
0.0
  9
$PUCSORGBOTTOM
 10
0.0
 20
0.0
 30
0.0
  9
$PUCSORGLEFT
 10
0.0
 20
0.0
 30
0.0
  9
$PUCSORGRIGHT
 10
0.0
 20
0.0
 30
0.0
  9
$PUCSORGFRONT
 10
0.0
 20
0.0
 30
0.0
  9
$PUCSORGBACK
 10
0.0
 20
0.0
 30
0.0
  9
$USERI1
 70
     0
  9
$USERI2
 70
     0
  9
$USERI3
 70
     0
  9
$USERI4
 70
     0
  9
$USERI5
 70
     0
  9
$USERR1
 40
0.0
  9
$USERR2
 40
0.0
  9
$USERR3
 40
0.0
  9
$USERR4
 40
0.0
  9
$USERR5
 40
0.0
  9
$WORLDVIEW
 70
     1
  9
$SHADEDGE
 70
     3
  9
$SHADEDIF
 70
    70
  9
$TILEMODE
 70
     1
  9
$MAXACTVP
 70
    64
  9
$PINSBASE
 10
0.0
 20
0.0
 30
0.0
  9
$PLIMCHECK
 70
     0
  9
$PEXTMIN
 10
1.0000000000E+20
 20
1.0000000000E+20
 30
1.0000000000E+20
  9
$PEXTMAX
 10
-1.0000000000E+20
 20
-1.0000000000E+20
 30
-1.0000000000E+20
  9
$PLIMMIN
 10
0.0
 20
0.0
  9
$PLIMMAX
 10
420.0
 20
297.0
  9
$UNITMODE
 70
     0
  9
$VISRETAIN
 70
     1
  9
$PLINEGEN
 70
     0
  9
$PSLTSCALE
 70
     1
  9
$TREEDEPTH
 70
  3020
  9
$CMLSTYLE
  2
Standard
  9
$CMLJUST
 70
     0
  9
$CMLSCALE
 40
20.0
  9
$PROXYGRAPHICS
 70
     1
  9
$MEASUREMENT
 70
     1
  9
$CELWEIGHT
370
    -1
  9
$ENDCAPS
280
     0
  9
$JOINSTYLE
280
     0
  9
$LWDISPLAY
290
     1
  9
$INSUNITS
 70
     4
  9
$HYPERLINKBASE
  1

  9
$STYLESHEET
  1

  9
$XEDIT
290
     1
  9
$CEPSNTYPE
380
     0
  9
$PSTYLEMODE
290
     1
  9
$FINGERPRINTGUID
  2
{86af1f84-aded-4e0d-b02a-50ab492c043f}
  9
$VERSIONGUID
  2
{FAEB1C32-E019-11D5-929B-00C0DF256EC4}
  9
$EXTNAMES
290
     1
  9
$PSVPSCALE
 40
0.0
  9
$OLESTARTUP
290
     0
  0
ENDSEC
  0
SECTION
  2
CLASSES
  0
CLASS
  1
ACDBDICTIONARYWDFLT
  2
AcDbDictionaryWithDefault
  3
ObjectDBX Classes
 90
        0
280
     0
281
     0
  0
CLASS
  1
VISUALSTYLE
  2
AcDbVisualStyle
  3
ObjectDBX Classes
 90
     4095
280
     0
281
     0
  0
CLASS
  1
MATERIAL
  2
AcDbMaterial
  3
ObjectDBX Classes
 90
     1153
280
     0
281
     0
  0
CLASS
  1
SCALE
  2
AcDbScale
  3
ObjectDBX Classes
 90
     1153
280
     0
281
     0
  0
CLASS
  1
TABLESTYLE
  2
AcDbTableStyle
  3
ObjectDBX Classes
 90
     4095
280
     0
281
     0
  0
CLASS
  1
MLEADERSTYLE
  2
AcDbMLeaderStyle
  3
ACDB_MLEADERSTYLE_CLASS
 90
     4095
280
     0
281
     0
  0
CLASS
  1
SUN
  2
AcDbSun
  3
SCENEOE
 90
     1153
280
     0
281
     0
  0
CLASS
  1
ACDBPLACEHOLDER
  2
AcDbPlaceHolder
  3
ObjectDBX Classes
 90
        0
280
     0
281
     0
  0
CLASS
  1
LAYOUT
  2
AcDbLayout
  3
ObjectDBX Classes
 90
        0
280
     0
281
     0
  0
ENDSEC
  0
SECTION
  2
TABLES
  0
TABLE
  2
VPORT
  5
8
330
0
100
AcDbSymbolTable
 70
     1
  0
VPORT
  5
29
330
8
100
AcDbSymbolTableRecord
100
AcDbViewportTableRecord
  2
*Active
 70
     0
 10
0.0
 20
0.0
 11
1.0
 21
1.0
 12
719.6666666667
 22
465.6666666667
 13
0.0
 23
0.0
 14
10.0
 24
10.0
 15
10.0
 25
10.0
 16
0.0
 26
0.0
 36
1.0
 17
0.0
 27
0.0
 37
0.0
 40
931.3333333333
 41
1.5454545455
 42
50.0
 43
0.0
 44
0.0
 50
0.0
 51
0.0
 71
     0
 72
  2000
 73
     1
 74
     3
 75
     0
 76
     0
 77
     0
 78
     0
281
     0
 65
     1
110
0.0
120
0.0
130
0.0
111
1.0
121
0.0
131
0.0
112
0.0
122
1.0
132
0.0
 79
     0
146
0.0
  0
ENDTAB
  0
TABLE
  2
LTYPE
  5
5
330
0
100
AcDbSymbolTable
 70
     6
  0
LTYPE
  5
14
330
5
100
AcDbSymbolTableRecord
100
AcDbLinetypeTableRecord
  2
ByBlock
 70
     0
  3

 72
    65
 73
     0
 40
0.0
  0
LTYPE
  5
15
330
5
100
AcDbSymbolTableRecord
100
AcDbLinetypeTableRecord
  2
ByLayer
 70
     0
  3

 72
    65
 73
     0
 40
0.0
  0
LTYPE
  5
16
330
5
100
AcDbSymbolTableRecord
100
AcDbLinetypeTableRecord
  2
Continuous
 70
     0
  3
Solid line
 72
    65
 73
     0
 40
0.0
  0
LTYPE
  5
5E
330
5
100
AcDbSymbolTableRecord
100
AcDbLinetypeTableRecord
  2
HIDDEN
 70
     0
  3
Hidden __ __ __ __ __ __ __ __ __ __ __ __ __ __
 72
    65
 73
     2
 40
1.905
 49
1.27
 74
     0
 49
-0.635
 74
     0
  0
LTYPE
  5
5F
330
5
100
AcDbSymbolTableRecord
100
AcDbLinetypeTableRecord
  2
PHANTOM
 70
     0
  3
Phantom ______  __  __  ______  __  __  ______
 72
    65
 73
     6
 40
12.7
 49
6.35
 74
     0
 49
-1.27
 74
     0
 49
1.27
 74
     0
 49
-1.27
 74
     0
 49
1.27
 74
     0
 49
-1.27
 74
     0
  0
LTYPE
  5
60
330
5
100
AcDbSymbolTableRecord
100
AcDbLinetypeTableRecord
  2
CENTER
 70
     0
  3
Center ____ _ ____ _ ____ _ ____ _ ____ _ ____
 72
    65
 73
     4
 40
10.16
 49
6.35
 74
     0
 49
-1.27
 74
     0
 49
1.27
 74
     0
 49
-1.27
 74
     0
  0
LTYPE
  5
61
330
5
100
AcDbSymbolTableRecord
100
AcDbLinetypeTableRecord
  2
CENTERX2
 70
     0
  3
Center (2x) ________  __  ________  __  _____
 72
    65
 73
     4
 40
20.32
 49
12.7
 74
     0
 49
-2.54
 74
     0
 49
2.54
 74
     0
 49
-2.54
 74
     0
  0
LTYPE
  5
62
330
5
100
AcDbSymbolTableRecord
100
AcDbLinetypeTableRecord
  2
DOT2
 70
     0
  3
Dot (.5x) ........................................
 72
    65
 73
     2
 40
0.635
 49
0.0
 74
     0
 49
-0.635
 74
     0
  0
ENDTAB
  0
TABLE
  2
LAYER
  5
2
330
0
100
AcDbSymbolTable
 70
     6
  0
LAYER
  5
10
330
2
100
AcDbSymbolTableRecord
100
AcDbLayerTableRecord
  2
0
 70
     0
 62
     7
  6
Continuous
370
    -3
390
F
  0
LAYER
  5
63
330
2
100
AcDbSymbolTableRecord
100
AcDbLayerTableRecord
  2
SLD-0
 70
     0
 62
   179
  6
Continuous
370
    -3
390
F
  0
LAYER
  5
64
330
2
100
AcDbSymbolTableRecord
100
AcDbLayerTableRecord
  2
WIRE_BOND
 70
     0
 62
     6
  6
Continuous
370
   100
390
F
  0
LAYER
  5
65
330
2
100
AcDbSymbolTableRecord
100
AcDbLayerTableRecord
  2
HIGHLIGHT-BLUE
 70
     0
 62
     5
  6
Continuous
370
    70
390
F
  0
LAYER
  5
66
330
2
100
AcDbSymbolTableRecord
100
AcDbLayerTableRecord
  2
MANUAL_DIM
 70
     0
 62
   114
  6
Continuous
370
    -3
390
F
  0
LAYER
  5
67
330
2
100
AcDbSymbolTableRecord
100
AcDbLayerTableRecord
  2
TORQUE_9-10
 70
     0
 62
   155
  6
Continuous
370
    -3
390
F
  0
ENDTAB
  0
TABLE
  2
STYLE
  5
3
330
0
100
AcDbSymbolTable
 70
     5
  0
STYLE
  5
11
330
3
100
AcDbSymbolTableRecord
100
AcDbTextStyleTableRecord
  2
STANDARD
 70
     0
 40
0.0
 41
1.0
 50
0.0
 71
     0
 42
10.5833333333
  3
GOTHIC.TTF
  4

1001
ACAD
1000
CENTURY GOTHIC
1071
       34
  0
STYLE
  5
7E
330
3
100
AcDbSymbolTableRecord
100
AcDbTextStyleTableRecord
  2
SLDTEXTSTYLE0
 70
     0
 40
0.0
 41
0.913
 50
0.0
 71
     0
 42
10.5833333333
  3
GOTHIC.TTF
  4

1001
ACAD
1000
Century Gothic
1071
      290
  0
STYLE
  5
B9
330
3
100
AcDbSymbolTableRecord
100
AcDbTextStyleTableRecord
  2
SLDTEXTSTYLE1
 70
     0
 40
0.0
 41
0.87
 50
0.0
 71
     0
 42
10.5833333333
  3
ARIALN.TTF
  4

1001
ACAD
1000
Arial Narrow
1071
      290
  0
STYLE
  5
C4
330
3
100
AcDbSymbolTableRecord
100
AcDbTextStyleTableRecord
  2
SLDTEXTSTYLE2
 70
     0
 40
0.0
 41
0.8969072165
 50
0.0
 71
     0
 42
10.5833333333
  3
ARIALN.TTF
  4

1001
ACAD
1000
Arial Narrow
1071
      290
  0
STYLE
  5
C9
330
3
100
AcDbSymbolTableRecord
100
AcDbTextStyleTableRecord
  2
SLDTEXTSTYLE3
 70
     0
 40
0.0
 41
0.8969072165
 50
0.0
 71
     0
 42
10.5833333333
  3
ARIALN.TTF
  4
bigfont
1001
ACAD
1000
Arial Narrow
1071
      290
  0
ENDTAB
  0
TABLE
  2
VIEW
  5
6
330
0
100
AcDbSymbolTable
 70
     0
  0
ENDTAB
  0
TABLE
  2
UCS
  5
7
330
0
100
AcDbSymbolTable
 70
     0
  0
ENDTAB
  0
TABLE
  2
APPID
  5
9
330
0
100
AcDbSymbolTable
 70
     1
  0
APPID
  5
12
330
9
100
AcDbSymbolTableRecord
100
AcDbRegAppTableRecord
  2
ACAD
 70
     0
  0
ENDTAB
  0
TABLE
  2
DIMSTYLE
  5
A
330
0
100
AcDbSymbolTable
 70
     6
100
AcDbDimStyleTable
  0
DIMSTYLE
105
27
330
A
100
AcDbSymbolTableRecord
100
AcDbDimStyleTableRecord
  2
ISO-25
 70
     0
 41
2.5
 42
0.625
 43
3.75
 44
1.25
 73
     0
 74
     0
 77
     1
 78
     8
140
2.5
141
2.5
143
0.0393700787
147
0.625
171
     3
172
     1
178
     0
271
     2
272
     2
274
     3
278
    44
283
     0
284
     8
340
11
  0
DIMSTYLE
105
1AF
102
{ACAD_REACTORS
330
1AE
330
23F
330
297
330
2AB
330
2F5
330
31D
330
3DC
330
418
102
}
330
A
100
AcDbSymbolTableRecord
100
AcDbDimStyleTableRecord
  2
SLDDIMSTYLE0
 70
     0
 41
6.6666666667
 44
0.0
 45
0.000000001
 78
    12
 79
     3
140
7.9375
143
0.0393700787
147
1.984375
148
0.000000001
170
     1
173
     1
178
     0
271
     1
272
     2
276
     2
284
    12
340
7E
  0
DIMSTYLE
105
1C4
102
{ACAD_REACTORS
330
1C3
330
22B
330
254
330
2E1
330
309
330
3B4
330
3C8
330
3F0
330
404
330
470
330
484
330
498
102
}
330
A
100
AcDbSymbolTableRecord
100
AcDbDimStyleTableRecord
  2
SLDDIMSTYLE1
 70
     0
 41
6.6666666667
 44
0.0
 45
0.000000001
 78
     4
 79
     1
140
7.9375
143
0.0393700787
147
1.984375
148
0.000000001
170
     1
173
     1
178
     0
271
     1
272
     2
276
     2
284
    12
340
7E
  0
DIMSTYLE
105
271
330
A
100
AcDbSymbolTableRecord
100
AcDbDimStyleTableRecord
  2
SLDDIMSTYLE2
 70
     0
 41
6.6666666667
 44
0.0
 45
0.000000001
146
6.6666666667
147
0.0
173
     1
178
     0
271
     0
272
     0
276
     2
340
11
  0
DIMSTYLE
105
332
102
{ACAD_REACTORS
330
331
102
}
330
A
100
AcDbSymbolTableRecord
100
AcDbDimStyleTableRecord
  2
SLDDIMSTYLE3
 70
     0
 41
6.6666666667
 44
0.0
 78
    12
 79
     3
140
7.9375
144
3.3333333333
147
1.984375
173
     1
178
     0
272
     2
276
     2
284
    12
340
7E
  0
DIMSTYLE
105
3A0
102
{ACAD_REACTORS
330
39F
102
}
330
A
100
AcDbSymbolTableRecord
100
AcDbDimStyleTableRecord
  2
SLDDIMSTYLE4
 70
     0
 41
6.6666666667
 44
0.0
 45
0.000000001
 78
     4
 79
     1
140
7.9375
143
0.0393700787
147
1.984375
148
0.000000001
170
     1
172
     1
173
     1
178
     0
271
     1
272
     2
276
     2
284
    12
289
     0
340
7E
  0
ENDTAB
  0
TABLE
  2
BLOCK_RECORD
  5
1
330
0
100
AcDbSymbolTable
 70
    38
  0
BLOCK_RECORD
  5
1F
330
1
100
AcDbSymbolTableRecord
100
AcDbBlockTableRecord
  2
*Model_Space
340
22
  0
BLOCK_RECORD
  5
1B
330
1
100
AcDbSymbolTableRecord
100
AcDbBlockTableRecord
  2
*Paper_Space
340
1E
  0
BLOCK_RECORD
  5
23
330
1
100
AcDbSymbolTableRecord
100
AcDbBlockTableRecord
  2
*Paper_Space0
340
26
  0
BLOCK_RECORD
  5
73
330
1
100
AcDbSymbolTableRecord
100
AcDbBlockTableRecord
  2
SW_NOTE_0
340
0
102
{BLKREFS
331
A5
102
}
  0
BLOCK_RECORD
  5
85
330
1
100
AcDbSymbolTableRecord
100
AcDbBlockTableRecord
  2
SW_SYMBOL_MOD_COM
340
0
102
{BLKREFS
331
91
331
1D8
331
2C9
102
}
  0
BLOCK_RECORD
  5
95
330
1
100
AcDbSymbolTableRecord
100
AcDbBlockTableRecord
  2
SW_SYMBOL_GTOL_CONC
340
0
102
{BLKREFS
331
9A
331
9F
102
}
  0
BLOCK_RECORD
  5
1B0
330
1
100
AcDbSymbolTableRecord
100
AcDbBlockTableRecord
  2
_D
340
0
  0
BLOCK_RECORD
  5
1C5
330
1
100
AcDbSymbolTableRecord
100
AcDbBlockTableRecord
  2
_D_1
340
0
  0
BLOCK_RECORD
  5
22C
330
1
100
AcDbSymbolTableRecord
100
AcDbBlockTableRecord
  2
_D_2
340
0
  0
BLOCK_RECORD
  5
240
330
1
100
AcDbSymbolTableRecord
100
AcDbBlockTableRecord
  2
_D_3
340
0
  0
BLOCK_RECORD
  5
255
330
1
100
AcDbSymbolTableRecord
100
AcDbBlockTableRecord
  2
_D_4
340
0
  0
BLOCK_RECORD
  5
268
330
1
100
AcDbSymbolTableRecord
100
AcDbBlockTableRecord
  2
SW_NOTE_0_1
340
0
102
{BLKREFS
331
270
102
}
  0
BLOCK_RECORD
  5
274
330
1
100
AcDbSymbolTableRecord
100
AcDbBlockTableRecord
  2
SW_CENTERMARKSYMBOL_0
340
0
102
{BLKREFS
331
27F
102
}
  0
BLOCK_RECORD
  5
280
330
1
100
AcDbSymbolTableRecord
100
AcDbBlockTableRecord
  2
SW_CENTERMARKSYMBOL_1
340
0
102
{BLKREFS
331
28B
102
}
  0
BLOCK_RECORD
  5
298
330
1
100
AcDbSymbolTableRecord
100
AcDbBlockTableRecord
  2
_D_5
340
0
  0
BLOCK_RECORD
  5
2AC
330
1
100
AcDbSymbolTableRecord
100
AcDbBlockTableRecord
  2
_D_6
340
0
  0
BLOCK_RECORD
  5
2BF
330
1
100
AcDbSymbolTableRecord
100
AcDbBlockTableRecord
  2
SW_NOTE_0_2
340
0
102
{BLKREFS
331
2C7
102
}
  0
BLOCK_RECORD
  5
2E2
330
1
100
AcDbSymbolTableRecord
100
AcDbBlockTableRecord
  2
_D_7
340
0
  0
BLOCK_RECORD
  5
2F6
330
1
100
AcDbSymbolTableRecord
100
AcDbBlockTableRecord
  2
_D_8
340
0
  0
BLOCK_RECORD
  5
30A
330
1
100
AcDbSymbolTableRecord
100
AcDbBlockTableRecord
  2
_D_9
340
0
  0
BLOCK_RECORD
  5
31E
330
1
100
AcDbSymbolTableRecord
100
AcDbBlockTableRecord
  2
_D_10
340
0
  0
BLOCK_RECORD
  5
333
330
1
100
AcDbSymbolTableRecord
100
AcDbBlockTableRecord
  2
_D_11
340
0
  0
BLOCK_RECORD
  5
33E
330
1
100
AcDbSymbolTableRecord
100
AcDbBlockTableRecord
  2
SW_NOTE_0_3
340
0
102
{BLKREFS
331
346
102
}
  0
BLOCK_RECORD
  5
348
330
1
100
AcDbSymbolTableRecord
100
AcDbBlockTableRecord
  2
SW_CENTERMARKSYMBOL_2
340
0
102
{BLKREFS
331
353
102
}
  0
BLOCK_RECORD
  5
3A1
330
1
100
AcDbSymbolTableRecord
100
AcDbBlockTableRecord
  2
_D_12
340
0
  0
BLOCK_RECORD
  5
3B5
330
1
100
AcDbSymbolTableRecord
100
AcDbBlockTableRecord
  2
_D_13
340
0
  0
BLOCK_RECORD
  5
3C9
330
1
100
AcDbSymbolTableRecord
100
AcDbBlockTableRecord
  2
_D_14
340
0
  0
BLOCK_RECORD
  5
3DD
330
1
100
AcDbSymbolTableRecord
100
AcDbBlockTableRecord
  2
_D_15
340
0
  0
BLOCK_RECORD
  5
3F1
330
1
100
AcDbSymbolTableRecord
100
AcDbBlockTableRecord
  2
_D_16
340
0
  0
BLOCK_RECORD
  5
405
330
1
100
AcDbSymbolTableRecord
100
AcDbBlockTableRecord
  2
_D_17
340
0
  0
BLOCK_RECORD
  5
419
330
1
100
AcDbSymbolTableRecord
100
AcDbBlockTableRecord
  2
_D_18
340
0
  0
BLOCK_RECORD
  5
42D
330
1
100
AcDbSymbolTableRecord
100
AcDbBlockTableRecord
  2
SW_NOTE_0_4
340
0
102
{BLKREFS
331
435
102
}
  0
BLOCK_RECORD
  5
438
330
1
100
AcDbSymbolTableRecord
100
AcDbBlockTableRecord
  2
SW_CENTERMARKSYMBOL_3
340
0
102
{BLKREFS
331
443
102
}
  0
BLOCK_RECORD
  5
444
330
1
100
AcDbSymbolTableRecord
100
AcDbBlockTableRecord
  2
SW_CENTERMARKSYMBOL_4
340
0
102
{BLKREFS
331
44F
102
}
  0
BLOCK_RECORD
  5
471
330
1
100
AcDbSymbolTableRecord
100
AcDbBlockTableRecord
  2
_D_19
340
0
  0
BLOCK_RECORD
  5
485
330
1
100
AcDbSymbolTableRecord
100
AcDbBlockTableRecord
  2
_D_20
340
0
  0
BLOCK_RECORD
  5
499
330
1
100
AcDbSymbolTableRecord
100
AcDbBlockTableRecord
  2
_D_21
340
0
  0
BLOCK_RECORD
  5
4AD
330
1
100
AcDbSymbolTableRecord
100
AcDbBlockTableRecord
  2
SW_NOTE_0_5
340
0
102
{BLKREFS
331
4B5
102
}
  0
BLOCK_RECORD
  5
4B8
330
1
100
AcDbSymbolTableRecord
100
AcDbBlockTableRecord
  2
SW_CENTERMARKSYMBOL_5
340
0
102
{BLKREFS
331
4C3
102
}
  0
BLOCK_RECORD
  5
4C4
330
1
100
AcDbSymbolTableRecord
100
AcDbBlockTableRecord
  2
SW_CENTERMARKSYMBOL_6
340
0
102
{BLKREFS
331
4CF
102
}
  0
ENDTAB
  0
ENDSEC
  0
SECTION
  2
BLOCKS
  0
BLOCK
  5
20
330
1F
100
AcDbEntity
  8
0
100
AcDbBlockBegin
  2
*Model_Space
 70
     0
 10
0.0
 20
0.0
 30
0.0
  3
*Model_Space
  1

  0
ENDBLK
  5
21
330
1F
100
AcDbEntity
  8
0
100
AcDbBlockEnd
  0
BLOCK
  5
1C
330
1B
100
AcDbEntity
 67
     1
  8
0
100
AcDbBlockBegin
  2
*Paper_Space
 70
     0
 10
0.0
 20
0.0
 30
0.0
  3
*Paper_Space
  1

  0
ENDBLK
  5
1D
330
1B
100
AcDbEntity
 67
     1
  8
0
100
AcDbBlockEnd
  0
BLOCK
  5
24
330
23
100
AcDbEntity
  8
0
100
AcDbBlockBegin
  2
*Paper_Space0
 70
     0
 10
0.0
 20
0.0
 30
0.0
  3
*Paper_Space0
  1

  0
ENDBLK
  5
25
330
23
100
AcDbEntity
  8
0
100
AcDbBlockEnd
  0
BLOCK
  5
74
330
73
100
AcDbEntity
  8
0
100
AcDbBlockBegin
  2
SW_NOTE_0
 70
     0
 10
0.0
 20
0.0
 30
0.0
  3
SW_NOTE_0
  1

  0
LINE
  5
76
330
73
100
AcDbEntity
  8
0
  6
Continuous
 62
     0
370
     0
100
AcDbLine
 10
-3.5057292553
 20
-56.2359365479
 30
0.0
 11
-3.5057292553
 21
-43.3595474654
 31
0.0
  0
LINE
  5
77
330
73
100
AcDbEntity
  8
0
  6
Continuous
 62
     0
370
     0
100
AcDbLine
 10
-3.5057292553
 20
-43.3595474654
 30
0.0
 11
9.3706598273
 21
-43.3595474654
 31
0.0
  0
LINE
  5
78
330
73
100
AcDbEntity
  8
0
  6
Continuous
 62
     0
370
     0
100
AcDbLine
 10
9.3706598273
 20
-43.3595474654
 30
0.0
 11
9.3706598273
 21
-56.2359365479
 31
0.0
  0
LINE
  5
79
330
73
100
AcDbEntity
  8
0
  6
Continuous
 62
     0
370
     0
100
AcDbLine
 10
9.3706598273
 20
-56.2359365479
 30
0.0
 11
-3.5057292553
 21
-56.2359365479
 31
0.0
  0
LINE
  5
7A
330
73
100
AcDbEntity
  8
0
  6
Continuous
 62
     0
370
     0
100
AcDbLine
 10
-3.5057292553
 20
-86.2480890161
 30
0.0
 11
-3.5057292553
 21
-73.3716999336
 31
0.0
  0
LINE
  5
7B
330
73
100
AcDbEntity
  8
0
  6
Continuous
 62
     0
370
     0
100
AcDbLine
 10
-3.5057292553
 20
-73.3716999336
 30
0.0
 11
9.3706598273
 21
-73.3716999336
 31
0.0
  0
LINE
  5
7C
330
73
100
AcDbEntity
  8
0
  6
Continuous
 62
     0
370
     0
100
AcDbLine
 10
9.3706598273
 20
-73.3716999336
 30
0.0
 11
9.3706598273
 21
-86.2480890161
 31
0.0
  0
LINE
  5
7D
330
73
100
AcDbEntity
  8
0
  6
Continuous
 62
     0
370
     0
100
AcDbLine
 10
9.3706598273
 20
-86.2480890161
 30
0.0
 11
-3.5057292553
 21
-86.2480890161
 31
0.0
  0
MTEXT
  5
7F
330
73
100
AcDbEntity
  8
0
  6
Continuous
 62
     0
370
     0
100
AcDbMText
 10
0.0
 20
10.1389160156
 30
0.0
 40
7.9375
 41
0.0
 71
     1
 72
     1
  1
NOTES: UNLESS OTHERWISE SPECIFIED
  7
SLDTEXTSTYLE0
 73
     1
 44
1.0
  0
MTEXT
  5
80
330
73
100
AcDbEntity
  8
0
  6
Continuous
 62
     0
370
     0
100
AcDbMText
 10
33.3333325883
 20
-3.7777502934
 30
0.0
 40
7.9375
 41
0.0
 71
     1
 72
     1
  1
NET WEIGHT APPROX. 3.7 KG [8.2 LBS].
  7
SLDTEXTSTYLE0
 73
     1
 44
1.0
  0
MTEXT
  5
81
330
73
100
AcDbEntity
  8
0
  6
Continuous
 62
     0
370
     0
100
AcDbMText
 10
0.0
 20
-3.7777502934
 30
0.0
 40
7.9375
 41
0.0
 71
     1
 72
     1
  1
1.
  7
SLDTEXTSTYLE0
 73
     1
 44
1.0
  0
MTEXT
  5
82
330
73
100
AcDbEntity
  8
0
  6
Continuous
 62
     0
370
     0
100
AcDbMText
 10
33.3333325883
 20
-17.6944166025
 30
0.0
 40
7.9375
 41
0.0
 71
     1
 72
     1
  1
PARTS ARE SYMMETRICAL ABOUT CENTER LINES UNLESS OTHERWISE NOTED.
  7
SLDTEXTSTYLE0
 73
     1
 44
1.0
  0
MTEXT
  5
83
330
73
100
AcDbEntity
  8
0
  6
Continuous
 62
     0
370
     0
100
AcDbMText
 10
0.0
 20
-17.6944166025
 30
0.0
 40
7.9375
 41
0.0
 71
     1
 72
     1
  1
2.
  7
SLDTEXTSTYLE0
 73
     1
 44
1.0
  0
MTEXT
  5
84
330
73
100
AcDbEntity
  8
0
  6
Continuous
 62
     0
370
     0
100
AcDbMText
 10
33.3333325883
 20
-31.6110829115
 30
0.0
 40
7.9375
 41
0.0
 71
     1
 72
     1
  1
SYMBOL 
  7
SLDTEXTSTYLE0
 73
     1
 44
1.0
  0
INSERT
  5
91
330
73
100
AcDbEntity
  8
0
  6
Continuous
 62
     0
370
     0
100
AcDbBlockReference
  2
SW_SYMBOL_MOD_COM
 10
82.2453200817
 20
-40.3745253371
 30
0.0
 41
0.0023657471
 42
0.0023657471
 43
0.0023657471
  0
MTEXT
  5
92
330
73
100
AcDbEntity
  8
0
  6
Continuous
 62
     0
370
     0
100
AcDbMText
 10
97.9400115709
 20
-31.6110829115
 30
0.0
 40
7.9375
 41
0.0
 71
     1
 72
     1
  1
INDICATES CENTER OF GRAVITY.
  7
SLDTEXTSTYLE0
 73
     1
 44
1.0
  0
MTEXT
  5
93
330
73
100
AcDbEntity
  8
0
  6
Continuous
 62
     0
370
     0
100
AcDbMText
 10
0.0
 20
-31.6110829115
 30
0.0
 40
7.9375
 41
0.0
 71
     1
 72
     1
  1
3.
  7
SLDTEXTSTYLE0
 73
     1
 44
1.0
  0
MTEXT
  5
94
330
73
100
AcDbEntity
  8
0
  6
Continuous
 62
     0
370
     0
100
AcDbMText
 10
33.3333325883
 20
-44.9504929818
 30
0.0
 40
7.9375
 41
0.0
 71
     1
 72
     1
  1
SYMBOL 
  7
SLDTEXTSTYLE0
 73
     1
 44
1.0
  0
INSERT
  5
9A
330
73
100
AcDbEntity
  8
0
  6
Continuous
 62
     0
370
     0
100
AcDbBlockReference
  2
SW_SYMBOL_GTOL_CONC
 10
77.6951387525
 20
-53.5765527133
 30
0.0
 41
0.0020277832
 42
0.0020277832
 43
0.0020277832
  0
MTEXT
  5
9B
330
73
100
AcDbEntity
  8
0
  6
Continuous
 62
     0
370
     0
100
AcDbMText
 10
91.1477332314
 20
-44.9504929818
 30
0.0
 40
7.9375
 41
0.0
 71
     1
 72
     1
  1
INDICATES SUSPENSION POINT.
  7
SLDTEXTSTYLE0
 73
     1
 44
1.0
  0
MTEXT
  5
9C
330
73
100
AcDbEntity
  8
0
  6
Continuous
 62
     0
370
     0
100
AcDbMText
 10
0.0
 20
-44.9504929818
 30
0.0
 40
7.9375
 41
0.0
 71
     1
 72
     1
  1
4
  7
SLDTEXTSTYLE0
 73
     1
 44
1.0
  0
MTEXT
  5
9D
330
73
100
AcDbEntity
  8
0
  6
Continuous
 62
     0
370
     0
100
AcDbMText
 10
33.3333333333
 20
-61.6232353797
 30
0.0
 40
7.9375
 41
0.0
 71
     1
 72
     1
  1
6 TOTAL: M6-1 THD
  7
SLDTEXTSTYLE0
 73
     1
 44
1.0
  0
MTEXT
  5
9E
330
73
100
AcDbEntity
  8
0
  6
Continuous
 62
     0
370
     0
100
AcDbMText
 10
33.3333325883
 20
-74.96264545
 30
0.0
 40
7.9375
 41
0.0
 71
     1
 72
     1
  1
SYMBOL 
  7
SLDTEXTSTYLE0
 73
     1
 44
1.0
  0
INSERT
  5
9F
330
73
100
AcDbEntity
  8
0
  6
Continuous
 62
     0
370
     0
100
AcDbBlockReference
  2
SW_SYMBOL_GTOL_CONC
 10
77.6951387525
 20
-83.5887051815
 30
0.0
 41
0.0020277832
 42
0.0020277832
 43
0.0020277832
  0
MTEXT
  5
A0
330
73
100
AcDbEntity
  8
0
  6
Continuous
 62
     0
370
     0
100
AcDbMText
 10
91.1477332314
 20
-74.96264545
 30
0.0
 40
7.9375
 41
0.0
 71
     1
 72
     1
  1
INDICATES SUSPENSION POINT.
  7
SLDTEXTSTYLE0
 73
     1
 44
1.0
  0
MTEXT
  5
A1
330
73
100
AcDbEntity
  8
0
  6
Continuous
 62
     0
370
     0
100
AcDbMText
 10
0.0
 20
-74.96264545
 30
0.0
 40
7.9375
 41
0.0
 71
     1
 72
     1
  1
5
  7
SLDTEXTSTYLE0
 73
     1
 44
1.0
  0
MTEXT
  5
A2
330
73
100
AcDbEntity
  8
0
  6
Continuous
 62
     0
370
     0
100
AcDbMText
 10
33.3333333333
 20
-91.6353878478
 30
0.0
 40
7.9375
 41
0.0
 71
     1
 72
     1
  1
2 TOTAL: M8-1.25 THD
  7
SLDTEXTSTYLE0
 73
     1
 44
1.0
  0
MTEXT
  5
A3
330
73
100
AcDbEntity
  8
0
  6
Continuous
 62
     0
370
     0
100
AcDbMText
 10
33.3333325883
 20
-105.5520541569
 30
0.0
 40
7.9375
 41
0.0
 71
     1
 72
     1
  1
GRILLE NOT SHOWN FOR CLARITY.
  7
SLDTEXTSTYLE0
 73
     1
 44
1.0
  0
MTEXT
  5
A4
330
73
100
AcDbEntity
  8
0
  6
Continuous
 62
     0
370
     0
100
AcDbMText
 10
0.0
 20
-105.5520541569
 30
0.0
 40
7.9375
 41
0.0
 71
     1
 72
     1
  1
6.
  7
SLDTEXTSTYLE0
 73
     1
 44
1.0
  0
ENDBLK
  5
75
330
73
100
AcDbEntity
  8
0
100
AcDbBlockEnd
  0
BLOCK
  5
86
330
85
100
AcDbEntity
  8
0
100
AcDbBlockBegin
  2
SW_SYMBOL_MOD_COM
 70
     0
 10
0.0
 20
0.0
 30
0.0
  3
SW_SYMBOL_MOD_COM
  1

  0
CIRCLE
  5
88
330
85
100
AcDbEntity
  8
0
  6
Continuous
 62
     0
370
     0
100
AcDbCircle
 10
1666.6666666667
 20
1666.6666666667
 30
0.0
 40
1666.666666666667
  0
LINE
  5
89
330
85
100
AcDbEntity
  8
0
  6
Continuous
 62
     0
370
     0
100
AcDbLine
 10
4166.6666666667
 20
1666.6666666667
 30
0.0
 11
5000.0
 21
1666.6666666667
 31
0.0
  0
LINE
  5
8A
330
85
100
AcDbEntity
  8
0
  6
Continuous
 62
     0
370
     0
100
AcDbLine
 10
1666.6666666667
 20
5000.0
 30
0.0
 11
1666.6666666667
 21
4166.6666666667
 31
0.0
  0
LINE
  5
8B
330
85
100
AcDbEntity
  8
0
  6
Continuous
 62
     0
370
     0
100
AcDbLine
 10
-1666.6666666667
 20
1666.6666666667
 30
0.0
 11
-833.3333333333
 21
1666.6666666667
 31
0.0
  0
LINE
  5
8C
330
85
100
AcDbEntity
  8
0
  6
Continuous
 62
     0
370
     0
100
AcDbLine
 10
1666.6666666667
 20
-1666.6666666667
 30
0.0
 11
1666.6666666667
 21
-833.3333333333
 31
0.0
  0
SOLID
  5
8D
330
85
100
AcDbEntity
  8
0
  6
Continuous
 62
     0
370
     0
100
AcDbTrace
 10
1666.6666666667
 20
1666.6666666667
 30
0.0
 11
0.0
 21
1666.6666666667
 31
0.0
 12
1666.6666666667
 22
3333.3333333333
 32
0.0
 13
1666.6666666667
 23
3333.3333333333
 33
0.0
  0
SOLID
  5
8E
330
85
100
AcDbEntity
  8
0
  6
Continuous
 62
     0
370
     0
100
AcDbTrace
 10
1666.6666666667
 20
1666.6666666667
 30
0.0
 11
3333.3333333333
 21
1666.6666666667
 31
0.0
 12
1666.6666666667
 22
0.0
 32
0.0
 13
1666.6666666667
 23
0.0
 33
0.0
  0
HATCH
  5
8F
330
85
100
AcDbEntity
  8
0
  6
Continuous
 62
     0
100
AcDbHatch
 10
0.0
 20
0.0
 30
0.0
210
0.0
220
0.0
230
1.0
  2
SOLID
 70
     1
 71
     0
 91
        1
 92
        0
 93
        2
 72
     2
 10
1666.666666666667
 20
1666.666666666667
 40
1666.666666666667
 50
90.0000000000002
 51
180.0000000000012
 73
     1
 72
     1
 10
0.0
 20
1666.666666666655
 11
1666.666666666661
 21
3333.333333333334
 97
        0
 75
     0
 76
     1
 98
        1
 10
0.0
 20
0.0
  0
HATCH
  5
90
330
85
100
AcDbEntity
  8
0
  6
Continuous
 62
     0
100
AcDbHatch
 10
0.0
 20
0.0
 30
0.0
210
0.0
220
0.0
230
1.0
  2
SOLID
 70
     1
 71
     0
 91
        1
 92
        0
 93
        2
 72
     2
 10
1666.666666666667
 20
1666.666666666667
 40
1666.666666666667
 50
270.0000000000014
 51
360.0000000000016
 73
     1
 72
     1
 10
3333.333333333334
 20
1666.66666666669
 11
1666.666666666684
 21
0.0
 97
        0
 75
     0
 76
     1
 98
        1
 10
0.0
 20
0.0
  0
ENDBLK
  5
87
330
85
100
AcDbEntity
  8
0
100
AcDbBlockEnd
  0
BLOCK
  5
96
330
95
100
AcDbEntity
  8
0
100
AcDbBlockBegin
  2
SW_SYMBOL_GTOL_CONC
 70
     0
 10
0.0
 20
0.0
 30
0.0
  3
SW_SYMBOL_GTOL_CONC
  1

  0
CIRCLE
  5
98
330
95
100
AcDbEntity
  8
0
  6
Continuous
 62
     0
370
     0
100
AcDbCircle
 10
2500.0
 20
1666.6666666667
 30
0.0
 40
2500.0
  0
CIRCLE
  5
99
330
95
100
AcDbEntity
  8
0
  6
Continuous
 62
     0
370
     0
100
AcDbCircle
 10
2500.0
 20
1666.6666666667
 30
0.0
 40
1666.666666666667
  0
ENDBLK
  5
97
330
95
100
AcDbEntity
  8
0
100
AcDbBlockEnd
  0
BLOCK
  5
1B1
330
1B0
100
AcDbEntity
  8
0
100
AcDbBlockBegin
  2
_D
 70
     0
 10
0.0
 20
0.0
 30
0.0
  3
_D
  1

  0
SOLID
  5
1B3
330
1B0
100
AcDbEntity
  8
SLD-0
100
AcDbTrace
 10
427.571296675
 20
332.4355791763
 30
0.0
 11
434.2379633417
 21
331.602245843
 31
0.0
 12
434.2379633417
 22
333.2689125096
 32
0.0
 13
434.2379633417
 23
333.2689125096
 33
0.0
  0
SOLID
  5
1B4
330
1B0
100
AcDbEntity
  8
SLD-0
100
AcDbTrace
 10
524.408796675
 20
332.4355791763
 30
0.0
 11
517.7421300083
 21
333.2689125096
 31
0.0
 12
517.7421300083
 22
331.602245843
 32
0.0
 13
517.7421300083
 23
331.602245843
 33
0.0
  0
LINE
  5
1B5
330
1B0
100
AcDbEntity
  8
SLD-0
100
AcDbLine
 10
465.7300927266
 20
332.4355807285
 30
0.0
 11
463.3157697252
 21
332.4355807285
 31
0.0
  0
LINE
  5
1B6
330
1B0
100
AcDbEntity
  8
SLD-0
100
AcDbLine
 10
463.3157697252
 20
332.4355807285
 30
0.0
 11
463.3157697252
 21
319.8237749567
 31
0.0
  0
LINE
  5
1B7
330
1B0
100
AcDbEntity
  8
SLD-0
100
AcDbLine
 10
463.3157697252
 20
319.8237749567
 30
0.0
 11
465.7300927266
 21
319.8237749567
 31
0.0
  0
LINE
  5
1B8
330
1B0
100
AcDbEntity
  8
SLD-0
100
AcDbLine
 10
486.2500006234
 20
332.4355807285
 30
0.0
 11
488.6643236248
 21
332.4355807285
 31
0.0
  0
LINE
  5
1B9
330
1B0
100
AcDbEntity
  8
SLD-0
100
AcDbLine
 10
488.6643236248
 20
332.4355807285
 30
0.0
 11
488.6643236248
 21
319.8237749567
 31
0.0
  0
LINE
  5
1BA
330
1B0
100
AcDbEntity
  8
SLD-0
100
AcDbLine
 10
488.6643236248
 20
319.8237749567
 30
0.0
 11
486.2500006234
 21
319.8237749567
 31
0.0
  0
LINE
  5
1BB
330
1B0
100
AcDbEntity
  8
SLD-0
100
AcDbLine
 10
427.571296675
 20
360.7579932747
 30
0.0
 11
427.571296675
 21
329.8955791763
 31
0.0
  0
LINE
  5
1BC
330
1B0
100
AcDbEntity
  8
SLD-0
100
AcDbLine
 10
524.408796675
 20
443.3931589915
 30
0.0
 11
524.408796675
 21
329.8955791763
 31
0.0
  0
LINE
  5
1BD
330
1B0
100
AcDbEntity
  8
SLD-0
100
AcDbLine
 10
427.571296675
 20
332.4355791763
 30
0.0
 11
456.3672393375
 21
332.4355791763
 31
0.0
  0
LINE
  5
1BE
330
1B0
100
AcDbEntity
  8
SLD-0
100
AcDbLine
 10
524.408796675
 20
332.4355791763
 30
0.0
 11
495.6128540125
 21
332.4355791763
 31
0.0
  0
MTEXT
  5
1BF
330
1B0
100
AcDbEntity
  8
SLD-0
100
AcDbMText
 10
457.976330931
 20
344.1840445063
 30
0.0
 40
7.9375
 41
0.0
 71
     1
 72
     1
  1
 
  7
SLDTEXTSTYLE0
 73
     1
 44
1.0
  0
MTEXT
  5
1C0
330
1B0
100
AcDbEntity
  8
SLD-0
100
AcDbMText
 10
465.7300919505
 20
344.1840452824
 30
0.0
 40
7.9375
 41
0.0
 71
     1
 72
     1
  1
96.8
  7
SLDTEXTSTYLE0
 73
     1
 44
1.0
  0
MTEXT
  5
1C1
330
1B0
100
AcDbEntity
  8
SLD-0
100
AcDbMText
 10
465.7300927266
 20
329.9626913604
 30
0.0
 40
7.9375
 41
0.0
 71
     1
 72
     1
  1
3.81
  7
SLDTEXTSTYLE0
 73
     1
 44
1.0
  0
MTEXT
  5
1C2
330
1B0
100
AcDbEntity
  8
SLD-0
100
AcDbMText
 10
491.0786458502
 20
344.1840445063
 30
0.0
 40
7.9375
 41
0.0
 71
     1
 72
     1
  1
 
  7
SLDTEXTSTYLE0
 73
     1
 44
1.0
  0
ENDBLK
  5
1B2
330
1B0
100
AcDbEntity
  8
0
100
AcDbBlockEnd
  0
BLOCK
  5
1C6
330
1C5
100
AcDbEntity
  8
0
100
AcDbBlockBegin
  2
_D_1
 70
     0
 10
0.0
 20
0.0
 30
0.0
  3
_D_1
  1

  0
SOLID
  5
1C8
330
1C5
100
AcDbEntity
  8
SLD-0
100
AcDbTrace
 10
427.571296675
 20
583.3931671696
 30
0.0
 11
434.2379633417
 21
582.5598338363
 31
0.0
 12
434.2379633417
 22
584.226500503
 32
0.0
 13
434.2379633417
 23
584.226500503
 33
0.0
  0
SOLID
  5
1C9
330
1C5
100
AcDbEntity
  8
SLD-0
100
AcDbTrace
 10
627.571296675
 20
583.3931671696
 30
0.0
 11
620.9046300083
 21
584.226500503
 31
0.0
 12
620.9046300083
 22
582.5598338363
 32
0.0
 13
620.9046300083
 23
582.5598338363
 33
0.0
  0
LINE
  5
1CA
330
1C5
100
AcDbEntity
  8
SLD-0
100
AcDbLine
 10
517.3113427266
 20
583.3931687218
 30
0.0
 11
514.8970197252
 21
583.3931687218
 31
0.0
  0
LINE
  5
1CB
330
1C5
100
AcDbEntity
  8
SLD-0
100
AcDbLine
 10
514.8970197252
 20
583.3931687218
 30
0.0
 11
514.8970197252
 21
570.78136295
 31
0.0
  0
LINE
  5
1CC
330
1C5
100
AcDbEntity
  8
SLD-0
100
AcDbLine
 10
514.8970197252
 20
570.78136295
 30
0.0
 11
517.3113427266
 21
570.78136295
 31
0.0
  0
LINE
  5
1CD
330
1C5
100
AcDbEntity
  8
SLD-0
100
AcDbLine
 10
537.8312506234
 20
583.3931687218
 30
0.0
 11
540.2455736248
 21
583.3931687218
 31
0.0
  0
LINE
  5
1CE
330
1C5
100
AcDbEntity
  8
SLD-0
100
AcDbLine
 10
540.2455736248
 20
583.3931687218
 30
0.0
 11
540.2455736248
 21
570.78136295
 31
0.0
  0
LINE
  5
1CF
330
1C5
100
AcDbEntity
  8
SLD-0
100
AcDbLine
 10
540.2455736248
 20
570.78136295
 30
0.0
 11
537.8312506234
 21
570.78136295
 31
0.0
  0
LINE
  5
1D0
330
1C5
100
AcDbEntity
  8
SLD-0
100
AcDbLine
 10
427.571296675
 20
551.4300013098
 30
0.0
 11
427.571296675
 21
585.9331671696
 31
0.0
  0
LINE
  5
1D1
330
1C5
100
AcDbEntity
  8
SLD-0
100
AcDbLine
 10
627.571296675
 20
551.990387383
 30
0.0
 11
627.571296675
 21
585.9331671696
 31
0.0
  0
LINE
  5
1D2
330
1C5
100
AcDbEntity
  8
SLD-0
100
AcDbLine
 10
427.571296675
 20
583.3931671696
 30
0.0
 11
507.9484893375
 21
583.3931671696
 31
0.0
  0
LINE
  5
1D3
330
1C5
100
AcDbEntity
  8
SLD-0
100
AcDbLine
 10
627.571296675
 20
583.3931671696
 30
0.0
 11
547.1941040125
 21
583.3931671696
 31
0.0
  0
MTEXT
  5
1D4
330
1C5
100
AcDbEntity
  8
SLD-0
100
AcDbMText
 10
509.557580931
 20
595.1416324996
 30
0.0
 40
7.9375
 41
0.0
 71
     1
 72
     1
  1
 
  7
SLDTEXTSTYLE0
 73
     1
 44
1.0
  0
MTEXT
  5
1D5
330
1C5
100
AcDbEntity
  8
SLD-0
100
AcDbMText
 10
514.3788772466
 20
595.1416332758
 30
0.0
 40
7.9375
 41
0.0
 71
     1
 72
     1
  1
200.0
  7
SLDTEXTSTYLE0
 73
     1
 44
1.0
  0
MTEXT
  5
1D6
330
1C5
100
AcDbEntity
  8
SLD-0
100
AcDbMText
 10
517.3113427266
 20
580.9202793537
 30
0.0
 40
7.9375
 41
0.0
 71
     1
 72
     1
  1
7.87
  7
SLDTEXTSTYLE0
 73
     1
 44
1.0
  0
MTEXT
  5
1D7
330
1C5
100
AcDbEntity
  8
SLD-0
100
AcDbMText
 10
542.6598958502
 20
595.1416324996
 30
0.0
 40
7.9375
 41
0.0
 71
     1
 72
     1
  1
 
  7
SLDTEXTSTYLE0
 73
     1
 44
1.0
  0
ENDBLK
  5
1C7
330
1C5
100
AcDbEntity
  8
0
100
AcDbBlockEnd
  0
BLOCK
  5
22D
330
22C
100
AcDbEntity
  8
0
100
AcDbBlockBegin
  2
_D_2
 70
     0
 10
0.0
 20
0.0
 30
0.0
  3
_D_2
  1

  0
SOLID
  5
22F
330
22C
100
AcDbEntity
  8
SLD-0
100
AcDbTrace
 10
667.6100260495
 20
209.7113059617
 30
0.0
 11
666.7766927162
 21
203.044639295
 31
0.0
 12
668.4433593829
 22
203.044639295
 32
0.0
 13
668.4433593829
 23
203.044639295
 33
0.0
  0
SOLID
  5
230
330
22C
100
AcDbEntity
  8
SLD-0
100
AcDbTrace
 10
667.6100260495
 20
149.7113059617
 30
0.0
 11
668.4433593829
 21
156.3779726284
 31
0.0
 12
666.7766927162
 22
156.3779726284
 32
0.0
 13
666.7766927162
 23
156.3779726284
 33
0.0
  0
LINE
  5
231
330
22C
100
AcDbEntity
  8
SLD-0
100
AcDbLine
 10
657.3500721012
 20
179.7113075139
 30
0.0
 11
654.9357490997
 21
179.7113075139
 31
0.0
  0
LINE
  5
232
330
22C
100
AcDbEntity
  8
SLD-0
100
AcDbLine
 10
654.9357490997
 20
179.7113075139
 30
0.0
 11
654.9357490997
 21
167.0995017421
 31
0.0
  0
LINE
  5
233
330
22C
100
AcDbEntity
  8
SLD-0
100
AcDbLine
 10
654.9357490997
 20
167.0995017421
 30
0.0
 11
657.3500721012
 21
167.0995017421
 31
0.0
  0
LINE
  5
234
330
22C
100
AcDbEntity
  8
SLD-0
100
AcDbLine
 10
677.8699799979
 20
179.7113075139
 30
0.0
 11
680.2843029994
 21
179.7113075139
 31
0.0
  0
LINE
  5
235
330
22C
100
AcDbEntity
  8
SLD-0
100
AcDbLine
 10
680.2843029994
 20
179.7113075139
 30
0.0
 11
680.2843029994
 21
167.0995017421
 31
0.0
  0
LINE
  5
236
330
22C
100
AcDbEntity
  8
SLD-0
100
AcDbLine
 10
680.2843029994
 20
167.0995017421
 30
0.0
 11
677.8699799979
 21
167.0995017421
 31
0.0
  0
LINE
  5
237
330
22C
100
AcDbEntity
  8
SLD-0
100
AcDbLine
 10
537.711296675
 20
209.7113059617
 30
0.0
 11
670.1500260495
 21
209.7113059617
 31
0.0
  0
LINE
  5
238
330
22C
100
AcDbEntity
  8
SLD-0
100
AcDbLine
 10
537.711296675
 20
149.7113059617
 30
0.0
 11
670.1500260495
 21
149.7113059617
 31
0.0
  0
LINE
  5
239
330
22C
100
AcDbEntity
  8
SLD-0
100
AcDbLine
 10
667.6100260495
 20
209.7113059617
 30
0.0
 11
667.6100260495
 21
193.9326606598
 31
0.0
  0
LINE
  5
23A
330
22C
100
AcDbEntity
  8
SLD-0
100
AcDbLine
 10
667.6100260495
 20
149.7113059617
 30
0.0
 11
667.6100260495
 21
165.4899512636
 31
0.0
  0
MTEXT
  5
23B
330
22C
100
AcDbEntity
  8
SLD-0
100
AcDbMText
 10
649.5963103055
 20
191.4597712917
 30
0.0
 40
7.9375
 41
0.0
 71
     1
 72
     1
  1
 
  7
SLDTEXTSTYLE0
 73
     1
 44
1.0
  0
MTEXT
  5
23C
330
22C
100
AcDbEntity
  8
SLD-0
100
AcDbMText
 10
657.3500713251
 20
191.4597720678
 30
0.0
 40
7.9375
 41
0.0
 71
     1
 72
     1
  1
60.0
  7
SLDTEXTSTYLE0
 73
     1
 44
1.0
  0
MTEXT
  5
23D
330
22C
100
AcDbEntity
  8
SLD-0
100
AcDbMText
 10
657.3500721012
 20
177.2384181458
 30
0.0
 40
7.9375
 41
0.0
 71
     1
 72
     1
  1
2.36
  7
SLDTEXTSTYLE0
 73
     1
 44
1.0
  0
MTEXT
  5
23E
330
22C
100
AcDbEntity
  8
SLD-0
100
AcDbMText
 10
682.6986252247
 20
191.4597712917
 30
0.0
 40
7.9375
 41
0.0
 71
     1
 72
     1
  1
 
  7
SLDTEXTSTYLE0
 73
     1
 44
1.0
  0
ENDBLK
  5
22E
330
22C
100
AcDbEntity
  8
0
100
AcDbBlockEnd
  0
BLOCK
  5
241
330
240
100
AcDbEntity
  8
0
100
AcDbBlockBegin
  2
_D_3
 70
     0
 10
0.0
 20
0.0
 30
0.0
  3
_D_3
  1

  0
SOLID
  5
243
330
240
100
AcDbEntity
  8
SLD-0
100
AcDbTrace
 10
667.6100260495
 20
209.7113059617
 30
0.0
 11
668.4433593829
 21
216.3779726284
 31
0.0
 12
666.7766927162
 22
216.3779726284
 32
0.0
 13
666.7766927162
 23
216.3779726284
 33
0.0
  0
SOLID
  5
244
330
240
100
AcDbEntity
  8
SLD-0
100
AcDbTrace
 10
667.6100260495
 20
233.0830468687
 30
0.0
 11
666.7766927162
 21
226.4163802021
 31
0.0
 12
668.4433593829
 22
226.4163802021
 32
0.0
 13
668.4433593829
 23
226.4163802021
 33
0.0
  0
LINE
  5
245
330
240
100
AcDbEntity
  8
SLD-0
100
AcDbLine
 10
686.8577292923
 20
255.1051881285
 30
0.0
 11
684.4434062908
 21
255.1051881285
 31
0.0
  0
LINE
  5
246
330
240
100
AcDbEntity
  8
SLD-0
100
AcDbLine
 10
684.4434062908
 20
255.1051881285
 30
0.0
 11
684.4434062908
 21
242.4933823567
 31
0.0
  0
LINE
  5
247
330
240
100
AcDbEntity
  8
SLD-0
100
AcDbLine
 10
684.4434062908
 20
242.4933823567
 30
0.0
 11
686.8577292923
 21
242.4933823567
 31
0.0
  0
LINE
  5
248
330
240
100
AcDbEntity
  8
SLD-0
100
AcDbLine
 10
701.512706229
 20
255.1051881285
 30
0.0
 11
703.9270292304
 21
255.1051881285
 31
0.0
  0
LINE
  5
249
330
240
100
AcDbEntity
  8
SLD-0
100
AcDbLine
 10
703.9270292304
 20
255.1051881285
 30
0.0
 11
703.9270292304
 21
242.4933823567
 31
0.0
  0
LINE
  5
24A
330
240
100
AcDbEntity
  8
SLD-0
100
AcDbLine
 10
703.9270292304
 20
242.4933823567
 30
0.0
 11
701.512706229
 21
242.4933823567
 31
0.0
  0
LINE
  5
24B
330
240
100
AcDbEntity
  8
SLD-0
100
AcDbLine
 10
537.711296675
 20
209.7113059617
 30
0.0
 11
670.1500260495
 21
209.7113059617
 31
0.0
  0
LINE
  5
24C
330
240
100
AcDbEntity
  8
SLD-0
100
AcDbLine
 10
630.6910919554
 20
233.0830468687
 30
0.0
 11
670.1500260495
 21
233.0830468687
 31
0.0
  0
LINE
  5
24D
330
240
100
AcDbEntity
  8
SLD-0
100
AcDbLine
 10
674.2766927162
 20
255.1051865763
 30
0.0
 11
667.6100260495
 21
255.1051865763
 31
0.0
  0
LINE
  5
24E
330
240
100
AcDbEntity
  8
SLD-0
100
AcDbLine
 10
667.6100260495
 20
255.1051865763
 30
0.0
 11
667.6100260495
 21
233.0830468687
 31
0.0
  0
LINE
  5
24F
330
240
100
AcDbEntity
  8
SLD-0
100
AcDbLine
 10
667.6100260495
 20
209.7113059617
 30
0.0
 11
667.6100260495
 21
233.0830468687
 31
0.0
  0
MTEXT
  5
250
330
240
100
AcDbEntity
  8
SLD-0
100
AcDbMText
 10
679.1039674966
 20
266.8536519063
 30
0.0
 40
7.9375
 41
0.0
 71
     1
 72
     1
  1
 
  7
SLDTEXTSTYLE0
 73
     1
 44
1.0
  0
MTEXT
  5
251
330
240
100
AcDbEntity
  8
SLD-0
100
AcDbMText
 10
683.9252638123
 20
266.8536526824
 30
0.0
 40
7.9375
 41
0.0
 71
     1
 72
     1
  1
23.4
  7
SLDTEXTSTYLE0
 73
     1
 44
1.0
  0
MTEXT
  5
252
330
240
100
AcDbEntity
  8
SLD-0
100
AcDbMText
 10
686.8577292923
 20
252.6322987604
 30
0.0
 40
7.9375
 41
0.0
 71
     1
 72
     1
  1
.92
  7
SLDTEXTSTYLE0
 73
     1
 44
1.0
  0
MTEXT
  5
253
330
240
100
AcDbEntity
  8
SLD-0
100
AcDbMText
 10
706.341353008
 20
266.8536519063
 30
0.0
 40
7.9375
 41
0.0
 71
     1
 72
     1
  1
 
  7
SLDTEXTSTYLE0
 73
     1
 44
1.0
  0
ENDBLK
  5
242
330
240
100
AcDbEntity
  8
0
100
AcDbBlockEnd
  0
BLOCK
  5
256
330
255
100
AcDbEntity
  8
0
100
AcDbBlockBegin
  2
_D_4
 70
     0
 10
0.0
 20
0.0
 30
0.0
  3
_D_4
  1

  0
SOLID
  5
258
330
255
100
AcDbEntity
  8
SLD-0
100
AcDbTrace
 10
527.571296675
 20
294.4369766942
 30
0.0
 11
534.2379633417
 21
293.6036433608
 31
0.0
 12
534.2379633417
 22
295.2703100275
 32
0.0
 13
534.2379633417
 23
295.2703100275
 33
0.0
  0
SOLID
  5
259
330
255
100
AcDbEntity
  8
SLD-0
100
AcDbTrace
 10
627.571296675
 20
294.4369766942
 30
0.0
 11
620.9046300083
 21
295.2703100275
 31
0.0
 12
620.9046300083
 22
293.6036433608
 32
0.0
 13
620.9046300083
 23
293.6036433608
 33
0.0
  0
LINE
  5
25A
330
255
100
AcDbEntity
  8
SLD-0
100
AcDbLine
 10
567.3113427266
 20
294.4369782464
 30
0.0
 11
564.8970197252
 21
294.4369782464
 31
0.0
  0
LINE
  5
25B
330
255
100
AcDbEntity
  8
SLD-0
100
AcDbLine
 10
564.8970197252
 20
294.4369782464
 30
0.0
 11
564.8970197252
 21
281.8251724746
 31
0.0
  0
LINE
  5
25C
330
255
100
AcDbEntity
  8
SLD-0
100
AcDbLine
 10
564.8970197252
 20
281.8251724746
 30
0.0
 11
567.3113427266
 21
281.8251724746
 31
0.0
  0
LINE
  5
25D
330
255
100
AcDbEntity
  8
SLD-0
100
AcDbLine
 10
587.8312506234
 20
294.4369782464
 30
0.0
 11
590.2455736248
 21
294.4369782464
 31
0.0
  0
LINE
  5
25E
330
255
100
AcDbEntity
  8
SLD-0
100
AcDbLine
 10
590.2455736248
 20
294.4369782464
 30
0.0
 11
590.2455736248
 21
281.8251724746
 31
0.0
  0
LINE
  5
25F
330
255
100
AcDbEntity
  8
SLD-0
100
AcDbLine
 10
590.2455736248
 20
281.8251724746
 30
0.0
 11
587.8312506234
 21
281.8251724746
 31
0.0
  0
LINE
  5
260
330
255
100
AcDbEntity
  8
SLD-0
100
AcDbLine
 10
527.571296675
 20
219.8513059617
 30
0.0
 11
527.571296675
 21
296.9769766942
 31
0.0
  0
LINE
  5
261
330
255
100
AcDbEntity
  8
SLD-0
100
AcDbLine
 10
627.571296675
 20
274.4521502233
 30
0.0
 11
627.571296675
 21
296.9769766942
 31
0.0
  0
LINE
  5
262
330
255
100
AcDbEntity
  8
SLD-0
100
AcDbLine
 10
527.571296675
 20
294.4369766942
 30
0.0
 11
557.9484893375
 21
294.4369766942
 31
0.0
  0
LINE
  5
263
330
255
100
AcDbEntity
  8
SLD-0
100
AcDbLine
 10
627.571296675
 20
294.4369766942
 30
0.0
 11
597.1941040125
 21
294.4369766942
 31
0.0
  0
MTEXT
  5
264
330
255
100
AcDbEntity
  8
SLD-0
100
AcDbMText
 10
559.557580931
 20
306.1854420242
 30
0.0
 40
7.9375
 41
0.0
 71
     1
 72
     1
  1
 
  7
SLDTEXTSTYLE0
 73
     1
 44
1.0
  0
MTEXT
  5
265
330
255
100
AcDbEntity
  8
SLD-0
100
AcDbMText
 10
564.3788772466
 20
306.1854428003
 30
0.0
 40
7.9375
 41
0.0
 71
     1
 72
     1
  1
100.0
  7
SLDTEXTSTYLE0
 73
     1
 44
1.0
  0
MTEXT
  5
266
330
255
100
AcDbEntity
  8
SLD-0
100
AcDbMText
 10
567.3113427266
 20
291.9640888783
 30
0.0
 40
7.9375
 41
0.0
 71
     1
 72
     1
  1
3.94
  7
SLDTEXTSTYLE0
 73
     1
 44
1.0
  0
MTEXT
  5
267
330
255
100
AcDbEntity
  8
SLD-0
100
AcDbMText
 10
592.6598958502
 20
306.1854420242
 30
0.0
 40
7.9375
 41
0.0
 71
     1
 72
     1
  1
 
  7
SLDTEXTSTYLE0
 73
     1
 44
1.0
  0
ENDBLK
  5
257
330
255
100
AcDbEntity
  8
0
100
AcDbBlockEnd
  0
BLOCK
  5
269
330
268
100
AcDbEntity
  8
0
100
AcDbBlockBegin
  2
SW_NOTE_0_1
 70
     0
 10
0.0
 20
0.0
 30
0.0
  3
SW_NOTE_0_1
  1

  0
LINE
  5
26B
330
268
100
AcDbEntity
  8
SLD-0
 62
     0
100
AcDbLine
 10
-19.2388122125
 20
-9.7457967378
 30
0.0
 11
-19.2388122125
 21
9.4930154747
 31
0.0
  0
LINE
  5
26C
330
268
100
AcDbEntity
  8
SLD-0
 62
     0
100
AcDbLine
 10
-19.2388122125
 20
9.4930154747
 30
0.0
 11
0.0
 21
9.4930154747
 31
0.0
  0
LINE
  5
26D
330
268
100
AcDbEntity
  8
SLD-0
 62
     0
100
AcDbLine
 10
0.0
 20
9.4930154747
 30
0.0
 11
0.0
 21
-9.7457967378
 31
0.0
  0
LINE
  5
26E
330
268
100
AcDbEntity
  8
SLD-0
 62
     0
100
AcDbLine
 10
0.0
 20
-9.7457967378
 30
0.0
 11
-19.2388122125
 21
-9.7457967378
 31
0.0
  0
MTEXT
  5
26F
330
268
100
AcDbEntity
  8
SLD-0
 62
     0
100
AcDbMText
 10
-9.6993323297
 20
3.7379329031
 30
0.0
 40
7.9375
 41
0.0
 71
     2
 72
     1
  1
4
  7
SLDTEXTSTYLE0
 73
     1
 44
1.0
  0
ENDBLK
  5
26A
330
268
100
AcDbEntity
  8
0
100
AcDbBlockEnd
  0
BLOCK
  5
275
330
274
100
AcDbEntity
  8
0
100
AcDbBlockBegin
  2
SW_CENTERMARKSYMBOL_0
 70
     0
 10
0.0
 20
0.0
 30
0.0
  3
SW_CENTERMARKSYMBOL_0
  1

  0
LINE
  5
277
330
274
100
AcDbEntity
  8
SLD-0
 62
     0
100
AcDbLine
 10
0.0
 20
0.0
 30
0.0
 11
0.0
 21
2.0
 31
0.0
  0
LINE
  5
278
330
274
100
AcDbEntity
  8
SLD-0
 62
     0
100
AcDbLine
 10
0.0
 20
0.0
 30
0.0
 11
-2.0
 21
0.0
 31
0.0
  0
LINE
  5
279
330
274
100
AcDbEntity
  8
SLD-0
 62
     0
100
AcDbLine
 10
0.0
 20
0.0
 30
0.0
 11
0.0
 21
-2.0
 31
0.0
  0
LINE
  5
27A
330
274
100
AcDbEntity
  8
SLD-0
 62
     0
100
AcDbLine
 10
0.0
 20
0.0
 30
0.0
 11
2.0
 21
0.0
 31
0.0
  0
LINE
  5
27B
330
274
100
AcDbEntity
  8
SLD-0
 62
     0
100
AcDbLine
 10
0.0
 20
4.0
 30
0.0
 11
0.0
 21
7.6
 31
0.0
  0
LINE
  5
27C
330
274
100
AcDbEntity
  8
SLD-0
 62
     0
100
AcDbLine
 10
-4.0
 20
0.0
 30
0.0
 11
-7.6
 21
0.0
 31
0.0
  0
LINE
  5
27D
330
274
100
AcDbEntity
  8
SLD-0
 62
     0
100
AcDbLine
 10
0.0
 20
-4.0
 30
0.0
 11
0.0
 21
-7.6
 31
0.0
  0
LINE
  5
27E
330
274
100
AcDbEntity
  8
SLD-0
 62
     0
100
AcDbLine
 10
4.0
 20
0.0
 30
0.0
 11
7.6
 21
0.0
 31
0.0
  0
ENDBLK
  5
276
330
274
100
AcDbEntity
  8
0
100
AcDbBlockEnd
  0
BLOCK
  5
281
330
280
100
AcDbEntity
  8
0
100
AcDbBlockBegin
  2
SW_CENTERMARKSYMBOL_1
 70
     0
 10
0.0
 20
0.0
 30
0.0
  3
SW_CENTERMARKSYMBOL_1
  1

  0
LINE
  5
283
330
280
100
AcDbEntity
  8
SLD-0
 62
     0
100
AcDbLine
 10
0.0
 20
0.0
 30
0.0
 11
0.0
 21
2.0
 31
0.0
  0
LINE
  5
284
330
280
100
AcDbEntity
  8
SLD-0
 62
     0
100
AcDbLine
 10
0.0
 20
0.0
 30
0.0
 11
-2.0
 21
0.0
 31
0.0
  0
LINE
  5
285
330
280
100
AcDbEntity
  8
SLD-0
 62
     0
100
AcDbLine
 10
0.0
 20
0.0
 30
0.0
 11
0.0
 21
-2.0
 31
0.0
  0
LINE
  5
286
330
280
100
AcDbEntity
  8
SLD-0
 62
     0
100
AcDbLine
 10
0.0
 20
0.0
 30
0.0
 11
2.0
 21
0.0
 31
0.0
  0
LINE
  5
287
330
280
100
AcDbEntity
  8
SLD-0
 62
     0
100
AcDbLine
 10
0.0
 20
4.0
 30
0.0
 11
0.0
 21
7.6
 31
0.0
  0
LINE
  5
288
330
280
100
AcDbEntity
  8
SLD-0
 62
     0
100
AcDbLine
 10
-4.0
 20
0.0
 30
0.0
 11
-7.6
 21
0.0
 31
0.0
  0
LINE
  5
289
330
280
100
AcDbEntity
  8
SLD-0
 62
     0
100
AcDbLine
 10
0.0
 20
-4.0
 30
0.0
 11
0.0
 21
-7.6
 31
0.0
  0
LINE
  5
28A
330
280
100
AcDbEntity
  8
SLD-0
 62
     0
100
AcDbLine
 10
4.0
 20
0.0
 30
0.0
 11
7.6
 21
0.0
 31
0.0
  0
ENDBLK
  5
282
330
280
100
AcDbEntity
  8
0
100
AcDbBlockEnd
  0
BLOCK
  5
299
330
298
100
AcDbEntity
  8
0
100
AcDbBlockBegin
  2
_D_5
 70
     0
 10
0.0
 20
0.0
 30
0.0
  3
_D_5
  1

  0
SOLID
  5
29B
330
298
100
AcDbEntity
  8
SLD-0
100
AcDbTrace
 10
826.4186900376
 20
332.4355791763
 30
0.0
 11
819.752023371
 21
333.2689125096
 31
0.0
 12
819.752023371
 22
331.602245843
 32
0.0
 13
819.752023371
 23
331.602245843
 33
0.0
  0
SOLID
  5
29C
330
298
100
AcDbEntity
  8
SLD-0
100
AcDbTrace
 10
751.277130576
 20
332.4355791763
 30
0.0
 11
757.9437972427
 21
331.602245843
 31
0.0
 12
757.9437972427
 22
333.2689125096
 32
0.0
 13
757.9437972427
 23
333.2689125096
 33
0.0
  0
LINE
  5
29D
330
298
100
AcDbEntity
  8
SLD-0
100
AcDbLine
 10
778.5879563585
 20
332.4355807285
 30
0.0
 11
776.173633357
 21
332.4355807285
 31
0.0
  0
LINE
  5
29E
330
298
100
AcDbEntity
  8
SLD-0
100
AcDbLine
 10
776.173633357
 20
332.4355807285
 30
0.0
 11
776.173633357
 21
319.8237749567
 31
0.0
  0
LINE
  5
29F
330
298
100
AcDbEntity
  8
SLD-0
100
AcDbLine
 10
776.173633357
 20
319.8237749567
 30
0.0
 11
778.5879563585
 21
319.8237749567
 31
0.0
  0
LINE
  5
2A0
330
298
100
AcDbEntity
  8
SLD-0
100
AcDbLine
 10
799.1078642552
 20
332.4355807285
 30
0.0
 11
801.5221872567
 21
332.4355807285
 31
0.0
  0
LINE
  5
2A1
330
298
100
AcDbEntity
  8
SLD-0
100
AcDbLine
 10
801.5221872567
 20
332.4355807285
 30
0.0
 11
801.5221872567
 21
319.8237749567
 31
0.0
  0
LINE
  5
2A2
330
298
100
AcDbEntity
  8
SLD-0
100
AcDbLine
 10
801.5221872567
 20
319.8237749567
 30
0.0
 11
799.1078642552
 21
319.8237749567
 31
0.0
  0
LINE
  5
2A3
330
298
100
AcDbEntity
  8
SLD-0
100
AcDbLine
 10
826.4186900376
 20
443.0867308589
 30
0.0
 11
826.4186900376
 21
329.8955791763
 31
0.0
  0
LINE
  5
2A4
330
298
100
AcDbEntity
  8
SLD-0
100
AcDbLine
 10
751.277130576
 20
411.2049360654
 30
0.0
 11
751.277130576
 21
329.8955791763
 31
0.0
  0
LINE
  5
2A5
330
298
100
AcDbEntity
  8
SLD-0
100
AcDbLine
 10
826.4186900376
 20
332.4355791763
 30
0.0
 11
808.4707176443
 21
332.4355791763
 31
0.0
  0
LINE
  5
2A6
330
298
100
AcDbEntity
  8
SLD-0
100
AcDbLine
 10
751.277130576
 20
332.4355791763
 30
0.0
 11
769.2251029693
 21
332.4355791763
 31
0.0
  0
MTEXT
  5
2A7
330
298
100
AcDbEntity
  8
SLD-0
100
AcDbMText
 10
770.8341945628
 20
344.1840445063
 30
0.0
 40
7.9375
 41
0.0
 71
     1
 72
     1
  1
 
  7
SLDTEXTSTYLE0
 73
     1
 44
1.0
  0
MTEXT
  5
2A8
330
298
100
AcDbEntity
  8
SLD-0
100
AcDbMText
 10
778.5879555824
 20
344.1840452824
 30
0.0
 40
7.9375
 41
0.0
 71
     1
 72
     1
  1
75.1
  7
SLDTEXTSTYLE0
 73
     1
 44
1.0
  0
MTEXT
  5
2A9
330
298
100
AcDbEntity
  8
SLD-0
100
AcDbMText
 10
778.5879563585
 20
329.9626913604
 30
0.0
 40
7.9375
 41
0.0
 71
     1
 72
     1
  1
2.96
  7
SLDTEXTSTYLE0
 73
     1
 44
1.0
  0
MTEXT
  5
2AA
330
298
100
AcDbEntity
  8
SLD-0
100
AcDbMText
 10
803.936509482
 20
344.1840445063
 30
0.0
 40
7.9375
 41
0.0
 71
     1
 72
     1
  1
 
  7
SLDTEXTSTYLE0
 73
     1
 44
1.0
  0
ENDBLK
  5
29A
330
298
100
AcDbEntity
  8
0
100
AcDbBlockEnd
  0
BLOCK
  5
2AD
330
2AC
100
AcDbEntity
  8
0
100
AcDbBlockBegin
  2
_D_6
 70
     0
 10
0.0
 20
0.0
 30
0.0
  3
_D_6
  1

  0
SOLID
  5
2AF
330
2AC
100
AcDbEntity
  8
SLD-0
100
AcDbTrace
 10
712.8863467082
 20
451.262023874
 30
0.0
 11
712.0530133749
 21
444.5953572073
 31
0.0
 12
713.7196800416
 22
444.5953572073
 32
0.0
 13
713.7196800416
 23
444.5953572073
 33
0.0
  0
SOLID
  5
2B0
330
2AC
100
AcDbEntity
  8
SLD-0
100
AcDbTrace
 10
712.8863467082
 20
365.7689125096
 30
0.0
 11
713.7196800416
 21
372.4355791763
 31
0.0
 12
712.0530133749
 22
372.4355791763
 32
0.0
 13
712.0530133749
 23
372.4355791763
 33
0.0
  0
LINE
  5
2B1
330
2AC
100
AcDbEntity
  8
SLD-0
100
AcDbLine
 10
702.6263927599
 20
408.515469744
 30
0.0
 11
700.2120697584
 21
408.515469744
 31
0.0
  0
LINE
  5
2B2
330
2AC
100
AcDbEntity
  8
SLD-0
100
AcDbLine
 10
700.2120697584
 20
408.515469744
 30
0.0
 11
700.2120697584
 21
395.9036639722
 31
0.0
  0
LINE
  5
2B3
330
2AC
100
AcDbEntity
  8
SLD-0
100
AcDbLine
 10
700.2120697584
 20
395.9036639722
 30
0.0
 11
702.6263927599
 21
395.9036639722
 31
0.0
  0
LINE
  5
2B4
330
2AC
100
AcDbEntity
  8
SLD-0
100
AcDbLine
 10
723.1463006566
 20
408.515469744
 30
0.0
 11
725.5606236581
 21
408.515469744
 31
0.0
  0
LINE
  5
2B5
330
2AC
100
AcDbEntity
  8
SLD-0
100
AcDbLine
 10
725.5606236581
 20
408.515469744
 30
0.0
 11
725.5606236581
 21
395.9036639722
 31
0.0
  0
LINE
  5
2B6
330
2AC
100
AcDbEntity
  8
SLD-0
100
AcDbLine
 10
725.5606236581
 20
395.9036639722
 30
0.0
 11
723.1463006566
 21
395.9036639722
 31
0.0
  0
LINE
  5
2B7
330
2AC
100
AcDbEntity
  8
SLD-0
100
AcDbLine
 10
818.6101983361
 20
451.262023874
 30
0.0
 11
710.3463467082
 21
451.262023874
 31
0.0
  0
LINE
  5
2B8
330
2AC
100
AcDbEntity
  8
SLD-0
100
AcDbLine
 10
766.6578462815
 20
365.7689125096
 30
0.0
 11
710.3463467082
 21
365.7689125096
 31
0.0
  0
LINE
  5
2B9
330
2AC
100
AcDbEntity
  8
SLD-0
100
AcDbLine
 10
712.8863467082
 20
451.262023874
 30
0.0
 11
712.8863467082
 21
422.7368228899
 31
0.0
  0
LINE
  5
2BA
330
2AC
100
AcDbEntity
  8
SLD-0
100
AcDbLine
 10
712.8863467082
 20
365.7689125096
 30
0.0
 11
712.8863467082
 21
394.2941134937
 31
0.0
  0
MTEXT
  5
2BB
330
2AC
100
AcDbEntity
  8
SLD-0
100
AcDbMText
 10
694.8726309642
 20
420.2639335218
 30
0.0
 40
7.9375
 41
0.0
 71
     1
 72
     1
  1
 
  7
SLDTEXTSTYLE0
 73
     1
 44
1.0
  0
MTEXT
  5
2BC
330
2AC
100
AcDbEntity
  8
SLD-0
100
AcDbMText
 10
702.6263919838
 20
420.2639342979
 30
0.0
 40
7.9375
 41
0.0
 71
     1
 72
     1
  1
85.5
  7
SLDTEXTSTYLE0
 73
     1
 44
1.0
  0
MTEXT
  5
2BD
330
2AC
100
AcDbEntity
  8
SLD-0
100
AcDbMText
 10
702.6263927599
 20
406.0425803759
 30
0.0
 40
7.9375
 41
0.0
 71
     1
 72
     1
  1
3.37
  7
SLDTEXTSTYLE0
 73
     1
 44
1.0
  0
MTEXT
  5
2BE
330
2AC
100
AcDbEntity
  8
SLD-0
100
AcDbMText
 10
727.9749458834
 20
420.2639335218
 30
0.0
 40
7.9375
 41
0.0
 71
     1
 72
     1
  1
 
  7
SLDTEXTSTYLE0
 73
     1
 44
1.0
  0
ENDBLK
  5
2AE
330
2AC
100
AcDbEntity
  8
0
100
AcDbBlockEnd
  0
BLOCK
  5
2C0
330
2BF
100
AcDbEntity
  8
0
100
AcDbBlockBegin
  2
SW_NOTE_0_2
 70
     0
 10
0.0
 20
0.0
 30
0.0
  3
SW_NOTE_0_2
  1

  0
LINE
  5
2C2
330
2BF
100
AcDbEntity
  8
SLD-0
 62
     0
100
AcDbLine
 10
-19.2388122125
 20
-9.7457967378
 30
0.0
 11
-19.2388122125
 21
9.4930154747
 31
0.0
  0
LINE
  5
2C3
330
2BF
100
AcDbEntity
  8
SLD-0
 62
     0
100
AcDbLine
 10
-19.2388122125
 20
9.4930154747
 30
0.0
 11
0.0
 21
9.4930154747
 31
0.0
  0
LINE
  5
2C4
330
2BF
100
AcDbEntity
  8
SLD-0
 62
     0
100
AcDbLine
 10
0.0
 20
9.4930154747
 30
0.0
 11
0.0
 21
-9.7457967378
 31
0.0
  0
LINE
  5
2C5
330
2BF
100
AcDbEntity
  8
SLD-0
 62
     0
100
AcDbLine
 10
0.0
 20
-9.7457967378
 30
0.0
 11
-19.2388122125
 21
-9.7457967378
 31
0.0
  0
MTEXT
  5
2C6
330
2BF
100
AcDbEntity
  8
SLD-0
 62
     0
100
AcDbMText
 10
-9.6993323297
 20
3.7379329031
 30
0.0
 40
7.9375
 41
0.0
 71
     2
 72
     1
  1
5
  7
SLDTEXTSTYLE0
 73
     1
 44
1.0
  0
ENDBLK
  5
2C1
330
2BF
100
AcDbEntity
  8
0
100
AcDbBlockEnd
  0
BLOCK
  5
2E3
330
2E2
100
AcDbEntity
  8
0
100
AcDbBlockBegin
  2
_D_7
 70
     0
 10
0.0
 20
0.0
 30
0.0
  3
_D_7
  1

  0
SOLID
  5
2E5
330
2E2
100
AcDbEntity
  8
SLD-0
100
AcDbTrace
 10
78.2341542593
 20
579.402245843
 30
0.0
 11
84.900820926
 21
578.5689125096
 31
0.0
 12
84.900820926
 22
580.2355791763
 32
0.0
 13
84.900820926
 23
580.2355791763
 33
0.0
  0
SOLID
  5
2E6
330
2E2
100
AcDbEntity
  8
SLD-0
100
AcDbTrace
 10
260.2011566171
 20
579.402245843
 30
0.0
 11
253.5344899505
 21
580.2355791763
 31
0.0
 12
253.5344899505
 22
578.5689125096
 32
0.0
 13
253.5344899505
 23
578.5689125096
 33
0.0
  0
LINE
  5
2E7
330
2E2
100
AcDbEntity
  8
SLD-0
100
AcDbLine
 10
158.9577014899
 20
579.4022473952
 30
0.0
 11
156.5433784884
 21
579.4022473952
 31
0.0
  0
LINE
  5
2E8
330
2E2
100
AcDbEntity
  8
SLD-0
100
AcDbLine
 10
156.5433784884
 20
579.4022473952
 30
0.0
 11
156.5433784884
 21
566.7904416234
 31
0.0
  0
LINE
  5
2E9
330
2E2
100
AcDbEntity
  8
SLD-0
100
AcDbLine
 10
156.5433784884
 20
566.7904416234
 30
0.0
 11
158.9577014899
 21
566.7904416234
 31
0.0
  0
LINE
  5
2EA
330
2E2
100
AcDbEntity
  8
SLD-0
100
AcDbLine
 10
179.4776093866
 20
579.4022473952
 30
0.0
 11
181.891932388
 21
579.4022473952
 31
0.0
  0
LINE
  5
2EB
330
2E2
100
AcDbEntity
  8
SLD-0
100
AcDbLine
 10
181.891932388
 20
579.4022473952
 30
0.0
 11
181.891932388
 21
566.7904416234
 31
0.0
  0
LINE
  5
2EC
330
2E2
100
AcDbEntity
  8
SLD-0
100
AcDbLine
 10
181.891932388
 20
566.7904416234
 30
0.0
 11
179.4776093866
 21
566.7904416234
 31
0.0
  0
LINE
  5
2ED
330
2E2
100
AcDbEntity
  8
SLD-0
100
AcDbLine
 10
78.2341542593
 20
511.9120462301
 30
0.0
 11
78.2341542593
 21
581.942245843
 31
0.0
  0
LINE
  5
2EE
330
2E2
100
AcDbEntity
  8
SLD-0
100
AcDbLine
 10
260.2011566171
 20
498.8341727037
 30
0.0
 11
260.2011566171
 21
581.942245843
 31
0.0
  0
LINE
  5
2EF
330
2E2
100
AcDbEntity
  8
SLD-0
100
AcDbLine
 10
78.2341542593
 20
579.402245843
 30
0.0
 11
149.5948481007
 21
579.402245843
 31
0.0
  0
LINE
  5
2F0
330
2E2
100
AcDbEntity
  8
SLD-0
100
AcDbLine
 10
260.2011566171
 20
579.402245843
 30
0.0
 11
188.8404627757
 21
579.402245843
 31
0.0
  0
MTEXT
  5
2F1
330
2E2
100
AcDbEntity
  8
SLD-0
100
AcDbMText
 10
151.2039396942
 20
591.150711173
 30
0.0
 40
7.9375
 41
0.0
 71
     1
 72
     1
  1
 
  7
SLDTEXTSTYLE0
 73
     1
 44
1.0
  0
MTEXT
  5
2F2
330
2E2
100
AcDbEntity
  8
SLD-0
100
AcDbMText
 10
156.0252360098
 20
591.1507119491
 30
0.0
 40
7.9375
 41
0.0
 71
     1
 72
     1
  1
182.0
  7
SLDTEXTSTYLE0
 73
     1
 44
1.0
  0
MTEXT
  5
2F3
330
2E2
100
AcDbEntity
  8
SLD-0
100
AcDbMText
 10
158.9577014899
 20
576.9293580271
 30
0.0
 40
7.9375
 41
0.0
 71
     1
 72
     1
  1
7.16
  7
SLDTEXTSTYLE0
 73
     1
 44
1.0
  0
MTEXT
  5
2F4
330
2E2
100
AcDbEntity
  8
SLD-0
100
AcDbMText
 10
184.3062546134
 20
591.150711173
 30
0.0
 40
7.9375
 41
0.0
 71
     1
 72
     1
  1
 
  7
SLDTEXTSTYLE0
 73
     1
 44
1.0
  0
ENDBLK
  5
2E4
330
2E2
100
AcDbEntity
  8
0
100
AcDbBlockEnd
  0
BLOCK
  5
2F7
330
2F6
100
AcDbEntity
  8
0
100
AcDbBlockBegin
  2
_D_8
 70
     0
 10
0.0
 20
0.0
 30
0.0
  3
_D_8
  1

  0
SOLID
  5
2F9
330
2F6
100
AcDbEntity
  8
SLD-0
100
AcDbTrace
 10
260.2011566171
 20
337.4740481648
 30
0.0
 11
253.5344899505
 21
338.3073814982
 31
0.0
 12
253.5344899505
 22
336.6407148315
 32
0.0
 13
253.5344899505
 23
336.6407148315
 33
0.0
  0
SOLID
  5
2FA
330
2F6
100
AcDbEntity
  8
SLD-0
100
AcDbTrace
 10
187.9095326161
 20
337.4740481648
 30
0.0
 11
194.5761992828
 21
336.6407148315
 31
0.0
 12
194.5761992828
 22
338.3073814982
 32
0.0
 13
194.5761992828
 23
338.3073814982
 33
0.0
  0
LINE
  5
2FB
330
2F6
100
AcDbEntity
  8
SLD-0
100
AcDbLine
 10
213.7953906683
 20
337.474049717
 30
0.0
 11
211.3810676668
 21
337.474049717
 31
0.0
  0
LINE
  5
2FC
330
2F6
100
AcDbEntity
  8
SLD-0
100
AcDbLine
 10
211.3810676668
 20
337.474049717
 30
0.0
 11
211.3810676668
 21
324.8622439453
 31
0.0
  0
LINE
  5
2FD
330
2F6
100
AcDbEntity
  8
SLD-0
100
AcDbLine
 10
211.3810676668
 20
324.8622439453
 30
0.0
 11
213.7953906683
 21
324.8622439453
 31
0.0
  0
LINE
  5
2FE
330
2F6
100
AcDbEntity
  8
SLD-0
100
AcDbLine
 10
234.315298565
 20
337.474049717
 30
0.0
 11
236.7296215664
 21
337.474049717
 31
0.0
  0
LINE
  5
2FF
330
2F6
100
AcDbEntity
  8
SLD-0
100
AcDbLine
 10
236.7296215664
 20
337.474049717
 30
0.0
 11
236.7296215664
 21
324.8622439453
 31
0.0
  0
LINE
  5
300
330
2F6
100
AcDbEntity
  8
SLD-0
100
AcDbLine
 10
236.7296215664
 20
324.8622439453
 30
0.0
 11
234.315298565
 21
324.8622439453
 31
0.0
  0
LINE
  5
301
330
2F6
100
AcDbEntity
  8
SLD-0
100
AcDbLine
 10
260.2011566171
 20
413.3482713904
 30
0.0
 11
260.2011566171
 21
334.9340481648
 31
0.0
  0
LINE
  5
302
330
2F6
100
AcDbEntity
  8
SLD-0
100
AcDbLine
 10
187.9095326161
 20
439.2289125096
 30
0.0
 11
187.9095326161
 21
334.9340481648
 31
0.0
  0
LINE
  5
303
330
2F6
100
AcDbEntity
  8
SLD-0
100
AcDbLine
 10
260.2011566171
 20
337.4740481648
 30
0.0
 11
243.6781519541
 21
337.4740481648
 31
0.0
  0
LINE
  5
304
330
2F6
100
AcDbEntity
  8
SLD-0
100
AcDbLine
 10
187.9095326161
 20
337.4740481648
 30
0.0
 11
204.4325372791
 21
337.4740481648
 31
0.0
  0
MTEXT
  5
305
330
2F6
100
AcDbEntity
  8
SLD-0
100
AcDbMText
 10
206.0416288726
 20
349.2225134949
 30
0.0
 40
7.9375
 41
0.0
 71
     1
 72
     1
  1
 
  7
SLDTEXTSTYLE0
 73
     1
 44
1.0
  0
MTEXT
  5
306
330
2F6
100
AcDbEntity
  8
SLD-0
100
AcDbMText
 10
213.7953898921
 20
349.222514271
 30
0.0
 40
7.9375
 41
0.0
 71
     1
 72
     1
  1
72.3
  7
SLDTEXTSTYLE0
 73
     1
 44
1.0
  0
MTEXT
  5
307
330
2F6
100
AcDbEntity
  8
SLD-0
100
AcDbMText
 10
213.7953906683
 20
335.0011603489
 30
0.0
 40
7.9375
 41
0.0
 71
     1
 72
     1
  1
2.85
  7
SLDTEXTSTYLE0
 73
     1
 44
1.0
  0
MTEXT
  5
308
330
2F6
100
AcDbEntity
  8
SLD-0
100
AcDbMText
 10
239.1439437918
 20
349.2225134949
 30
0.0
 40
7.9375
 41
0.0
 71
     1
 72
     1
  1
 
  7
SLDTEXTSTYLE0
 73
     1
 44
1.0
  0
ENDBLK
  5
2F8
330
2F6
100
AcDbEntity
  8
0
100
AcDbBlockEnd
  0
BLOCK
  5
30B
330
30A
100
AcDbEntity
  8
0
100
AcDbBlockBegin
  2
_D_9
 70
     0
 10
0.0
 20
0.0
 30
0.0
  3
_D_9
  1

  0
SOLID
  5
30D
330
30A
100
AcDbEntity
  8
SLD-0
100
AcDbTrace
 10
293.5344901025
 20
365.7689125096
 30
0.0
 11
294.3678234358
 21
372.4355791763
 31
0.0
 12
292.7011567691
 22
372.4355791763
 32
0.0
 13
292.7011567691
 23
372.4355791763
 33
0.0
  0
SOLID
  5
30E
330
30A
100
AcDbEntity
  8
SLD-0
100
AcDbTrace
 10
293.5344901025
 20
452.7689125096
 30
0.0
 11
292.7011567691
 21
446.102245843
 31
0.0
 12
294.3678234358
 22
446.102245843
 32
0.0
 13
294.3678234358
 23
446.102245843
 33
0.0
  0
LINE
  5
30F
330
30A
100
AcDbEntity
  8
SLD-0
100
AcDbLine
 10
283.2745361541
 20
409.2689140618
 30
0.0
 11
280.8602131526
 21
409.2689140618
 31
0.0
  0
LINE
  5
310
330
30A
100
AcDbEntity
  8
SLD-0
100
AcDbLine
 10
280.8602131526
 20
409.2689140618
 30
0.0
 11
280.8602131526
 21
396.65710829
 31
0.0
  0
LINE
  5
311
330
30A
100
AcDbEntity
  8
SLD-0
100
AcDbLine
 10
280.8602131526
 20
396.65710829
 30
0.0
 11
283.2745361541
 21
396.65710829
 31
0.0
  0
LINE
  5
312
330
30A
100
AcDbEntity
  8
SLD-0
100
AcDbLine
 10
303.7944440508
 20
409.2689140618
 30
0.0
 11
306.2087670523
 21
409.2689140618
 31
0.0
  0
LINE
  5
313
330
30A
100
AcDbEntity
  8
SLD-0
100
AcDbLine
 10
306.2087670523
 20
409.2689140618
 30
0.0
 11
306.2087670523
 21
396.65710829
 31
0.0
  0
LINE
  5
314
330
30A
100
AcDbEntity
  8
SLD-0
100
AcDbLine
 10
306.2087670523
 20
396.65710829
 30
0.0
 11
303.7944440508
 21
396.65710829
 31
0.0
  0
LINE
  5
315
330
30A
100
AcDbEntity
  8
SLD-0
100
AcDbLine
 10
246.757490055
 20
365.7689125096
 30
0.0
 11
296.0744901025
 21
365.7689125096
 31
0.0
  0
LINE
  5
316
330
30A
100
AcDbEntity
  8
SLD-0
100
AcDbLine
 10
201.4495326161
 20
452.7689125096
 30
0.0
 11
296.0744901025
 21
452.7689125096
 31
0.0
  0
LINE
  5
317
330
30A
100
AcDbEntity
  8
SLD-0
100
AcDbLine
 10
293.5344901025
 20
365.7689125096
 30
0.0
 11
293.5344901025
 21
395.0475578115
 31
0.0
  0
LINE
  5
318
330
30A
100
AcDbEntity
  8
SLD-0
100
AcDbLine
 10
293.5344901025
 20
452.7689125096
 30
0.0
 11
293.5344901025
 21
423.4902672078
 31
0.0
  0
MTEXT
  5
319
330
30A
100
AcDbEntity
  8
SLD-0
100
AcDbMText
 10
275.5207743585
 20
421.0173778397
 30
0.0
 40
7.9375
 41
0.0
 71
     1
 72
     1
  1
 
  7
SLDTEXTSTYLE0
 73
     1
 44
1.0
  0
MTEXT
  5
31A
330
30A
100
AcDbEntity
  8
SLD-0
100
AcDbMText
 10
283.274535378
 20
421.0173786158
 30
0.0
 40
7.9375
 41
0.0
 71
     1
 72
     1
  1
87.0
  7
SLDTEXTSTYLE0
 73
     1
 44
1.0
  0
MTEXT
  5
31B
330
30A
100
AcDbEntity
  8
SLD-0
100
AcDbMText
 10
283.2745361541
 20
406.7960246937
 30
0.0
 40
7.9375
 41
0.0
 71
     1
 72
     1
  1
3.43
  7
SLDTEXTSTYLE0
 73
     1
 44
1.0
  0
MTEXT
  5
31C
330
30A
100
AcDbEntity
  8
SLD-0
100
AcDbMText
 10
308.6230892777
 20
421.0173778397
 30
0.0
 40
7.9375
 41
0.0
 71
     1
 72
     1
  1
 
  7
SLDTEXTSTYLE0
 73
     1
 44
1.0
  0
ENDBLK
  5
30C
330
30A
100
AcDbEntity
  8
0
100
AcDbBlockEnd
  0
BLOCK
  5
31F
330
31E
100
AcDbEntity
  8
0
100
AcDbBlockBegin
  2
_D_10
 70
     0
 10
0.0
 20
0.0
 30
0.0
  3
_D_10
  1

  0
SOLID
  5
321
330
31E
100
AcDbEntity
  8
SLD-0
100
AcDbTrace
 10
343.7406394644
 20
546.0689125096
 30
0.0
 11
342.9073061311
 21
539.402245843
 31
0.0
 12
344.5739727977
 22
539.402245843
 32
0.0
 13
344.5739727977
 23
539.402245843
 33
0.0
  0
SOLID
  5
322
330
31E
100
AcDbEntity
  8
SLD-0
100
AcDbTrace
 10
343.7406394644
 20
365.7689125096
 30
0.0
 11
344.5739727977
 21
372.4355791763
 31
0.0
 12
342.9073061311
 22
372.4355791763
 32
0.0
 13
342.9073061311
 23
372.4355791763
 33
0.0
  0
LINE
  5
323
330
31E
100
AcDbEntity
  8
SLD-0
100
AcDbLine
 10
333.480685516
 20
455.9189140618
 30
0.0
 11
331.0663625146
 21
455.9189140618
 31
0.0
  0
LINE
  5
324
330
31E
100
AcDbEntity
  8
SLD-0
100
AcDbLine
 10
331.0663625146
 20
455.9189140618
 30
0.0
 11
331.0663625146
 21
443.30710829
 31
0.0
  0
LINE
  5
325
330
31E
100
AcDbEntity
  8
SLD-0
100
AcDbLine
 10
331.0663625146
 20
443.30710829
 30
0.0
 11
333.480685516
 21
443.30710829
 31
0.0
  0
LINE
  5
326
330
31E
100
AcDbEntity
  8
SLD-0
100
AcDbLine
 10
354.0005934128
 20
455.9189140618
 30
0.0
 11
356.4149164142
 21
455.9189140618
 31
0.0
  0
LINE
  5
327
330
31E
100
AcDbEntity
  8
SLD-0
100
AcDbLine
 10
356.4149164142
 20
455.9189140618
 30
0.0
 11
356.4149164142
 21
443.30710829
 31
0.0
  0
LINE
  5
328
330
31E
100
AcDbEntity
  8
SLD-0
100
AcDbLine
 10
356.4149164142
 20
443.30710829
 30
0.0
 11
354.0005934128
 21
443.30710829
 31
0.0
  0
LINE
  5
329
330
31E
100
AcDbEntity
  8
SLD-0
100
AcDbLine
 10
244.3716100914
 20
546.0689125096
 30
0.0
 11
346.2806394644
 21
546.0689125096
 31
0.0
  0
LINE
  5
32A
330
31E
100
AcDbEntity
  8
SLD-0
100
AcDbLine
 10
245.8599406686
 20
365.7689125096
 30
0.0
 11
346.2806394644
 21
365.7689125096
 31
0.0
  0
LINE
  5
32B
330
31E
100
AcDbEntity
  8
SLD-0
100
AcDbLine
 10
343.7406394644
 20
546.0689125096
 30
0.0
 11
343.7406394644
 21
470.1402672078
 31
0.0
  0
LINE
  5
32C
330
31E
100
AcDbEntity
  8
SLD-0
100
AcDbLine
 10
343.7406394644
 20
365.7689125096
 30
0.0
 11
343.7406394644
 21
441.6975578115
 31
0.0
  0
MTEXT
  5
32D
330
31E
100
AcDbEntity
  8
SLD-0
100
AcDbMText
 10
325.7269237204
 20
467.6673778397
 30
0.0
 40
7.9375
 41
0.0
 71
     1
 72
     1
  1
 
  7
SLDTEXTSTYLE0
 73
     1
 44
1.0
  0
MTEXT
  5
32E
330
31E
100
AcDbEntity
  8
SLD-0
100
AcDbMText
 10
330.548220036
 20
467.6673786158
 30
0.0
 40
7.9375
 41
0.0
 71
     1
 72
     1
  1
180.3
  7
SLDTEXTSTYLE0
 73
     1
 44
1.0
  0
MTEXT
  5
32F
330
31E
100
AcDbEntity
  8
SLD-0
100
AcDbMText
 10
333.480685516
 20
453.4460246937
 30
0.0
 40
7.9375
 41
0.0
 71
     1
 72
     1
  1
7.10
  7
SLDTEXTSTYLE0
 73
     1
 44
1.0
  0
MTEXT
  5
330
330
31E
100
AcDbEntity
  8
SLD-0
100
AcDbMText
 10
358.8292386396
 20
467.6673778397
 30
0.0
 40
7.9375
 41
0.0
 71
     1
 72
     1
  1
 
  7
SLDTEXTSTYLE0
 73
     1
 44
1.0
  0
ENDBLK
  5
320
330
31E
100
AcDbEntity
  8
0
100
AcDbBlockEnd
  0
BLOCK
  5
334
330
333
100
AcDbEntity
  8
0
100
AcDbBlockBegin
  2
_D_11
 70
     0
 10
0.0
 20
0.0
 30
0.0
  3
_D_11
  1

  0
ARC
  5
336
330
333
100
AcDbEntity
  8
SLD-0
100
AcDbCircle
 10
-446.8201169971
 20
365.7689125096
 30
0.0
 40
507.6037515729485
100
AcDbArc
 50
0.0
 51
5.8294996415
  0
ARC
  5
337
330
333
100
AcDbEntity
  8
SLD-0
100
AcDbCircle
 10
-446.8201169971
 20
365.7689125096
 30
0.0
 40
507.6037515729486
100
AcDbArc
 50
7.2624361923
 51
15.0
  0
SOLID
  5
338
330
333
100
AcDbEntity
  8
SLD-0
100
AcDbTrace
 10
60.7836345759
 20
365.7689125096
 30
0.0
 11
61.5731740949
 21
372.4409074314
 31
0.0
 12
59.9065433597
 22
372.4299634693
 32
0.0
 13
59.9065433597
 23
372.4299634693
 33
0.0
  0
SOLID
  5
339
330
333
100
AcDbEntity
  8
SLD-0
100
AcDbTrace
 10
43.4874561685
 20
497.1464307822
 30
0.0
 11
44.3642579596
 21
490.485341719
 31
0.0
 12
45.9769321354
 22
490.9061264387
 32
0.0
 13
45.9769321354
 23
490.9061264387
 33
0.0
  0
LINE
  5
33A
330
333
100
AcDbEntity
  8
SLD-0
100
AcDbLine
 10
113.3913548655
 20
365.7689125096
 30
0.0
 11
58.2436345759
 21
365.7689125096
 31
0.0
  0
LINE
  5
33B
330
333
100
AcDbEntity
  8
SLD-0
100
AcDbLine
 10
75.7807026605
 20
505.7993801007
 30
0.0
 11
41.0340045697
 21
496.4890304076
 31
0.0
  0
MTEXT
  5
33C
330
333
100
AcDbEntity
  8
SLD-0
100
AcDbMText
 10
49.4933421965
 20
427.4643876056
 30
0.0
 40
7.9375
 41
0.0
 71
     1
 72
     1
  1
15°
  7
SLDTEXTSTYLE0
 73
     1
 44
1.0
  0
ENDBLK
  5
335
330
333
100
AcDbEntity
  8
0
100
AcDbBlockEnd
  0
BLOCK
  5
33F
330
33E
100
AcDbEntity
  8
0
100
AcDbBlockBegin
  2
SW_NOTE_0_3
 70
     0
 10
0.0
 20
0.0
 30
0.0
  3
SW_NOTE_0_3
  1

  0
LINE
  5
341
330
33E
100
AcDbEntity
  8
SLD-0
 62
     0
100
AcDbLine
 10
0.0
 20
-10.1640317859
 30
0.0
 11
0.0
 21
9.0747804266
 31
0.0
  0
LINE
  5
342
330
33E
100
AcDbEntity
  8
SLD-0
 62
     0
100
AcDbLine
 10
0.0
 20
9.0747804266
 30
0.0
 11
19.2388122125
 21
9.0747804266
 31
0.0
  0
LINE
  5
343
330
33E
100
AcDbEntity
  8
SLD-0
 62
     0
100
AcDbLine
 10
19.2388122125
 20
9.0747804266
 30
0.0
 11
19.2388122125
 21
-10.1640317859
 31
0.0
  0
LINE
  5
344
330
33E
100
AcDbEntity
  8
SLD-0
 62
     0
100
AcDbLine
 10
19.2388122125
 20
-10.1640317859
 30
0.0
 11
0.0
 21
-10.1640317859
 31
0.0
  0
MTEXT
  5
345
330
33E
100
AcDbEntity
  8
SLD-0
 62
     0
100
AcDbMText
 10
9.5394798827
 20
3.319697855
 30
0.0
 40
7.9375
 41
0.0
 71
     2
 72
     1
  1
5
  7
SLDTEXTSTYLE0
 73
     1
 44
1.0
  0
ENDBLK
  5
340
330
33E
100
AcDbEntity
  8
0
100
AcDbBlockEnd
  0
BLOCK
  5
349
330
348
100
AcDbEntity
  8
0
100
AcDbBlockBegin
  2
SW_CENTERMARKSYMBOL_2
 70
     0
 10
0.0
 20
0.0
 30
0.0
  3
SW_CENTERMARKSYMBOL_2
  1

  0
LINE
  5
34B
330
348
100
AcDbEntity
  8
SLD-0
 62
     0
100
AcDbLine
 10
0.0
 20
0.0
 30
0.0
 11
0.0
 21
2.0
 31
0.0
  0
LINE
  5
34C
330
348
100
AcDbEntity
  8
SLD-0
 62
     0
100
AcDbLine
 10
0.0
 20
0.0
 30
0.0
 11
-2.0
 21
0.0
 31
0.0
  0
LINE
  5
34D
330
348
100
AcDbEntity
  8
SLD-0
 62
     0
100
AcDbLine
 10
0.0
 20
0.0
 30
0.0
 11
0.0
 21
-2.0
 31
0.0
  0
LINE
  5
34E
330
348
100
AcDbEntity
  8
SLD-0
 62
     0
100
AcDbLine
 10
0.0
 20
0.0
 30
0.0
 11
2.0
 21
0.0
 31
0.0
  0
LINE
  5
34F
330
348
100
AcDbEntity
  8
SLD-0
 62
     0
100
AcDbLine
 10
0.0
 20
4.0
 30
0.0
 11
0.0
 21
11.0
 31
0.0
  0
LINE
  5
350
330
348
100
AcDbEntity
  8
SLD-0
 62
     0
100
AcDbLine
 10
-4.0
 20
0.0
 30
0.0
 11
-11.0
 21
0.0
 31
0.0
  0
LINE
  5
351
330
348
100
AcDbEntity
  8
SLD-0
 62
     0
100
AcDbLine
 10
0.0
 20
-4.0
 30
0.0
 11
0.0
 21
-11.0
 31
0.0
  0
LINE
  5
352
330
348
100
AcDbEntity
  8
SLD-0
 62
     0
100
AcDbLine
 10
4.0
 20
0.0
 30
0.0
 11
11.0
 21
0.0
 31
0.0
  0
ENDBLK
  5
34A
330
348
100
AcDbEntity
  8
0
100
AcDbBlockEnd
  0
BLOCK
  5
3A2
330
3A1
100
AcDbEntity
  8
0
100
AcDbBlockBegin
  2
_D_12
 70
     0
 10
0.0
 20
0.0
 30
0.0
  3
_D_12
  1

  0
SOLID
  5
3A4
330
3A1
100
AcDbEntity
  8
SLD-0
100
AcDbTrace
 10
1289.8619148471
 20
439.9336161096
 30
0.0
 11
1283.6380918761
 21
442.4640145988
 31
0.0
 12
1283.2067268009
 22
440.8541382217
 32
0.0
 13
1283.2067268009
 23
440.8541382217
 33
0.0
  0
SOLID
  5
3A5
330
3A1
100
AcDbEntity
  8
SLD-0
100
AcDbTrace
 10
1306.282653894
 20
435.5336923428
 30
0.0
 11
1312.506476865
 21
433.0032938536
 31
0.0
 12
1312.9378419402
 22
434.6131702307
 32
0.0
 13
1312.9378419402
 23
434.6131702307
 33
0.0
  0
LINE
  5
3A6
330
3A1
100
AcDbEntity
  8
SLD-0
100
AcDbLine
 10
1329.9537754004
 20
427.2276411779
 30
0.0
 11
1327.5394523989
 21
427.2276411779
 31
0.0
  0
LINE
  5
3A7
330
3A1
100
AcDbEntity
  8
SLD-0
100
AcDbLine
 10
1327.5394523989
 20
427.2276411779
 30
0.0
 11
1327.5394523989
 21
414.6158354061
 31
0.0
  0
LINE
  5
3A8
330
3A1
100
AcDbEntity
  8
SLD-0
100
AcDbLine
 10
1327.5394523989
 20
414.6158354061
 30
0.0
 11
1329.9537754004
 21
414.6158354061
 31
0.0
  0
LINE
  5
3A9
330
3A1
100
AcDbEntity
  8
SLD-0
100
AcDbLine
 10
1344.608752337
 20
427.2276411779
 30
0.0
 11
1347.0230753385
 21
427.2276411779
 31
0.0
  0
LINE
  5
3AA
330
3A1
100
AcDbEntity
  8
SLD-0
100
AcDbLine
 10
1347.0230753385
 20
427.2276411779
 30
0.0
 11
1347.0230753385
 21
414.6158354061
 31
0.0
  0
LINE
  5
3AB
330
3A1
100
AcDbEntity
  8
SLD-0
100
AcDbLine
 10
1347.0230753385
 20
414.6158354061
 30
0.0
 11
1344.608752337
 21
414.6158354061
 31
0.0
  0
LINE
  5
3AC
330
3A1
100
AcDbEntity
  8
SLD-0
100
AcDbLine
 10
1271.1221053109
 20
369.9956947962
 30
0.0
 11
1290.5193152217
 21
442.3870677083
 31
0.0
  0
LINE
  5
3AD
330
3A1
100
AcDbEntity
  8
SLD-0
100
AcDbLine
 10
1300.4287368882
 20
413.6865766536
 30
0.0
 11
1306.9400542686
 21
437.9871439416
 31
0.0
  0
LINE
  5
3AE
330
3A1
100
AcDbEntity
  8
SLD-0
100
AcDbLine
 10
1289.8619148471
 20
439.9336161096
 30
0.0
 11
1276.9829038299
 21
443.3845367109
 31
0.0
  0
LINE
  5
3AF
330
3A1
100
AcDbEntity
  8
SLD-0
100
AcDbLine
 10
1306.282653894
 20
435.5336923428
 30
0.0
 11
1320.5909220112
 21
431.6998034557
 31
0.0
  0
MTEXT
  5
3B0
330
3A1
100
AcDbEntity
  8
SLD-0
100
AcDbMText
 10
1322.2000136047
 20
438.9761049557
 30
0.0
 40
7.9375
 41
0.0
 71
     1
 72
     1
  1
 
  7
SLDTEXTSTYLE0
 73
     1
 44
1.0
  0
MTEXT
  5
3B1
330
3A1
100
AcDbEntity
  8
SLD-0
100
AcDbMText
 10
1327.0213099203
 20
438.9761057318
 30
0.0
 40
7.9375
 41
0.0
 71
     1
 72
     1
  1
17.0
  7
SLDTEXTSTYLE0
 73
     1
 44
1.0
  0
MTEXT
  5
3B2
330
3A1
100
AcDbEntity
  8
SLD-0
100
AcDbMText
 10
1329.9537754004
 20
424.7547518097
 30
0.0
 40
7.9375
 41
0.0
 71
     1
 72
     1
  1
.67
  7
SLDTEXTSTYLE0
 73
     1
 44
1.0
  0
MTEXT
  5
3B3
330
3A1
100
AcDbEntity
  8
SLD-0
100
AcDbMText
 10
1349.4373991161
 20
438.9761049557
 30
0.0
 40
7.9375
 41
0.0
 71
     1
 72
     1
  1
 
  7
SLDTEXTSTYLE0
 73
     1
 44
1.0
  0
ENDBLK
  5
3A3
330
3A1
100
AcDbEntity
  8
0
100
AcDbBlockEnd
  0
BLOCK
  5
3B6
330
3B5
100
AcDbEntity
  8
0
100
AcDbBlockBegin
  2
_D_13
 70
     0
 10
0.0
 20
0.0
 30
0.0
  3
_D_13
  1

  0
SOLID
  5
3B8
330
3B5
100
AcDbEntity
  8
SLD-0
100
AcDbTrace
 10
1317.0137021784
 20
361.7987721506
 30
0.0
 11
1314.4833036892
 21
355.5749491796
 31
0.0
 12
1316.0931800663
 22
355.1435841044
 32
0.0
 13
1316.0931800663
 23
355.1435841044
 33
0.0
  0
SOLID
  5
3B9
330
3B5
100
AcDbEntity
  8
SLD-0
100
AcDbTrace
 10
1296.0493595251
 20
283.5587802212
 30
0.0
 11
1298.5797580144
 21
289.7826031922
 31
0.0
 12
1296.9698816372
 22
290.2139682674
 32
0.0
 13
1296.9698816372
 23
290.2139682674
 33
0.0
  0
LINE
  5
3BA
330
3B5
100
AcDbEntity
  8
SLD-0
100
AcDbLine
 10
1296.2715769034
 20
322.6787777381
 30
0.0
 11
1293.8572539019
 21
322.6787777381
 31
0.0
  0
LINE
  5
3BB
330
3B5
100
AcDbEntity
  8
SLD-0
100
AcDbLine
 10
1293.8572539019
 20
322.6787777381
 30
0.0
 11
1293.8572539019
 21
310.0669719663
 31
0.0
  0
LINE
  5
3BC
330
3B5
100
AcDbEntity
  8
SLD-0
100
AcDbLine
 10
1293.8572539019
 20
310.0669719663
 30
0.0
 11
1296.2715769034
 21
310.0669719663
 31
0.0
  0
LINE
  5
3BD
330
3B5
100
AcDbEntity
  8
SLD-0
100
AcDbLine
 10
1316.7914848001
 20
322.6787777381
 30
0.0
 11
1319.2058078016
 21
322.6787777381
 31
0.0
  0
LINE
  5
3BE
330
3B5
100
AcDbEntity
  8
SLD-0
100
AcDbLine
 10
1319.2058078016
 20
322.6787777381
 30
0.0
 11
1319.2058078016
 21
310.0669719663
 31
0.0
  0
LINE
  5
3BF
330
3B5
100
AcDbEntity
  8
SLD-0
100
AcDbLine
 10
1319.2058078016
 20
310.0669719663
 30
0.0
 11
1316.7914848001
 21
310.0669719663
 31
0.0
  0
LINE
  5
3C0
330
3B5
100
AcDbEntity
  8
SLD-0
100
AcDbLine
 10
1268.3219624574
 20
374.8456844869
 30
0.0
 11
1319.4671537772
 21
361.1413717761
 31
0.0
  0
LINE
  5
3C1
330
3B5
100
AcDbEntity
  8
SLD-0
100
AcDbLine
 10
1247.3576198041
 20
296.6056925575
 30
0.0
 11
1298.5028111239
 21
282.9013798467
 31
0.0
  0
LINE
  5
3C2
330
3B5
100
AcDbEntity
  8
SLD-0
100
AcDbLine
 10
1317.0137021784
 20
361.7987721506
 30
0.0
 11
1310.3421313584
 21
336.9001308841
 31
0.0
  0
LINE
  5
3C3
330
3B5
100
AcDbEntity
  8
SLD-0
100
AcDbLine
 10
1296.0493595251
 20
283.5587802212
 30
0.0
 11
1302.7209303451
 21
308.4574214878
 31
0.0
  0
MTEXT
  5
3C4
330
3B5
100
AcDbEntity
  8
SLD-0
100
AcDbMText
 10
1288.5178151077
 20
334.4272415159
 30
0.0
 40
7.9375
 41
0.0
 71
     1
 72
     1
  1
 
  7
SLDTEXTSTYLE0
 73
     1
 44
1.0
  0
MTEXT
  5
3C5
330
3B5
100
AcDbEntity
  8
SLD-0
100
AcDbMText
 10
1296.2715761273
 20
334.4272422921
 30
0.0
 40
7.9375
 41
0.0
 71
     1
 72
     1
  1
81.0
  7
SLDTEXTSTYLE0
 73
     1
 44
1.0
  0
MTEXT
  5
3C6
330
3B5
100
AcDbEntity
  8
SLD-0
100
AcDbMText
 10
1296.2715769034
 20
320.20588837
 30
0.0
 40
7.9375
 41
0.0
 71
     1
 72
     1
  1
3.19
  7
SLDTEXTSTYLE0
 73
     1
 44
1.0
  0
MTEXT
  5
3C7
330
3B5
100
AcDbEntity
  8
SLD-0
100
AcDbMText
 10
1321.620130027
 20
334.4272415159
 30
0.0
 40
7.9375
 41
0.0
 71
     1
 72
     1
  1
 
  7
SLDTEXTSTYLE0
 73
     1
 44
1.0
  0
ENDBLK
  5
3B7
330
3B5
100
AcDbEntity
  8
0
100
AcDbBlockEnd
  0
BLOCK
  5
3CA
330
3C9
100
AcDbEntity
  8
0
100
AcDbBlockBegin
  2
_D_14
 70
     0
 10
0.0
 20
0.0
 30
0.0
  3
_D_14
  1

  0
SOLID
  5
3CC
330
3C9
100
AcDbEntity
  8
SLD-0
100
AcDbTrace
 10
1222.2347998529
 20
458.0050183428
 30
0.0
 11
1228.4586228239
 21
455.4746198535
 31
0.0
 12
1228.8899878991
 22
457.0844962307
 32
0.0
 13
1228.8899878991
 23
457.0844962307
 33
0.0
  0
SOLID
  5
3CD
330
3C9
100
AcDbEntity
  8
SLD-0
100
AcDbTrace
 10
1289.8496076931
 20
439.8876851856
 30
0.0
 11
1283.6257847221
 21
442.4180836749
 31
0.0
 12
1283.1944196469
 22
440.8082072977
 32
0.0
 13
1283.1944196469
 23
440.8082072977
 33
0.0
  0
LINE
  5
3CE
330
3C9
100
AcDbEntity
  8
SLD-0
100
AcDbLine
 10
1245.7822498247
 20
448.9463533164
 30
0.0
 11
1243.3679268232
 21
448.9463533164
 31
0.0
  0
LINE
  5
3CF
330
3C9
100
AcDbEntity
  8
SLD-0
100
AcDbLine
 10
1243.3679268232
 20
448.9463533164
 30
0.0
 11
1243.3679268232
 21
436.3345475446
 31
0.0
  0
LINE
  5
3D0
330
3C9
100
AcDbEntity
  8
SLD-0
100
AcDbLine
 10
1243.3679268232
 20
436.3345475446
 30
0.0
 11
1245.7822498247
 21
436.3345475446
 31
0.0
  0
LINE
  5
3D1
330
3C9
100
AcDbEntity
  8
SLD-0
100
AcDbLine
 10
1266.3021577214
 20
448.9463533164
 30
0.0
 11
1268.7164807228
 21
448.9463533164
 31
0.0
  0
LINE
  5
3D2
330
3C9
100
AcDbEntity
  8
SLD-0
100
AcDbLine
 10
1268.7164807228
 20
448.9463533164
 30
0.0
 11
1268.7164807228
 21
436.3345475446
 31
0.0
  0
LINE
  5
3D3
330
3C9
100
AcDbEntity
  8
SLD-0
100
AcDbLine
 10
1268.7164807228
 20
436.3345475446
 30
0.0
 11
1266.3021577214
 21
436.3345475446
 31
0.0
  0
LINE
  5
3D4
330
3C9
100
AcDbEntity
  8
SLD-0
100
AcDbLine
 10
1203.5072974707
 20
388.1130279534
 30
0.0
 11
1222.8922002275
 21
460.4584699416
 31
0.0
  0
LINE
  5
3D5
330
3C9
100
AcDbEntity
  8
SLD-0
100
AcDbLine
 10
1271.1221053109
 20
369.9956947962
 30
0.0
 11
1290.5070080677
 21
442.3411367844
 31
0.0
  0
LINE
  5
3D6
330
3C9
100
AcDbEntity
  8
SLD-0
100
AcDbLine
 10
1222.2347998529
 20
458.0050183428
 30
0.0
 11
1236.4193964355
 21
454.2042671435
 31
0.0
  0
LINE
  5
3D7
330
3C9
100
AcDbEntity
  8
SLD-0
100
AcDbLine
 10
1289.8496076931
 20
439.8876851856
 30
0.0
 11
1275.6650111105
 21
443.6884363849
 31
0.0
  0
MTEXT
  5
3D8
330
3C9
100
AcDbEntity
  8
SLD-0
100
AcDbMText
 10
1238.028488029
 20
460.6948170942
 30
0.0
 40
7.9375
 41
0.0
 71
     1
 72
     1
  1
 
  7
SLDTEXTSTYLE0
 73
     1
 44
1.0
  0
MTEXT
  5
3D9
330
3C9
100
AcDbEntity
  8
SLD-0
100
AcDbMText
 10
1245.7822490486
 20
460.6948178703
 30
0.0
 40
7.9375
 41
0.0
 71
     1
 72
     1
  1
70.0
  7
SLDTEXTSTYLE0
 73
     1
 44
1.0
  0
MTEXT
  5
3DA
330
3C9
100
AcDbEntity
  8
SLD-0
100
AcDbMText
 10
1245.7822498247
 20
446.4734639483
 30
0.0
 40
7.9375
 41
0.0
 71
     1
 72
     1
  1
2.76
  7
SLDTEXTSTYLE0
 73
     1
 44
1.0
  0
MTEXT
  5
3DB
330
3C9
100
AcDbEntity
  8
SLD-0
100
AcDbMText
 10
1271.1308029482
 20
460.6948170942
 30
0.0
 40
7.9375
 41
0.0
 71
     1
 72
     1
  1
 
  7
SLDTEXTSTYLE0
 73
     1
 44
1.0
  0
ENDBLK
  5
3CB
330
3C9
100
AcDbEntity
  8
0
100
AcDbBlockEnd
  0
BLOCK
  5
3DE
330
3DD
100
AcDbEntity
  8
0
100
AcDbBlockBegin
  2
_D_15
 70
     0
 10
0.0
 20
0.0
 30
0.0
  3
_D_15
  1

  0
SOLID
  5
3E0
330
3DD
100
AcDbEntity
  8
SLD-0
100
AcDbTrace
 10
1296.0280527514
 20
283.564489354
 30
0.0
 11
1293.4976542622
 21
277.340666383
 31
0.0
 12
1295.1075306393
 22
276.9093013078
 32
0.0
 13
1295.1075306393
 23
276.9093013078
 33
0.0
  0
SOLID
  5
3E1
330
3DD
100
AcDbEntity
  8
SLD-0
100
AcDbTrace
 10
1289.75201034
 20
260.141980204
 30
0.0
 11
1292.2824088292
 21
266.365803175
 31
0.0
 12
1290.6725324521
 22
266.7971682501
 32
0.0
 13
1290.6725324521
 23
266.7971682501
 33
0.0
  0
LINE
  5
3E2
330
3DD
100
AcDbEntity
  8
SLD-0
100
AcDbLine
 10
1276.6843391179
 20
238.7193309711
 30
0.0
 11
1274.2700161165
 21
238.7193309711
 31
0.0
  0
LINE
  5
3E3
330
3DD
100
AcDbEntity
  8
SLD-0
100
AcDbLine
 10
1274.2700161165
 20
238.7193309711
 30
0.0
 11
1274.2700161165
 21
226.1075251993
 31
0.0
  0
LINE
  5
3E4
330
3DD
100
AcDbEntity
  8
SLD-0
100
AcDbLine
 10
1274.2700161165
 20
226.1075251993
 30
0.0
 11
1276.6843391179
 21
226.1075251993
 31
0.0
  0
LINE
  5
3E5
330
3DD
100
AcDbEntity
  8
SLD-0
100
AcDbLine
 10
1291.3393160546
 20
238.7193309711
 30
0.0
 11
1293.7536390561
 21
238.7193309711
 31
0.0
  0
LINE
  5
3E6
330
3DD
100
AcDbEntity
  8
SLD-0
100
AcDbLine
 10
1293.7536390561
 20
238.7193309711
 30
0.0
 11
1293.7536390561
 21
226.1075251993
 31
0.0
  0
LINE
  5
3E7
330
3DD
100
AcDbEntity
  8
SLD-0
100
AcDbLine
 10
1293.7536390561
 20
226.1075251993
 30
0.0
 11
1291.3393160546
 21
226.1075251993
 31
0.0
  0
LINE
  5
3E8
330
3DD
100
AcDbEntity
  8
SLD-0
100
AcDbLine
 10
1247.3576198041
 20
296.6056925575
 30
0.0
 11
1298.4815043502
 21
282.9070889794
 31
0.0
  0
LINE
  5
3E9
330
3DD
100
AcDbEntity
  8
SLD-0
100
AcDbLine
 10
1265.0398245663
 20
266.7635904252
 30
0.0
 11
1292.2054619388
 21
259.4845798294
 31
0.0
  0
LINE
  5
3EA
330
3DD
100
AcDbEntity
  8
SLD-0
100
AcDbLine
 10
1296.0280527514
 20
283.564489354
 30
0.0
 11
1289.75201034
 21
260.141980204
 31
0.0
  0
LINE
  5
3EB
330
3DD
100
AcDbEntity
  8
SLD-0
100
AcDbLine
 10
1289.75201034
 20
260.141980204
 30
0.0
 11
1287.822428869
 21
252.940684117
 31
0.0
  0
MTEXT
  5
3EC
330
3DD
100
AcDbEntity
  8
SLD-0
100
AcDbMText
 10
1268.9305773223
 20
250.4677947489
 30
0.0
 40
7.9375
 41
0.0
 71
     1
 72
     1
  1
 
  7
SLDTEXTSTYLE0
 73
     1
 44
1.0
  0
MTEXT
  5
3ED
330
3DD
100
AcDbEntity
  8
SLD-0
100
AcDbMText
 10
1273.7518736379
 20
250.467795525
 30
0.0
 40
7.9375
 41
0.0
 71
     1
 72
     1
  1
24.2
  7
SLDTEXTSTYLE0
 73
     1
 44
1.0
  0
MTEXT
  5
3EE
330
3DD
100
AcDbEntity
  8
SLD-0
100
AcDbMText
 10
1276.6843391179
 20
236.246441603
 30
0.0
 40
7.9375
 41
0.0
 71
     1
 72
     1
  1
.95
  7
SLDTEXTSTYLE0
 73
     1
 44
1.0
  0
MTEXT
  5
3EF
330
3DD
100
AcDbEntity
  8
SLD-0
100
AcDbMText
 10
1296.1679628337
 20
250.4677947489
 30
0.0
 40
7.9375
 41
0.0
 71
     1
 72
     1
  1
 
  7
SLDTEXTSTYLE0
 73
     1
 44
1.0
  0
ENDBLK
  5
3DF
330
3DD
100
AcDbEntity
  8
0
100
AcDbBlockEnd
  0
BLOCK
  5
3F2
330
3F1
100
AcDbEntity
  8
0
100
AcDbBlockBegin
  2
_D_16
 70
     0
 10
0.0
 20
0.0
 30
0.0
  3
_D_16
  1

  0
SOLID
  5
3F4
330
3F1
100
AcDbEntity
  8
SLD-0
100
AcDbTrace
 10
1060.9039067071
 20
410.2870633119
 30
0.0
 11
1058.3735082178
 21
404.0632403409
 31
0.0
 12
1059.983384595
 22
403.6318752657
 32
0.0
 13
1059.983384595
 23
403.6318752657
 33
0.0
  0
SOLID
  5
3F5
330
3F1
100
AcDbEntity
  8
SLD-0
100
AcDbTrace
 10
1045.3747640009
 20
352.3315137345
 30
0.0
 11
1047.9051624902
 21
358.5553367056
 31
0.0
 12
1046.295286113
 22
358.9867017807
 32
0.0
 13
1046.295286113
 23
358.9867017807
 33
0.0
  0
LINE
  5
3F6
330
3F1
100
AcDbEntity
  8
SLD-0
100
AcDbLine
 10
1042.8793814056
 20
381.3092900754
 30
0.0
 11
1040.4650584042
 21
381.3092900754
 31
0.0
  0
LINE
  5
3F7
330
3F1
100
AcDbEntity
  8
SLD-0
100
AcDbLine
 10
1040.4650584042
 20
381.3092900754
 30
0.0
 11
1040.4650584042
 21
368.6974843036
 31
0.0
  0
LINE
  5
3F8
330
3F1
100
AcDbEntity
  8
SLD-0
100
AcDbLine
 10
1040.4650584042
 20
368.6974843036
 30
0.0
 11
1042.8793814056
 21
368.6974843036
 31
0.0
  0
LINE
  5
3F9
330
3F1
100
AcDbEntity
  8
SLD-0
100
AcDbLine
 10
1063.3992893024
 20
381.3092900754
 30
0.0
 11
1065.8136123038
 21
381.3092900754
 31
0.0
  0
LINE
  5
3FA
330
3F1
100
AcDbEntity
  8
SLD-0
100
AcDbLine
 10
1065.8136123038
 20
381.3092900754
 30
0.0
 11
1065.8136123038
 21
368.6974843036
 31
0.0
  0
LINE
  5
3FB
330
3F1
100
AcDbEntity
  8
SLD-0
100
AcDbLine
 10
1065.8136123038
 20
368.6974843036
 30
0.0
 11
1063.3992893024
 21
368.6974843036
 31
0.0
  0
LINE
  5
3FC
330
3F1
100
AcDbEntity
  8
SLD-0
100
AcDbLine
 10
1141.407411269
 20
388.7162142767
 30
0.0
 11
1058.4504551083
 21
410.9444636865
 31
0.0
  0
LINE
  5
3FD
330
3F1
100
AcDbEntity
  8
SLD-0
100
AcDbLine
 10
1125.8782685628
 20
330.7606646993
 30
0.0
 11
1042.9213124022
 21
352.9889141091
 31
0.0
  0
LINE
  5
3FE
330
3F1
100
AcDbEntity
  8
SLD-0
100
AcDbLine
 10
1060.9039067071
 20
410.2870633119
 30
0.0
 11
1056.9499358606
 21
395.5306432214
 31
0.0
  0
LINE
  5
3FF
330
3F1
100
AcDbEntity
  8
SLD-0
100
AcDbLine
 10
1045.3747640009
 20
352.3315137345
 30
0.0
 11
1049.3287348474
 21
367.0879338251
 31
0.0
  0
MTEXT
  5
400
330
3F1
100
AcDbEntity
  8
SLD-0
100
AcDbMText
 10
1035.12561961
 20
393.0577538533
 30
0.0
 40
7.9375
 41
0.0
 71
     1
 72
     1
  1
 
  7
SLDTEXTSTYLE0
 73
     1
 44
1.0
  0
MTEXT
  5
401
330
3F1
100
AcDbEntity
  8
SLD-0
100
AcDbMText
 10
1042.8793806295
 20
393.0577546294
 30
0.0
 40
7.9375
 41
0.0
 71
     1
 72
     1
  1
60.0
  7
SLDTEXTSTYLE0
 73
     1
 44
1.0
  0
MTEXT
  5
402
330
3F1
100
AcDbEntity
  8
SLD-0
100
AcDbMText
 10
1042.8793814056
 20
378.8364007073
 30
0.0
 40
7.9375
 41
0.0
 71
     1
 72
     1
  1
2.36
  7
SLDTEXTSTYLE0
 73
     1
 44
1.0
  0
MTEXT
  5
403
330
3F1
100
AcDbEntity
  8
SLD-0
100
AcDbMText
 10
1068.2279345292
 20
393.0577538533
 30
0.0
 40
7.9375
 41
0.0
 71
     1
 72
     1
  1
 
  7
SLDTEXTSTYLE0
 73
     1
 44
1.0
  0
ENDBLK
  5
3F3
330
3F1
100
AcDbEntity
  8
0
100
AcDbBlockEnd
  0
BLOCK
  5
406
330
405
100
AcDbEntity
  8
0
100
AcDbBlockBegin
  2
_D_17
 70
     0
 10
0.0
 20
0.0
 30
0.0
  3
_D_17
  1

  0
SOLID
  5
408
330
405
100
AcDbEntity
  8
SLD-0
100
AcDbTrace
 10
1173.768113913
 20
470.3100491986
 30
0.0
 11
1167.544290942
 21
472.8404476878
 31
0.0
 12
1167.1129258669
 22
471.2305713107
 32
0.0
 13
1167.1129258669
 23
471.2305713107
 33
0.0
  0
SOLID
  5
409
330
405
100
AcDbEntity
  8
SLD-0
100
AcDbTrace
 10
1112.9147868568
 20
486.61564904
 30
0.0
 11
1119.1386098278
 21
484.0852505508
 31
0.0
 12
1119.569974903
 22
485.6951269279
 32
0.0
 13
1119.569974903
 23
485.6951269279
 33
0.0
  0
LINE
  5
40A
330
405
100
AcDbEntity
  8
SLD-0
100
AcDbLine
 10
1133.0814964366
 20
478.4628506715
 30
0.0
 11
1130.6671734351
 21
478.4628506715
 31
0.0
  0
LINE
  5
40B
330
405
100
AcDbEntity
  8
SLD-0
100
AcDbLine
 10
1130.6671734351
 20
478.4628506715
 30
0.0
 11
1130.6671734351
 21
465.8510448997
 31
0.0
  0
LINE
  5
40C
330
405
100
AcDbEntity
  8
SLD-0
100
AcDbLine
 10
1130.6671734351
 20
465.8510448997
 30
0.0
 11
1133.0814964366
 21
465.8510448997
 31
0.0
  0
LINE
  5
40D
330
405
100
AcDbEntity
  8
SLD-0
100
AcDbLine
 10
1153.6014043333
 20
478.4628506715
 30
0.0
 11
1156.0157273348
 21
478.4628506715
 31
0.0
  0
LINE
  5
40E
330
405
100
AcDbEntity
  8
SLD-0
100
AcDbLine
 10
1156.0157273348
 20
478.4628506715
 30
0.0
 11
1156.0157273348
 21
465.8510448997
 31
0.0
  0
LINE
  5
40F
330
405
100
AcDbEntity
  8
SLD-0
100
AcDbLine
 10
1156.0157273348
 20
465.8510448997
 30
0.0
 11
1153.6014043333
 21
465.8510448997
 31
0.0
  0
LINE
  5
410
330
405
100
AcDbEntity
  8
SLD-0
100
AcDbLine
 10
1153.8263242649
 20
395.8862770379
 30
0.0
 11
1174.4255142876
 21
472.7635007973
 31
0.0
  0
LINE
  5
411
330
405
100
AcDbEntity
  8
SLD-0
100
AcDbLine
 10
1107.3092423192
 20
465.6954720215
 30
0.0
 11
1113.5721872314
 21
489.0691006388
 31
0.0
  0
LINE
  5
412
330
405
100
AcDbEntity
  8
SLD-0
100
AcDbLine
 10
1173.768113913
 20
470.3100491986
 30
0.0
 11
1162.9642577224
 21
473.20493374
 31
0.0
  0
LINE
  5
413
330
405
100
AcDbEntity
  8
SLD-0
100
AcDbLine
 10
1112.9147868568
 20
486.61564904
 30
0.0
 11
1123.7186430474
 21
483.7207644986
 31
0.0
  0
MTEXT
  5
414
330
405
100
AcDbEntity
  8
SLD-0
100
AcDbMText
 10
1125.3277346409
 20
490.2113144493
 30
0.0
 40
7.9375
 41
0.0
 71
     1
 72
     1
  1
 
  7
SLDTEXTSTYLE0
 73
     1
 44
1.0
  0
MTEXT
  5
415
330
405
100
AcDbEntity
  8
SLD-0
100
AcDbMText
 10
1133.0814956605
 20
490.2113152254
 30
0.0
 40
7.9375
 41
0.0
 71
     1
 72
     1
  1
63.0
  7
SLDTEXTSTYLE0
 73
     1
 44
1.0
  0
MTEXT
  5
416
330
405
100
AcDbEntity
  8
SLD-0
100
AcDbMText
 10
1133.0814964366
 20
475.9899613034
 30
0.0
 40
7.9375
 41
0.0
 71
     1
 72
     1
  1
2.48
  7
SLDTEXTSTYLE0
 73
     1
 44
1.0
  0
MTEXT
  5
417
330
405
100
AcDbEntity
  8
SLD-0
100
AcDbMText
 10
1158.4300495601
 20
490.2113144493
 30
0.0
 40
7.9375
 41
0.0
 71
     1
 72
     1
  1
 
  7
SLDTEXTSTYLE0
 73
     1
 44
1.0
  0
ENDBLK
  5
407
330
405
100
AcDbEntity
  8
0
100
AcDbBlockEnd
  0
BLOCK
  5
41A
330
419
100
AcDbEntity
  8
0
100
AcDbBlockBegin
  2
_D_18
 70
     0
 10
0.0
 20
0.0
 30
0.0
  3
_D_18
  1

  0
SOLID
  5
41C
330
419
100
AcDbEntity
  8
SLD-0
100
AcDbTrace
 10
1045.0939947202
 20
352.4067456366
 30
0.0
 11
1042.5635962309
 21
346.1829226656
 31
0.0
 12
1044.173472608
 22
345.7515575904
 32
0.0
 13
1044.173472608
 23
345.7515575904
 33
0.0
  0
SOLID
  5
41D
330
419
100
AcDbEntity
  8
SLD-0
100
AcDbTrace
 10
1038.4167827888
 20
327.4870514558
 30
0.0
 11
1040.947181278
 21
333.7108744268
 31
0.0
 12
1039.3373049009
 22
334.142239502
 32
0.0
 13
1039.3373049009
 23
334.142239502
 33
0.0
  0
LINE
  5
41E
330
419
100
AcDbEntity
  8
SLD-0
100
AcDbLine
 10
1022.2543376614
 20
305.4586560368
 30
0.0
 11
1019.8400146599
 21
305.4586560368
 31
0.0
  0
LINE
  5
41F
330
419
100
AcDbEntity
  8
SLD-0
100
AcDbLine
 10
1019.8400146599
 20
305.4586560368
 30
0.0
 11
1019.8400146599
 21
292.846850265
 31
0.0
  0
LINE
  5
420
330
419
100
AcDbEntity
  8
SLD-0
100
AcDbLine
 10
1019.8400146599
 20
292.846850265
 30
0.0
 11
1022.2543376614
 21
292.846850265
 31
0.0
  0
LINE
  5
421
330
419
100
AcDbEntity
  8
SLD-0
100
AcDbLine
 10
1042.7742455581
 20
305.4586560368
 30
0.0
 11
1045.1885685596
 21
305.4586560368
 31
0.0
  0
LINE
  5
422
330
419
100
AcDbEntity
  8
SLD-0
100
AcDbLine
 10
1045.1885685596
 20
305.4586560368
 30
0.0
 11
1045.1885685596
 21
292.846850265
 31
0.0
  0
LINE
  5
423
330
419
100
AcDbEntity
  8
SLD-0
100
AcDbLine
 10
1045.1885685596
 20
292.846850265
 30
0.0
 11
1042.7742455581
 21
292.846850265
 31
0.0
  0
LINE
  5
424
330
419
100
AcDbEntity
  8
SLD-0
100
AcDbLine
 10
1125.8782685628
 20
330.7606646993
 30
0.0
 11
1042.6405431214
 21
353.0641460112
 31
0.0
  0
LINE
  5
425
330
419
100
AcDbEntity
  8
SLD-0
100
AcDbLine
 10
1062.5467029472
 20
321.0214588359
 30
0.0
 11
1035.96333119
 21
328.1444518304
 31
0.0
  0
LINE
  5
426
330
419
100
AcDbEntity
  8
SLD-0
100
AcDbLine
 10
1045.0939947202
 20
352.4067456366
 30
0.0
 11
1038.4167827888
 21
327.4870514558
 31
0.0
  0
LINE
  5
427
330
419
100
AcDbEntity
  8
SLD-0
100
AcDbLine
 10
1038.4167827888
 20
327.4870514558
 30
0.0
 11
1036.3248921164
 21
319.6800091827
 31
0.0
  0
MTEXT
  5
428
330
419
100
AcDbEntity
  8
SLD-0
100
AcDbMText
 10
1014.5005758658
 20
317.2071198146
 30
0.0
 40
7.9375
 41
0.0
 71
     1
 72
     1
  1
 
  7
SLDTEXTSTYLE0
 73
     1
 44
1.0
  0
MTEXT
  5
429
330
419
100
AcDbEntity
  8
SLD-0
100
AcDbMText
 10
1022.2543368853
 20
317.2071205907
 30
0.0
 40
7.9375
 41
0.0
 71
     1
 72
     1
  1
25.8
  7
SLDTEXTSTYLE0
 73
     1
 44
1.0
  0
MTEXT
  5
42A
330
419
100
AcDbEntity
  8
SLD-0
100
AcDbMText
 10
1022.2543376614
 20
302.9857666686
 30
0.0
 40
7.9375
 41
0.0
 71
     1
 72
     1
  1
1.02
  7
SLDTEXTSTYLE0
 73
     1
 44
1.0
  0
MTEXT
  5
42B
330
419
100
AcDbEntity
  8
SLD-0
100
AcDbMText
 10
1047.602890785
 20
317.2071198146
 30
0.0
 40
7.9375
 41
0.0
 71
     1
 72
     1
  1
 
  7
SLDTEXTSTYLE0
 73
     1
 44
1.0
  0
ENDBLK
  5
41B
330
419
100
AcDbEntity
  8
0
100
AcDbBlockEnd
  0
BLOCK
  5
42E
330
42D
100
AcDbEntity
  8
0
100
AcDbBlockBegin
  2
SW_NOTE_0_4
 70
     0
 10
0.0
 20
0.0
 30
0.0
  3
SW_NOTE_0_4
  1

  0
LINE
  5
430
330
42D
100
AcDbEntity
  8
SLD-0
 62
     0
100
AcDbLine
 10
-19.2388122125
 20
-9.7457967378
 30
0.0
 11
-19.2388122125
 21
9.4930154747
 31
0.0
  0
LINE
  5
431
330
42D
100
AcDbEntity
  8
SLD-0
 62
     0
100
AcDbLine
 10
-19.2388122125
 20
9.4930154747
 30
0.0
 11
0.0
 21
9.4930154747
 31
0.0
  0
LINE
  5
432
330
42D
100
AcDbEntity
  8
SLD-0
 62
     0
100
AcDbLine
 10
0.0
 20
9.4930154747
 30
0.0
 11
0.0
 21
-9.7457967378
 31
0.0
  0
LINE
  5
433
330
42D
100
AcDbEntity
  8
SLD-0
 62
     0
100
AcDbLine
 10
0.0
 20
-9.7457967378
 30
0.0
 11
-19.2388122125
 21
-9.7457967378
 31
0.0
  0
MTEXT
  5
434
330
42D
100
AcDbEntity
  8
SLD-0
 62
     0
100
AcDbMText
 10
-9.6993323297
 20
3.7379329031
 30
0.0
 40
7.9375
 41
0.0
 71
     2
 72
     1
  1
4
  7
SLDTEXTSTYLE0
 73
     1
 44
1.0
  0
ENDBLK
  5
42F
330
42D
100
AcDbEntity
  8
0
100
AcDbBlockEnd
  0
BLOCK
  5
439
330
438
100
AcDbEntity
  8
0
100
AcDbBlockBegin
  2
SW_CENTERMARKSYMBOL_3
 70
     0
 10
0.0
 20
0.0
 30
0.0
  3
SW_CENTERMARKSYMBOL_3
  1

  0
LINE
  5
43B
330
438
100
AcDbEntity
  8
SLD-0
 62
     0
100
AcDbLine
 10
0.0
 20
0.0
 30
0.0
 11
0.5176380902
 21
1.9318516526
 31
0.0
  0
LINE
  5
43C
330
438
100
AcDbEntity
  8
SLD-0
 62
     0
100
AcDbLine
 10
0.0
 20
0.0
 30
0.0
 11
-1.9318516526
 21
0.5176380902
 31
0.0
  0
LINE
  5
43D
330
438
100
AcDbEntity
  8
SLD-0
 62
     0
100
AcDbLine
 10
0.0
 20
0.0
 30
0.0
 11
-0.5176380902
 21
-1.9318516526
 31
0.0
  0
LINE
  5
43E
330
438
100
AcDbEntity
  8
SLD-0
 62
     0
100
AcDbLine
 10
0.0
 20
0.0
 30
0.0
 11
1.9318516526
 21
-0.5176380902
 31
0.0
  0
LINE
  5
43F
330
438
100
AcDbEntity
  8
SLD-0
 62
     0
100
AcDbLine
 10
1.0352761804
 20
3.8637033052
 30
0.0
 11
1.9670247428
 21
7.3410362798
 31
0.0
  0
LINE
  5
440
330
438
100
AcDbEntity
  8
SLD-0
 62
     0
100
AcDbLine
 10
-3.8637033052
 20
1.0352761804
 30
0.0
 11
-7.3410362798
 21
1.9670247428
 31
0.0
  0
LINE
  5
441
330
438
100
AcDbEntity
  8
SLD-0
 62
     0
100
AcDbLine
 10
-1.0352761804
 20
-3.8637033052
 30
0.0
 11
-1.9670247428
 21
-7.3410362798
 31
0.0
  0
LINE
  5
442
330
438
100
AcDbEntity
  8
SLD-0
 62
     0
100
AcDbLine
 10
3.8637033052
 20
-1.0352761804
 30
0.0
 11
7.3410362798
 21
-1.9670247428
 31
0.0
  0
ENDBLK
  5
43A
330
438
100
AcDbEntity
  8
0
100
AcDbBlockEnd
  0
BLOCK
  5
445
330
444
100
AcDbEntity
  8
0
100
AcDbBlockBegin
  2
SW_CENTERMARKSYMBOL_4
 70
     0
 10
0.0
 20
0.0
 30
0.0
  3
SW_CENTERMARKSYMBOL_4
  1

  0
LINE
  5
447
330
444
100
AcDbEntity
  8
SLD-0
 62
     0
100
AcDbLine
 10
0.0
 20
0.0
 30
0.0
 11
0.5176380902
 21
1.9318516526
 31
0.0
  0
LINE
  5
448
330
444
100
AcDbEntity
  8
SLD-0
 62
     0
100
AcDbLine
 10
0.0
 20
0.0
 30
0.0
 11
-1.9318516526
 21
0.5176380902
 31
0.0
  0
LINE
  5
449
330
444
100
AcDbEntity
  8
SLD-0
 62
     0
100
AcDbLine
 10
0.0
 20
0.0
 30
0.0
 11
-0.5176380902
 21
-1.9318516526
 31
0.0
  0
LINE
  5
44A
330
444
100
AcDbEntity
  8
SLD-0
 62
     0
100
AcDbLine
 10
0.0
 20
0.0
 30
0.0
 11
1.9318516526
 21
-0.5176380902
 31
0.0
  0
LINE
  5
44B
330
444
100
AcDbEntity
  8
SLD-0
 62
     0
100
AcDbLine
 10
1.0352761804
 20
3.8637033052
 30
0.0
 11
1.9670247428
 21
7.3410362798
 31
0.0
  0
LINE
  5
44C
330
444
100
AcDbEntity
  8
SLD-0
 62
     0
100
AcDbLine
 10
-3.8637033052
 20
1.0352761804
 30
0.0
 11
-7.3410362798
 21
1.9670247428
 31
0.0
  0
LINE
  5
44D
330
444
100
AcDbEntity
  8
SLD-0
 62
     0
100
AcDbLine
 10
-1.0352761804
 20
-3.8637033052
 30
0.0
 11
-1.9670247428
 21
-7.3410362798
 31
0.0
  0
LINE
  5
44E
330
444
100
AcDbEntity
  8
SLD-0
 62
     0
100
AcDbLine
 10
3.8637033052
 20
-1.0352761804
 30
0.0
 11
7.3410362798
 21
-1.9670247428
 31
0.0
  0
ENDBLK
  5
446
330
444
100
AcDbEntity
  8
0
100
AcDbBlockEnd
  0
BLOCK
  5
472
330
471
100
AcDbEntity
  8
0
100
AcDbBlockBegin
  2
_D_19
 70
     0
 10
0.0
 20
0.0
 30
0.0
  3
_D_19
  1

  0
SOLID
  5
474
330
471
100
AcDbEntity
  8
SLD-0
100
AcDbTrace
 10
967.2322008842
 20
633.301976917
 30
0.0
 11
961.0083779132
 21
635.8323754062
 31
0.0
 12
960.577012838
 22
634.2224990291
 32
0.0
 13
960.577012838
 23
634.2224990291
 33
0.0
  0
SOLID
  5
475
330
471
100
AcDbEntity
  8
SLD-0
100
AcDbTrace
 10
940.1862777481
 20
640.5489101798
 30
0.0
 11
946.4101007191
 21
638.0185116906
 31
0.0
 12
946.8414657943
 22
639.6283880677
 32
0.0
 13
946.8414657943
 23
639.6283880677
 33
0.0
  0
LINE
  5
476
330
471
100
AcDbEntity
  8
SLD-0
100
AcDbLine
 10
987.4763934444
 20
625.1284170464
 30
0.0
 11
985.0620704429
 21
625.1284170464
 31
0.0
  0
LINE
  5
477
330
471
100
AcDbEntity
  8
SLD-0
100
AcDbLine
 10
985.0620704429
 20
625.1284170464
 30
0.0
 11
985.0620704429
 21
612.5166112746
 31
0.0
  0
LINE
  5
478
330
471
100
AcDbEntity
  8
SLD-0
100
AcDbLine
 10
985.0620704429
 20
612.5166112746
 30
0.0
 11
987.4763934444
 21
612.5166112746
 31
0.0
  0
LINE
  5
479
330
471
100
AcDbEntity
  8
SLD-0
100
AcDbLine
 10
1007.9963013411
 20
625.1284170464
 30
0.0
 11
1010.4106243426
 21
625.1284170464
 31
0.0
  0
LINE
  5
47A
330
471
100
AcDbEntity
  8
SLD-0
100
AcDbLine
 10
1010.4106243426
 20
625.1284170464
 30
0.0
 11
1010.4106243426
 21
612.5166112746
 31
0.0
  0
LINE
  5
47B
330
471
100
AcDbEntity
  8
SLD-0
100
AcDbLine
 10
1010.4106243426
 20
612.5166112746
 30
0.0
 11
1007.9963013411
 21
612.5166112746
 31
0.0
  0
LINE
  5
47C
330
471
100
AcDbEntity
  8
SLD-0
100
AcDbLine
 10
972.7179776895
 20
653.7751746733
 30
0.0
 11
966.5748005096
 21
630.8485253182
 31
0.0
  0
LINE
  5
47D
330
471
100
AcDbEntity
  8
SLD-0
100
AcDbLine
 10
970.2604290193
 20
752.7871707187
 30
0.0
 11
939.5288773735
 21
638.0954585811
 31
0.0
  0
LINE
  5
47E
330
471
100
AcDbEntity
  8
SLD-0
100
AcDbLine
 10
967.2322008842
 20
633.301976917
 30
0.0
 11
978.1135400552
 21
630.3863308735
 31
0.0
  0
LINE
  5
47F
330
471
100
AcDbEntity
  8
SLD-0
100
AcDbLine
 10
940.1862777481
 20
640.5489101798
 30
0.0
 11
967.2322008842
 21
633.301976917
 31
0.0
  0
MTEXT
  5
480
330
471
100
AcDbEntity
  8
SLD-0
100
AcDbMText
 10
979.7226316487
 20
636.8768808242
 30
0.0
 40
7.9375
 41
0.0
 71
     1
 72
     1
  1
 
  7
SLDTEXTSTYLE0
 73
     1
 44
1.0
  0
MTEXT
  5
481
330
471
100
AcDbEntity
  8
SLD-0
100
AcDbMText
 10
987.4763926683
 20
636.8768816003
 30
0.0
 40
7.9375
 41
0.0
 71
     1
 72
     1
  1
28.0
  7
SLDTEXTSTYLE0
 73
     1
 44
1.0
  0
MTEXT
  5
482
330
471
100
AcDbEntity
  8
SLD-0
100
AcDbMText
 10
987.4763934444
 20
622.6555276783
 30
0.0
 40
7.9375
 41
0.0
 71
     1
 72
     1
  1
1.10
  7
SLDTEXTSTYLE0
 73
     1
 44
1.0
  0
MTEXT
  5
483
330
471
100
AcDbEntity
  8
SLD-0
100
AcDbMText
 10
1012.8249465679
 20
636.8768808242
 30
0.0
 40
7.9375
 41
0.0
 71
     1
 72
     1
  1
 
  7
SLDTEXTSTYLE0
 73
     1
 44
1.0
  0
ENDBLK
  5
473
330
471
100
AcDbEntity
  8
0
100
AcDbBlockEnd
  0
BLOCK
  5
486
330
485
100
AcDbEntity
  8
0
100
AcDbBlockBegin
  2
_D_20
 70
     0
 10
0.0
 20
0.0
 30
0.0
  3
_D_20
  1

  0
SOLID
  5
488
330
485
100
AcDbEntity
  8
SLD-0
100
AcDbTrace
 10
940.2186364811
 20
640.6696746155
 30
0.0
 11
933.9948135101
 21
643.2000731047
 31
0.0
 12
933.5634484349
 22
641.5901967276
 32
0.0
 13
933.5634484349
 23
641.5901967276
 33
0.0
  0
SOLID
  5
489
330
485
100
AcDbEntity
  8
SLD-0
100
AcDbTrace
 10
882.2630869037
 20
656.1988173216
 30
0.0
 11
888.4869098747
 21
653.6684188324
 31
0.0
 12
888.9182749499
 22
655.2782952095
 32
0.0
 13
888.9182749499
 23
655.2782952095
 33
0.0
  0
LINE
  5
48A
330
485
100
AcDbEntity
  8
SLD-0
100
AcDbLine
 10
833.443659464
 20
666.5307986564
 30
0.0
 11
831.0293364625
 21
666.5307986564
 31
0.0
  0
LINE
  5
48B
330
485
100
AcDbEntity
  8
SLD-0
100
AcDbLine
 10
831.0293364625
 20
666.5307986564
 30
0.0
 11
831.0293364625
 21
653.9189928846
 31
0.0
  0
LINE
  5
48C
330
485
100
AcDbEntity
  8
SLD-0
100
AcDbLine
 10
831.0293364625
 20
653.9189928846
 30
0.0
 11
833.443659464
 21
653.9189928846
 31
0.0
  0
LINE
  5
48D
330
485
100
AcDbEntity
  8
SLD-0
100
AcDbLine
 10
853.9635673607
 20
666.5307986564
 30
0.0
 11
856.3778903622
 21
666.5307986564
 31
0.0
  0
LINE
  5
48E
330
485
100
AcDbEntity
  8
SLD-0
100
AcDbLine
 10
856.3778903622
 20
666.5307986564
 30
0.0
 11
856.3778903622
 21
653.9189928846
 31
0.0
  0
LINE
  5
48F
330
485
100
AcDbEntity
  8
SLD-0
100
AcDbLine
 10
856.3778903622
 20
653.9189928846
 30
0.0
 11
853.9635673607
 21
653.9189928846
 31
0.0
  0
LINE
  5
490
330
485
100
AcDbEntity
  8
SLD-0
100
AcDbLine
 10
970.2604290193
 20
752.7871707187
 30
0.0
 11
939.5612361065
 21
638.2162230167
 31
0.0
  0
LINE
  5
491
330
485
100
AcDbEntity
  8
SLD-0
100
AcDbLine
 10
912.304879442
 20
768.3163134249
 30
0.0
 11
881.6056865292
 21
653.7453657228
 31
0.0
  0
LINE
  5
492
330
485
100
AcDbEntity
  8
SLD-0
100
AcDbLine
 10
940.2186364811
 20
640.6696746155
 30
0.0
 11
882.2630869037
 21
656.1988173216
 31
0.0
  0
LINE
  5
493
330
485
100
AcDbEntity
  8
SLD-0
100
AcDbLine
 10
882.2630869037
 20
656.1988173216
 30
0.0
 11
863.3264207499
 21
661.2728817249
 31
0.0
  0
MTEXT
  5
494
330
485
100
AcDbEntity
  8
SLD-0
100
AcDbMText
 10
825.6898976683
 20
678.2792624342
 30
0.0
 40
7.9375
 41
0.0
 71
     1
 72
     1
  1
 
  7
SLDTEXTSTYLE0
 73
     1
 44
1.0
  0
MTEXT
  5
495
330
485
100
AcDbEntity
  8
SLD-0
100
AcDbMText
 10
833.4436586879
 20
678.2792632103
 30
0.0
 40
7.9375
 41
0.0
 71
     1
 72
     1
  1
60.0
  7
SLDTEXTSTYLE0
 73
     1
 44
1.0
  0
MTEXT
  5
496
330
485
100
AcDbEntity
  8
SLD-0
100
AcDbMText
 10
833.443659464
 20
664.0579092883
 30
0.0
 40
7.9375
 41
0.0
 71
     1
 72
     1
  1
2.36
  7
SLDTEXTSTYLE0
 73
     1
 44
1.0
  0
MTEXT
  5
497
330
485
100
AcDbEntity
  8
SLD-0
100
AcDbMText
 10
858.7922125876
 20
678.2792624342
 30
0.0
 40
7.9375
 41
0.0
 71
     1
 72
     1
  1
 
  7
SLDTEXTSTYLE0
 73
     1
 44
1.0
  0
ENDBLK
  5
487
330
485
100
AcDbEntity
  8
0
100
AcDbBlockEnd
  0
BLOCK
  5
49A
330
499
100
AcDbEntity
  8
0
100
AcDbBlockBegin
  2
_D_21
 70
     0
 10
0.0
 20
0.0
 30
0.0
  3
_D_21
  1

  0
SOLID
  5
49C
330
499
100
AcDbEntity
  8
SLD-0
100
AcDbTrace
 10
1033.6986891739
 20
746.2866406104
 30
0.0
 11
1031.1682906846
 21
740.0628176394
 31
0.0
 12
1032.7781670618
 22
739.6314525643
 32
0.0
 13
1032.7781670618
 23
739.6314525643
 33
0.0
  0
SOLID
  5
49D
330
499
100
AcDbEntity
  8
SLD-0
100
AcDbTrace
 10
1007.8167846636
 20
649.6940579815
 30
0.0
 11
1010.3471831529
 21
655.9178809525
 31
0.0
 12
1008.7373067757
 22
656.3492460277
 32
0.0
 13
1008.7373067757
 23
656.3492460277
 33
0.0
  0
LINE
  5
49E
330
499
100
AcDbEntity
  8
SLD-0
100
AcDbLine
 10
1010.4977829704
 20
697.9903508482
 30
0.0
 11
1008.0834599689
 21
697.9903508482
 31
0.0
  0
LINE
  5
49F
330
499
100
AcDbEntity
  8
SLD-0
100
AcDbLine
 10
1008.0834599689
 20
697.9903508482
 30
0.0
 11
1008.0834599689
 21
685.3785450764
 31
0.0
  0
LINE
  5
4A0
330
499
100
AcDbEntity
  8
SLD-0
100
AcDbLine
 10
1008.0834599689
 20
685.3785450764
 30
0.0
 11
1010.4977829704
 21
685.3785450764
 31
0.0
  0
LINE
  5
4A1
330
499
100
AcDbEntity
  8
SLD-0
100
AcDbLine
 10
1031.0176908671
 20
697.9903508482
 30
0.0
 11
1033.4320138686
 21
697.9903508482
 31
0.0
  0
LINE
  5
4A2
330
499
100
AcDbEntity
  8
SLD-0
100
AcDbLine
 10
1033.4320138686
 20
697.9903508482
 30
0.0
 11
1033.4320138686
 21
685.3785450764
 31
0.0
  0
LINE
  5
4A3
330
499
100
AcDbEntity
  8
SLD-0
100
AcDbLine
 10
1033.4320138686
 20
685.3785450764
 30
0.0
 11
1031.0176908671
 21
685.3785450764
 31
0.0
  0
LINE
  5
4A4
330
499
100
AcDbEntity
  8
SLD-0
100
AcDbLine
 10
982.6793420153
 20
759.95723348
 30
0.0
 11
1036.1521407726
 21
745.6292402359
 31
0.0
  0
LINE
  5
4A5
330
499
100
AcDbEntity
  8
SLD-0
100
AcDbLine
 10
979.5265683074
 20
657.2743986079
 30
0.0
 11
1010.2702362624
 21
649.036657607
 31
0.0
  0
LINE
  5
4A6
330
499
100
AcDbEntity
  8
SLD-0
100
AcDbLine
 10
1033.6986891739
 20
746.2866406104
 30
0.0
 11
1024.5683374254
 21
712.2117039941
 31
0.0
  0
LINE
  5
4A7
330
499
100
AcDbEntity
  8
SLD-0
100
AcDbLine
 10
1007.8167846636
 20
649.6940579815
 30
0.0
 11
1016.9471364121
 21
683.7689945978
 31
0.0
  0
MTEXT
  5
4A8
330
499
100
AcDbEntity
  8
SLD-0
100
AcDbMText
 10
1002.7440211747
 20
709.738814626
 30
0.0
 40
7.9375
 41
0.0
 71
     1
 72
     1
  1
 
  7
SLDTEXTSTYLE0
 73
     1
 44
1.0
  0
MTEXT
  5
4A9
330
499
100
AcDbEntity
  8
SLD-0
100
AcDbMText
 10
1007.5653174904
 20
709.7388154021
 30
0.0
 40
7.9375
 41
0.0
 71
     1
 72
     1
  1
100.0
  7
SLDTEXTSTYLE0
 73
     1
 44
1.0
  0
MTEXT
  5
4AA
330
499
100
AcDbEntity
  8
SLD-0
100
AcDbMText
 10
1010.4977829704
 20
695.5174614801
 30
0.0
 40
7.9375
 41
0.0
 71
     1
 72
     1
  1
3.94
  7
SLDTEXTSTYLE0
 73
     1
 44
1.0
  0
MTEXT
  5
4AB
330
499
100
AcDbEntity
  8
SLD-0
100
AcDbMText
 10
1035.846336094
 20
709.738814626
 30
0.0
 40
7.9375
 41
0.0
 71
     1
 72
     1
  1
 
  7
SLDTEXTSTYLE0
 73
     1
 44
1.0
  0
ENDBLK
  5
49B
330
499
100
AcDbEntity
  8
0
100
AcDbBlockEnd
  0
BLOCK
  5
4AE
330
4AD
100
AcDbEntity
  8
0
100
AcDbBlockBegin
  2
SW_NOTE_0_5
 70
     0
 10
0.0
 20
0.0
 30
0.0
  3
SW_NOTE_0_5
  1

  0
LINE
  5
4B0
330
4AD
100
AcDbEntity
  8
SLD-0
 62
     0
100
AcDbLine
 10
-19.2388122125
 20
-9.7457967378
 30
0.0
 11
-19.2388122125
 21
9.4930154747
 31
0.0
  0
LINE
  5
4B1
330
4AD
100
AcDbEntity
  8
SLD-0
 62
     0
100
AcDbLine
 10
-19.2388122125
 20
9.4930154747
 30
0.0
 11
0.0
 21
9.4930154747
 31
0.0
  0
LINE
  5
4B2
330
4AD
100
AcDbEntity
  8
SLD-0
 62
     0
100
AcDbLine
 10
0.0
 20
9.4930154747
 30
0.0
 11
0.0
 21
-9.7457967378
 31
0.0
  0
LINE
  5
4B3
330
4AD
100
AcDbEntity
  8
SLD-0
 62
     0
100
AcDbLine
 10
0.0
 20
-9.7457967378
 30
0.0
 11
-19.2388122125
 21
-9.7457967378
 31
0.0
  0
MTEXT
  5
4B4
330
4AD
100
AcDbEntity
  8
SLD-0
 62
     0
100
AcDbMText
 10
-9.6993323297
 20
3.7379329031
 30
0.0
 40
7.9375
 41
0.0
 71
     2
 72
     1
  1
4
  7
SLDTEXTSTYLE0
 73
     1
 44
1.0
  0
ENDBLK
  5
4AF
330
4AD
100
AcDbEntity
  8
0
100
AcDbBlockEnd
  0
BLOCK
  5
4B9
330
4B8
100
AcDbEntity
  8
0
100
AcDbBlockBegin
  2
SW_CENTERMARKSYMBOL_5
 70
     0
 10
0.0
 20
0.0
 30
0.0
  3
SW_CENTERMARKSYMBOL_5
  1

  0
LINE
  5
4BB
330
4B8
100
AcDbEntity
  8
SLD-0
 62
     0
100
AcDbLine
 10
0.0
 20
0.0
 30
0.0
 11
-1.9318516526
 21
0.5176380902
 31
0.0
  0
LINE
  5
4BC
330
4B8
100
AcDbEntity
  8
SLD-0
 62
     0
100
AcDbLine
 10
0.0
 20
0.0
 30
0.0
 11
-0.5176380902
 21
-1.9318516526
 31
0.0
  0
LINE
  5
4BD
330
4B8
100
AcDbEntity
  8
SLD-0
 62
     0
100
AcDbLine
 10
0.0
 20
0.0
 30
0.0
 11
1.9318516526
 21
-0.5176380902
 31
0.0
  0
LINE
  5
4BE
330
4B8
100
AcDbEntity
  8
SLD-0
 62
     0
100
AcDbLine
 10
0.0
 20
0.0
 30
0.0
 11
0.5176380902
 21
1.9318516526
 31
0.0
  0
LINE
  5
4BF
330
4B8
100
AcDbEntity
  8
SLD-0
 62
     0
100
AcDbLine
 10
-3.8637033052
 20
1.0352761804
 30
0.0
 11
-7.3410362798
 21
1.9670247428
 31
0.0
  0
LINE
  5
4C0
330
4B8
100
AcDbEntity
  8
SLD-0
 62
     0
100
AcDbLine
 10
-1.0352761804
 20
-3.8637033052
 30
0.0
 11
-1.9670247428
 21
-7.3410362798
 31
0.0
  0
LINE
  5
4C1
330
4B8
100
AcDbEntity
  8
SLD-0
 62
     0
100
AcDbLine
 10
3.8637033052
 20
-1.0352761804
 30
0.0
 11
7.3410362798
 21
-1.9670247428
 31
0.0
  0
LINE
  5
4C2
330
4B8
100
AcDbEntity
  8
SLD-0
 62
     0
100
AcDbLine
 10
1.0352761804
 20
3.8637033052
 30
0.0
 11
1.9670247428
 21
7.3410362798
 31
0.0
  0
ENDBLK
  5
4BA
330
4B8
100
AcDbEntity
  8
0
100
AcDbBlockEnd
  0
BLOCK
  5
4C5
330
4C4
100
AcDbEntity
  8
0
100
AcDbBlockBegin
  2
SW_CENTERMARKSYMBOL_6
 70
     0
 10
0.0
 20
0.0
 30
0.0
  3
SW_CENTERMARKSYMBOL_6
  1

  0
LINE
  5
4C7
330
4C4
100
AcDbEntity
  8
SLD-0
 62
     0
100
AcDbLine
 10
0.0
 20
0.0
 30
0.0
 11
-1.9318516526
 21
0.5176380902
 31
0.0
  0
LINE
  5
4C8
330
4C4
100
AcDbEntity
  8
SLD-0
 62
     0
100
AcDbLine
 10
0.0
 20
0.0
 30
0.0
 11
-0.5176380902
 21
-1.9318516526
 31
0.0
  0
LINE
  5
4C9
330
4C4
100
AcDbEntity
  8
SLD-0
 62
     0
100
AcDbLine
 10
0.0
 20
0.0
 30
0.0
 11
1.9318516526
 21
-0.5176380902
 31
0.0
  0
LINE
  5
4CA
330
4C4
100
AcDbEntity
  8
SLD-0
 62
     0
100
AcDbLine
 10
0.0
 20
0.0
 30
0.0
 11
0.5176380902
 21
1.9318516526
 31
0.0
  0
LINE
  5
4CB
330
4C4
100
AcDbEntity
  8
SLD-0
 62
     0
100
AcDbLine
 10
-3.8637033052
 20
1.0352761804
 30
0.0
 11
-7.3410362798
 21
1.9670247428
 31
0.0
  0
LINE
  5
4CC
330
4C4
100
AcDbEntity
  8
SLD-0
 62
     0
100
AcDbLine
 10
-1.0352761804
 20
-3.8637033052
 30
0.0
 11
-1.9670247428
 21
-7.3410362798
 31
0.0
  0
LINE
  5
4CD
330
4C4
100
AcDbEntity
  8
SLD-0
 62
     0
100
AcDbLine
 10
3.8637033052
 20
-1.0352761804
 30
0.0
 11
7.3410362798
 21
-1.9670247428
 31
0.0
  0
LINE
  5
4CE
330
4C4
100
AcDbEntity
  8
SLD-0
 62
     0
100
AcDbLine
 10
1.0352761804
 20
3.8637033052
 30
0.0
 11
1.9670247428
 21
7.3410362798
 31
0.0
  0
ENDBLK
  5
4C6
330
4C4
100
AcDbEntity
  8
0
100
AcDbBlockEnd
  0
ENDSEC
  0
SECTION
  2
ENTITIES
  0
LINE
  5
68
330
1F
100
AcDbEntity
  8
SLD-0
 62
     7
100
AcDbLine
 10
21.6666666667
 20
909.6666666667
 30
0.0
 11
1417.6666666667
 21
909.6666666667
 31
0.0
  0
LINE
  5
69
330
1F
100
AcDbEntity
  8
0
  6
Continuous
 62
     7
370
    18
100
AcDbLine
 10
21.6666666667
 20
60.0
 30
0.0
 11
1417.6666666667
 21
60.0
 31
0.0
  0
LINE
  5
6A
330
1F
100
AcDbEntity
  8
0
  6
CENTER
 62
     7
370
    18
100
AcDbLine
 10
611.5170860435
 20
29.7558989264
 30
0.0
 11
627.0888027081
 21
29.7558989264
 31
0.0
  0
LINE
  5
6B
330
1F
100
AcDbEntity
  8
0
  6
Continuous
 62
     7
370
    18
100
AcDbLine
 10
613.0933743497
 20
27.6392322597
 30
0.0
 11
625.7933743497
 21
25.522565593
 31
0.0
  0
LINE
  5
6C
330
1F
100
AcDbEntity
  8
0
  6
Continuous
 62
     7
370
    18
100
AcDbLine
 10
613.0933743497
 20
31.872565593
 30
0.0
 11
625.7933743497
 21
33.9892322597
 31
0.0
  0
LINE
  5
6D
330
1F
100
AcDbEntity
  8
0
  6
CENTER
 62
     7
370
    18
100
AcDbLine
 10
599.140307683
 20
29.7558989264
 30
0.0
 11
610.0147983965
 21
29.7558989264
 31
0.0
  0
LINE
  5
6E
330
1F
100
AcDbEntity
  8
0
  6
CENTER
 62
     7
370
    18
100
AcDbLine
 10
604.5775530398
 20
24.2629924003
 30
0.0
 11
604.5775530398
 21
35.2488054524
 31
0.0
  0
LINE
  5
6F
330
1F
100
AcDbEntity
  8
0
  6
Continuous
 62
     7
370
    18
100
AcDbLine
 10
613.0933743497
 20
31.872565593
 30
0.0
 11
613.0933743497
 21
27.6392322597
 31
0.0
  0
LINE
  5
70
330
1F
100
AcDbEntity
  8
0
  6
Continuous
 62
     7
370
    18
100
AcDbLine
 10
625.7933743497
 20
33.9892322597
 30
0.0
 11
625.7933743497
 21
25.522565593
 31
0.0
  0
CIRCLE
  5
71
330
1F
100
AcDbEntity
  8
0
  6
Continuous
 62
     7
370
    18
100
AcDbCircle
 10
604.5775530398
 20
29.7558989264
 30
0.0
 40
4.233333333333057
  0
CIRCLE
  5
72
330
1F
100
AcDbEntity
  8
0
  6
Continuous
 62
     7
370
    18
100
AcDbCircle
 10
604.5775530398
 20
29.7558989264
 30
0.0
 40
2.116666666666533
  0
INSERT
  5
A5
330
1F
100
AcDbEntity
  8
0
  6
Continuous
 62
     7
370
     0
100
AcDbBlockReference
  2
SW_NOTE_0
 10
30.7592292452
 20
886.2324951989
 30
0.0
  0
MTEXT
  5
A6
330
1F
100
AcDbEntity
  8
0
  6
Continuous
 62
     7
370
     0
100
AcDbMText
 10
492.5071698356
 20
48.3032612928
 30
0.0
 40
6.1736111111
 41
0.0
 71
     2
 72
     1
  1
00PW4
  7
SLDTEXTSTYLE0
 73
     1
 44
1.0
  0
MTEXT
  5
A7
330
1F
100
AcDbEntity
  8
0
  6
Continuous
 62
     7
370
     0
100
AcDbMText
 10
755.6686176461
 20
29.6473771627
 30
0.0
 40
6.1736111111
 41
0.0
 71
     1
 72
     1
  1
B.HAWKINS
  7
SLDTEXTSTYLE0
 73
     1
 44
1.0
  0
MTEXT
  5
A8
330
1F
100
AcDbEntity
  8
0
  6
Continuous
 62
     7
370
     0
100
AcDbMText
 10
538.5480889355
 20
55.1295740258
 30
0.0
 40
5.2916666667
 41
0.0
 71
     1
 72
     1
  1
UNLESS  OTHERWISE  SPECIFIED
  7
SLDTEXTSTYLE0
 73
     1
 44
1.0
  0
MTEXT
  5
A9
330
1F
100
AcDbEntity
  8
0
  6
Continuous
 62
     7
370
     0
100
AcDbMText
 10
538.5480889355
 20
48.0740185555
 30
0.0
 40
5.2916666667
 41
0.0
 71
     1
 72
     1
  1
DIMENSIONS  ARE  IN  MM [IN]
  7
SLDTEXTSTYLE0
 73
     1
 44
1.0
  0
MTEXT
  5
AA
330
1F
100
AcDbEntity
  8
0
  6
Continuous
 62
     7
370
     0
100
AcDbMText
 10
1309.737050138
 20
29.9748742257
 30
0.0
 40
6.1736111111
 41
0.0
 71
     2
 72
     1
  1
3:10
  7
SLDTEXTSTYLE0
 73
     1
 44
1.0
  0
MTEXT
  5
AB
330
1F
100
AcDbEntity
  8
0
  6
Continuous
 62
     7
370
     0
100
AcDbMText
 10
546.6008809802
 20
32.8197865605
 30
0.0
 40
5.2916666667
 41
0.0
 71
     1
 72
     1
  1
PROJECTION
  7
SLDTEXTSTYLE0
 73
     1
 44
1.0
  0
MTEXT
  5
AC
330
1F
100
AcDbEntity
  8
0
  6
Continuous
 62
     7
370
     0
100
AcDbMText
 10
709.1919610229
 20
36.3479546593
 30
0.0
 40
5.2916666667
 41
0.0
 71
     1
 72
     1
  1
%%p
  7
SLDTEXTSTYLE0
 73
     1
 44
1.0
  0
MTEXT
  5
AD
330
1F
100
AcDbEntity
  8
0
  6
Continuous
 62
     7
370
     0
100
AcDbMText
 10
714.2366831764
 20
36.3479546593
 30
0.0
 40
5.2916666667
 41
0.0
 71
     1
 72
     1
  1
1
  7
SLDTEXTSTYLE0
 73
     1
 44
1.0
  0
MTEXT
  5
AE
330
1F
100
AcDbEntity
  8
0
  6
Continuous
 62
     7
370
     0
100
AcDbMText
 10
718.146636891
 20
36.3479546593
 30
0.0
 40
5.2916666667
 41
0.0
 71
     1
 72
     1
  1
%%d
  7
SLDTEXTSTYLE0
 73
     1
 44
1.0
  0
MTEXT
  5
AF
330
1F
100
AcDbEntity
  8
0
  6
Continuous
 62
     7
370
     0
100
AcDbMText
 10
656.7895917453
 20
36.3479546593
 30
0.0
 40
5.2916666667
 41
0.0
 71
     1
 72
     1
  1
.X 
  7
SLDTEXTSTYLE0
 73
     1
 44
1.0
  0
MTEXT
  5
B0
330
1F
100
AcDbEntity
  8
0
  6
Continuous
 62
     7
370
     0
100
AcDbMText
 10
664.9818760884
 20
36.3479546593
 30
0.0
 40
5.2916666667
 41
0.0
 71
     1
 72
     1
  1
%%p
  7
SLDTEXTSTYLE0
 73
     1
 44
1.0
  0
MTEXT
  5
B1
330
1F
100
AcDbEntity
  8
0
  6
Continuous
 62
     7
370
     0
100
AcDbMText
 10
670.0265974658
 20
36.3479546593
 30
0.0
 40
5.2916666667
 41
0.0
 71
     1
 72
     1
  1
 3
  7
SLDTEXTSTYLE0
 73
     1
 44
1.0
  0
MTEXT
  5
B2
330
1F
100
AcDbEntity
  8
0
  6
Continuous
 62
     7
370
     0
100
AcDbMText
 10
656.7895917453
 20
29.292399189
 30
0.0
 40
5.2916666667
 41
0.0
 71
     1
 72
     1
  1
.XX 
  7
SLDTEXTSTYLE0
 73
     1
 44
1.0
  0
MTEXT
  5
B3
330
1F
100
AcDbEntity
  8
0
  6
Continuous
 62
     7
370
     0
100
AcDbMText
 10
669.2740050065
 20
29.292399189
 30
0.0
 40
5.2916666667
 41
0.0
 71
     1
 72
     1
  1
%%p
  7
SLDTEXTSTYLE0
 73
     1
 44
1.0
  0
MTEXT
  5
B4
330
1F
100
AcDbEntity
  8
0
  6
Continuous
 62
     7
370
     0
100
AcDbMText
 10
1136.8632388789
 20
45.0763137415
 30
0.0
 40
10.5833333333
 41
0.0
 71
     2
 72
     1
  1
LOUDSPEAKER,PL-CA5-BK,,BK,5" COAXIAL
  7
SLDTEXTSTYLE0
 73
     1
 44
1.0
  0
MTEXT
  5
B5
330
1F
100
AcDbEntity
  8
0
  6
Continuous
 62
     7
370
     0
100
AcDbMText
 10
656.8819769738
 20
55.1295740258
 30
0.0
 40
5.2916666667
 41
0.0
 71
     1
 72
     1
  1
TOLERANCES  ARE:
  7
SLDTEXTSTYLE0
 73
     1
 44
1.0
  0
MTEXT
  5
B6
330
1F
100
AcDbEntity
  8
0
  6
Continuous
 62
     7
370
     0
100
AcDbMText
 10
656.8819769738
 20
48.0740185555
 30
0.0
 40
5.2916666667
 41
0.0
 71
     1
 72
     1
  1
DECIMALS          ANGLES
  7
SLDTEXTSTYLE0
 73
     1
 44
1.0
  0
MTEXT
  5
B7
330
1F
100
AcDbEntity
  8
0
  6
Continuous
 62
     7
370
     0
100
AcDbMText
 10
845.3948120889
 20
36.3437338742
 30
0.0
 40
4.4097222222
 41
0.0
 71
     1
 72
     1
  1
MFG ENGINEER
  7
SLDTEXTSTYLE0
 73
     1
 44
1.0
  0
MTEXT
  5
B8
330
1F
100
AcDbEntity
  8
0
  6
Continuous
 62
     7
370
     0
100
AcDbMText
 10
755.6686176461
 20
36.3437338742
 30
0.0
 40
4.4097222222
 41
0.0
 71
     1
 72
     1
  1
MECH ENGINEER
  7
SLDTEXTSTYLE0
 73
     1
 44
1.0
  0
MTEXT
  5
BA
330
1F
100
AcDbEntity
  8
0
  6
Continuous
 62
     7
370
     0
100
AcDbMText
 10
1284.9683248846
 20
29.266253936
 30
0.0
 40
4.4097222222
 41
0.0
 71
     1
 72
     1
  1
SCALE:  
  7
SLDTEXTSTYLE1
 73
     1
 44
1.0
  0
MTEXT
  5
BB
330
1F
100
AcDbEntity
  8
SLD-0
 62
     7
100
AcDbMText
 10
1284.7117236643
 20
46.2922659613
 30
0.0
 40
10.5833333333
 41
0.0
 71
     1
 72
     1
  1
FG-901567-2D
  7
SLDTEXTSTYLE0
 73
     1
 44
1.0
  0
MTEXT
  5
BC
330
1F
100
AcDbEntity
  8
0
  6
Continuous
 62
     7
370
     0
100
AcDbMText
 10
1406.2820410393
 20
46.4205665714
 30
0.0
 40
10.5833333333
 41
0.0
 71
     2
 72
     1
  1
A
  7
SLDTEXTSTYLE0
 73
     1
 44
1.0
  0
MTEXT
  5
BD
330
1F
100
AcDbEntity
  8
0
  6
Continuous
 62
     7
370
     0
100
AcDbMText
 10
1402.6617977809
 20
29.9748742257
 30
0.0
 40
6.1736111111
 41
0.0
 71
     2
 72
     1
  1
1  OF  1
  7
SLDTEXTSTYLE0
 73
     1
 44
1.0
  0
MTEXT
  5
BE
330
1F
100
AcDbEntity
  8
0
  6
Continuous
 62
     7
370
     0
100
AcDbMText
 10
1284.9683248846
 20
54.7531014642
 30
0.0
 40
4.4097222222
 41
0.0
 71
     1
 72
     1
  1
DRAWING NUMBER
  7
SLDTEXTSTYLE0
 73
     1
 44
1.0
  0
MTEXT
  5
BF
330
1F
100
AcDbEntity
  8
SLD-0
 62
     7
100
AcDbMText
 10
845.3948120889
 20
54.6973521352
 30
0.0
 40
4.4097222222
 41
0.0
 71
     1
 72
     1
  1
TECH DIRECTOR
  7
SLDTEXTSTYLE0
 73
     1
 44
1.0
  0
MTEXT
  5
C0
330
1F
100
AcDbEntity
  8
SLD-0
 62
     7
100
AcDbMText
 10
755.6686176461
 20
54.6973521352
 30
0.0
 40
4.4097222222
 41
0.0
 71
     1
 72
     1
  1
DRAWN BY
  7
SLDTEXTSTYLE0
 73
     1
 44
1.0
  0
MTEXT
  5
C1
330
1F
100
AcDbEntity
  8
SLD-0
 62
     7
100
AcDbMText
 10
755.6686176461
 20
48.3922378442
 30
0.0
 40
6.1736111111
 41
0.0
 71
     1
 72
     1
  1
K.CASTRO
  7
SLDTEXTSTYLE0
 73
     1
 44
1.0
  0
MTEXT
  5
C2
330
1F
100
AcDbEntity
  8
SLD-0
 62
     7
100
AcDbMText
 10
845.3948120889
 20
29.6473771627
 30
0.0
 40
6.1736111111
 41
0.0
 71
     1
 72
     1
  1
A.TRAN
  7
SLDTEXTSTYLE0
 73
     1
 44
1.0
  0
MTEXT
  5
C3
330
1F
100
AcDbEntity
  8
SLD-0
 62
     7
100
AcDbMText
 10
845.3948120889
 20
48.3922378442
 30
0.0
 40
6.1736111111
 41
0.0
 71
     1
 72
     1
  1
R.VAUCHER
  7
SLDTEXTSTYLE0
 73
     1
 44
1.0
  0
MTEXT
  5
C5
330
1F
100
AcDbEntity
  8
0
  6
Continuous
 62
     7
370
     0
100
AcDbMText
 10
365.4233119502
 20
49.9392883827
 30
0.0
 40
3.5277777778
 41
0.0
 71
     2
 72
     1
  1
THIS DOCUMENT CONTAINS CONFIDENTIAL OR PROPRIETARY INFORMATION WHICH 
  7
SLDTEXTSTYLE2
 73
     1
 44
1.0
  0
MTEXT
  5
C6
330
1F
100
AcDbEntity
  8
0
  6
Continuous
 62
     7
370
     0
100
AcDbMText
 10
365.7281077246
 20
45.2355847358
 30
0.0
 40
3.5277777778
 41
0.0
 71
     2
 72
     1
  1
IS THE PROPERTY OF QSC, LLC THAT MAY NOT BE DISCLOSED, REPRODUCED OR 
  7
SLDTEXTSTYLE2
 73
     1
 44
1.0
  0
MTEXT
  5
C7
330
1F
100
AcDbEntity
  8
0
  6
Continuous
 62
     7
370
     0
100
AcDbMText
 10
365.6596338404
 20
40.531881089
 30
0.0
 40
3.5277777778
 41
0.0
 71
     2
 72
     1
  1
USED WITHOUT EXPRESS WRITTEN CONSENT FROM QSC, LLC. NO PORTION OF THIS 
  7
SLDTEXTSTYLE2
 73
     1
 44
1.0
  0
MTEXT
  5
C8
330
1F
100
AcDbEntity
  8
0
  6
Continuous
 62
     7
370
     0
100
AcDbMText
 10
365.5420388433
 20
35.8281774421
 30
0.0
 40
3.5277777778
 41
0.0
 71
     2
 72
     1
  1
DOCUMENT MAY BE REPRODUCED, REDISTRIBUTED, OR OTHERWISE DISCLOSED TO 
  7
SLDTEXTSTYLE2
 73
     1
 44
1.0
  0
MTEXT
  5
CA
330
1F
100
AcDbEntity
  8
0
  6
Continuous
 62
     7
370
     0
100
AcDbMText
 10
364.9607391334
 20
31.1244737952
 30
0.0
 40
3.5277777778
 41
0.0
 71
     2
 72
     1
  1
ANY THIRD PARTY WITHOUT QSC\U+2019S WRITTEN PERMISSION.
  7
SLDTEXTSTYLE3
 73
     1
 44
1.0
  0
MTEXT
  5
CB
330
1F
100
AcDbEntity
  8
0
  6
Continuous
 62
     7
370
     0
100
AcDbMText
 10
1367.1480814598
 20
29.1573913704
 30
0.0
 40
4.4097222222
 41
0.0
 71
     1
 72
     1
  1
SHEET:
  7
SLDTEXTSTYLE0
 73
     1
 44
1.0
  0
MTEXT
  5
CC
330
1F
100
AcDbEntity
  8
SLD-0
100
AcDbMText
 10
163.0512006398
 20
50.988580554
 30
0.0
 40
7.0555555556
 41
0.0
 71
     1
 72
     1
  1
QSC, LLC
  7
SLDTEXTSTYLE0
 73
     1
 44
1.0
  0
MTEXT
  5
CD
330
1F
100
AcDbEntity
  8
0
  6
Continuous
 62
     7
370
     0
100
AcDbMText
 10
1406.6697287539
 20
54.8418188396
 30
0.0
 40
4.4097222222
 41
0.0
 71
     2
 72
     1
  1
REV
  7
SLDTEXTSTYLE0
 73
     1
 44
1.0
  0
MTEXT
  5
CE
330
1F
100
AcDbEntity
  8
SLD-0
 62
     7
100
AcDbMText
 10
934.2435892449
 20
54.6973521352
 30
0.0
 40
4.4097222222
 41
0.0
 71
     1
 72
     1
  1
REV BY
  7
SLDTEXTSTYLE0
 73
     1
 44
1.0
  0
MTEXT
  5
CF
330
1F
100
AcDbEntity
  8
SLD-0
 62
     7
100
AcDbMText
 10
934.2435892449
 20
48.3922378442
 30
0.0
 40
6.1736111111
 41
0.0
 71
     1
 72
     1
  1
KC
  7
SLDTEXTSTYLE0
 73
     1
 44
1.0
  0
MTEXT
  5
D0
330
1F
100
AcDbEntity
  8
SLD-0
 62
     7
100
AcDbMText
 10
934.2435892449
 20
29.6473771627
 30
0.0
 40
6.1736111111
 41
0.0
 71
     1
 72
     1
  1
08-MAR-2024
  7
SLDTEXTSTYLE0
 73
     1
 44
1.0
  0
MTEXT
  5
D1
330
1F
100
AcDbEntity
  8
0
  6
Continuous
 62
     7
370
     0
100
AcDbMText
 10
934.2435892449
 20
36.3437338742
 30
0.0
 40
4.4097222222
 41
0.0
 71
     1
 72
     1
  1
REV DATE
  7
SLDTEXTSTYLE0
 73
     1
 44
1.0
  0
MTEXT
  5
D2
330
1F
100
AcDbEntity
  8
SLD-0
100
AcDbMText
 10
492.5786129055
 20
37.1048452258
 30
0.0
 40
4.4097222222
 41
0.0
 71
     2
 72
     1
  1
FORM
  7
SLDTEXTSTYLE0
 73
     1
 44
1.0
  0
MTEXT
  5
D3
330
1F
100
AcDbEntity
  8
0
  6
Continuous
 62
     7
370
     0
100
AcDbMText
 10
493.2689434172
 20
30.4681113319
 30
0.0
 40
6.1736111111
 41
0.0
 71
     2
 72
     1
  1
QOS40169 B
  7
SLDTEXTSTYLE0
 73
     1
 44
1.0
  0
MTEXT
  5
D4
330
1F
100
AcDbEntity
  8
SLD-0
100
AcDbMText
 10
164.0712078958
 20
30.7668267848
 30
0.0
 40
5.2916666667
 41
0.0
 71
     1
 72
     1
  1
COSTA MESA, CA 92626 USA
  7
SLDTEXTSTYLE0
 73
     1
 44
1.0
  0
MTEXT
  5
D5
330
1F
100
AcDbEntity
  8
SLD-0
100
AcDbMText
 10
163.8311688318
 20
39.7954945102
 30
0.0
 40
5.2916666667
 41
0.0
 71
     1
 72
     1
  1
1675 MACARTHUR BLVD
  7
SLDTEXTSTYLE0
 73
     1
 44
1.0
  0
MTEXT
  5
D6
330
1F
100
AcDbEntity
  8
SLD-0
 62
     7
100
AcDbMText
 10
492.8039331646
 20
55.2399583511
 30
0.0
 40
4.4097222222
 41
0.0
 71
     2
 72
     1
  1
CAGE CODE
  7
SLDTEXTSTYLE0
 73
     1
 44
1.0
  0
SPLINE
  5
D7
330
1F
100
AcDbEntity
  8
0
  6
Continuous
 62
     7
370
    25
100
AcDbSpline
210
0.0
220
0.0
230
1.0
 70
     8
 71
     3
 72
    19
 73
    15
 74
     0
 42
0.00000001
 43
0.00000001
 40
0.0
 40
0.0
 40
0.0
 40
0.0
 40
0.0092359123273462
 40
0.1030242653514931
 40
0.1975371140499084
 40
0.2928752891264135
 40
0.389061600662151
 40
0.4860477091141004
 40
0.5837308062207057
 40
0.6819759695998617
 40
0.7806386964770545
 40
0.8795829515480933
 40
0.9737303047535115
 40
1.0
 40
1.0
 40
1.0
 40
1.0
 10
1189.075053649144
 20
763.1449128189744
 30
0.0
 10
1189.025679902204
 20
763.0940257800096
 30
0.0
 10
1188.474928246504
 20
762.5263937346381
 30
0.0
 10
1187.540131634781
 20
761.2973398029274
 30
0.0
 10
1186.283364259107
 20
759.4519182443863
 30
0.0
 10
1185.169506807336
 20
757.442750895748
 30
0.0
 10
1184.186086249095
 20
755.2951853119889
 30
0.0
 10
1183.342256926237
 20
753.0102858458156
 30
0.0
 10
1182.640806507903
 20
750.5974684363175
 30
0.0
 10
1182.085519594716
 20
748.0654342513828
 30
0.0
 10
1181.678263623425
 20
745.4245610581692
 30
0.0
 10
1181.426339024099
 20
742.7305568628767
 30
0.0
 10
1181.341907548135
 20
740.6470483915097
 30
0.0
 10
1181.33688561099
 20
739.4830146633321
 30
0.0
 10
1181.335790045537
 20
739.2290737829586
 30
0.0
  0
SPLINE
  5
D8
330
1F
100
AcDbEntity
  8
0
  6
Continuous
 62
     7
370
    25
100
AcDbSpline
210
0.0
220
0.0
230
1.0
 70
     8
 71
     3
 72
    44
 73
    40
 74
     0
 42
0.00000001
 43
0.00000001
 40
0.0
 40
0.0
 40
0.0
 40
0.0
 40
0.0147091695954133
 40
0.0424246289859365
 40
0.0701220198096446
 40
0.0977997066848394
 40
0.1254536006300248
 40
0.1530822562549369
 40
0.180686094342815
 40
0.2082668157554297
 40
0.2358269761272657
 40
0.2633696872499623
 40
0.2908984137547399
 40
0.3184168390719331
 40
0.3459287802214648
 40
0.3734381357322053
 40
0.4009488545813001
 40
0.428463632844045
 40
0.4559864303430827
 40
0.4835212456546406
 40
0.5110720474692119
 40
0.5386427241994816
 40
0.5662370008105273
 40
0.5938583067994293
 40
0.6215095741780976
 40
0.6491929380991691
 40
0.676909306220465
 40
0.7046577581269893
 40
0.7324347376351643
 40
0.7602330170546968
 40
0.7880383346895443
 40
0.8158268016508141
 40
0.8435701277882879
 40
0.8712323059792181
 40
0.8987710660923053
 40
0.9261415092029194
 40
0.953302017282931
 40
0.9802216257176006
 40
1.0
 40
1.0
 40
1.0
 40
1.0
 10
1181.335790045537
 20
739.2290737829586
 30
0.0
 10
1181.340030617032
 20
738.7170033298885
 30
0.0
 10
1181.352261400776
 20
737.2400743404411
 30
0.0
 10
1181.487091669943
 20
734.7459044070876
 30
0.0
 10
1181.786750143817
 20
731.7357471312164
 30
0.0
 10
1182.233786647392
 20
728.6777324703897
 30
0.0
 10
1182.823169147143
 20
725.5832504924908
 30
0.0
 10
1183.552760516879
 20
722.4621973754412
 30
0.0
 10
1184.419206376668
 20
719.3248821205149
 30
0.0
 10
1185.419058817391
 20
716.1814786089153
 30
0.0
 10
1186.548484734608
 20
713.0421785134239
 30
0.0
 10
1187.80334967372
 20
709.9171433010205
 30
0.0
 10
1189.179201246385
 20
706.8164991739836
 30
0.0
 10
1190.67128148121
 20
703.7503123892578
 30
0.0
 10
1192.274534576886
 20
700.7285641853322
 30
0.0
 10
1193.983619499504
 20
697.761122342952
 30
0.0
 10
1195.792896854161
 20
694.8577571264932
 30
0.0
 10
1197.696467420905
 20
692.0280631420446
 30
0.0
 10
1199.68819465063
 20
689.2814275985884
 30
0.0
 10
1201.76176221318
 20
686.6269638713957
 30
0.0
 10
1203.91067057215
 20
684.0735327590564
 30
0.0
 10
1206.128260061325
 20
681.6297249725915
 30
0.0
 10
1208.407733969534
 20
679.3038469988866
 30
0.0
 10
1210.742178995041
 20
677.1039124544915
 30
0.0
 10
1213.124580691629
 20
675.0376394909798
 30
0.0
 10
1215.54783072268
 20
673.1124543410555
 30
0.0
 10
1218.004721788719
 20
671.3355002645033
 30
0.0
 10
1220.487925278845
 20
669.7136493922276
 30
0.0
 10
1222.989945991976
 20
668.2535132122006
 30
0.0
 10
1225.502986078014
 20
666.9614737402665
 30
0.0
 10
1228.018739315037
 20
665.8436856348246
 30
0.0
 10
1230.528367308378
 20
664.90588990742
 30
0.0
 10
1233.022424839487
 20
664.153307806801
 30
0.0
 10
1235.490986987529
 20
663.5901370440259
 30
0.0
 10
1237.923259697959
 20
663.2203130119871
 30
0.0
 10
1240.309029401738
 20
663.0434791078904
 30
0.0
 10
1242.634363132999
 20
663.0685089341414
 30
0.0
 10
1244.70602784791
 20
663.2460816153126
 30
0.0
 10
1245.970799043064
 20
663.5026234960077
 30
0.0
 10
1246.506477815976
 20
663.6112787534786
 30
0.0
  0
SPLINE
  5
D9
330
1F
100
AcDbEntity
  8
0
  6
Continuous
 62
     7
370
    25
100
AcDbSpline
210
0.0
220
0.0
230
1.0
 70
     8
 71
     3
 72
    45
 73
    41
 74
     0
 42
0.00000001
 43
0.00000001
 40
0.0
 40
0.0
 40
0.0
 40
0.0
 40
0.0241294408266856
 40
0.052853913384564
 40
0.0812712750136631
 40
0.1091904731403857
 40
0.1365793930844042
 40
0.1635067365231292
 40
0.1900769968473733
 40
0.2163926964268438
 40
0.2425396255571619
 40
0.2685839979515429
 40
0.2945743647294839
 40
0.3205448956444999
 40
0.3465145765285562
 40
0.3724980410885462
 40
0.3985058457069927
 40
0.4245436958943583
 40
0.4506138754948276
 40
0.4767162999801842
 40
0.5028492775451127
 40
0.5290100496350906
 40
0.5551951678031852
 40
0.5814007508478595
 40
0.6076226555585452
 40
0.6338565860438452
 40
0.6600981602733965
 40
0.6863429478115542
 40
0.7125860200401246
 40
0.7388218822114236
 40
0.7650460508768483
 40
0.7912540534083898
 40
0.8174414606035342
 40
0.8436039460206228
 40
0.8697373849402861
 40
0.8958380105115137
 40
0.9219026504997578
 40
0.9479290756720854
 40
0.973916500311547
 40
1.0
 40
1.0
 40
1.0
 40
1.0
 10
1198.958112355769
 20
760.2133703135985
 30
0.0
 10
1199.367411770661
 20
760.4407424058578
 30
0.0
 10
1200.263954545044
 20
760.9387856450965
 30
0.0
 10
1201.765976616086
 20
761.4979757216532
 30
0.0
 10
1203.434301989184
 20
761.9299673535471
 30
0.0
 10
1205.184486911643
 20
762.1796031574692
 30
0.0
 10
1207.003108404653
 20
762.2546677974465
 30
0.0
 10
1208.884367101756
 20
762.1563975882265
 30
0.0
 10
1210.823199456411
 20
761.8873913371409
 30
0.0
 10
1212.815079512885
 20
761.4488955676741
 30
0.0
 10
1214.854720826689
 20
760.8417956308764
 30
0.0
 10
1216.935855146911
 20
760.066928541679
 30
0.0
 10
1219.051223126943
 20
759.1255240505014
 30
0.0
 10
1221.192625625918
 20
758.0195195398342
 30
0.0
 10
1223.35122188417
 20
756.7517023160264
 30
0.0
 10
1225.517783342346
 20
755.3257441475239
 30
0.0
 10
1227.682965273709
 20
753.7461109531635
 30
0.0
 10
1229.837324876947
 20
752.0180937300584
 30
0.0
 10
1231.97137073252
 20
750.1478188091079
 30
0.0
 10
1234.075664069017
 20
748.1421998621435
 30
0.0
 10
1236.140901386303
 20
746.008882484899
 30
0.0
 10
1238.157982106603
 20
743.756185959509
 30
0.0
 10
1240.118064631394
 20
741.393044863864
 30
0.0
 10
1242.012613653924
 20
738.9289519386799
 30
0.0
 10
1243.833441036121
 20
736.3739028229044
 30
0.0
 10
1245.572742068245
 20
733.738342780722
 30
0.0
 10
1247.223128524299
 20
731.0331152593957
 30
0.0
 10
1248.777650318342
 20
728.2694284415629
 30
0.0
 10
1250.229818434104
 20
725.4588275108056
 30
0.0
 10
1251.573659378537
 20
722.6131112956267
 30
0.0
 10
1252.803752281738
 20
719.74426335516
 30
0.0
 10
1253.915259495892
 20
716.8643816886017
 30
0.0
 10
1254.90394472948
 20
713.9856594213528
 30
0.0
 10
1255.766176364678
 20
711.1203506352379
 30
0.0
 10
1256.499059511872
 20
708.2806433943252
 30
0.0
 10
1257.100091584389
 20
705.4788595550762
 30
0.0
 10
1257.568593886206
 20
702.7264108321629
 30
0.0
 10
1257.900525152533
 20
700.0373513155689
 30
0.0
 10
1258.108284695759
 20
697.4102678353253
 30
0.0
 10
1258.13387258901
 20
695.7291798615621
 30
0.0
 10
1258.146690141497
 20
694.8870850033302
 30
0.0
  0
SPLINE
  5
DA
330
1F
100
AcDbEntity
  8
0
  6
Continuous
 62
     7
370
    25
100
AcDbSpline
210
0.0
220
0.0
230
1.0
 70
     8
 71
     3
 72
    20
 73
    16
 74
     0
 42
0.00000001
 43
0.00000001
 40
0.0
 40
0.0
 40
0.0
 40
0.0
 40
0.0411359514070178
 40
0.1196294320379004
 40
0.1980630938990251
 40
0.2764907148657618
 40
0.3549797477218562
 40
0.4336422540622594
 40
0.5126342018060437
 40
0.5921631510073766
 40
0.6724903522251079
 40
0.7539181380996022
 40
0.8367458322552532
 40
0.9211704788191755
 40
1.0
 40
1.0
 40
1.0
 40
1.0
 10
1258.146690141497
 20
694.8870850033302
 30
0.0
 10
1258.14306125879
 20
694.4560291722662
 30
0.0
 10
1258.132507931048
 20
693.2024550483426
 30
0.0
 10
1258.015514123678
 20
691.200004932545
 30
0.0
 10
1257.755141824282
 20
688.9241678796426
 30
0.0
 10
1257.368534581994
 20
686.7679089167406
 30
0.0
 10
1256.861923233273
 20
684.7373287207396
 30
0.0
 10
1256.239004923642
 20
682.839138123773
 30
0.0
 10
1255.504120059792
 20
681.078013774708
 30
0.0
 10
1254.66084994224
 20
679.4571420102477
 30
0.0
 10
1253.711325591191
 20
677.9787087092652
 30
0.0
 10
1252.656635805689
 20
676.6424791457433
 30
0.0
 10
1251.492200321211
 20
675.4542870842863
 30
0.0
 10
1250.260555294755
 20
674.4284823196705
 30
0.0
 10
1249.367489471179
 20
673.8846255459346
 30
0.0
 10
1248.936260350183
 20
673.6220168195738
 30
0.0
  0
SPLINE
  5
DB
330
1F
100
AcDbEntity
  8
0
  6
Continuous
 62
     7
370
    25
100
AcDbSpline
210
0.0
220
0.0
230
1.0
 70
     8
 71
     3
 72
     9
 73
     5
 74
     0
 42
0.00000001
 43
0.00000001
 40
0.0
 40
0.0
 40
0.0
 40
0.0
 40
0.5264819165288649
 40
0.9999999999999999
 40
0.9999999999999999
 40
0.9999999999999999
 40
0.9999999999999999
 10
1213.168518170826
 20
732.8949879371805
 30
0.0
 10
1213.123450153883
 20
732.401606353331
 30
0.0
 10
1213.037847941295
 20
731.4644771407977
 30
0.0
 10
1213.031361195336
 20
730.5235328758052
 30
0.0
 10
1213.028289603822
 20
730.0779787507928
 30
0.0
  0
SPLINE
  5
DC
330
1F
100
AcDbEntity
  8
0
  6
Continuous
 62
     7
370
    25
100
AcDbSpline
210
0.0
220
0.0
230
1.0
 70
     8
 71
     3
 72
    23
 73
    19
 74
     0
 42
0.00000001
 43
0.00000001
 40
0.0
 40
0.0
 40
0.0
 40
0.0
 40
0.0674398033315227
 40
0.1300453165486374
 40
0.1932760564275034
 40
0.2571247518033279
 40
0.3218052586558815
 40
0.3875244256018825
 40
0.4544727334805112
 40
0.5228015044184307
 40
0.5925878032582444
 40
0.6637994077420064
 40
0.7281984918495462
 40
0.7923857224232167
 40
0.8563656501802083
 40
0.9201655074391238
 40
0.983820248501365
 40
1.0
 40
1.0
 40
1.0
 40
1.0
 10
1213.028289603822
 20
730.0779787507928
 30
0.0
 10
1213.047321197345
 20
729.2225822795309
 30
0.0
 10
1213.084020141915
 20
727.5731067564041
 30
0.0
 10
1213.370968048529
 20
725.1358019450356
 30
0.0
 10
1213.810040301096
 20
722.7691598716581
 30
0.0
 10
1214.428123885135
 20
720.4147437802418
 30
0.0
 10
1215.224095583948
 20
718.0810180015832
 30
0.0
 10
1216.204095165095
 20
715.7752469774232
 30
0.0
 10
1217.373429401971
 20
713.5070556671412
 30
0.0
 10
1218.737660306874
 20
711.2894501693504
 30
0.0
 10
1220.300552309299
 20
709.1397716881255
 30
0.0
 10
1221.995791250019
 20
707.1580783864417
 30
0.0
 10
1223.786307354306
 20
705.36198195255
 30
0.0
 10
1225.63354211029
 20
703.761802281489
 30
0.0
 10
1227.584614909894
 20
702.3014015949504
 30
0.0
 10
1229.63697693489
 20
701.0038377785224
 30
0.0
 10
1231.227908997358
 20
700.1089829041955
 30
0.0
 10
1232.154351450564
 20
699.7004494944882
 30
0.0
 10
1232.34211000191
 20
699.6176535896615
 30
0.0
  0
LINE
  5
DD
330
1F
100
AcDbEntity
  8
0
  6
Continuous
 62
     7
370
    25
100
AcDbLine
 10
1274.7039521851
 20
610.5729023267
 30
0.0
 11
1279.6536996534
 21
607.7154739353
 31
0.0
  0
SPLINE
  5
DE
330
1F
100
AcDbEntity
  8
0
  6
Continuous
 62
     7
370
    25
100
AcDbSpline
210
0.0
220
0.0
230
1.0
 70
     8
 71
     3
 72
    23
 73
    19
 74
     0
 42
0.00000001
 43
0.00000001
 40
0.0
 40
0.0
 40
0.0
 40
0.0
 40
0.0339585607078391
 40
0.0983103513835145
 40
0.1626918548956083
 40
0.2271025294436712
 40
0.2915481662239487
 40
0.3560339420629602
 40
0.4205639344017056
 40
0.4851403736277292
 40
0.5497625280718111
 40
0.6144251069930561
 40
0.6791160875250926
 40
0.743807502851534
 40
0.8084574540480809
 40
0.8730115490778215
 40
0.9374000396085497
 40
1.0
 40
1.0
 40
1.0
 40
1.0
 10
1206.417660279752
 20
671.3863965301977
 30
0.0
 10
1206.720830363314
 20
670.975757356725
 30
0.0
 10
1207.598510595418
 20
669.7869531025266
 30
0.0
 10
1209.111491246285
 20
667.8907969714223
 30
0.0
 10
1210.973156184704
 20
665.7404511359086
 30
0.0
 10
1212.898239926608
 20
663.7053577502726
 30
0.0
 10
1214.876752321621
 20
661.7935880912299
 30
0.0
 10
1216.900438279544
 20
660.0145041105178
 30
0.0
 10
1218.960393032401
 20
658.3764543863157
 30
0.0
 10
1221.047716708205
 20
656.8873957004482
 30
0.0
 10
1223.153359637199
 20
655.554704513562
 30
0.0
 10
1225.268148951289
 20
654.3852576605937
 30
0.0
 10
1227.382717808699
 20
653.3852868892125
 30
0.0
 10
1229.487274200654
 20
652.5609022919618
 30
0.0
 10
1231.572158182234
 20
651.9158179083996
 30
0.0
 10
1233.625589122308
 20
651.4592087852171
 30
0.0
 10
1235.625919771828
 20
651.1779063427067
 30
0.0
 10
1236.913185554091
 20
651.1496729926919
 30
0.0
 10
1237.547753393904
 20
651.1357551396918
 30
0.0
  0
SPLINE
  5
DF
330
1F
100
AcDbEntity
  8
0
  6
Continuous
 62
     7
370
    25
100
AcDbSpline
210
0.0
220
0.0
230
1.0
 70
     8
 71
     3
 72
    23
 73
    19
 74
     0
 42
0.00000001
 43
0.00000001
 40
0.0
 40
0.0
 40
0.0
 40
0.0
 40
0.020504570774005
 40
0.089569740047435
 40
0.1589384953438392
 40
0.2285317336265163
 40
0.2982733139499269
 40
0.3680992528562306
 40
0.4379609777064004
 40
0.5078178005666447
 40
0.5776502447100795
 40
0.6474486940540544
 40
0.7172094418958684
 40
0.7869327640437261
 40
0.8566215242350322
 40
0.9262802119521433
 40
0.9922466023100265
 40
1.0
 40
1.0
 40
1.0
 40
1.0
 10
1172.734137138604
 20
759.5038639921747
 30
0.0
 10
1172.650230739614
 20
759.3271477036769
 30
0.0
 10
1172.283703957429
 20
758.5552011851495
 30
0.0
 10
1171.774360180035
 20
757.0558156212161
 30
0.0
 10
1171.211653153125
 20
755.0112905750841
 30
0.0
 10
1170.801872395248
 20
752.8408484715908
 30
0.0
 10
1170.533941370352
 20
750.5677942609991
 30
0.0
 10
1170.41246344929
 20
748.200317689598
 30
0.0
 10
1170.436630793262
 20
745.7511507435757
 30
0.0
 10
1170.606008413209
 20
743.2320211749566
 30
0.0
 10
1170.91910998255
 20
740.6550110559194
 30
0.0
 10
1171.373916470361
 20
738.032072990923
 30
0.0
 10
1171.967793193219
 20
735.3752363828334
 30
0.0
 10
1172.697610088894
 20
732.696616674316
 30
0.0
 10
1173.559499671371
 20
730.0083018903808
 30
0.0
 10
1174.532425029391
 20
727.3698375247595
 30
0.0
 10
1175.293280738151
 20
725.536018426387
 30
0.0
 10
1175.707826632726
 20
724.5984537380417
 30
0.0
 10
1175.751426041602
 20
724.4998464023274
 30
0.0
  0
SPLINE
  5
E0
330
1F
100
AcDbEntity
  8
0
  6
Continuous
 62
     7
370
    25
100
AcDbSpline
210
0.0
220
0.0
230
1.0
 70
     8
 71
     3
 72
    18
 73
    14
 74
     0
 42
0.00000001
 43
0.00000001
 40
0.0
 40
0.0
 40
0.0
 40
0.0
 40
0.0498308967938102
 40
0.1444427071102719
 40
0.2390556256389981
 40
0.3336668850721638
 40
0.4282770518569574
 40
0.5228866952977601
 40
0.6174963864968687
 40
0.7121065557250381
 40
0.8067177275486426
 40
0.9013304755222444
 40
1.0
 40
1.0
 40
1.0
 40
1.0
 10
1175.751426041602
 20
724.4998464023274
 30
0.0
 10
1176.16576255559
 20
723.5745339674827
 30
0.0
 10
1177.366782235865
 20
720.8923700569113
 30
0.0
 10
1179.443008904731
 20
716.4749025316097
 30
0.0
 10
1182.014693959367
 20
711.263990302758
 30
0.0
 10
1184.69743083379
 20
706.0948007111008
 30
0.0
 10
1187.486022779303
 20
700.9730496179559
 30
0.0
 10
1190.377703883383
 20
695.9048008671524
 30
0.0
 10
1193.36908334067
 20
690.8961210229517
 30
0.0
 10
1196.456157476476
 20
685.9523010833761
 30
0.0
 10
1199.63731287588
 20
681.0813289005314
 30
0.0
 10
1202.947957087201
 20
676.2121522173015
 30
0.0
 10
1205.24502161923
 20
673.0173336365995
 30
0.0
 10
1206.417660279752
 20
671.3863965301977
 30
0.0
  0
LINE
  5
E1
330
1F
100
AcDbEntity
  8
0
  6
Continuous
 62
     7
370
    25
100
AcDbLine
 10
1147.0261744345
 20
688.9209158227
 30
0.0
 11
1150.5617083405
 21
686.8798955432
 31
0.0
  0
LINE
  5
E2
330
1F
100
AcDbEntity
  8
0
  6
Continuous
 62
     7
370
    25
100
AcDbLine
 10
1138.2323434161
 20
689.3562851176
 30
0.0
 11
1143.1820908844
 21
686.4988567262
 31
0.0
  0
LINE
  5
E3
330
1F
100
AcDbEntity
  8
0
  6
Continuous
 62
     7
370
    25
100
AcDbLine
 10
1373.8541309084
 20
655.9237396431
 30
0.0
 11
1287.2840371426
 21
605.947888278
 31
0.0
  0
ARC
  5
E4
330
1F
100
AcDbEntity
  8
0
  6
Continuous
 62
     7
370
    25
100
AcDbCircle
 10
1286.3916282974
 20
619.3158735465
 30
0.0
 40
13.39773949909435
100
AcDbArc
 50
218.6793501651
 51
273.8192372328
  0
LWPOLYLINE
  5
E5
330
1F
100
AcDbEntity
  8
0
  6
Continuous
 62
     7
370
    25
100
AcDbPolyline
 90
       15
 70
   128
 43
0.0
 10
1275.9299617489
 20
734.80280754
 10
1274.8462422762
 20
725.3844369434
 10
1273.9284088277
 20
716.0366890315
 10
1273.1768957408
 20
706.7639873486
 10
1272.5920586468
 20
697.5707199256
 10
1272.1741743025
 20
688.4612372036
 10
1271.9234404592
 20
679.4398499748
 10
1271.8399757694
 20
670.5108273432
 10
1271.9238197302
 20
661.6783947036
 10
1272.1749326649
 20
652.9467317428
 10
1272.5931957418
 20
644.3199704612
 10
1273.1784110304
 20
635.8021932174
 10
1273.9303015947
 20
627.3974307969
 10
1274.848511625
 20
619.1096605041
 10
1275.9326066056
 20
610.9428042803
  0
ARC
  5
E6
330
1F
100
AcDbEntity
  8
0
  6
Continuous
 62
     7
370
    25
100
AcDbCircle
 10
1335.3740142994
 20
710.1317413666
 30
0.0
 40
64.36036738357231
100
AcDbArc
 50
137.6891205613
 51
157.4600827829
  0
LINE
  5
E7
330
1F
100
AcDbEntity
  8
0
  6
Continuous
 62
     7
370
    25
100
AcDbLine
 10
1295.9753071774
 20
758.1875600545
 30
0.0
 11
1287.7793109595
 21
753.4561121496
 31
0.0
  0
LINE
  5
E8
330
1F
100
AcDbEntity
  8
0
  6
Continuous
 62
     7
370
    25
100
AcDbLine
 10
1295.9753071774
 20
758.1875600545
 30
0.0
 11
1400.5100770888
 21
786.1892757582
 31
0.0
  0
LINE
  5
E9
330
1F
100
AcDbEntity
  8
0
  6
Continuous
 62
     7
370
    25
100
AcDbLine
 10
1400.5100770888
 20
786.1892757582
 30
0.0
 11
1373.8541309084
 21
655.9237396431
 31
0.0
  0
LWPOLYLINE
  5
EA
330
1F
100
AcDbEntity
  8
0
  6
Continuous
 62
     7
370
    25
100
AcDbPolyline
 90
       40
 70
   128
 43
0.0
 10
1329.3218343542
 20
701.2548426854
 10
1329.2394227303
 20
702.3861086852
 10
1328.9943222763
 20
703.3929250541
 10
1328.5928809652
 20
704.2492157771
 10
1328.0454959161
 20
704.9328033742
 10
1327.3663441143
 20
705.4259832858
 10
1326.5730152346
 20
705.7159824112
 10
1325.6860560785
 20
705.7952899253
 10
1324.728438422
 20
705.6618518053
 10
1323.7249640595
 20
705.3191240283
 10
1322.7016224498
 20
704.7759830638
 10
1321.6849176032
 20
704.0464959773
 10
1320.7011816411
 20
703.1495561014
 10
1319.7758928082
 20
702.1083937075
 10
1318.9330155992
 20
700.9499743549
 10
1318.1943800911
 20
699.7043004962
 10
1317.5791165556
 20
698.4036344301
 10
1317.1031599951
 20
697.0816627246
 10
1316.7788374344
 20
695.7726237522
 10
1316.6145486575
 20
694.5104209349
 10
1316.6145486575
 20
693.3277446626
 10
1316.7788374344
 20
692.2552256296
 10
1317.1031599951
 20
691.3206415153
 10
1317.5791165556
 20
690.5481975575
 10
1318.1943800911
 20
689.9578996489
 10
1318.9330155992
 20
689.5650361953
 10
1319.7758928082
 20
689.3797821538
 10
1320.7011816411
 20
689.4069355066
 10
1321.6849176032
 20
689.6457929964
 10
1322.7016224498
 20
690.0901683395
 10
1323.7249640595
 20
690.7285524479
 10
1324.728438422
 20
691.5444115087
 10
1325.6860560785
 20
692.5166152006
 10
1326.5730152346
 20
693.6199839587
 10
1327.3663441143
 20
694.8259411118
 10
1328.0454959161
 20
696.1032530031
 10
1328.5928809652
 20
697.4188379254
 10
1328.9943222763
 20
698.7386229205
 10
1329.2394227303
 20
700.02842625
 10
1329.3218343542
 20
701.2548426854
  0
LINE
  5
EB
330
1F
100
AcDbEntity
  8
0
  6
Continuous
 62
     7
370
    25
100
AcDbLine
 10
1287.7793109595
 20
753.4561121496
 30
0.0
 11
1282.8295634912
 21
756.313540541
 31
0.0
  0
LINE
  5
EC
330
1F
100
AcDbEntity
  8
0
  6
Continuous
 62
     7
370
    25
100
AcDbLine
 10
1275.9299617489
 20
734.80280754
 30
0.0
 11
1270.9802142806
 21
737.6602359313
 31
0.0
  0
ARC
  5
ED
330
1F
100
AcDbEntity
  8
0
  6
Continuous
 62
     7
370
    25
100
AcDbCircle
 10
1330.4242668311
 20
712.989169758
 30
0.0
 40
64.36036738357569
100
AcDbArc
 50
137.6891205613
 51
157.4600827829
  0
LINE
  5
EE
330
1F
100
AcDbEntity
  8
0
  6
Continuous
 62
     7
370
    25
100
AcDbLine
 10
1275.9326066056
 20
610.9428042803
 30
0.0
 11
1270.9828591373
 21
613.8002326717
 31
0.0
  0
LWPOLYLINE
  5
EF
330
1F
100
AcDbEntity
  8
0
  6
Continuous
 62
     7
370
    25
100
AcDbPolyline
 90
       15
 70
   128
 43
0.0
 10
1270.9828591373
 20
613.8002326717
 10
1269.8987641567
 20
621.9670888955
 10
1268.9805541264
 20
630.2548591883
 10
1268.2286635621
 20
638.6596216088
 10
1267.6434482735
 20
647.1773988525
 10
1267.2251851966
 20
655.8041601342
 10
1266.9740722619
 20
664.535823095
 10
1266.8902283011
 20
673.3682557346
 10
1266.9736929909
 20
682.2972783662
 10
1267.2244268342
 20
691.318665595
 10
1267.6423111785
 20
700.428148317
 10
1268.2271482725
 20
709.62141574
 10
1268.9786613594
 20
718.8941174229
 10
1269.8964948079
 20
728.2418653348
 10
1270.9802142806
 20
737.6602359313
  0
LINE
  5
F0
330
1F
100
AcDbEntity
  8
0
  6
Continuous
 62
     7
370
    25
100
AcDbLine
 10
1270.1939949009
 20
738.6457642165
 30
0.0
 11
1271.1598789034
 21
738.0881712506
 31
0.0
  0
LINE
  5
F1
330
1F
100
AcDbEntity
  8
0
  6
Continuous
 62
     7
370
    25
100
AcDbLine
 10
1279.8243596712
 20
756.3743995892
 30
0.0
 11
1281.8412677588
 21
755.2100633338
 31
0.0
  0
ARC
  5
F2
330
1F
100
AcDbEntity
  8
0
  6
Continuous
 62
     7
370
    25
100
AcDbCircle
 10
1326.8483841523
 20
719.350527542
 30
0.0
 40
59.85002907076595
100
AcDbArc
 50
141.7852442734
 51
161.1922884018
  0
LINE
  5
F3
330
1F
100
AcDbEntity
  8
0
  6
Continuous
 62
     7
370
    25
100
AcDbLine
 10
1291.0255597091
 20
761.0449884458
 30
0.0
 11
1295.9753071774
 21
758.1875600545
 31
0.0
  0
LINE
  5
F4
330
1F
100
AcDbEntity
  8
0
  6
Continuous
 62
     7
370
    25
100
AcDbLine
 10
1282.8295634912
 20
756.313540541
 30
0.0
 11
1291.0255597091
 21
761.0449884458
 31
0.0
  0
ARC
  5
F5
330
1F
100
AcDbEntity
  8
0
  6
Continuous
 62
     7
370
    25
100
AcDbCircle
 10
1761.5021969724
 20
679.3662330491
 30
0.0
 40
494.871510837056
100
AcDbArc
 50
173.1201484006
 51
183.1768474877
  0
LINE
  5
F6
330
1F
100
AcDbEntity
  8
0
  6
Continuous
 62
     7
370
    25
100
AcDbLine
 10
1160.3233136506
 20
835.1577823801
 30
0.0
 11
1151.8380322764
 21
830.2593337091
 31
0.0
  0
LINE
  5
F7
330
1F
100
AcDbEntity
  8
0
  6
Continuous
 62
     7
370
    25
100
AcDbLine
 10
1160.3233136506
 20
835.1577823801
 30
0.0
 11
1289.8649541486
 21
760.3749851172
 31
0.0
  0
LINE
  5
F8
330
1F
100
AcDbEntity
  8
0
  6
Continuous
 62
     7
370
    25
100
AcDbLine
 10
1155.3735661823
 20
828.2183134296
 30
0.0
 11
1279.8243596712
 21
756.3743995892
 31
0.0
  0
LINE
  5
F9
330
1F
100
AcDbEntity
  8
0
  6
Continuous
 62
     7
370
    25
100
AcDbLine
 10
1151.8380322764
 20
830.2593337091
 30
0.0
 11
1155.3735661823
 21
828.2183134296
 31
0.0
  0
LINE
  5
FA
330
1F
100
AcDbEntity
  8
0
  6
Continuous
 62
     7
370
    25
100
AcDbLine
 10
1159.5036984084
 20
836.9709428453
 30
0.0
 11
1160.3233136506
 21
837.1904930775
 31
0.0
  0
LINE
  5
FB
330
1F
100
AcDbEntity
  8
0
  6
Continuous
 62
     7
370
    25
100
AcDbLine
 10
1154.5539509401
 20
839.8283712367
 30
0.0
 11
1159.5036984084
 21
836.9709428453
 31
0.0
  0
LINE
  5
FC
330
1F
100
AcDbEntity
  8
0
  6
Continuous
 62
     7
370
    25
100
AcDbLine
 10
1154.5539509401
 20
839.8283712367
 30
0.0
 11
1259.0887208515
 21
867.8300869404
 31
0.0
  0
LINE
  5
FD
330
1F
100
AcDbEntity
  8
0
  6
Continuous
 62
     7
370
    25
100
AcDbLine
 10
1259.0887208515
 20
867.8300869404
 30
0.0
 11
1400.5100770888
 21
786.1892757582
 31
0.0
  0
LINE
  5
FE
330
1F
100
AcDbEntity
  8
0
  6
Continuous
 62
     7
370
    25
100
AcDbLine
 10
1291.8451749513
 20
761.264538678
 30
0.0
 11
1160.3233136506
 21
837.1904930775
 31
0.0
  0
LWPOLYLINE
  5
FF
330
1F
100
AcDbEntity
  8
0
  6
Continuous
 62
     7
370
    25
100
AcDbPolyline
 90
       32
 70
   128
 43
0.0
 10
1265.8694100731
 20
809.8847632426
 10
1266.744806882
 20
809.4455793195
 10
1267.7409555161
 20
809.0663215618
 10
1268.8170735335
 20
808.7625168268
 10
1269.9291045359
 20
808.546602916
 10
1271.0315218435
 20
808.4274193703
 10
1272.0791923621
 20
808.4098455779
 10
1273.0292243378
 20
808.4946010122
 10
1273.8427233497
 20
808.6782157755
 10
1274.4863846527
 20
808.953172658
 10
1274.9338566775
 20
809.3082148925
 10
1275.1668198667
 20
809.7288070083
 10
1275.1757366801
 20
810.1977299147
 10
1274.9602420622
 20
810.6957858529
 10
1274.5291583881
 20
811.2025843541
 10
1273.9001342739
 20
811.6973770283
 10
1273.0989220409
 20
812.1599070052
 10
1272.158323412
 20
812.5712382532
 10
1271.1168466056
 20
812.9145308227
 10
1270.0171298044
 20
813.1757302755
 10
1268.9041955437
 20
813.3441430754
 10
1267.8236074826
 20
813.4128743826
 10
1266.8196050235
 20
813.3791103292
 10
1265.933292145
 20
813.2442332195
 10
1265.2009546004
 20
813.0137649384
 10
1264.652574375
 20
812.6971408843
 10
1264.3106022194
 20
812.3073236831
 10
1264.189038514
 20
811.860272497
 10
1264.2928600912
 20
811.3742896539
 10
1264.6178164834
 20
810.8692713486
 10
1265.1506039377
 20
810.3658930898
 10
1265.8694100731
 20
809.8847632426
  0
LWPOLYLINE
  5
100
330
1F
100
AcDbEntity
  8
0
  6
Continuous
 62
     7
370
    25
100
AcDbPolyline
 90
       32
 70
   128
 43
0.0
 10
1306.8501721866
 20
820.8622748495
 10
1307.7255689955
 20
820.4230909263
 10
1308.7217176297
 20
820.0438331687
 10
1309.797835647
 20
819.7400284337
 10
1310.9098666494
 20
819.5241145229
 10
1312.012283957
 20
819.4049309771
 10
1313.0599544757
 20
819.3873571848
 10
1314.0099864513
 20
819.472112619
 10
1314.8234854632
 20
819.6557273824
 10
1315.4671467662
 20
819.9306842648
 10
1315.914618791
 20
820.2857264994
 10
1316.1475819802
 20
820.7063186152
 10
1316.1564987936
 20
821.1752415216
 10
1315.9410041757
 20
821.6732974597
 10
1315.5099205016
 20
822.180095961
 10
1314.8808963875
 20
822.6748886352
 10
1314.0796841545
 20
823.1374186121
 10
1313.1390855255
 20
823.5487498601
 10
1312.0976087191
 20
823.8920424295
 10
1310.997891918
 20
824.1532418824
 10
1309.8849576572
 20
824.3216546823
 10
1308.8043695962
 20
824.3903859894
 10
1307.8003671371
 20
824.356621936
 10
1306.9140542585
 20
824.2217448264
 10
1306.181716714
 20
823.9912765453
 10
1305.6333364885
 20
823.6746524912
 10
1305.291364333
 20
823.28483529
 10
1305.1698006276
 20
822.8377841038
 10
1305.2736222048
 20
822.3518012607
 10
1305.5985785969
 20
821.8467829554
 10
1306.1313660512
 20
821.3434046967
 10
1306.8501721866
 20
820.8622748495
  0
LINE
  5
101
330
1F
100
AcDbEntity
  8
0
  6
Continuous
 62
     7
370
    25
100
AcDbLine
 10
1291.8451749513
 20
761.264538678
 30
0.0
 11
1291.0255597091
 21
761.0449884458
 31
0.0
  0
LINE
  5
102
330
1F
100
AcDbEntity
  8
0
  6
Continuous
 62
     7
370
    25
100
AcDbLine
 10
1267.4451802947
 20
650.8325604633
 30
0.0
 11
1250.4187680801
 21
641.0002266284
 31
0.0
  0
LWPOLYLINE
  5
103
330
1F
100
AcDbEntity
  8
0
  6
Continuous
 62
     7
370
    25
100
AcDbPolyline
 90
        9
 70
   128
 43
0.0
 10
1251.4187680801
 20
637.6350942021
 10
1251.0082435526
 20
637.9424049138
 10
1250.6330731218
 20
638.3638901262
 10
1250.3255662131
 20
638.8632518159
 10
1250.1122051153
 20
639.3974852894
 10
1250.0113643426
 20
639.9205827188
 10
1250.0317282348
 20
640.3874953046
 10
1250.1715430672
 20
640.7580128485
 10
1250.4187680801
 20
641.0002266284
  0
LINE
  5
104
330
1F
100
AcDbEntity
  8
0
  6
Continuous
 62
     7
370
    25
100
AcDbLine
 10
1251.4187680801
 20
637.6350942021
 30
0.0
 11
1269.2851346271
 21
627.3210603349
 31
0.0
  0
LINE
  5
105
330
1F
100
AcDbEntity
  8
0
  6
Continuous
 62
     7
370
    25
100
AcDbLine
 10
1270.2724046028
 20
618.9939837965
 30
0.0
 11
1155.3735661823
 21
685.3236713496
 31
0.0
  0
LINE
  5
106
330
1F
100
AcDbEntity
  8
0
  6
Continuous
 62
     7
370
    25
100
AcDbLine
 10
1155.3735661823
 20
828.2183134296
 30
0.0
 11
1155.3735661823
 21
685.3236713496
 31
0.0
  0
LWPOLYLINE
  5
107
330
1F
100
AcDbEntity
  8
0
  6
Continuous
 62
     7
370
    25
100
AcDbPolyline
 90
       18
 70
   128
 43
0.0
 10
1174.7749843909
 20
765.0959665912
 10
1173.5620144398
 20
763.6313336237
 10
1172.4866280593
 20
761.9923897431
 10
1171.554364264
 20
760.1875766914
 10
1170.7700248846
 20
758.2261905567
 10
1170.1376498341
 20
756.1183338911
 10
1169.6604962997
 20
753.8748636758
 10
1169.3410219661
 20
751.5073353991
 10
1169.1808723564
 20
749.027943538
 10
1169.1808723564
 20
746.4494587477
 10
1169.3410219661
 20
743.785162083
 10
1169.6604962997
 20
741.0487765921
 10
1170.1376498341
 20
738.2543966324
 10
1170.7700248846
 20
735.4164152746
 10
1171.554364264
 20
732.5494501682
 10
1172.4866280593
 20
729.6682682498
 10
1173.5620144398
 20
726.7877096826
 10
1174.7749843909
 20
723.9226114195
  0
ARC
  5
108
330
1F
100
AcDbEntity
  8
0
  6
Continuous
 62
     7
370
    25
100
AcDbCircle
 10
1450.8092669389
 20
847.9008646721
 30
0.0
 40
302.5979716081421
100
AcDbArc
 50
204.1867927633
 51
215.8150990198
  0
LWPOLYLINE
  5
109
330
1F
100
AcDbEntity
  8
0
  6
Continuous
 62
     7
370
    25
100
AcDbPolyline
 90
       18
 70
   128
 43
0.0
 10
1205.4296552225
 20
670.8291882941
 10
1207.3042719408
 20
668.346549876
 10
1209.2610352215
 20
665.9753407082
 10
1211.2898682116
 20
663.727771939
 10
1213.3803229166
 20
661.6154179985
 10
1215.5216340053
 20
659.6491569936
 10
1217.7027742485
 20
657.8391146885
 10
1219.9125113067
 20
656.1946123589
 10
1222.1394655737
 20
654.7241187902
 10
1224.3721687788
 20
653.4352066652
 10
1226.5991230457
 20
652.3345135665
 10
1228.8088601039
 20
651.4277077948
 10
1230.9900003472
 20
650.7194591784
 10
1233.1313114359
 20
650.2134150247
 10
1235.2217661409
 20
649.9121813375
 10
1237.2505991309
 20
649.8173093967
 10
1239.2073624116
 20
649.9292877697
 10
1241.0819791299
 20
650.2475397951
  0
ARC
  5
10A
330
1F
100
AcDbEntity
  8
0
  6
Continuous
 62
     7
370
    25
100
AcDbCircle
 10
1228.0039478289
 20
708.247160758
 30
0.0
 40
59.45578974793233
100
AcDbArc
 50
282.7068177539
 51
310.8089766848
  0
ARC
  5
10B
330
1F
100
AcDbEntity
  8
0
  6
Continuous
 62
     7
370
    25
100
AcDbCircle
 10
995.3908549467
 20
584.9492479106
 30
0.0
 40
302.9639214168112
100
AcDbArc
 50
25.8258532971
 51
35.8103284846
  0
LWPOLYLINE
  5
10C
330
1F
100
AcDbEntity
  8
0
  6
Continuous
 62
     7
370
    25
100
AcDbPolyline
 90
       18
 70
   128
 43
0.0
 10
1241.0819791299
 20
762.2146116391
 10
1239.2073624116
 20
764.6972500573
 10
1237.2505991309
 20
767.068459225
 10
1235.2217661409
 20
769.3160279943
 10
1233.1313114359
 20
771.4283819348
 10
1230.9900003472
 20
773.3946429396
 10
1228.8088601039
 20
775.2046852447
 10
1226.5991230457
 20
776.8491875744
 10
1224.3721687788
 20
778.3196811431
 10
1222.1394655737
 20
779.6085932681
 10
1219.9125113067
 20
780.7092863668
 10
1217.7027742485
 20
781.6160921384
 10
1215.5216340053
 20
782.3243407548
 10
1213.3803229166
 20
782.8303849085
 10
1211.2898682116
 20
783.1316185958
 10
1209.2610352215
 20
783.2264905366
 10
1207.3042719408
 20
783.1145121636
 10
1205.4296552225
 20
782.7962601382
  0
ARC
  5
10D
330
1F
100
AcDbEntity
  8
0
  6
Continuous
 62
     7
370
    25
100
AcDbCircle
 10
1218.6043318051
 20
724.5842316801
 30
0.0
 40
59.68427230235046
100
AcDbArc
 50
102.752471243
 51
137.2526062141
  0
LINE
  5
10E
330
1F
100
AcDbEntity
  8
0
  6
Continuous
 62
     7
370
    25
100
AcDbLine
 10
1160.3233136506
 20
837.1904930775
 30
0.0
 11
1160.3233136506
 21
835.1577823801
 31
0.0
  0
ARC
  5
10F
330
1F
100
AcDbEntity
  8
0
  6
Continuous
 62
     7
370
    25
100
AcDbCircle
 10
1228.4864913955
 20
709.2786968147
 30
0.0
 40
60.11330663866791
100
AcDbArc
 50
282.7849303492
 51
299.5179159353
  0
LWPOLYLINE
  5
110
330
1F
100
AcDbEntity
  8
0
  6
Continuous
 62
     7
370
    25
100
AcDbPolyline
 90
       18
 70
   128
 43
0.0
 10
1206.1367620037
 20
671.23739235
 10
1208.011378722
 20
668.7547539319
 10
1209.9681420027
 20
666.3835447642
 10
1211.9969749928
 20
664.1359759949
 10
1214.0874296978
 20
662.0236220544
 10
1216.2287407865
 20
660.0573610496
 10
1218.4098810297
 20
658.2473187444
 10
1220.6196180879
 20
656.6028164148
 10
1222.8465723549
 20
655.1323228461
 10
1225.07927556
 20
653.8434107211
 10
1227.3062298269
 20
652.7427176224
 10
1229.5159668851
 20
651.8359118507
 10
1231.6971071284
 20
651.1276632343
 10
1233.8384182171
 20
650.6216190806
 10
1235.9288729221
 20
650.3203853934
 10
1237.9577059121
 20
650.2255134526
 10
1239.9144691928
 20
650.3374918256
 10
1241.7890859111
 20
650.655743851
  0
ARC
  5
111
330
1F
100
AcDbEntity
  8
0
  6
Continuous
 62
     7
370
    25
100
AcDbCircle
 10
1451.5163737201
 20
848.309068728
 30
0.0
 40
302.5979716081583
100
AcDbArc
 50
204.1867927633
 51
215.8150990198
  0
LWPOLYLINE
  5
112
330
1F
100
AcDbEntity
  8
0
  6
Continuous
 62
     7
370
    25
100
AcDbPolyline
 90
       18
 70
   128
 43
0.0
 10
1175.4820911721
 20
765.5041706471
 10
1174.269121221
 20
764.0395376796
 10
1173.1937348404
 20
762.400593799
 10
1172.2614710452
 20
760.5957807473
 10
1171.4771316658
 20
758.6343946126
 10
1170.8447566153
 20
756.5265379471
 10
1170.3676030809
 20
754.2830677317
 10
1170.0481287473
 20
751.915539455
 10
1169.8879791376
 20
749.4361475939
 10
1169.8879791376
 20
746.8576628036
 10
1170.0481287473
 20
744.1933661389
 10
1170.3676030809
 20
741.456980648
 10
1170.8447566153
 20
738.6626006883
 10
1171.4771316658
 20
735.8246193306
 10
1172.2614710452
 20
732.9576542242
 10
1173.1937348404
 20
730.0764723057
 10
1174.269121221
 20
727.1959137385
 10
1175.4820911721
 20
724.3308154754
  0
ARC
  5
113
330
1F
100
AcDbEntity
  8
0
  6
Continuous
 62
     7
370
    25
100
AcDbCircle
 10
1219.6850279785
 20
724.5747462281
 30
0.0
 40
60.24215638220935
100
AcDbArc
 50
120.4946353717
 51
137.2020543595
  0
ARC
  5
114
330
1F
100
AcDbEntity
  8
0
  6
Continuous
 62
     7
370
    25
100
AcDbCircle
 10
1218.8427595065
 20
725.804002673
 30
0.0
 40
57.82226615775751
100
AcDbArc
 50
102.1131370279
 51
137.8919404293
  0
ARC
  5
115
330
1F
100
AcDbEntity
  8
0
  6
Continuous
 62
     7
370
    25
100
AcDbCircle
 10
1189.4355979207
 20
752.4946918609
 30
0.0
 40
18.10889197102068
100
AcDbArc
 50
138.1542850386
 51
156.63193531
  0
LWPOLYLINE
  5
116
330
1F
100
AcDbEntity
  8
0
  6
Continuous
 62
     7
370
    25
100
AcDbPolyline
 90
        3
 70
   128
 43
0.0
 10
1237.638327761
 20
651.138394541
 10
1239.2810254733
 20
651.2196014833
 10
1241.2166716244
 20
651.5213433668
  0
ARC
  5
117
330
1F
100
AcDbEntity
  8
0
  6
Continuous
 62
     7
370
    25
100
AcDbCircle
 10
1229.1934063868
 20
707.8177765891
 30
0.0
 40
57.56602557523613
100
AcDbArc
 50
282.0555792857
 51
310.8253063303
  0
ARC
  5
118
330
1F
100
AcDbEntity
  8
0
  6
Continuous
 62
     7
370
    25
100
AcDbCircle
 10
1210.4210764494
 20
758.0520394014
 30
0.0
 40
24.56884378276217
100
AcDbArc
 50
57.5152216391
 51
98.6896118888
  0
LWPOLYLINE
  5
119
330
1F
100
AcDbEntity
  8
0
  6
Continuous
 62
     7
370
    25
100
AcDbPolyline
 90
       43
 70
   128
 43
0.0
 10
1264.6215638757
 20
692.6419626958
 10
1264.5431066526
 20
695.6278741347
 10
1264.3080325986
 20
698.6930437703
 10
1263.9172334301
 20
701.8258443643
 10
1263.3721915821
 20
705.014392131
 10
1262.6749745851
 20
708.2465918165
 10
1261.828227222
 20
711.5101825803
 10
1260.8351614955
 20
714.7927845048
 10
1259.6995444442
 20
718.0819455566
 10
1258.4256838523
 20
721.365188821
 10
1257.0184119096
 20
724.6300598319
 10
1255.4830668805
 20
727.8641738152
 10
1253.8254728546
 20
731.0552626687
 10
1252.0519176538
 20
734.1912214995
 10
1250.1691289805
 20
737.2601545414
 10
1248.184248897
 20
740.2504202804
 10
1246.1048067333
 20
743.1506756142
 10
1243.9386905259
 20
745.9499188809
 10
1241.6941170955
 20
748.6375315921
 10
1239.3796008779
 20
751.203318712
 10
1237.0039216258
 20
753.6375473313
 10
1234.5760911046
 20
755.9309835871
 10
1232.1053189068
 20
758.0749276902
 10
1229.6009775178
 20
760.061246926
 10
1227.0725667622
 20
761.8824065055
 10
1224.5296777681
 20
763.5314981466
 10
1221.9819565844
 20
765.0022662797
 10
1219.4390675903
 20
766.2891317777
 10
1216.9106568347
 20
767.3872131188
 10
1214.4063154457
 20
768.2923449044
 10
1211.9355432479
 20
769.0010936597
 10
1209.5077127266
 20
769.5107708578
 10
1207.1320334746
 20
769.8194431185
 10
1204.817517257
 20
769.9259395423
 10
1202.5729438265
 20
769.8298561517
 10
1200.4068276191
 20
769.531557424
 10
1198.3273854555
 20
769.0321749083
 10
1196.342505372
 20
768.3336029337
 10
1194.4597166987
 20
767.4384914228
 10
1192.6861614979
 20
766.3502358403
 10
1191.028567472
 20
765.0729643123
 10
1189.4932224429
 20
763.6115219673
 10
1189.0788067253
 20
763.1619850636
  0
LWPOLYLINE
  5
11A
330
1F
100
AcDbEntity
  8
0
  6
Continuous
 62
     7
370
    25
100
AcDbPolyline
 90
       17
 70
   128
 43
0.0
 10
1246.5300625453
 20
663.5965358795
 10
1248.184248897
 20
664.0116250249
 10
1250.1691289805
 20
664.7101969996
 10
1252.0519176538
 20
665.6053085104
 10
1253.8254728546
 20
666.6935640929
 10
1255.4830668805
 20
667.9708356209
 10
1257.0184119096
 20
669.4322779659
 10
1258.4256838523
 20
671.0723473766
 10
1259.6995444442
 20
672.884822508
 10
1260.8351614955
 20
674.8628280209
 10
1261.828227222
 20
676.998860663
 10
1262.6749745851
 20
679.2848177309
 10
1263.3721915821
 20
681.7120278064
 10
1263.9172334301
 20
684.2712836503
 10
1264.3080325986
 20
686.9528771285
 10
1264.5431066526
 20
689.7466360385
 10
1264.6215638757
 20
692.6419626958
  0
LWPOLYLINE
  5
11B
330
1F
100
AcDbEntity
  8
0
  6
Continuous
 62
     7
370
    25
100
AcDbPolyline
 90
       17
 70
   128
 43
0.0
 10
1206.5695226245
 20
671.6571471529
 10
1208.4415079141
 20
669.203980954
 10
1210.3977334683
 20
666.8689803429
 10
1212.4270753828
 20
664.6654230946
 10
1214.5179939835
 20
662.6058395435
 10
1216.658599446
 20
660.7019413298
 10
1218.8367194059
 20
658.9645548032
 10
1221.039968176
 20
657.403559459
 10
1223.2558171762
 20
656.0278317597
 10
1225.4716661765
 20
654.8451946596
 10
1227.6749149466
 20
653.8623731206
 10
1229.8530349065
 20
653.0849558706
 10
1231.993640369
 20
652.5173636244
 10
1234.0845589697
 20
652.1628239452
 10
1236.1139008841
 20
652.0233528918
 10
1238.0701264383
 20
652.099743554
 10
1239.942111728
 20
652.3915615429
  0
ARC
  5
11C
330
1F
100
AcDbEntity
  8
0
  6
Continuous
 62
     7
370
    25
100
AcDbCircle
 10
1441.0605706548
 20
842.2724428669
 30
0.0
 40
289.9924666917186
100
AcDbArc
 50
203.9623183538
 51
216.0395734294
  0
LWPOLYLINE
  5
11D
330
1F
100
AcDbEntity
  8
0
  6
Continuous
 62
     7
370
    25
100
AcDbPolyline
 90
       17
 70
   128
 43
0.0
 10
1176.0617548524
 20
763.0367680434
 10
1174.8729932809
 20
761.5611948058
 10
1173.8286970022
 20
759.904919206
 10
1172.93480544
 20
758.0773612936
 10
1172.1964025928
 20
756.0889152844
 10
1171.6176881189
 20
753.9508904435
 10
1171.2019534505
 20
751.6754467641
 10
1170.9515630742
 20
749.2755258074
 10
1170.8679410823
 20
746.7647770979
 10
1170.9515630742
 20
744.1574804917
 10
1171.2019534505
 20
741.46846496
 10
1171.6176881189
 20
738.7130242495
 10
1172.1964025928
 20
735.9068298994
 10
1172.93480544
 20
733.0658421097
 10
1173.8286970022
 20
730.2062189677
 10
1174.8729932809
 20
727.344224549
 10
1176.0617548524
 20
724.4961364159
  0
ARC
  5
11E
330
1F
100
AcDbEntity
  8
0
  6
Continuous
 62
     7
370
    25
100
AcDbCircle
 10
1218.602167735
 20
724.5876844356
 30
0.0
 40
57.34124831653882
100
AcDbArc
 50
102.1131370279
 51
137.8919404293
  0
LWPOLYLINE
  5
11F
330
1F
100
AcDbEntity
  8
0
  6
Continuous
 62
     7
370
    25
100
AcDbPolyline
 90
       17
 70
   128
 43
0.0
 10
1239.942111728
 20
761.3866527804
 10
1238.0701264383
 20
763.8398189792
 10
1236.1139008841
 20
766.1748195904
 10
1234.0845589697
 20
768.3783768387
 10
1231.993640369
 20
770.4379603898
 10
1229.8530349065
 20
772.3418586034
 10
1227.6749149466
 20
774.0792451301
 10
1225.4716661765
 20
775.6402404743
 10
1223.2558171762
 20
777.0159681736
 10
1221.039968176
 20
778.1986052736
 10
1218.8367194059
 20
779.1814268127
 10
1216.658599446
 20
779.9588440627
 10
1214.5179939835
 20
780.5264363089
 10
1212.4270753828
 20
780.8809759881
 10
1210.3977334683
 20
781.0204470415
 10
1208.4415079141
 20
780.9440563793
 10
1206.5695226245
 20
780.6522383903
  0
LWPOLYLINE
  5
120
330
1F
100
AcDbEntity
  8
0
  6
Continuous
 62
     7
370
    25
100
AcDbPolyline
 90
       23
 70
   128
 43
0.0
 10
1225.2003608245
 20
658.2414819809
 10
1225.1215931436
 20
658.9195804546
 10
1224.8916713901
 20
659.6336866513
 10
1224.5292224569
 20
660.3259479339
 10
1224.0636098012
 20
660.9402814104
 10
1223.5325545911
 20
661.426917436
 10
1222.9790797614
 20
661.7464316541
 10
1222.4480245513
 20
661.8729389229
 10
1221.9824118955
 20
661.796190376
 10
1221.6199629624
 20
661.5224037241
 10
1221.3900412088
 20
661.0737595335
 10
1221.311273528
 20
660.4866042884
 10
1221.3900412088
 20
659.8085058147
 10
1221.6199629624
 20
659.094399618
 10
1221.9824118955
 20
658.4021383354
 10
1222.4480245513
 20
657.7878048589
 10
1222.9790797614
 20
657.3011688333
 10
1223.5325545911
 20
656.9816546152
 10
1224.0636098012
 20
656.8551473463
 10
1224.5292224569
 20
656.9318958933
 10
1224.8916713901
 20
657.2056825451
 10
1225.1215931436
 20
657.6543267357
 10
1225.2003608245
 20
658.2414819809
  0
LWPOLYLINE
  5
121
330
1F
100
AcDbEntity
  8
0
  6
Continuous
 62
     7
370
    25
100
AcDbPolyline
 90
       23
 70
   128
 43
0.0
 10
1175.7028861414
 20
743.9736227267
 10
1175.6241184606
 20
744.6517212004
 10
1175.394196707
 20
745.3658273971
 10
1175.0317477739
 20
746.0580886797
 10
1174.5661351181
 20
746.6724221562
 10
1174.035079908
 20
747.1590581818
 10
1173.4816050784
 20
747.4785723999
 10
1172.9505498683
 20
747.6050796687
 10
1172.4849372125
 20
747.5283311218
 10
1172.1224882793
 20
747.2545444699
 10
1171.8925665258
 20
746.8059002793
 10
1171.8137988449
 20
746.2187450342
 10
1171.8925665258
 20
745.5406465605
 10
1172.1224882793
 20
744.8265403638
 10
1172.4849372125
 20
744.1342790812
 10
1172.9505498683
 20
743.5199456047
 10
1173.4816050784
 20
743.0333095791
 10
1174.035079908
 20
742.713795361
 10
1174.5661351181
 20
742.5872880921
 10
1175.0317477739
 20
742.6640366391
 10
1175.394196707
 20
742.9378232909
 10
1175.6241184606
 20
743.3864674815
 10
1175.7028861414
 20
743.9736227267
  0
LWPOLYLINE
  5
122
330
1F
100
AcDbEntity
  8
0
  6
Continuous
 62
     7
370
    25
100
AcDbPolyline
 90
       23
 70
   128
 43
0.0
 10
1225.2003608245
 20
772.5571956449
 10
1225.1215931436
 20
773.2352941186
 10
1224.8916713901
 20
773.9494003153
 10
1224.5292224569
 20
774.6416615979
 10
1224.0636098012
 20
775.2559950744
 10
1223.5325545911
 20
775.7426311
 10
1222.9790797614
 20
776.0621453181
 10
1222.4480245513
 20
776.1886525869
 10
1221.9824118955
 20
776.11190404
 10
1221.6199629624
 20
775.8381173881
 10
1221.3900412088
 20
775.3894731975
 10
1221.311273528
 20
774.8023179524
 10
1221.3900412088
 20
774.1242194787
 10
1221.6199629624
 20
773.410113282
 10
1221.9824118955
 20
772.7178519994
 10
1222.4480245513
 20
772.1035185229
 10
1222.9790797614
 20
771.6168824973
 10
1223.5325545911
 20
771.2973682792
 10
1224.0636098012
 20
771.1708610103
 10
1224.5292224569
 20
771.2476095573
 10
1224.8916713901
 20
771.5213962092
 10
1225.1215931436
 20
771.9700403997
 10
1225.2003608245
 20
772.5571956449
  0
LWPOLYLINE
  5
123
330
1F
100
AcDbEntity
  8
0
  6
Continuous
 62
     7
370
    25
100
AcDbPolyline
 90
       99
 70
   128
 43
0.0
 10
1259.7616307446
 20
692.9983180385
 10
1259.6822671552
 20
695.9019979048
 10
1259.4445025091
 20
698.8853771775
 10
1259.0493138322
 20
701.9361965113
 10
1258.4983250396
 20
705.0419194352
 10
1257.7938002623
 20
708.1897838675
 10
1256.9386345439
 20
711.3668545579
 10
1255.9363419436
 20
714.5600762416
 10
1254.7910410968
 20
717.7563272858
 10
1253.5074382903
 20
720.9424736092
 10
1252.0908081234
 20
724.1054226533
 10
1250.5469718333
 20
727.2321771818
 10
1248.8822733744
 20
730.3098886899
 10
1247.1035533499
 20
733.3259102008
 10
1245.2181209018
 20
736.267848235
 10
1243.2337236764
 20
739.1236137383
 10
1241.1585159877
 20
741.8814717575
 10
1239.0010253092
 20
744.5300896626
 10
1236.7701172328
 20
747.0585837144
 10
1234.4749590383
 20
749.4565637885
 10
1232.1249820231
 20
751.7141760704
 10
1229.7298427468
 20
753.822143547
 10
1227.2993833505
 20
755.7718041278
 10
1224.843591113
 20
757.5551462392
 10
1222.3725574116
 20
759.164841746
 10
1219.8964362537
 20
760.5942760641
 10
1217.4254025523
 20
761.8375753412
 10
1214.9696103149
 20
762.889630594
 10
1212.5391509185
 20
763.7461187017
 10
1210.1440116423
 20
764.4035201709
 10
1207.7940346271
 20
764.8591335981
 10
1205.4988764326
 20
765.11108677
 10
1203.2679683562
 20
765.1583443568
 10
1201.1104776776
 20
765.0007121671
 10
1199.0352699889
 20
764.6388379453
 10
1197.0508727636
 20
764.0742087102
 10
1195.1654403155
 20
763.3091446444
 10
1193.3867202909
 20
762.3467895604
 10
1191.7220218321
 20
761.1910979816
 10
1190.178185542
 20
759.8468188925
 10
1188.7615553751
 20
758.3194762243
 10
1187.4779525686
 20
756.6153461556
 10
1186.3326517218
 20
754.7414313225
 10
1185.3303591215
 20
752.7054320429
 10
1184.4751934031
 20
750.5157146745
 10
1183.7706686258
 20
748.1812772358
 10
1183.2196798331
 20
745.7117124309
 10
1182.8244911563
 20
743.1171682314
 10
1182.5867265102
 20
740.4083061757
 10
1182.5073629208
 20
737.5962575593
 10
1182.5867265102
 20
734.692577693
 10
1182.8244911563
 20
731.7091984203
 10
1183.2196798331
 20
728.6583790865
 10
1183.7706686258
 20
725.5526561626
 10
1184.4751934031
 20
722.4047917303
 10
1185.3303591215
 20
719.2277210399
 10
1186.3326517218
 20
716.0344993562
 10
1187.4779525686
 20
712.838248312
 10
1188.7615553751
 20
709.6521019886
 10
1190.178185542
 20
706.4891529445
 10
1191.7220218321
 20
703.362398416
 10
1193.3867202909
 20
700.2846869079
 10
1195.1654403155
 20
697.268665397
 10
1197.0508727636
 20
694.3267273628
 10
1199.0352699889
 20
691.4709618595
 10
1201.1104776776
 20
688.7131038403
 10
1203.2679683562
 20
686.0644859352
 10
1205.4988764326
 20
683.5359918834
 10
1207.7940346271
 20
681.1380118093
 10
1210.1440116423
 20
678.8803995274
 10
1212.5391509185
 20
676.7724320508
 10
1214.9696103149
 20
674.82277147
 10
1217.4254025523
 20
673.0394293586
 10
1219.8964362537
 20
671.4297338518
 10
1222.3725574116
 20
670.0002995337
 10
1224.843591113
 20
668.7570002566
 10
1227.2993833505
 20
667.7049450038
 10
1229.7298427468
 20
666.8484568961
 10
1232.1249820231
 20
666.1910554268
 10
1234.4749590383
 20
665.7354419996
 10
1236.7701172328
 20
665.4834888278
 10
1239.0010253092
 20
665.436231241
 10
1241.1585159877
 20
665.5938634307
 10
1243.2337236764
 20
665.9557376525
 10
1245.2181209018
 20
666.5203668876
 10
1247.1035533499
 20
667.2854309534
 10
1248.8822733744
 20
668.2477860374
 10
1250.5469718333
 20
669.4034776162
 10
1252.0908081234
 20
670.7477567053
 10
1253.5074382903
 20
672.2750993735
 10
1254.7910410968
 20
673.9792294422
 10
1255.9363419436
 20
675.8531442753
 10
1256.9386345439
 20
677.8891435549
 10
1257.7938002623
 20
680.0788609233
 10
1258.4983250396
 20
682.413298362
 10
1259.0493138322
 20
684.8828631669
 10
1259.4445025091
 20
687.4774073664
 10
1259.6822671552
 20
690.1862694221
 10
1259.7616307446
 20
692.9983180385
  0
LWPOLYLINE
  5
124
330
1F
100
AcDbEntity
  8
0
  6
Continuous
 62
     7
370
    25
100
AcDbPolyline
 90
       99
 70
   128
 43
0.0
 10
1259.3182630168
 20
693.2542687797
 10
1259.2398103739
 20
690.4744972566
 10
1259.0047748242
 20
687.7967279043
 10
1258.6141221791
 20
685.2319642514
 10
1258.069457714
 20
682.790745462
 10
1257.3730195722
 20
680.4831030277
 10
1256.5276695673
 20
678.3185195462
 10
1255.5368814238
 20
676.3058897554
 10
1254.4047265027
 20
674.4534839828
 10
1253.1358570715
 20
672.7689141611
 10
1251.7354871868
 20
671.2591025489
 10
1250.2093712689
 20
669.9302532861
 10
1248.5637804553
 20
668.7878268993
 10
1246.8054768318
 20
667.8365178636
 10
1244.941685645
 20
667.0802353118
 10
1242.9800656128
 20
666.5220869713
 10
1240.9286774526
 20
666.1643663931
 10
1238.7959507584
 20
666.0085435281
 10
1236.5906493617
 20
666.0552586856
 10
1234.3218353189
 20
666.3043199032
 10
1231.9988316735
 20
666.7547037347
 10
1229.6311841459
 20
667.4045594566
 10
1227.2286219076
 20
668.2512166722
 10
1224.8010176022
 20
669.2911962854
 10
1222.3583467765
 20
670.5202247969
 10
1219.9106468889
 20
671.9332518649
 10
1217.4679760631
 20
673.5244710581
 10
1215.0403717577
 20
675.2873437155
 10
1212.6378095194
 20
677.2146258153
 10
1210.2701619918
 20
679.2983977419
 10
1207.9471583465
 20
681.5300968295
 10
1205.6783443037
 20
683.9005525478
 10
1203.4730429069
 20
686.4000241859
 10
1201.3403162127
 20
689.0182408785
 10
1199.2889280526
 20
691.7444438118
 10
1197.3273080203
 20
694.5674304331
 10
1195.4635168336
 20
697.4756004849
 10
1193.7052132101
 20
700.4570036726
 10
1192.0596223965
 20
703.499388771
 10
1190.5335064785
 20
706.5902539671
 10
1189.1331365938
 20
709.7168982329
 10
1187.8642671626
 20
712.8664735164
 10
1186.7321122416
 20
716.0260375372
 10
1185.7413240981
 20
719.182606969
 10
1184.8959740932
 20
722.323210791
 10
1184.1995359513
 20
725.4349435883
 10
1183.6548714863
 20
728.5050185835
 10
1183.2642188412
 20
731.5208201798
 10
1183.0291832914
 20
734.4699558016
 10
1182.9507306486
 20
737.3403068181
 10
1183.0291832914
 20
740.1200783412
 10
1183.2642188412
 20
742.7978476935
 10
1183.6548714863
 20
745.3626113464
 10
1184.1995359513
 20
747.8038301358
 10
1184.8959740932
 20
750.1114725701
 10
1185.7413240981
 20
752.2760560516
 10
1186.7321122416
 20
754.2886858424
 10
1187.8642671626
 20
756.141091615
 10
1189.1331365938
 20
757.8256614367
 10
1190.5335064785
 20
759.3354730489
 10
1192.0596223965
 20
760.6643223117
 10
1193.7052132101
 20
761.8067486985
 10
1195.4635168336
 20
762.7580577342
 10
1197.3273080203
 20
763.514340286
 10
1199.2889280526
 20
764.0724886265
 10
1201.3403162127
 20
764.4302092046
 10
1203.4730429069
 20
764.5860320697
 10
1205.6783443037
 20
764.5393169122
 10
1207.9471583465
 20
764.2902556946
 10
1210.2701619918
 20
763.8398718631
 10
1212.6378095194
 20
763.1900161412
 10
1215.0403717577
 20
762.3433589256
 10
1217.4679760631
 20
761.3033793124
 10
1219.9106468889
 20
760.0743508009
 10
1222.3583467765
 20
758.6613237329
 10
1224.8010176022
 20
757.0701045397
 10
1227.2286219076
 20
755.3072318822
 10
1229.6311841459
 20
753.3799497824
 10
1231.9988316735
 20
751.2961778559
 10
1234.3218353189
 20
749.0644787683
 10
1236.5906493617
 20
746.69402305
 10
1238.7959507584
 20
744.1945514119
 10
1240.9286774526
 20
741.5763347193
 10
1242.9800656128
 20
738.850131786
 10
1244.941685645
 20
736.0271451647
 10
1246.8054768318
 20
733.1189751129
 10
1248.5637804553
 20
730.1375719252
 10
1250.2093712689
 20
727.0951868268
 10
1251.7354871868
 20
724.0043216307
 10
1253.1358570715
 20
720.8776773649
 10
1254.4047265027
 20
717.7281020814
 10
1255.5368814238
 20
714.5685380606
 10
1256.5276695673
 20
711.4119686288
 10
1257.3730195722
 20
708.2713648068
 10
1258.069457714
 20
705.1596320095
 10
1258.6141221791
 20
702.0895570143
 10
1259.0047748242
 20
699.073755418
 10
1259.2398103739
 20
696.1246197962
 10
1259.3182630168
 20
693.2542687797
  0
ARC
  5
125
330
1F
100
AcDbEntity
  8
0
  6
Continuous
 62
     7
370
    25
100
AcDbCircle
 10
1208.0939627751
 20
781.3751086811
 30
0.0
 40
1.687145290132773
100
AcDbArc
 50
145.1636272788
 51
205.3697179142
  0
LWPOLYLINE
  5
126
330
1F
100
AcDbEntity
  8
0
  6
Continuous
 62
     7
370
    25
100
AcDbPolyline
 90
       49
 70
   128
 43
0.0
 10
1248.9449945141
 20
673.6246954103
 10
1248.8952413399
 20
673.5977438979
 10
1247.142868946
 20
672.7791514414
 10
1245.288548346
 20
672.1586594261
 10
1243.3405613859
 20
671.73903912
 10
1241.3076082484
 20
671.5221646492
 10
1239.1987685955
 20
671.5090046279
 10
1237.0234610172
 20
671.6996178318
 10
1234.7914009652
 20
672.0931529361
 10
1232.5125573615
 20
672.6878523175
 10
1230.1971080748
 20
673.4810599041
 10
1227.8553944638
 20
674.4692330385
 10
1225.4978751898
 20
675.6479582993
 10
1223.1350795063
 20
677.0119712136
 10
1220.7775602323
 20
678.5551797685
 10
1218.4358466212
 20
680.2706916199
 10
1216.1203973345
 20
682.1508448756
 10
1213.8415537308
 20
684.1872423146
 10
1211.6094936788
 20
686.3707888916
 10
1209.4341861005
 20
688.6917323576
 10
1207.3253464477
 20
691.1397068157
 10
1205.2923933101
 20
693.7037790175
 10
1203.34440635
 20
696.3724971944
 10
1201.49008575
 20
699.1339422029
 10
1199.7377133561
 20
701.9757807595
 10
1198.0951156888
 20
704.8853205231
 10
1196.5696289879
 20
707.849566783
 10
1195.1680664475
 20
710.8552804957
 10
1193.8966877861
 20
713.8890374142
 10
1192.7611712894
 20
716.9372880436
 10
1191.7665884496
 20
719.9864181566
 10
1190.9173813154
 20
723.022809598
 10
1190.2173426517
 20
726.0329011064
 10
1189.6695990013
 20
729.0032488825
 10
1189.2765967202
 20
731.9205866321
 10
1189.0400910521
 20
734.7718848166
 10
1188.9611382887
 20
737.5444088461
 10
1189.0400910521
 20
740.2257759552
 10
1189.2765967202
 20
742.8040105076
 10
1189.6695990013
 20
745.2675974818
 10
1190.2173426517
 20
747.6055339005
 10
1190.9173813154
 20
749.8073779719
 10
1191.7665884496
 20
751.863295726
 10
1192.7611712894
 20
753.7641049349
 10
1193.8966877861
 20
755.5013161235
 10
1195.1680664475
 20
757.0671704846
 10
1196.5696289879
 20
758.4546745328
 10
1198.0951156888
 20
759.657631338
 10
1199.3185090321
 20
760.4366491695
  0
LWPOLYLINE
  5
127
330
1F
100
AcDbEntity
  8
0
  6
Continuous
 62
     7
370
    25
100
AcDbPolyline
 90
       34
 70
   128
 43
0.0
 10
1248.4282923977
 20
710.6434577992
 10
1248.3482465413
 20
712.6300957578
 10
1248.1088338799
 20
714.691161394
 10
1247.7122225716
 20
716.8079893782
 10
1247.1620043898
 20
718.9614093884
 10
1246.4631621956
 20
721.1319197195
 10
1245.6220248121
 20
723.2998638938
 10
1244.6462097096
 20
725.4456086731
 10
1243.544554021
 20
727.5497218606
 10
1242.3270345106
 20
729.5931482813
 10
1241.0046772238
 20
731.557382349
 10
1239.5894576328
 20
733.4246356561
 10
1238.0941921855
 20
735.1779980672
 10
1236.5324222373
 20
736.801590861
 10
1234.9182914186
 20
738.2807105296
 10
1233.2664175482
 20
739.6019619364
 10
1231.5917602515
 20
740.7533796238
 10
1229.9094854845
 20
741.7245361752
 10
1228.2348281878
 20
742.5066366463
 10
1226.5829543174
 20
743.0925982142
 10
1224.9688234987
 20
743.4771143202
 10
1223.4070535505
 20
743.6567027269
 10
1221.9117881032
 20
743.6297370538
 10
1220.4965685122
 20
743.3964615064
 10
1219.1742112254
 20
742.9589886639
 10
1217.956691715
 20
742.3212803484
 10
1216.8550360264
 20
741.4891117449
 10
1215.879220924
 20
740.4700191013
 10
1215.0380835404
 20
739.2732314784
 10
1214.3392413462
 20
737.9095871701
 10
1213.7890231644
 20
736.3914355506
 10
1213.3924118561
 20
734.7325252359
 10
1213.1529991947
 20
732.9478795748
 10
1213.1507170185
 20
732.9213972462
  0
LWPOLYLINE
  5
128
330
1F
100
AcDbEntity
  8
0
  6
Continuous
 62
     7
370
    25
100
AcDbPolyline
 90
       17
 70
   128
 43
0.0
 10
1232.3761859623
 20
699.5831114317
 10
1233.2664175482
 20
699.1904817476
 10
1234.9182914186
 20
698.6045201797
 10
1236.5324222373
 20
698.2200040737
 10
1238.0941921855
 20
698.040415667
 10
1239.5894576328
 20
698.0673813401
 10
1241.0046772238
 20
698.3006568876
 10
1242.3270345106
 20
698.73812973
 10
1243.544554021
 20
699.3758380455
 10
1244.6462097096
 20
700.208006649
 10
1245.6220248121
 20
701.2270992926
 10
1246.4631621956
 20
702.4238869155
 10
1247.1620043898
 20
703.7875312238
 10
1247.7122225716
 20
705.3056828433
 10
1248.1088338799
 20
706.964593158
 10
1248.3482465413
 20
708.7492388191
 10
1248.4282923977
 20
710.6434577992
  0
LWPOLYLINE
  5
129
330
1F
100
AcDbEntity
  8
0
  6
Continuous
 62
     7
370
    25
100
AcDbPolyline
 90
       11
 70
   128
 43
0.0
 10
1222.2807026829
 20
776.1854284877
 10
1222.09714799
 20
775.7976772534
 10
1222.0183803092
 20
775.2105220083
 10
1222.09714799
 20
774.5324235346
 10
1222.3270697436
 20
773.8183173379
 10
1222.6895186767
 20
773.1260560553
 10
1223.1551313325
 20
772.5117225788
 10
1223.6861865426
 20
772.0250865532
 10
1224.2396613722
 20
771.7055723351
 10
1224.7707165823
 20
771.5790650663
 10
1224.9380384507
 20
771.5822891654
  0
LWPOLYLINE
  5
12A
330
1F
100
AcDbEntity
  8
0
  6
Continuous
 62
     7
370
    25
100
AcDbPolyline
 90
        8
 70
   128
 43
0.0
 10
1324.3720868859
 20
701.2548426854
 10
1324.2924770405
 20
702.1129114135
 10
1324.0569067406
 20
702.843935136
 10
1323.675020262
 20
703.4179856558
 10
1323.1624520821
 20
703.8115612772
 10
1322.5401868023
 20
704.008548968
 10
1321.8337000362
 20
704.0008840289
 10
1321.5656839187
 20
703.9481780945
  0
LWPOLYLINE
  5
12B
330
1F
100
AcDbEntity
  8
0
  6
Continuous
 62
     7
370
    25
100
AcDbPolyline
 90
       16
 70
   128
 43
0.0
 10
1316.7478316262
 20
695.6025088697
 10
1316.7722687282
 20
695.5231289078
 10
1317.0825892718
 20
694.8672265638
 10
1317.5321230133
 20
694.3809184033
 10
1318.1024659885
 20
694.0841139395
 10
1318.7702682891
 20
693.9889643821
 10
1319.5081900103
 20
694.099365165
 10
1320.2860205503
 20
694.4107964673
 10
1321.0719154352
 20
694.9105082548
 10
1321.8337000362
 20
695.5780422683
 10
1322.5401868023
 20
696.3860695868
 10
1323.1624520821
 20
697.301509477
 10
1323.675020262
 20
698.2868837221
 10
1324.0569067406
 20
699.3018509849
 10
1324.2924770405
 20
700.3048583863
 10
1324.3720868859
 20
701.2548426854
  0
LWPOLYLINE
  5
12C
330
1F
100
AcDbEntity
  8
0
  6
Continuous
 62
     7
370
    25
100
AcDbPolyline
 90
       17
 70
   128
 43
0.0
 10
1224.1107617466
 20
716.0283509716
 10
1224.0456829662
 20
716.4437275981
 10
1223.8603542795
 20
716.871005259
 10
1223.5829902989
 20
717.2451348039
 10
1223.2558171762
 20
717.5091584009
 10
1222.9286440536
 20
717.6228808508
 10
1222.651280073
 20
717.5689889415
 10
1222.4659513862
 20
717.3556872276
 10
1222.4008726059
 20
717.0154489616
 10
1222.4659513862
 20
716.6000723352
 10
1222.651280073
 20
716.1727946742
 10
1222.9286440536
 20
715.7986651294
 10
1223.2558171762
 20
715.5346415324
 10
1223.5829902989
 20
715.4209190825
 10
1223.8603542795
 20
715.4748109918
 10
1224.0456829662
 20
715.6881127056
 10
1224.1107617466
 20
716.0283509716
  0
ARC
  5
12D
330
1F
100
AcDbEntity
  8
0
  6
Continuous
 62
     7
370
    25
100
AcDbCircle
 10
1241.183706769
 20
652.8415589755
 30
0.0
 40
1.320627099224724
100
AcDbArc
 50
199.9222862134
 51
271.430338116
  0
ARC
  5
12E
330
1F
100
AcDbEntity
  8
0
  6
Continuous
 62
     7
370
    25
100
AcDbCircle
 10
1177.072188929
 20
763.8869302293
 30
0.0
 40
1.320512311841683
100
AcDbArc
 50
148.5647258362
 51
220.076690758
  0
LINE
  5
12F
330
1F
100
AcDbEntity
  8
0
  6
Continuous
 62
     7
370
    25
100
AcDbLine
 10
1241.7890859111
 20
650.655743851
 30
0.0
 11
1241.0819791299
 21
650.2475397951
 31
0.0
  0
LINE
  5
130
330
1F
100
AcDbEntity
  8
0
  6
Continuous
 62
     7
370
    25
100
AcDbLine
 10
1175.4820911721
 20
765.5041706471
 30
0.0
 11
1174.7749843909
 21
765.0959665912
 31
0.0
  0
LINE
  5
131
330
1F
100
AcDbEntity
  8
0
  6
Continuous
 62
     7
370
    25
100
AcDbLine
 10
1250.4187680801
 20
641.0002266284
 30
0.0
 11
1257.489835892
 21
645.0822671875
 31
0.0
  0
LINE
  5
132
330
1F
100
AcDbEntity
  8
0
  6
Continuous
 62
     7
370
    25
100
AcDbLine
 10
1267.4452447582
 20
650.8312706887
 30
0.0
 11
1257.489835892
 21
645.0822671875
 31
0.0
  0
LWPOLYLINE
  5
133
330
1F
100
AcDbEntity
  8
0
  6
Continuous
 62
     7
370
    25
100
AcDbPolyline
 90
        9
 70
   128
 43
0.0
 10
1257.489835892
 20
645.0822671875
 10
1257.242610879
 20
644.8400534076
 10
1257.1027960467
 20
644.4695358637
 10
1257.0824321545
 20
644.0026232779
 10
1257.1832729271
 20
643.4795258486
 10
1257.396634025
 20
642.945292375
 10
1257.7041409336
 20
642.4459306853
 10
1258.0793113645
 20
642.0244454729
 10
1258.489835892
 20
641.7171347612
  0
LINE
  5
134
330
1F
100
AcDbEntity
  8
0
  6
Continuous
 62
     7
370
    25
100
AcDbLine
 10
1258.489835892
 20
641.7171347612
 30
0.0
 11
1268.4503403151
 21
635.9670579516
 31
0.0
  0
ARC
  5
135
330
1F
100
AcDbEntity
  8
0
  6
Continuous
 62
     7
370
    25
100
AcDbCircle
 10
1281.3076484219
 20
621.9457899912
 30
0.0
 40
13.1510979700434
100
AcDbArc
 50
218.271040829
 51
239.8582977975
  0
LWPOLYLINE
  5
136
330
1F
100
AcDbEntity
  8
0
  6
Continuous
 62
     7
370
    25
100
AcDbPolyline
 90
       15
 70
   128
 43
0.0
 10
1142.7138299122
 20
693.1213462397
 10
1141.6600998664
 20
701.0076639417
 10
1140.7620845247
 20
709.0076946081
 10
1140.0201851002
 20
717.1178640052
 10
1139.4347330568
 20
725.3345486919
 10
1139.0059899614
 20
733.6540776382
 10
1138.7341473666
 20
742.0727338658
 10
1138.6193267257
 20
750.5867561086
 10
1138.661579338
 20
759.192340493
 10
1138.8608863259
 20
767.8856422374
 10
1139.2171586435
 20
776.6627773703
 10
1139.7302371164
 20
785.5198244651
 10
1140.3998925127
 20
794.4528263926
 10
1141.2258256454
 20
803.4577920884
 10
1142.2076675062
 20
812.5306983364
  0
ARC
  5
137
330
1F
100
AcDbEntity
  8
0
  6
Continuous
 62
     7
370
    25
100
AcDbCircle
 10
1153.4055469866
 20
699.7840925057
 30
0.0
 40
12.59781734283163
100
AcDbArc
 50
211.9298798136
 51
239.5765235803
  0
LINE
  5
138
330
1F
100
AcDbEntity
  8
0
  6
Continuous
 62
     7
370
    25
100
AcDbLine
 10
1150.8124283736
 20
684.7312710689
 30
0.0
 11
1152.8027882871
 21
685.8802813895
 31
0.0
  0
ARC
  5
139
330
1F
100
AcDbEntity
  8
0
  6
Continuous
 62
     7
370
    25
100
AcDbCircle
 10
1149.9200195284
 20
698.0992563374
 30
0.0
 40
13.39773949909449
100
AcDbArc
 50
218.6793501651
 51
273.8192372328
  0
LWPOLYLINE
  5
13A
330
1F
100
AcDbEntity
  8
0
  6
Continuous
 62
     7
370
    25
100
AcDbPolyline
 90
       15
 70
   128
 43
0.0
 10
1139.4583529799
 20
813.5861903308
 10
1138.3746335072
 20
804.1678197343
 10
1137.4568000587
 20
794.8200718224
 10
1136.7052869718
 20
785.5473701395
 10
1136.1204498778
 20
776.3541027165
 10
1135.7025655335
 20
767.2446199945
 10
1135.4518316902
 20
758.2232327657
 10
1135.3683670004
 20
749.2942101341
 10
1135.4522109612
 20
740.4617774945
 10
1135.7033238959
 20
731.7301145337
 10
1136.1215869728
 20
723.103353252
 10
1136.7068022614
 20
714.5855760083
 10
1137.4586928257
 20
706.1808135878
 10
1138.376902856
 20
697.893043295
 10
1139.4609978366
 20
689.7261870712
  0
ARC
  5
13B
330
1F
100
AcDbEntity
  8
0
  6
Continuous
 62
     7
370
    25
100
AcDbCircle
 10
1198.9024055304
 20
788.9151241576
 30
0.0
 40
64.36036738354949
100
AcDbArc
 50
137.6891205613
 51
157.4600827829
  0
LINE
  5
13C
330
1F
100
AcDbEntity
  8
0
  6
Continuous
 62
     7
370
    25
100
AcDbLine
 10
1151.3077021905
 20
832.2394949405
 30
0.0
 11
1159.5036984084
 21
836.9709428453
 31
0.0
  0
ARC
  5
13D
330
1F
100
AcDbEntity
  8
0
  6
Continuous
 62
     7
370
    25
100
AcDbCircle
 10
1198.8620567575
 20
793.2354616619
 30
0.0
 40
59.85002907076336
100
AcDbArc
 50
141.7852442734
 51
161.1922884018
  0
ARC
  5
13E
330
1F
100
AcDbEntity
  8
0
  6
Continuous
 62
     7
370
    25
100
AcDbCircle
 10
1156.6713372897
 20
697.4897993332
 30
0.0
 40
12.23514936405036
100
AcDbArc
 50
211.5913549008
 51
263.9112353481
  0
LWPOLYLINE
  5
13F
330
1F
100
AcDbEntity
  8
0
  6
Continuous
 62
     7
370
    25
100
AcDbPolyline
 90
       15
 70
   128
 43
0.0
 10
1146.2493638182
 20
691.0803259601
 10
1145.1956337724
 20
698.9666436621
 10
1144.2976184307
 20
706.9666743285
 10
1143.5557190061
 20
715.0768437257
 10
1142.9702669628
 20
723.2935284123
 10
1142.5415238673
 20
731.6130573587
 10
1142.2696812726
 20
740.0317135863
 10
1142.1548606317
 20
748.5457358291
 10
1142.1971132439
 20
757.1513202134
 10
1142.3964202318
 20
765.8446219578
 10
1142.7526925494
 20
774.6217570907
 10
1143.2657710224
 20
783.4788041855
 10
1143.9354264186
 20
792.411806113
 10
1144.7613595513
 20
801.4167718088
 10
1145.7432014121
 20
810.4896780569
  0
ARC
  5
140
330
1F
100
AcDbEntity
  8
0
  6
Continuous
 62
     7
370
    25
100
AcDbCircle
 10
1202.3975906635
 20
791.1944413824
 30
0.0
 40
59.85002907076441
100
AcDbArc
 50
141.7852442734
 51
161.1922884018
  0
LINE
  5
141
330
1F
100
AcDbEntity
  8
0
  6
Continuous
 62
     7
370
    25
100
AcDbLine
 10
1139.4583529799
 20
813.5861903308
 30
0.0
 11
1134.5086055116
 21
816.4436187222
 31
0.0
  0
ARC
  5
142
330
1F
100
AcDbEntity
  8
0
  6
Continuous
 62
     7
370
    25
100
AcDbCircle
 10
1193.9526580621
 20
791.7725525489
 30
0.0
 40
64.36036738356363
100
AcDbArc
 50
137.6891205613
 51
157.4600827829
  0
LINE
  5
143
330
1F
100
AcDbEntity
  8
0
  6
Continuous
 62
     7
370
    25
100
AcDbLine
 10
1151.3077021905
 20
832.2394949405
 30
0.0
 11
1146.3579547222
 21
835.0969233319
 31
0.0
  0
LINE
  5
144
330
1F
100
AcDbEntity
  8
0
  6
Continuous
 62
     7
370
    25
100
AcDbLine
 10
1145.7432014121
 20
810.4896780569
 30
0.0
 11
1142.2076675062
 21
812.5306983364
 31
0.0
  0
LWPOLYLINE
  5
145
330
1F
100
AcDbEntity
  8
0
  6
Continuous
 62
     7
370
    25
100
AcDbPolyline
 90
       17
 70
   128
 43
0.0
 10
1273.4986397849
 20
808.5844048273
 10
1273.5011988993
 20
808.5882808248
 10
1273.6251450621
 20
808.9736398312
 10
1273.5238578829
 20
809.3982613138
 10
1273.2027977798
 20
809.8392538186
 10
1272.6792731861
 20
810.2728433255
 10
1271.9815074481
 20
810.675654912
 10
1271.1471172973
 20
811.0259729011
 10
1270.2210849228
 20
811.3049115595
 10
1269.2533329696
 20
811.4974332317
 10
1268.2960331959
 20
811.5931590247
 10
1267.4007938804
 20
811.5869283362
 10
1266.6158776062
 20
811.4790770642
 10
1265.983599413
 20
811.2754194987
 10
1265.5380455816
 20
810.9869348717
 10
1265.3032360346
 20
810.6291754642
 10
1265.2824656594
 20
810.2656622176
  0
LINE
  5
146
330
1F
100
AcDbEntity
  8
0
  6
Continuous
 62
     7
370
    25
100
AcDbLine
 10
1258.489835892
 20
641.7171347612
 30
0.0
 11
1251.4187680801
 21
637.6350942021
 31
0.0
  0
LINE
  5
147
330
1F
100
AcDbEntity
  8
0
  6
Continuous
 62
     7
370
    25
100
AcDbLine
 10
1139.4609978366
 20
689.7261870712
 30
0.0
 11
1134.5112503683
 21
692.5836154625
 31
0.0
  0
LWPOLYLINE
  5
148
330
1F
100
AcDbEntity
  8
0
  6
Continuous
 62
     7
370
    25
100
AcDbPolyline
 90
       15
 70
   128
 43
0.0
 10
1134.5086055116
 20
816.4436187222
 10
1133.4248860389
 20
807.0252481256
 10
1132.5070525904
 20
797.6775002138
 10
1131.7555395035
 20
788.4047985309
 10
1131.1707024095
 20
779.2115311079
 10
1130.7528180652
 20
770.1020483859
 10
1130.5020842219
 20
761.0806611571
 10
1130.4186195321
 20
752.1516385254
 10
1130.5024634929
 20
743.3192058859
 10
1130.7535764276
 20
734.5875429251
 10
1131.1718395045
 20
725.9607816434
 10
1131.7570547931
 20
717.4430043997
 10
1132.5089453574
 20
709.0382419792
 10
1133.4271553877
 20
700.7504716864
 10
1134.5112503683
 20
692.5836154625
  0
LINE
  5
149
330
1F
100
AcDbEntity
  8
0
  6
Continuous
 62
     7
370
    25
100
AcDbLine
 10
1146.2493638182
 20
691.0803259601
 30
0.0
 11
1142.7138299122
 21
693.1213462397
 31
0.0
  0
LINE
  5
14A
330
1F
100
AcDbEntity
  8
0
  6
Continuous
 62
     7
370
    25
100
AcDbLine
 10
1154.5539509401
 20
839.8283712367
 30
0.0
 11
1146.3579547222
 21
835.0969233319
 31
0.0
  0
LINE
  5
14B
330
1F
100
AcDbEntity
  8
0
  6
Continuous
 62
     7
370
    25
100
AcDbLine
 10
1206.1367620037
 20
671.23739235
 30
0.0
 11
1205.4296552225
 21
670.8291882941
 31
0.0
  0
LINE
  5
14C
330
1F
100
AcDbEntity
  8
0
  6
Continuous
 62
     7
370
    25
100
AcDbLine
 10
1175.4820911721
 20
724.3308154754
 30
0.0
 11
1174.7749843909
 21
723.9226114195
 31
0.0
  0
LWPOLYLINE
  5
14D
330
1F
100
AcDbEntity
  8
0
  6
Continuous
 62
     7
370
    25
100
AcDbPolyline
 90
       11
 70
   128
 43
0.0
 10
1222.2807026829
 20
661.8697148237
 10
1222.09714799
 20
661.4819635894
 10
1222.0183803092
 20
660.8948083443
 10
1222.09714799
 20
660.2167098706
 10
1222.3270697436
 20
659.5026036739
 10
1222.6895186767
 20
658.8103423913
 10
1223.1551313325
 20
658.1960089148
 10
1223.6861865426
 20
657.7093728892
 10
1224.2396613722
 20
657.3898586711
 10
1224.7707165823
 20
657.2633514022
 10
1224.9380384507
 20
657.2665755014
  0
LWPOLYLINE
  5
14E
330
1F
100
AcDbEntity
  8
0
  6
Continuous
 62
     7
370
    25
100
AcDbPolyline
 90
       11
 70
   128
 43
0.0
 10
1172.7832279999
 20
747.6018555695
 10
1172.599673307
 20
747.2141043352
 10
1172.5209056261
 20
746.6269490901
 10
1172.599673307
 20
745.9488506164
 10
1172.8295950605
 20
745.2347444197
 10
1173.1920439937
 20
744.5424831371
 10
1173.6576566494
 20
743.9281496606
 10
1174.1887118595
 20
743.441513635
 10
1174.7421866892
 20
743.1219994169
 10
1175.2732418993
 20
742.995492148
 10
1175.4405637677
 20
742.9987162472
  0
LWPOLYLINE
  5
14F
330
1F
100
AcDbEntity
  8
0
  6
Continuous
 62
     7
370
    25
100
AcDbPolyline
 90
       17
 70
   128
 43
0.0
 10
1314.4794018988
 20
819.5619164346
 10
1314.4819610129
 20
819.5657924317
 10
1314.6059071756
 20
819.951151438
 10
1314.5046199964
 20
820.3757729207
 10
1314.1835598933
 20
820.8167654255
 10
1313.6600352996
 20
821.2503549324
 10
1312.9622695616
 20
821.6531665188
 10
1312.1278794108
 20
822.003484508
 10
1311.2018470363
 20
822.2824231663
 10
1310.2340950831
 20
822.4749448386
 10
1309.2767953095
 20
822.5706706316
 10
1308.3815559939
 20
822.5644399431
 10
1307.5966397198
 20
822.4565886711
 10
1306.9643615265
 20
822.2529311055
 10
1306.5188076952
 20
821.9644464786
 10
1306.2839981481
 20
821.6066870711
 10
1306.2632277728
 20
821.2431738249
  0
ARC
  5
150
330
1F
100
AcDbEntity
  8
0
  6
Continuous
 62
     7
370
    25
100
AcDbCircle
 10
1144.8360396529
 20
700.7291727821
 30
0.0
 40
13.15109797004634
100
AcDbArc
 50
218.271040829
 51
239.8582977975
  0
ARC
  5
151
330
1F
100
AcDbEntity
  8
0
  6
Continuous
 62
     7
370
    25
100
AcDbCircle
 10
1228.0077505515
 20
708.2420275865
 30
0.0
 40
57.11132579423847
100
AcDbArc
 50
282.0618008921
 51
312.7399828904
  0
ARC
  5
152
330
1F
100
AcDbEntity
  8
0
  6
Continuous
 62
     7
370
    25
100
AcDbCircle
 10
1005.1961146271
 20
590.6126846239
 30
0.0
 40
290.2919760427528
100
AcDbArc
 50
25.1862446217
 51
36.0352917249
  0
ARC
  5
153
330
1F
100
AcDbEntity
  8
0
  6
Continuous
 62
     7
370
    25
100
AcDbCircle
 10
1245.1838804674
 20
756.1860640742
 30
0.0
 40
7.383919176749263
100
AcDbArc
 50
124.2523951903
 51
135.2259480087
  0
LWPOLYLINE
  5
154
330
1F
100
AcDbEntity
  8
0
  6
Continuous
 62
     7
370
    25
100
AcDbPolyline
 90
       49
 70
   128
 43
0.0
 10
1198.9485840389
 20
760.2230836311
 10
1197.7415622982
 20
759.45352931
 10
1196.2160755973
 20
758.2505725048
 10
1194.8145130569
 20
756.8630684567
 10
1193.5431343955
 20
755.2972140955
 10
1192.4076178988
 20
753.560002907
 10
1191.413035059
 20
751.659193698
 10
1190.5638279248
 20
749.6032759439
 10
1189.8637892611
 20
747.4014318725
 10
1189.3160456107
 20
745.0634954539
 10
1188.9230433296
 20
742.5999084796
 10
1188.6865376615
 20
740.0216739273
 10
1188.6075848981
 20
737.3403068181
 10
1188.6865376615
 20
734.5677827886
 10
1188.9230433296
 20
731.7164846042
 10
1189.3160456107
 20
728.7991468546
 10
1189.8637892611
 20
725.8287990785
 10
1190.5638279248
 20
722.81870757
 10
1191.413035059
 20
719.7823161287
 10
1192.4076178988
 20
716.7331860156
 10
1193.5431343955
 20
713.6849353862
 10
1194.8145130569
 20
710.6511784678
 10
1196.2160755973
 20
707.645464755
 10
1197.7415622982
 20
704.6812184952
 10
1199.3841599655
 20
701.7716787315
 10
1201.1365323594
 20
698.929840175
 10
1202.9908529594
 20
696.1683951664
 10
1204.9388399195
 20
693.4996769896
 10
1206.9717930571
 20
690.9356047877
 10
1209.0806327099
 20
688.4876303297
 10
1211.2559402882
 20
686.1666868637
 10
1213.4880003402
 20
683.9831402866
 10
1215.7668439439
 20
681.9467428476
 10
1218.0822932306
 20
680.066589592
 10
1220.4240068417
 20
678.3510777405
 10
1222.7815261157
 20
676.8078691856
 10
1225.1443217992
 20
675.4438562714
 10
1227.5018410732
 20
674.2651310105
 10
1229.8435546842
 20
673.2769578762
 10
1232.1590039709
 20
672.4837502895
 10
1234.4378475746
 20
671.8890509081
 10
1236.6699076267
 20
671.4955158038
 10
1238.8452152049
 20
671.3049025999
 10
1240.9540548578
 20
671.3180626213
 10
1242.9870079954
 20
671.534937092
 10
1244.9349949555
 20
671.9545573981
 10
1246.7893155554
 20
672.5750494134
 10
1248.5416879493
 20
673.3936418699
 10
1248.9355387239
 20
673.613054265
  0
LWPOLYLINE
  5
155
330
1F
100
AcDbEntity
  8
0
  6
Continuous
 62
     7
370
    25
100
AcDbPolyline
 90
        6
 70
   128
 43
0.0
 10
1206.4176542139
 20
671.3864048619
 10
1206.4166647462
 20
671.3878433462
 10
1206.4124657843
 20
671.4268029495
 10
1206.4370405972
 20
671.4856737714
 10
1206.4898084998
 20
671.5630647367
 10
1206.5695226245
 20
671.6571471529
  0
LWPOLYLINE
  5
156
330
1F
100
AcDbEntity
  8
0
  6
Continuous
 62
     7
370
    25
100
AcDbPolyline
 90
        6
 70
   128
 43
0.0
 10
1175.7514300108
 20
724.4998374646
 10
1175.7521785314
 20
724.4982665656
 10
1175.7837994386
 20
724.4751867011
 10
1175.8470508667
 20
724.4670702145
 10
1175.9404382299
 20
724.4741088923
 10
1176.0617548524
 20
724.4961364159
  0
LINE
  5
157
330
1F
100
AcDbEntity
  8
0
  6
Continuous
 62
     7
370
    25
100
AcDbLine
 10
434.571296675
 20
379.9114479442
 30
0.0
 11
427.571296675
 21
379.9114479442
 31
0.0
  0
LINE
  5
158
330
1F
100
AcDbEntity
  8
0
  6
Continuous
 62
     7
370
    25
100
AcDbLine
 10
427.571296675
 20
531.6020043745
 30
0.0
 11
427.571296675
 21
379.9114479442
 31
0.0
  0
LINE
  5
159
330
1F
100
AcDbEntity
  8
0
  6
Continuous
 62
     7
370
    25
100
AcDbLine
 10
434.571296675
 20
531.6020043745
 30
0.0
 11
427.571296675
 21
531.6020043745
 31
0.0
  0
LINE
  5
15A
330
1F
100
AcDbEntity
  8
0
  6
Continuous
 62
     7
370
    25
100
AcDbLine
 10
434.571296675
 20
531.6020043745
 30
0.0
 11
434.571296675
 21
379.9114479442
 31
0.0
  0
LINE
  5
15B
330
1F
100
AcDbEntity
  8
0
  6
Continuous
 62
     7
370
    25
100
AcDbLine
 10
627.571296675
 20
531.6020043745
 30
0.0
 11
620.571296675
 21
531.6020043745
 31
0.0
  0
LINE
  5
15C
330
1F
100
AcDbEntity
  8
0
  6
Continuous
 62
     7
370
    25
100
AcDbLine
 10
627.571296675
 20
379.9114479442
 30
0.0
 11
620.571296675
 21
379.9114479442
 31
0.0
  0
LINE
  5
15D
330
1F
100
AcDbEntity
  8
0
  6
Continuous
 62
     7
370
    25
100
AcDbLine
 10
620.571296675
 20
379.9114479442
 30
0.0
 11
620.571296675
 21
531.6020043745
 31
0.0
  0
LINE
  5
15E
330
1F
100
AcDbEntity
  8
0
  6
Continuous
 62
     7
370
    25
100
AcDbLine
 10
627.571296675
 20
531.6020043745
 30
0.0
 11
627.571296675
 21
379.9114479442
 31
0.0
  0
LINE
  5
15F
330
1F
100
AcDbEntity
  8
0
  6
Continuous
 62
     7
370
    25
100
AcDbLine
 10
615.571296675
 20
381.7697006607
 30
0.0
 11
620.571296675
 21
381.7697006607
 31
0.0
  0
LINE
  5
160
330
1F
100
AcDbEntity
  8
0
  6
Continuous
 62
     7
370
    25
100
AcDbLine
 10
615.571296675
 20
381.7697006607
 30
0.0
 11
615.571296675
 21
528.3656229853
 31
0.0
  0
LINE
  5
161
330
1F
100
AcDbEntity
  8
0
  6
Continuous
 62
     7
370
    25
100
AcDbLine
 10
615.571296675
 20
528.3656229853
 30
0.0
 11
620.571296675
 21
528.3656229853
 31
0.0
  0
LINE
  5
162
330
1F
100
AcDbEntity
  8
0
  6
Continuous
 62
     7
370
    25
100
AcDbLine
 10
439.571296675
 20
528.3656229853
 30
0.0
 11
434.571296675
 21
528.3656229853
 31
0.0
  0
LINE
  5
163
330
1F
100
AcDbEntity
  8
0
  6
Continuous
 62
     7
370
    25
100
AcDbLine
 10
439.571296675
 20
381.7697006607
 30
0.0
 11
439.571296675
 21
528.3656229853
 31
0.0
  0
LINE
  5
164
330
1F
100
AcDbEntity
  8
0
  6
Continuous
 62
     7
370
    25
100
AcDbLine
 10
439.571296675
 20
381.7697006607
 30
0.0
 11
434.571296675
 21
381.7697006607
 31
0.0
  0
LINE
  5
165
330
1F
100
AcDbEntity
  8
0
  6
Continuous
 62
     7
370
    25
100
AcDbLine
 10
434.571296675
 20
546.0689125096
 30
0.0
 11
427.571296675
 21
546.0689125096
 31
0.0
  0
LINE
  5
166
330
1F
100
AcDbEntity
  8
0
  6
Continuous
 62
     7
370
    25
100
AcDbLine
 10
434.571296675
 20
546.0689125096
 30
0.0
 11
434.571296675
 21
531.6020043745
 31
0.0
  0
LINE
  5
167
330
1F
100
AcDbEntity
  8
0
  6
Continuous
 62
     7
370
    25
100
AcDbLine
 10
427.571296675
 20
546.0689125096
 30
0.0
 11
427.571296675
 21
531.6020043745
 31
0.0
  0
LINE
  5
168
330
1F
100
AcDbEntity
  8
0
  6
Continuous
 62
     7
370
    25
100
AcDbLine
 10
627.571296675
 20
546.0689125096
 30
0.0
 11
620.571296675
 21
546.0689125096
 31
0.0
  0
LINE
  5
169
330
1F
100
AcDbEntity
  8
0
  6
Continuous
 62
     7
370
    25
100
AcDbLine
 10
620.571296675
 20
531.6020043745
 30
0.0
 11
620.571296675
 21
546.0689125096
 31
0.0
  0
LINE
  5
16A
330
1F
100
AcDbEntity
  8
0
  6
Continuous
 62
     7
370
    25
100
AcDbLine
 10
627.571296675
 20
546.0689125096
 30
0.0
 11
627.571296675
 21
531.6020043745
 31
0.0
  0
LINE
  5
16B
330
1F
100
AcDbEntity
  8
0
  6
Continuous
 62
     7
370
    25
100
AcDbLine
 10
620.571296675
 20
365.7689125096
 30
0.0
 11
627.571296675
 21
365.7689125096
 31
0.0
  0
LINE
  5
16C
330
1F
100
AcDbEntity
  8
0
  6
Continuous
 62
     7
370
    25
100
AcDbLine
 10
620.571296675
 20
365.7689125096
 30
0.0
 11
620.571296675
 21
379.9114479442
 31
0.0
  0
LINE
  5
16D
330
1F
100
AcDbEntity
  8
0
  6
Continuous
 62
     7
370
    25
100
AcDbLine
 10
627.571296675
 20
379.9114479442
 30
0.0
 11
627.571296675
 21
365.7689125096
 31
0.0
  0
LINE
  5
16E
330
1F
100
AcDbEntity
  8
0
  6
Continuous
 62
     7
370
    25
100
AcDbLine
 10
427.571296675
 20
365.7689125096
 30
0.0
 11
434.571296675
 21
365.7689125096
 31
0.0
  0
LINE
  5
16F
330
1F
100
AcDbEntity
  8
0
  6
Continuous
 62
     7
370
    25
100
AcDbLine
 10
434.571296675
 20
379.9114479442
 30
0.0
 11
434.571296675
 21
365.7689125096
 31
0.0
  0
LINE
  5
170
330
1F
100
AcDbEntity
  8
0
  6
Continuous
 62
     7
370
    25
100
AcDbLine
 10
427.571296675
 20
379.9114479442
 30
0.0
 11
427.571296675
 21
365.7689125096
 31
0.0
  0
LINE
  5
171
330
1F
100
AcDbEntity
  8
0
  6
Continuous
 62
     7
370
    25
100
AcDbLine
 10
615.571296675
 20
543.2689125096
 30
0.0
 11
620.571296675
 21
543.2689125096
 31
0.0
  0
LINE
  5
172
330
1F
100
AcDbEntity
  8
0
  6
Continuous
 62
     7
370
    25
100
AcDbLine
 10
615.571296675
 20
528.3656229853
 30
0.0
 11
615.571296675
 21
543.2689125096
 31
0.0
  0
LINE
  5
173
330
1F
100
AcDbEntity
  8
0
  6
Continuous
 62
     7
370
    25
100
AcDbLine
 10
434.571296675
 20
543.2689125096
 30
0.0
 11
439.571296675
 21
543.2689125096
 31
0.0
  0
LINE
  5
174
330
1F
100
AcDbEntity
  8
0
  6
Continuous
 62
     7
370
    25
100
AcDbLine
 10
439.571296675
 20
528.3656229853
 30
0.0
 11
439.571296675
 21
543.2689125096
 31
0.0
  0
LINE
  5
175
330
1F
100
AcDbEntity
  8
0
  6
Continuous
 62
     7
370
    25
100
AcDbLine
 10
439.571296675
 20
368.2689125096
 30
0.0
 11
434.571296675
 21
368.2689125096
 31
0.0
  0
LINE
  5
176
330
1F
100
AcDbEntity
  8
0
  6
Continuous
 62
     7
370
    25
100
AcDbLine
 10
439.571296675
 20
368.2689125096
 30
0.0
 11
439.571296675
 21
381.7697006607
 31
0.0
  0
LINE
  5
177
330
1F
100
AcDbEntity
  8
0
  6
Continuous
 62
     7
370
    25
100
AcDbLine
 10
620.571296675
 20
368.2689125096
 30
0.0
 11
615.571296675
 21
368.2689125096
 31
0.0
  0
LINE
  5
178
330
1F
100
AcDbEntity
  8
0
  6
Continuous
 62
     7
370
    25
100
AcDbLine
 10
615.571296675
 20
368.2689125096
 30
0.0
 11
615.571296675
 21
381.7697006607
 31
0.0
  0
CIRCLE
  5
179
330
1F
100
AcDbEntity
  8
0
  6
Continuous
 62
     7
370
    25
100
AcDbCircle
 10
535.571296675
 20
454.4689125096
 30
0.0
 40
50.0
  0
CIRCLE
  5
17A
330
1F
100
AcDbEntity
  8
0
  6
Continuous
 62
     7
370
    25
100
AcDbCircle
 10
535.571296675
 20
454.4689125096
 30
0.0
 40
54.0
  0
CIRCLE
  5
17B
330
1F
100
AcDbEntity
  8
0
  6
Continuous
 62
     7
370
    25
100
AcDbCircle
 10
535.571296675
 20
454.4689125096
 30
0.0
 40
54.62701665379257
  0
CIRCLE
  5
17C
330
1F
100
AcDbEntity
  8
0
  6
Continuous
 62
     7
370
    25
100
AcDbCircle
 10
535.571296675
 20
454.4689125096
 30
0.0
 40
58.5
  0
ARC
  5
17D
330
1F
100
AcDbEntity
  8
0
  6
Continuous
 62
     7
370
    25
100
AcDbCircle
 10
607.6378423017
 20
526.5414375888
 30
0.0
 40
170.0000000000001
100
AcDbArc
 50
214.5760902387
 51
235.427185996
  0
LINE
  5
17E
330
1F
100
AcDbEntity
  8
0
  6
Continuous
 62
     7
370
    25
100
AcDbLine
 10
467.6643880414
 20
430.0664040183
 30
0.0
 11
468.8288136731
 21
430.8689704942
 31
0.0
  0
ARC
  5
17F
330
1F
100
AcDbEntity
  8
0
  6
Continuous
 62
     7
370
    25
100
AcDbCircle
 10
607.6378423017
 20
526.5414375888
 30
0.0
 40
168.585786437627
100
AcDbArc
 50
214.5760902387
 51
235.427185996
  0
LINE
  5
180
330
1F
100
AcDbEntity
  8
0
  6
Continuous
 62
     7
370
    25
100
AcDbLine
 10
511.1708127226
 20
386.5624670104
 30
0.0
 11
511.9733126141
 21
387.7269385318
 31
0.0
  0
ARC
  5
181
330
1F
100
AcDbEntity
  8
0
  6
Continuous
 62
     7
370
    25
100
AcDbCircle
 10
568.0731551133
 20
454.4689125096
 30
0.0
 40
41.58578643762709
100
AcDbArc
 50
325.4239097613
 51
34.5760902387
  0
LINE
  5
182
330
1F
100
AcDbEntity
  8
0
  6
Continuous
 62
     7
370
    25
100
AcDbLine
 10
602.3137796769
 20
478.0688545251
 30
0.0
 11
603.4782053086
 21
478.871421001
 31
0.0
  0
ARC
  5
183
330
1F
100
AcDbEntity
  8
0
  6
Continuous
 62
     7
370
    25
100
AcDbCircle
 10
568.0731551133
 20
454.4689125096
 30
0.0
 40
43.00000000000022
100
AcDbArc
 50
325.4239097613
 51
34.5760902387
  0
LINE
  5
184
330
1F
100
AcDbEntity
  8
0
  6
Continuous
 62
     7
370
    25
100
AcDbLine
 10
602.3137796769
 20
430.8689704942
 30
0.0
 11
603.4782053086
 21
430.0664040183
 31
0.0
  0
ARC
  5
185
330
1F
100
AcDbEntity
  8
0
  6
Continuous
 62
     7
370
    25
100
AcDbCircle
 10
503.0694382367
 20
454.4689125096
 30
0.0
 40
43.0000000000001
100
AcDbArc
 50
145.4239097613
 51
214.5760902387
  0
LINE
  5
186
330
1F
100
AcDbEntity
  8
0
  6
Continuous
 62
     7
370
    25
100
AcDbLine
 10
467.6643880414
 20
478.871421001
 30
0.0
 11
468.8288136731
 21
478.0688545251
 31
0.0
  0
ARC
  5
187
330
1F
100
AcDbEntity
  8
0
  6
Continuous
 62
     7
370
    25
100
AcDbCircle
 10
503.0694382367
 20
454.4689125096
 30
0.0
 40
41.58578643762706
100
AcDbArc
 50
145.4239097613
 51
214.5760902387
  0
ARC
  5
188
330
1F
100
AcDbEntity
  8
0
  6
Continuous
 62
     7
370
    25
100
AcDbCircle
 10
463.5047510483
 20
526.5414375888
 30
0.0
 40
168.5857864376271
100
AcDbArc
 50
304.572814004
 51
325.4239097613
  0
ARC
  5
189
330
1F
100
AcDbEntity
  8
0
  6
Continuous
 62
     7
370
    25
100
AcDbCircle
 10
463.5047510483
 20
526.5414375888
 30
0.0
 40
170.0000000000002
100
AcDbArc
 50
304.572814004
 51
325.4239097613
  0
LINE
  5
18A
330
1F
100
AcDbEntity
  8
0
  6
Continuous
 62
     7
370
    25
100
AcDbLine
 10
559.1692807359
 20
387.7269385318
 30
0.0
 11
559.9717806273
 21
386.5624670104
 31
0.0
  0
CIRCLE
  5
18B
330
1F
100
AcDbEntity
  8
0
  6
Continuous
 62
     7
370
    25
100
AcDbCircle
 10
535.571296675
 20
454.4689125096
 30
0.0
 40
1.209074206515652
  0
ARC
  5
18C
330
1F
100
AcDbEntity
  8
0
  6
Continuous
 62
     7
370
    25
100
AcDbCircle
 10
613.571296675
 20
417.9404853849
 30
0.0
 40
1.999999999999976
100
AcDbArc
 50
0.0
 51
135.0
  0
ARC
  5
18D
330
1F
100
AcDbEntity
  8
0
  6
Continuous
 62
     7
370
    25
100
AcDbCircle
 10
575.3997237997
 20
379.7689125096
 30
0.0
 40
2.0
100
AcDbArc
 50
135.0
 51
270.0
  0
LINE
  5
18E
330
1F
100
AcDbEntity
  8
0
  6
Continuous
 62
     7
370
    25
100
AcDbLine
 10
575.3997237997
 20
377.7689125096
 30
0.0
 11
613.571296675
 21
377.7689125096
 31
0.0
  0
ARC
  5
18F
330
1F
100
AcDbEntity
  8
0
  6
Continuous
 62
     7
370
    25
100
AcDbCircle
 10
613.571296675
 20
379.7689125096
 30
0.0
 40
2.0
100
AcDbArc
 50
270.0
 51
0.0
  0
LINE
  5
190
330
1F
100
AcDbEntity
  8
0
  6
Continuous
 62
     7
370
    25
100
AcDbLine
 10
615.571296675
 20
368.2689125096
 30
0.0
 11
439.571296675
 21
368.2689125096
 31
0.0
  0
ARC
  5
191
330
1F
100
AcDbEntity
  8
0
  6
Continuous
 62
     7
370
    25
100
AcDbCircle
 10
611.0867057659
 20
529.9904982684
 30
0.0
 40
175.8
100
AcDbArc
 50
214.9597894832
 51
235.0434867515
  0
ARC
  5
192
330
1F
100
AcDbEntity
  8
0
  6
Continuous
 62
     7
370
    25
100
AcDbCircle
 10
535.571296675
 20
421.9689125096
 30
0.0
 40
44.00000000000003
100
AcDbArc
 50
235.0434867515
 51
304.9565132485
  0
ARC
  5
193
330
1F
100
AcDbEntity
  8
0
  6
Continuous
 62
     7
370
    25
100
AcDbCircle
 10
460.0558875841
 20
529.9904982684
 30
0.0
 40
175.8000000000001
100
AcDbArc
 50
304.9565132485
 51
325.0402105168
  0
ARC
  5
194
330
1F
100
AcDbEntity
  8
0
  6
Continuous
 62
     7
370
    25
100
AcDbCircle
 10
568.0731551133
 20
454.4689125096
 30
0.0
 40
44.00000000000016
100
AcDbArc
 50
325.0402105168
 51
34.9597894832
  0
ARC
  5
195
330
1F
100
AcDbEntity
  8
0
  6
Continuous
 62
     7
370
    25
100
AcDbCircle
 10
460.0558875841
 20
378.9473267509
 30
0.0
 40
175.8
100
AcDbArc
 50
34.9597894832
 51
55.0434867515
  0
ARC
  5
196
330
1F
100
AcDbEntity
  8
0
  6
Continuous
 62
     7
370
    25
100
AcDbCircle
 10
611.0867057659
 20
378.9473267509
 30
0.0
 40
175.8000000000002
100
AcDbArc
 50
124.9565132485
 51
145.0402105168
  0
ARC
  5
197
330
1F
100
AcDbEntity
  8
0
  6
Continuous
 62
     7
370
    25
100
AcDbCircle
 10
503.0694382367
 20
454.4689125096
 30
0.0
 40
44.00000000000008
100
AcDbArc
 50
145.0402105168
 51
214.9597894832
  0
ARC
  5
198
330
1F
100
AcDbEntity
  8
0
  6
Continuous
 62
     7
370
    25
100
AcDbCircle
 10
535.571296675
 20
486.9689125096
 30
0.0
 40
43.99999999999995
100
AcDbArc
 50
55.0434867515
 51
124.9565132485
  0
LINE
  5
199
330
1F
100
AcDbEntity
  8
0
  6
Continuous
 62
     7
370
    25
100
AcDbLine
 10
612.1570831126
 20
419.3546989473
 30
0.0
 11
573.9855102374
 21
381.183126072
 31
0.0
  0
LINE
  5
19A
330
1F
100
AcDbEntity
  8
0
  6
Continuous
 62
     7
370
    25
100
AcDbLine
 10
439.571296675
 20
543.2689125096
 30
0.0
 11
615.571296675
 21
543.2689125096
 31
0.0
  0
ARC
  5
19B
330
1F
100
AcDbEntity
  8
0
  6
Continuous
 62
     7
370
    25
100
AcDbCircle
 10
535.571296675
 20
421.9689125096
 30
0.0
 40
41.58578643762699
100
AcDbArc
 50
235.427185996
 51
304.572814004
  0
ARC
  5
19C
330
1F
100
AcDbEntity
  8
0
  6
Continuous
 62
     7
370
    25
100
AcDbCircle
 10
607.6378423017
 20
382.3963874305
 30
0.0
 40
168.5857864376269
100
AcDbArc
 50
124.572814004
 51
145.4239097613
  0
ARC
  5
19D
330
1F
100
AcDbEntity
  8
0
  6
Continuous
 62
     7
370
    25
100
AcDbCircle
 10
535.571296675
 20
486.9689125096
 30
0.0
 40
41.5857864376269
100
AcDbArc
 50
55.427185996
 51
124.572814004
  0
ARC
  5
19E
330
1F
100
AcDbEntity
  8
0
  6
Continuous
 62
     7
370
    25
100
AcDbCircle
 10
463.5047510483
 20
382.3963874305
 30
0.0
 40
168.585786437627
100
AcDbArc
 50
34.5760902387
 51
55.427185996
  0
CIRCLE
  5
19F
330
1F
100
AcDbEntity
  8
0
  6
Continuous
 62
     7
370
    25
100
AcDbCircle
 10
535.571296675
 20
384.4689125096
 30
0.0
 40
2.75
  0
CIRCLE
  5
1A0
330
1F
100
AcDbEntity
  8
0
  6
Continuous
 62
     7
370
    25
100
AcDbCircle
 10
605.571296675
 20
454.4689125096
 30
0.0
 40
2.75
  0
CIRCLE
  5
1A1
330
1F
100
AcDbEntity
  8
0
  6
Continuous
 62
     7
370
    25
100
AcDbCircle
 10
535.571296675
 20
524.4689125096
 30
0.0
 40
2.75
  0
CIRCLE
  5
1A2
330
1F
100
AcDbEntity
  8
0
  6
Continuous
 62
     7
370
    25
100
AcDbCircle
 10
465.571296675
 20
454.4689125096
 30
0.0
 40
2.75
  0
ARC
  5
1A3
330
1F
100
AcDbEntity
  8
0
  6
Continuous
 62
     7
370
    25
100
AcDbCircle
 10
535.571296675
 20
421.9689125096
 30
0.0
 40
43.00000000000006
100
AcDbArc
 50
235.427185996
 51
304.572814004
  0
LINE
  5
1A4
330
1F
100
AcDbEntity
  8
0
  6
Continuous
 62
     7
370
    25
100
AcDbLine
 10
559.1692807359
 20
521.2108864875
 30
0.0
 11
559.9717806273
 21
522.3753580089
 31
0.0
  0
ARC
  5
1A5
330
1F
100
AcDbEntity
  8
0
  6
Continuous
 62
     7
370
    25
100
AcDbCircle
 10
463.5047510483
 20
382.3963874305
 30
0.0
 40
170.0
100
AcDbArc
 50
34.5760902387
 51
55.427185996
  0
ARC
  5
1A6
330
1F
100
AcDbEntity
  8
0
  6
Continuous
 62
     7
370
    25
100
AcDbCircle
 10
607.6378423017
 20
382.3963874305
 30
0.0
 40
170.0000000000001
100
AcDbArc
 50
124.572814004
 51
145.4239097613
  0
LINE
  5
1A7
330
1F
100
AcDbEntity
  8
0
  6
Continuous
 62
     7
370
    25
100
AcDbLine
 10
511.1708127226
 20
522.3753580089
 30
0.0
 11
511.9733126141
 21
521.2108864875
 31
0.0
  0
ARC
  5
1A8
330
1F
100
AcDbEntity
  8
0
  6
Continuous
 62
     7
370
    25
100
AcDbCircle
 10
535.571296675
 20
486.9689125096
 30
0.0
 40
43.00000000000006
100
AcDbArc
 50
55.427185996
 51
124.572814004
  0
CIRCLE
  5
1A9
330
1F
100
AcDbEntity
  8
0
  6
Continuous
 62
     7
370
    25
100
AcDbCircle
 10
535.571296675
 20
454.4689125096
 30
0.0
 40
25.0
  0
LINE
  5
1AA
330
1F
100
AcDbEntity
  8
0
  6
Continuous
 62
     7
370
    25
100
AcDbLine
 10
434.571296675
 20
365.7689125096
 30
0.0
 11
620.571296675
 21
365.7689125096
 31
0.0
  0
LINE
  5
1AB
330
1F
100
AcDbEntity
  8
0
  6
Continuous
 62
     7
370
    25
100
AcDbLine
 10
620.571296675
 20
545.7583296555
 30
0.0
 11
434.571296675
 21
545.7583296555
 31
0.0
  0
LINE
  5
1AC
330
1F
100
AcDbEntity
  8
SLD-0
100
AcDbLine
 10
524.408796675
 20
452.9766195676
 30
0.0
 11
524.408796675
 21
449.5612054517
 31
0.0
  0
LINE
  5
1AD
330
1F
100
AcDbEntity
  8
SLD-0
100
AcDbLine
 10
522.701089617
 20
451.2689125096
 30
0.0
 11
526.116503733
 21
451.2689125096
 31
0.0
  0
DIMENSION
  5
1AE
330
1F
100
AcDbEntity
  8
SLD-0
100
AcDbDimension
  2
_D
 10
524.408796675
 20
332.4355791763
 30
0.0
 11
475.990046675
 21
332.4355791763
 31
0.0
 70
   160
  1
<>
 71
     2
 42
-1.0
  3
SLDDIMSTYLE0
100
AcDbAlignedDimension
 13
427.571296675
 23
365.7689125096
 33
0.0
 14
524.408796675
 24
449.5612054517
 34
0.0
100
AcDbRotatedDimension
  0
DIMENSION
  5
1C3
330
1F
100
AcDbEntity
  8
SLD-0
100
AcDbDimension
  2
_D_1
 10
627.571296675
 20
583.3931671696
 30
0.0
 11
527.571296675
 21
583.3931671696
 31
0.0
 70
   160
  1
<>
 71
     2
 42
-1.0
  3
SLDDIMSTYLE1
100
AcDbAlignedDimension
 13
427.571296675
 23
546.0689125096
 33
0.0
 14
627.571296675
 24
546.0689125096
 34
0.0
100
AcDbRotatedDimension
  0
INSERT
  5
1D8
330
1F
100
AcDbEntity
  8
SLD-0
100
AcDbBlockReference
  2
SW_SYMBOL_MOD_COM
 10
518.1106396062
 20
446.0662699473
 30
0.0
 41
0.0030416748
 42
0.0030416748
 43
0.0030416748
  0
LINE
  5
1D9
330
1F
100
AcDbEntity
  8
0
  6
Continuous
 62
     7
370
    25
100
AcDbLine
 10
434.571296675
 20
268.3746710218
 30
0.0
 11
427.571296675
 21
268.3746710218
 31
0.0
  0
LINE
  5
1DA
330
1F
100
AcDbEntity
  8
0
  6
Continuous
 62
     7
370
    25
100
AcDbLine
 10
627.571296675
 20
268.3746710218
 30
0.0
 11
620.571296675
 21
268.3746710218
 31
0.0
  0
LINE
  5
1DB
330
1F
100
AcDbEntity
  8
0
  6
Continuous
 62
     7
370
    25
100
AcDbLine
 10
439.571296675
 20
263.7830468687
 30
0.0
 11
434.571296675
 21
263.7830468687
 31
0.0
  0
LINE
  5
1DC
330
1F
100
AcDbEntity
  8
0
  6
Continuous
 62
     7
370
    25
100
AcDbLine
 10
620.571296675
 20
263.7830468687
 30
0.0
 11
615.571296675
 21
263.7830468687
 31
0.0
  0
ARC
  5
1DD
330
1F
100
AcDbEntity
  8
0
  6
Continuous
 62
     7
370
    25
100
AcDbCircle
 10
590.1983133288
 20
244.0830468687
 30
0.0
 40
4.000000000000028
100
AcDbArc
 50
14.4775121859
 51
90.0
  0
ARC
  5
1DE
330
1F
100
AcDbEntity
  8
0
  6
Continuous
 62
     7
370
    25
100
AcDbCircle
 10
480.9442800212
 20
244.0830468687
 30
0.0
 40
4.000000000000028
100
AcDbArc
 50
90.0
 51
165.5224878141
  0
LINE
  5
1DF
330
1F
100
AcDbEntity
  8
0
  6
Continuous
 62
     7
370
    25
100
AcDbLine
 10
427.571296675
 20
86.4076685119
 30
0.0
 11
627.571296675
 21
86.4076685119
 31
0.0
  0
LINE
  5
1E0
330
1F
100
AcDbEntity
  8
0
  6
Continuous
 62
     7
370
    25
100
AcDbLine
 10
427.571296675
 20
86.4076685119
 30
0.0
 11
427.571296675
 21
124.1048691182
 31
0.0
  0
LINE
  5
1E1
330
1F
100
AcDbEntity
  8
0
  6
Continuous
 62
     7
370
    25
100
AcDbLine
 10
427.571296675
 20
124.1048691182
 30
0.0
 11
627.571296675
 21
124.1048691182
 31
0.0
  0
LWPOLYLINE
  5
1E2
330
1F
100
AcDbEntity
  8
0
  6
Continuous
 62
     7
370
    25
100
AcDbPolyline
 90
       32
 70
   128
 43
0.0
 10
564.571296675
 20
115.9782705342
 10
565.6985683875
 20
116.0079395642
 10
566.7796894636
 20
116.0957320004
 10
567.7703986795
 20
116.2380536102
 10
568.6301362835
 20
116.4290777302
 10
569.323704517
 20
116.6609838106
 10
569.822708615
 20
116.924277589
 10
570.1067192912
 20
117.2081797873
 10
570.1641091152
 20
117.5010674161
 10
569.9925285406
 20
117.7909496215
 10
569.5990020966
 20
118.065958592
 10
568.9996408018
 20
118.3148354279
 10
568.2189825782
 20
118.5273910824
 10
567.2889876652
 20
118.694923502
 10
566.2477301636
 20
118.8105738897
 10
565.1378392781
 20
118.8696075052
 10
564.0047540719
 20
118.8696075052
 10
562.8948631863
 20
118.8105738897
 10
561.8536056848
 20
118.694923502
 10
560.9236107717
 20
118.5273910824
 10
560.1429525481
 20
118.3148354279
 10
559.5435912534
 20
118.065958592
 10
559.1500648093
 20
117.7909496215
 10
558.9784842348
 20
117.5010674161
 10
559.0358740588
 20
117.2081797873
 10
559.319884735
 20
116.924277589
 10
559.818888833
 20
116.6609838106
 10
560.5124570665
 20
116.4290777302
 10
561.3721946705
 20
116.2380536102
 10
562.3629038864
 20
116.0957320004
 10
563.4440249625
 20
116.0079395642
 10
564.571296675
 20
115.9782705342
  0
LWPOLYLINE
  5
1E3
330
1F
100
AcDbEntity
  8
0
  6
Continuous
 62
     7
370
    25
100
AcDbPolyline
 90
       32
 70
   128
 43
0.0
 10
564.571296675
 20
100.4491278281
 10
565.6985683875
 20
100.478796858
 10
566.7796894636
 20
100.5665892942
 10
567.7703986795
 20
100.7089109041
 10
568.6301362835
 20
100.8999350241
 10
569.323704517
 20
101.1318411044
 10
569.822708615
 20
101.3951348828
 10
570.1067192912
 20
101.6790370811
 10
570.1641091152
 20
101.9719247099
 10
569.9925285406
 20
102.2618069154
 10
569.5990020966
 20
102.5368158858
 10
568.9996408018
 20
102.7856927217
 10
568.2189825782
 20
102.9982483762
 10
567.2889876652
 20
103.1657807958
 10
566.2477301636
 20
103.2814311836
 10
565.1378392781
 20
103.340464799
 10
564.0047540719
 20
103.340464799
 10
562.8948631863
 20
103.2814311836
 10
561.8536056848
 20
103.1657807958
 10
560.9236107717
 20
102.9982483762
 10
560.1429525481
 20
102.7856927217
 10
559.5435912534
 20
102.5368158858
 10
559.1500648093
 20
102.2618069154
 10
558.9784842348
 20
101.9719247099
 10
559.0358740588
 20
101.6790370811
 10
559.319884735
 20
101.3951348828
 10
559.818888833
 20
101.1318411044
 10
560.5124570665
 20
100.8999350241
 10
561.3721946705
 20
100.7089109041
 10
562.3629038864
 20
100.5665892942
 10
563.4440249625
 20
100.478796858
 10
564.571296675
 20
100.4491278281
  0
LWPOLYLINE
  5
1E4
330
1F
100
AcDbEntity
  8
0
  6
Continuous
 62
     7
370
    25
100
AcDbPolyline
 90
       28
 70
   128
 43
0.0
 10
505.571296675
 20
94.3021755069
 10
506.5860065063
 20
94.3328721107
 10
507.5460130679
 20
94.4233070601
 10
508.3995621576
 20
94.5686049838
 10
509.1006387231
 20
94.7609328329
 10
509.6114475453
 20
94.9899221633
 10
509.9044507882
 20
95.243228101
 10
509.9638525714
 20
95.5071948574
 10
509.7864505292
 20
95.7675919162
 10
509.3818084516
 20
96.0103812046
 10
508.7717406979
 20
96.2224738892
 10
507.9891361785
 20
96.3924359986
 10
507.0761853056
 20
96.5111048313
 10
506.0821054971
 20
96.5720829199
 10
505.0604878528
 20
96.5720829199
 10
504.0664080444
 20
96.5111048313
 10
503.1534571715
 20
96.3924359986
 10
502.3708526521
 20
96.2224738892
 10
501.7607848983
 20
96.0103812046
 10
501.3561428208
 20
95.7675919162
 10
501.1787407786
 20
95.5071948574
 10
501.2381425617
 20
95.243228101
 10
501.5311458047
 20
94.9899221633
 10
502.0419546269
 20
94.7609328329
 10
502.7430311924
 20
94.5686049838
 10
503.5965802821
 20
94.4233070601
 10
504.5565868437
 20
94.3328721107
 10
505.571296675
 20
94.3021755069
  0
LWPOLYLINE
  5
1E5
330
1F
100
AcDbEntity
  8
0
  6
Continuous
 62
     7
370
    25
100
AcDbPolyline
 90
       28
 70
   128
 43
0.0
 10
453.571296675
 20
118.1135276563
 10
454.5860065063
 20
118.1442242601
 10
455.5460130679
 20
118.2346592096
 10
456.3995621576
 20
118.3799571332
 10
457.1006387231
 20
118.5722849823
 10
457.6114475453
 20
118.8012743127
 10
457.9044507882
 20
119.0545802505
 10
457.9638525714
 20
119.3185470068
 10
457.7864505292
 20
119.5789440656
 10
457.3818084516
 20
119.821733354
 10
456.7717406979
 20
120.0338260387
 10
455.9891361785
 20
120.203788148
 10
455.0761853056
 20
120.3224569807
 10
454.0821054971
 20
120.3834350694
 10
453.0604878528
 20
120.3834350694
 10
452.0664080444
 20
120.3224569807
 10
451.1534571715
 20
120.203788148
 10
450.3708526521
 20
120.0338260387
 10
449.7607848983
 20
119.821733354
 10
449.3561428208
 20
119.5789440656
 10
449.1787407786
 20
119.3185470068
 10
449.2381425617
 20
119.0545802505
 10
449.5311458047
 20
118.8012743127
 10
450.0419546269
 20
118.5722849823
 10
450.7430311924
 20
118.3799571332
 10
451.5965802821
 20
118.2346592096
 10
452.5565868437
 20
118.1442242601
 10
453.571296675
 20
118.1135276563
  0
LWPOLYLINE
  5
1E6
330
1F
100
AcDbEntity
  8
0
  6
Continuous
 62
     7
370
    25
100
AcDbPolyline
 90
       28
 70
   128
 43
0.0
 10
505.571296675
 20
118.1135276563
 10
506.5860065063
 20
118.1442242601
 10
507.5460130679
 20
118.2346592096
 10
508.3995621576
 20
118.3799571332
 10
509.1006387231
 20
118.5722849823
 10
509.6114475453
 20
118.8012743127
 10
509.9044507882
 20
119.0545802505
 10
509.9638525714
 20
119.3185470068
 10
509.7864505292
 20
119.5789440656
 10
509.3818084516
 20
119.821733354
 10
508.7717406979
 20
120.0338260387
 10
507.9891361785
 20
120.203788148
 10
507.0761853056
 20
120.3224569807
 10
506.0821054971
 20
120.3834350694
 10
505.0604878528
 20
120.3834350694
 10
504.0664080444
 20
120.3224569807
 10
503.1534571715
 20
120.203788148
 10
502.3708526521
 20
120.0338260387
 10
501.7607848983
 20
119.821733354
 10
501.3561428208
 20
119.5789440656
 10
501.1787407786
 20
119.3185470068
 10
501.2381425617
 20
119.0545802505
 10
501.5311458047
 20
118.8012743127
 10
502.0419546269
 20
118.5722849823
 10
502.7430311924
 20
118.3799571332
 10
503.5965802821
 20
118.2346592096
 10
504.5565868437
 20
118.1442242601
 10
505.571296675
 20
118.1135276563
  0
LWPOLYLINE
  5
1E7
330
1F
100
AcDbEntity
  8
0
  6
Continuous
 62
     7
370
    25
100
AcDbPolyline
 90
       28
 70
   128
 43
0.0
 10
453.571296675
 20
94.3021755069
 10
454.5860065063
 20
94.3328721107
 10
455.5460130679
 20
94.4233070601
 10
456.3995621576
 20
94.5686049838
 10
457.1006387231
 20
94.7609328329
 10
457.6114475453
 20
94.9899221633
 10
457.9044507882
 20
95.243228101
 10
457.9638525714
 20
95.5071948574
 10
457.7864505292
 20
95.7675919162
 10
457.3818084516
 20
96.0103812046
 10
456.7717406979
 20
96.2224738892
 10
455.9891361785
 20
96.3924359986
 10
455.0761853056
 20
96.5111048313
 10
454.0821054971
 20
96.5720829199
 10
453.0604878528
 20
96.5720829199
 10
452.0664080444
 20
96.5111048313
 10
451.1534571715
 20
96.3924359986
 10
450.3708526521
 20
96.2224738892
 10
449.7607848983
 20
96.0103812046
 10
449.3561428208
 20
95.7675919162
 10
449.1787407786
 20
95.5071948574
 10
449.2381425617
 20
95.243228101
 10
449.5311458047
 20
94.9899221633
 10
450.0419546269
 20
94.7609328329
 10
450.7430311924
 20
94.5686049838
 10
451.5965802821
 20
94.4233070601
 10
452.5565868437
 20
94.3328721107
 10
453.571296675
 20
94.3021755069
  0
LWPOLYLINE
  5
1E8
330
1F
100
AcDbEntity
  8
0
  6
Continuous
 62
     7
370
    25
100
AcDbPolyline
 90
        9
 70
   128
 43
0.0
 10
444.571296675
 20
116.1465029136
 10
444.6961923524
 20
116.4747080041
 10
445.0660797137
 20
116.7903003571
 10
445.666744195
 20
117.0811519353
 10
446.4751025973
 20
117.3360854759
 10
447.4600901604
 20
117.5453040256
 10
448.5838543646
 20
117.7007674331
 10
449.8032095819
 20
117.7965013268
 10
451.071296675
 20
117.8288267067
  0
LINE
  5
1E9
330
1F
100
AcDbEntity
  8
0
  6
Continuous
 62
     7
370
    25
100
AcDbLine
 10
444.571296675
 20
116.1465029136
 30
0.0
 11
444.571296675
 21
98.5468078466
 31
0.0
  0
LWPOLYLINE
  5
1EA
330
1F
100
AcDbEntity
  8
0
  6
Continuous
 62
     7
370
    25
100
AcDbPolyline
 90
        9
 70
   128
 43
0.0
 10
451.071296675
 20
96.8644840534
 10
449.8032095819
 20
96.8968094334
 10
448.5838543646
 20
96.992543327
 10
447.4600901604
 20
97.1480067345
 10
446.4751025973
 20
97.3572252843
 10
445.666744195
 20
97.6121588248
 10
445.0660797137
 20
97.9030104031
 10
444.6961923524
 20
98.218602756
 10
444.571296675
 20
98.5468078466
  0
LINE
  5
1EB
330
1F
100
AcDbEntity
  8
0
  6
Continuous
 62
     7
370
    25
100
AcDbLine
 10
451.071296675
 20
96.8644840534
 30
0.0
 11
508.071296675
 21
96.8644840534
 31
0.0
  0
LWPOLYLINE
  5
1EC
330
1F
100
AcDbEntity
  8
0
  6
Continuous
 62
     7
370
    25
100
AcDbPolyline
 90
        9
 70
   128
 43
0.0
 10
514.571296675
 20
98.5468078466
 10
514.4464009976
 20
98.218602756
 10
514.0765136363
 20
97.9030104031
 10
513.475849155
 20
97.6121588248
 10
512.6674907527
 20
97.3572252843
 10
511.6825031896
 20
97.1480067345
 10
510.5587389854
 20
96.992543327
 10
509.3393837681
 20
96.8968094334
 10
508.071296675
 20
96.8644840534
  0
LINE
  5
1ED
330
1F
100
AcDbEntity
  8
0
  6
Continuous
 62
     7
370
    25
100
AcDbLine
 10
514.571296675
 20
98.5468078466
 30
0.0
 11
514.571296675
 21
116.1465029136
 31
0.0
  0
LWPOLYLINE
  5
1EE
330
1F
100
AcDbEntity
  8
0
  6
Continuous
 62
     7
370
    25
100
AcDbPolyline
 90
        9
 70
   128
 43
0.0
 10
508.071296675
 20
117.8288267067
 10
509.3393837681
 20
117.7965013268
 10
510.5587389854
 20
117.7007674331
 10
511.6825031896
 20
117.5453040256
 10
512.6674907527
 20
117.3360854759
 10
513.475849155
 20
117.0811519353
 10
514.0765136363
 20
116.7903003571
 10
514.4464009976
 20
116.4747080041
 10
514.571296675
 20
116.1465029136
  0
LINE
  5
1EF
330
1F
100
AcDbEntity
  8
0
  6
Continuous
 62
     7
370
    25
100
AcDbLine
 10
508.071296675
 20
117.8288267067
 30
0.0
 11
451.071296675
 21
117.8288267067
 31
0.0
  0
LINE
  5
1F0
330
1F
100
AcDbEntity
  8
0
  6
Continuous
 62
     7
370
    25
100
AcDbLine
 10
627.571296675
 20
86.4076685119
 30
0.0
 11
627.571296675
 21
124.1048691182
 31
0.0
  0
LINE
  5
1F1
330
1F
100
AcDbEntity
  8
0
  6
Continuous
 62
     7
370
    25
100
AcDbLine
 10
620.571296675
 20
233.0830468687
 30
0.0
 11
620.571296675
 21
246.5334698177
 31
0.0
  0
LINE
  5
1F2
330
1F
100
AcDbEntity
  8
0
  6
Continuous
 62
     7
370
    25
100
AcDbLine
 10
620.571296675
 20
246.5334698177
 30
0.0
 11
627.571296675
 21
246.5334698177
 31
0.0
  0
LINE
  5
1F3
330
1F
100
AcDbEntity
  8
0
  6
Continuous
 62
     7
370
    25
100
AcDbLine
 10
427.571296675
 20
246.5334698177
 30
0.0
 11
434.571296675
 21
246.5334698177
 31
0.0
  0
LINE
  5
1F4
330
1F
100
AcDbEntity
  8
0
  6
Continuous
 62
     7
370
    25
100
AcDbLine
 10
434.571296675
 20
246.5334698177
 30
0.0
 11
434.571296675
 21
233.0830468687
 31
0.0
  0
LINE
  5
1F5
330
1F
100
AcDbEntity
  8
0
  6
Continuous
 62
     7
370
    25
100
AcDbLine
 10
434.571296675
 20
233.0830468687
 30
0.0
 11
620.571296675
 21
233.0830468687
 31
0.0
  0
CIRCLE
  5
1F6
330
1F
100
AcDbEntity
  8
0
  6
Continuous
 62
     7
370
    25
100
AcDbCircle
 10
527.571296675
 20
149.7113059617
 30
0.0
 40
5.599999999999994
  0
CIRCLE
  5
1F7
330
1F
100
AcDbEntity
  8
0
  6
Continuous
 62
     7
370
    25
100
AcDbCircle
 10
527.571296675
 20
209.7113059617
 30
0.0
 40
5.600000000000023
  0
LINE
  5
1F8
330
1F
100
AcDbEntity
  8
0
  6
Continuous
 62
     7
370
    25
100
AcDbLine
 10
427.571296675
 20
124.1048691182
 30
0.0
 11
427.571296675
 21
246.5334698177
 31
0.0
  0
LINE
  5
1F9
330
1F
100
AcDbEntity
  8
0
  6
Continuous
 62
     7
370
    25
100
AcDbLine
 10
627.571296675
 20
124.1048691182
 30
0.0
 11
627.571296675
 21
246.5334698177
 31
0.0
  0
CIRCLE
  5
1FA
330
1F
100
AcDbEntity
  8
0
  6
Continuous
 62
     7
370
    25
100
AcDbCircle
 10
527.571296675
 20
149.7113059617
 30
0.0
 40
4.599999999999966
  0
CIRCLE
  5
1FB
330
1F
100
AcDbEntity
  8
0
  6
Continuous
 62
     7
370
    25
100
AcDbCircle
 10
527.571296675
 20
209.7113059617
 30
0.0
 40
4.599999999999994
  0
LINE
  5
1FC
330
1F
100
AcDbEntity
  8
0
  6
Continuous
 62
     7
370
    25
100
AcDbLine
 10
627.571296675
 20
262.5868168354
 30
0.0
 11
620.571296675
 21
262.5868168354
 31
0.0
  0
LINE
  5
1FD
330
1F
100
AcDbEntity
  8
0
  6
Continuous
 62
     7
370
    25
100
AcDbLine
 10
620.571296675
 20
246.5334698177
 30
0.0
 11
620.571296675
 21
262.5868168354
 31
0.0
  0
LINE
  5
1FE
330
1F
100
AcDbEntity
  8
0
  6
Continuous
 62
     7
370
    25
100
AcDbLine
 10
627.571296675
 20
262.5868168354
 30
0.0
 11
627.571296675
 21
246.5334698177
 31
0.0
  0
LINE
  5
1FF
330
1F
100
AcDbEntity
  8
0
  6
Continuous
 62
     7
370
    25
100
AcDbLine
 10
434.571296675
 20
262.5868168354
 30
0.0
 11
427.571296675
 21
262.5868168354
 31
0.0
  0
LINE
  5
200
330
1F
100
AcDbEntity
  8
0
  6
Continuous
 62
     7
370
    25
100
AcDbLine
 10
434.571296675
 20
262.5868168354
 30
0.0
 11
434.571296675
 21
246.5334698177
 31
0.0
  0
LINE
  5
201
330
1F
100
AcDbEntity
  8
0
  6
Continuous
 62
     7
370
    25
100
AcDbLine
 10
427.571296675
 20
262.5868168354
 30
0.0
 11
427.571296675
 21
246.5334698177
 31
0.0
  0
LINE
  5
202
330
1F
100
AcDbEntity
  8
0
  6
Continuous
 62
     7
370
    25
100
AcDbLine
 10
439.571296675
 20
245.0830468687
 30
0.0
 11
434.571296675
 21
245.0830468687
 31
0.0
  0
LINE
  5
203
330
1F
100
AcDbEntity
  8
0
  6
Continuous
 62
     7
370
    25
100
AcDbLine
 10
615.571296675
 20
245.0830468687
 30
0.0
 11
439.571296675
 21
245.0830468687
 31
0.0
  0
LINE
  5
204
330
1F
100
AcDbEntity
  8
0
  6
Continuous
 62
     7
370
    25
100
AcDbLine
 10
620.571296675
 20
245.0830468687
 30
0.0
 11
615.571296675
 21
245.0830468687
 31
0.0
  0
LINE
  5
205
330
1F
100
AcDbEntity
  8
0
  6
Continuous
 62
     7
370
    25
100
AcDbLine
 10
439.571296675
 20
257.986617598
 30
0.0
 11
434.571296675
 21
257.986617598
 31
0.0
  0
LINE
  5
206
330
1F
100
AcDbEntity
  8
0
  6
Continuous
 62
     7
370
    25
100
AcDbLine
 10
439.571296675
 20
245.0830468687
 30
0.0
 11
439.571296675
 21
257.986617598
 31
0.0
  0
LINE
  5
207
330
1F
100
AcDbEntity
  8
0
  6
Continuous
 62
     7
370
    25
100
AcDbLine
 10
615.571296675
 20
257.986617598
 30
0.0
 11
620.571296675
 21
257.986617598
 31
0.0
  0
LINE
  5
208
330
1F
100
AcDbEntity
  8
0
  6
Continuous
 62
     7
370
    25
100
AcDbLine
 10
615.571296675
 20
245.0830468687
 30
0.0
 11
615.571296675
 21
257.986617598
 31
0.0
  0
LINE
  5
209
330
1F
100
AcDbEntity
  8
0
  6
Continuous
 62
     7
370
    25
100
AcDbLine
 10
434.571296675
 20
268.3746710218
 30
0.0
 11
434.571296675
 21
262.5868168354
 31
0.0
  0
LINE
  5
20A
330
1F
100
AcDbEntity
  8
0
  6
Continuous
 62
     7
370
    25
100
AcDbLine
 10
427.571296675
 20
268.3746710218
 30
0.0
 11
427.571296675
 21
262.5868168354
 31
0.0
  0
LINE
  5
20B
330
1F
100
AcDbEntity
  8
0
  6
Continuous
 62
     7
370
    25
100
AcDbLine
 10
620.571296675
 20
262.5868168354
 30
0.0
 11
620.571296675
 21
268.3746710218
 31
0.0
  0
LINE
  5
20C
330
1F
100
AcDbEntity
  8
0
  6
Continuous
 62
     7
370
    25
100
AcDbLine
 10
627.571296675
 20
268.3746710218
 30
0.0
 11
627.571296675
 21
262.5868168354
 31
0.0
  0
LINE
  5
20D
330
1F
100
AcDbEntity
  8
0
  6
Continuous
 62
     7
370
    25
100
AcDbLine
 10
439.571296675
 20
257.986617598
 30
0.0
 11
439.571296675
 21
263.7830468687
 31
0.0
  0
LINE
  5
20E
330
1F
100
AcDbEntity
  8
0
  6
Continuous
 62
     7
370
    25
100
AcDbLine
 10
615.571296675
 20
257.986617598
 30
0.0
 11
615.571296675
 21
263.7830468687
 31
0.0
  0
ARC
  5
20F
330
1F
100
AcDbEntity
  8
0
  6
Continuous
 62
     7
370
    25
100
AcDbCircle
 10
565.2703930382
 20
124.9438321748
 30
0.0
 40
7.345499440554766
100
AcDbArc
 50
264.5386982587
 51
297.3800413436
  0
ARC
  5
210
330
1F
100
AcDbEntity
  8
0
  6
Continuous
 62
     7
370
    25
100
AcDbCircle
 10
563.8722003118
 20
124.9438321747
 30
0.0
 40
7.34549944052761
100
AcDbArc
 50
242.6199586563
 51
275.4613017413
  0
LINE
  5
211
330
1F
100
AcDbEntity
  8
0
  6
Continuous
 62
     7
370
    25
100
AcDbLine
 10
502.571296675
 20
101.3210545469
 30
0.0
 11
502.571296675
 21
100.6740069342
 31
0.0
  0
LWPOLYLINE
  5
212
330
1F
100
AcDbEntity
  8
0
  6
Continuous
 62
     7
370
    25
100
AcDbPolyline
 90
        9
 70
   128
 43
0.0
 10
507.071296675
 20
102.4857402499
 10
506.1933902259
 20
102.4633611407
 10
505.3492212294
 20
102.3970838297
 10
504.5712306264
 20
102.2894553168
 10
503.8893161597
 20
102.1446117054
 10
503.3296834196
 20
101.9681192543
 10
502.9138387787
 20
101.7667604694
 10
502.6577629132
 20
101.5482734558
 10
502.571296675
 20
101.3210545469
  0
LINE
  5
213
330
1F
100
AcDbEntity
  8
0
  6
Continuous
 62
     7
370
    25
100
AcDbLine
 10
509.571296675
 20
102.4857402499
 30
0.0
 11
507.071296675
 21
102.4857402499
 31
0.0
  0
LINE
  5
214
330
1F
100
AcDbEntity
  8
0
  6
Continuous
 62
     7
370
    25
100
AcDbLine
 10
509.571296675
 20
117.4972448658
 30
0.0
 11
509.571296675
 21
102.4857402499
 31
0.0
  0
LINE
  5
215
330
1F
100
AcDbEntity
  8
0
  6
Continuous
 62
     7
370
    25
100
AcDbLine
 10
507.071296675
 20
117.4972448658
 30
0.0
 11
509.571296675
 21
117.4972448658
 31
0.0
  0
ARC
  5
216
330
1F
100
AcDbEntity
  8
0
  6
Continuous
 62
     7
370
    25
100
AcDbCircle
 10
506.8938894828
 20
130.8922423525
 30
0.0
 40
13.39617225102333
100
AcDbArc
 50
257.2028367177
 51
270.7587973874
  0
ARC
  5
217
330
1F
100
AcDbEntity
  8
0
  6
Continuous
 62
     7
370
    25
100
AcDbCircle
 10
451.2487038672
 20
130.8922423525
 30
0.0
 40
13.39617225101986
100
AcDbArc
 50
269.2412026126
 51
282.7971632823
  0
LINE
  5
218
330
1F
100
AcDbEntity
  8
0
  6
Continuous
 62
     7
370
    25
100
AcDbLine
 10
448.571296675
 20
117.4972448658
 30
0.0
 11
451.071296675
 21
117.4972448658
 31
0.0
  0
LINE
  5
219
330
1F
100
AcDbEntity
  8
0
  6
Continuous
 62
     7
370
    25
100
AcDbLine
 10
448.571296675
 20
102.4857402499
 30
0.0
 11
448.571296675
 21
117.4972448658
 31
0.0
  0
LINE
  5
21A
330
1F
100
AcDbEntity
  8
0
  6
Continuous
 62
     7
370
    25
100
AcDbLine
 10
451.071296675
 20
102.4857402499
 30
0.0
 11
448.571296675
 21
102.4857402499
 31
0.0
  0
LWPOLYLINE
  5
21B
330
1F
100
AcDbEntity
  8
0
  6
Continuous
 62
     7
370
    25
100
AcDbPolyline
 90
        9
 70
   128
 43
0.0
 10
455.571296675
 20
101.3210545469
 10
455.4848304368
 20
101.5482734558
 10
455.2287545713
 20
101.7667604694
 10
454.8129099304
 20
101.9681192543
 10
454.2532771903
 20
102.1446117054
 10
453.5713627236
 20
102.2894553168
 10
452.7933721206
 20
102.3970838297
 10
451.9492031241
 20
102.4633611407
 10
451.071296675
 20
102.4857402499
  0
LINE
  5
21C
330
1F
100
AcDbEntity
  8
0
  6
Continuous
 62
     7
370
    25
100
AcDbLine
 10
455.571296675
 20
100.6740069342
 30
0.0
 11
455.571296675
 21
101.3210545469
 31
0.0
  0
LINE
  5
21D
330
1F
100
AcDbEntity
  8
0
  6
Continuous
 62
     7
370
    25
100
AcDbLine
 10
502.571296675
 20
100.6740069342
 30
0.0
 11
455.571296675
 21
100.6740069342
 31
0.0
  0
LWPOLYLINE
  5
21E
330
1F
100
AcDbEntity
  8
0
  6
Continuous
 62
     7
370
    25
100
AcDbPolyline
 90
        9
 70
   128
 43
0.0
 10
508.071296675
 20
99.4724837844
 10
509.3393837681
 20
99.5048091644
 10
510.5587389854
 20
99.600543058
 10
511.6825031896
 20
99.7560064655
 10
512.6674907527
 20
99.9652250153
 10
513.475849155
 20
100.2201585558
 10
514.0765136363
 20
100.5110101341
 10
514.4464009976
 20
100.826602487
 10
514.571296675
 20
101.1548075776
  0
LINE
  5
21F
330
1F
100
AcDbEntity
  8
0
  6
Continuous
 62
     7
370
    25
100
AcDbLine
 10
451.071296675
 20
99.4724837844
 30
0.0
 11
508.071296675
 21
99.4724837844
 31
0.0
  0
LWPOLYLINE
  5
220
330
1F
100
AcDbEntity
  8
0
  6
Continuous
 62
     7
370
    25
100
AcDbPolyline
 90
        9
 70
   128
 43
0.0
 10
444.571296675
 20
101.1548075776
 10
444.6961923524
 20
100.826602487
 10
445.0660797137
 20
100.5110101341
 10
445.666744195
 20
100.2201585558
 10
446.4751025973
 20
99.9652250153
 10
447.4600901604
 20
99.7560064655
 10
448.5838543646
 20
99.600543058
 10
449.8032095819
 20
99.5048091644
 10
451.071296675
 20
99.4724837844
  0
LINE
  5
221
330
1F
100
AcDbEntity
  8
0
  6
Continuous
 62
     7
370
    25
100
AcDbLine
 10
480.9442800249
 20
248.0830468687
 30
0.0
 11
590.1983133288
 21
248.0830468687
 31
0.0
  0
ARC
  5
222
330
1F
100
AcDbEntity
  8
0
  6
Continuous
 62
     7
370
    25
100
AcDbCircle
 10
565.2703930381
 20
109.414689469
 30
0.0
 40
7.345499440944452
100
AcDbArc
 50
264.5386982593
 51
297.3800413417
  0
ARC
  5
223
330
1F
100
AcDbEntity
  8
0
  6
Continuous
 62
     7
370
    25
100
AcDbCircle
 10
563.8722003118
 20
109.4146894688
 30
0.0
 40
7.345499440781886
100
AcDbArc
 50
242.6199586575
 51
275.4613017409
  0
LINE
  5
224
330
1F
100
AcDbEntity
  8
0
  6
Continuous
 62
     7
370
    25
100
AcDbLine
 10
502.571296675
 20
117.8288267067
 30
0.0
 11
502.571296675
 21
101.3210545469
 31
0.0
  0
LINE
  5
225
330
1F
100
AcDbEntity
  8
0
  6
Continuous
 62
     7
370
    25
100
AcDbLine
 10
455.571296675
 20
117.8288267067
 30
0.0
 11
455.571296675
 21
101.3210545469
 31
0.0
  0
LINE
  5
226
330
1F
100
AcDbEntity
  8
0
  6
Continuous
 62
     7
370
    25
100
AcDbLine
 10
508.071296675
 20
96.8644840534
 30
0.0
 11
508.071296675
 21
99.4724837844
 31
0.0
  0
LINE
  5
227
330
1F
100
AcDbEntity
  8
0
  6
Continuous
 62
     7
370
    25
100
AcDbLine
 10
451.071296675
 20
99.4724837844
 30
0.0
 11
451.071296675
 21
96.8644840534
 31
0.0
  0
LINE
  5
228
330
1F
100
AcDbEntity
  8
0
  6
Continuous
 62
     7
370
    25
100
AcDbLine
 10
507.071296675
 20
117.4972448658
 30
0.0
 11
507.071296675
 21
102.4857402499
 31
0.0
  0
LINE
  5
229
330
1F
100
AcDbEntity
  8
0
  6
Continuous
 62
     7
370
    25
100
AcDbLine
 10
451.071296675
 20
117.4972448658
 30
0.0
 11
451.071296675
 21
102.4857402499
 31
0.0
  0
LINE
  5
22A
330
1F
100
AcDbEntity
  8
SLD-0
100
AcDbLine
 10
527.571296675
 20
209.7113059617
 30
0.0
 11
527.571296675
 21
149.7113059617
 31
0.0
  0
DIMENSION
  5
22B
330
1F
100
AcDbEntity
  8
SLD-0
100
AcDbDimension
  2
_D_2
 10
667.6100260495
 20
149.7113059617
 30
0.0
 11
667.6100260495
 21
179.7113059617
 31
0.0
 70
   160
  1
<>
 71
     2
 42
-1.0
  3
SLDDIMSTYLE1
100
AcDbAlignedDimension
 13
535.171296675
 23
209.7113059617
 33
0.0
 14
535.171296675
 24
149.7113059617
 34
0.0
 50
90.0
100
AcDbRotatedDimension
  0
DIMENSION
  5
23F
330
1F
100
AcDbEntity
  8
SLD-0
100
AcDbDimension
  2
_D_3
 10
667.6100260495
 20
233.0830468687
 30
0.0
 11
667.6100260495
 21
255.1051865763
 31
0.0
 70
   160
  1
<>
 71
     2
 42
-1.0
  3
SLDDIMSTYLE0
100
AcDbAlignedDimension
 13
535.171296675
 23
209.7113059617
 33
0.0
 14
620.571296675
 24
233.0830468687
 34
0.0
 50
90.0
100
AcDbRotatedDimension
  0
DIMENSION
  5
254
330
1F
100
AcDbEntity
  8
SLD-0
100
AcDbDimension
  2
_D_4
 10
627.571296675
 20
294.4369766942
 30
0.0
 11
577.571296675
 21
294.4369766942
 31
0.0
 70
   160
  1
<>
 71
     2
 42
-1.0
  3
SLDDIMSTYLE1
100
AcDbAlignedDimension
 13
527.571296675
 23
217.3113059617
 33
0.0
 14
627.571296675
 24
268.3746710218
 34
0.0
100
AcDbRotatedDimension
  0
INSERT
  5
270
102
{ACAD_REACTORS
330
272
102
}
330
1F
100
AcDbEntity
  8
SLD-0
100
AcDbBlockReference
  2
SW_NOTE_0_1
 10
398.1597657884
 20
157.6746131326
 30
0.0
  0
LEADER
  5
272
330
1F
100
AcDbEntity
  8
SLD-0
100
AcDbLeader
  3
SLDDIMSTYLE2
 73
     2
 76
     3
 10
523.985758835
 20
205.4096878478
 30
0.0
 10
404.826432455
 20
157.6746131326
 30
0.0
 10
398.1597657884
 20
157.6746131326
 30
0.0
340
270
  0
MTEXT
  5
273
330
1F
100
AcDbEntity
  8
SLD-0
100
AcDbMText
 10
362.6825638473
 20
161.1596511441
 30
0.0
 40
7.9375
 41
0.0
 71
     1
 72
     1
  1
2X
  7
SLDTEXTSTYLE0
 73
     1
 44
1.0
  0
INSERT
  5
27F
330
1F
100
AcDbEntity
  8
SLD-0
100
AcDbBlockReference
  2
SW_CENTERMARKSYMBOL_0
 10
527.571296675
 20
209.7113059617
 30
0.0
  0
INSERT
  5
28B
330
1F
100
AcDbEntity
  8
SLD-0
100
AcDbBlockReference
  2
SW_CENTERMARKSYMBOL_1
 10
527.571296675
 20
149.7113059617
 30
0.0
  0
LINE
  5
28C
330
1F
100
AcDbEntity
  8
0
  6
Continuous
 62
     7
370
    25
100
AcDbLine
 10
895.5469323276
 20
365.7689125096
 30
0.0
 11
773.1183316281
 21
365.7689125096
 31
0.0
  0
ARC
  5
28D
330
1F
100
AcDbEntity
  8
0
  6
Continuous
 62
     7
370
    25
100
AcDbCircle
 10
789.1952788917
 20
400.200464416
 30
0.0
 40
38.0
100
AcDbArc
 50
212.2707987846
 51
244.9709602646
  0
ARC
  5
28E
330
1F
100
AcDbEntity
  8
0
  6
Continuous
 62
     7
370
    25
100
AcDbCircle
 10
1251.277130424
 20
455.7689125096
 30
0.0
 40
500.0
100
AcDbArc
 50
171.2765032982
 51
188.7263223054
  0
ARC
  5
28F
330
1F
100
AcDbEntity
  8
0
  6
Continuous
 62
     7
370
    25
100
AcDbCircle
 10
789.1952788917
 20
511.3189125096
 30
0.0
 40
38.00000000000004
100
AcDbArc
 50
113.8689065316
 51
147.7397655511
  0
LINE
  5
290
330
1F
100
AcDbEntity
  8
0
  6
Continuous
 62
     7
370
    25
100
AcDbLine
 10
785.4096435855
 20
546.0689125096
 30
0.0
 11
773.8187545771
 21
546.0689125096
 31
0.0
  0
LINE
  5
291
330
1F
100
AcDbEntity
  8
0
  6
Continuous
 62
     7
370
    25
100
AcDbLine
 10
933.2441329339
 20
506.4567804753
 30
0.0
 11
895.5469323276
 21
365.7689125096
 31
0.0
  0
CIRCLE
  5
292
330
1F
100
AcDbEntity
  8
0
  6
Continuous
 62
     7
370
    25
100
AcDbCircle
 10
823.5687545771
 20
452.7689125096
 30
0.0
 40
9.0
  0
LINE
  5
293
330
1F
100
AcDbEntity
  8
0
  6
Continuous
 62
     7
370
    25
100
AcDbLine
 10
785.4096435855
 20
546.0689125096
 30
0.0
 11
933.2441329339
 21
506.4567804753
 31
0.0
  0
CIRCLE
  5
294
330
1F
100
AcDbEntity
  8
0
  6
Continuous
 62
     7
370
    25
100
AcDbCircle
 10
823.5687545771
 20
452.7689125096
 30
0.0
 40
5.5
  0
LINE
  5
295
330
1F
100
AcDbEntity
  8
SLD-0
100
AcDbLine
 10
827.2736264024
 20
454.4526898245
 30
0.0
 11
825.5637536729
 21
448.0713579234
 31
0.0
  0
LINE
  5
296
330
1F
100
AcDbEntity
  8
SLD-0
100
AcDbLine
 10
823.2280240871
 20
452.1169602387
 30
0.0
 11
829.6093559882
 21
450.4070875092
 31
0.0
  0
DIMENSION
  5
297
330
1F
100
AcDbEntity
  8
SLD-0
100
AcDbDimension
  2
_D_5
 10
751.277130576
 20
332.4355791763
 30
0.0
 11
788.8479103068
 21
332.4355791763
 31
0.0
 70
   160
  1
<>
 71
     2
 42
-1.0
  3
SLDDIMSTYLE0
100
AcDbAlignedDimension
 13
826.4186900376
 23
451.262023874
 33
0.0
 14
751.277130576
 24
455.7565834883
 34
0.0
100
AcDbRotatedDimension
  0
DIMENSION
  5
2AB
330
1F
100
AcDbEntity
  8
SLD-0
100
AcDbDimension
  2
_D_6
 10
712.8863467082
 20
365.7689125096
 30
0.0
 11
712.8863467082
 21
408.5154681918
 31
0.0
 70
   160
  1
<>
 71
     2
 42
-1.0
  3
SLDDIMSTYLE0
100
AcDbAlignedDimension
 13
826.4186900376
 23
451.262023874
 33
0.0
 14
773.1183316281
 24
365.7689125096
 34
0.0
 50
90.0
100
AcDbRotatedDimension
  0
INSERT
  5
2C7
102
{ACAD_REACTORS
330
2C8
102
}
330
1F
100
AcDbEntity
  8
SLD-0
100
AcDbBlockReference
  2
SW_NOTE_0_2
 10
719.3642827269
 20
519.8661647846
 30
0.0
  0
LEADER
  5
2C8
330
1F
100
AcDbEntity
  8
SLD-0
100
AcDbLeader
  3
SLDDIMSTYLE2
 73
     2
 76
     3
 10
816.755500738
 20
458.6493522997
 30
0.0
 10
726.0309493936
 20
519.8661647846
 30
0.0
 10
719.3642827269
 20
519.8661647846
 30
0.0
340
2C7
  0
INSERT
  5
2C9
330
1F
100
AcDbEntity
  8
SLD-0
100
AcDbBlockReference
  2
SW_SYMBOL_MOD_COM
 10
820.103497117
 20
446.0622958207
 30
0.0
 41
0.0030416748
 42
0.0030416748
 43
0.0030416748
  0
LINE
  5
2CA
330
1F
100
AcDbEntity
  8
0
  6
PHANTOM
 62
     7
370
    35
100
AcDbLine
 10
998.5087335905
 20
502.9135069805
 30
0.0
 11
947.1515079276
 21
311.2457314709
 31
0.0
  0
LINE
  5
2CB
330
1F
100
AcDbEntity
  8
0
  6
Continuous
 62
     7
370
    35
100
AcDbLine
 10
998.5087335905
 20
502.9135069805
 30
0.0
 11
978.0633036007
 21
508.3918434351
 31
0.0
  0
SOLID
  5
2CC
330
1F
100
AcDbEntity
  8
0
  6
Continuous
 62
     7
370
    35
100
AcDbTrace
 10
978.0633036007
 20
508.3918434351
 30
0.0
 11
987.2197096212
 21
503.3087903381
 31
0.0
 12
988.5345103704
 22
508.2156935357
 32
0.0
 13
988.5345103704
 23
508.2156935357
 33
0.0
  0
LINE
  5
2CD
330
1F
100
AcDbEntity
  8
0
  6
Continuous
 62
     7
370
    35
100
AcDbLine
 10
947.1515079276
 20
311.2457314709
 30
0.0
 11
926.7060779379
 21
316.7240679256
 31
0.0
  0
SOLID
  5
2CE
330
1F
100
AcDbEntity
  8
0
  6
Continuous
 62
     7
370
    35
100
AcDbTrace
 10
926.7060779379
 20
316.7240679256
 30
0.0
 11
935.8624839584
 21
311.6410148286
 31
0.0
 12
937.1772847075
 22
316.5479180261
 32
0.0
 13
937.1772847075
 23
316.5479180261
 33
0.0
  0
MTEXT
  5
2CF
330
1F
100
AcDbEntity
  8
0
  6
Continuous
 62
     7
100
AcDbMText
 10
964.7319474771
 20
518.9697425162
 30
0.0
 40
10.5833333333
 41
0.0
 71
     1
 72
     1
  1
A
  7
SLDTEXTSTYLE0
 73
     1
 44
1.0
  0
MTEXT
  5
2D0
330
1F
100
AcDbEntity
  8
0
  6
Continuous
 62
     7
100
AcDbMText
 10
913.3747218143
 20
327.3019670066
 30
0.0
 40
10.5833333333
 41
0.0
 71
     1
 72
     1
  1
A
  7
SLDTEXTSTYLE0
 73
     1
 44
1.0
  0
LINE
  5
2D1
330
1F
100
AcDbEntity
  8
0
  6
PHANTOM
 62
     7
370
    35
100
AcDbLine
 10
775.5067129194
 20
594.0865243826
 30
0.0
 11
961.7890773347
 21
544.1723152734
 31
0.0
  0
LINE
  5
2D2
330
1F
100
AcDbEntity
  8
0
  6
Continuous
 62
     7
370
    35
100
AcDbLine
 10
775.5067129194
 20
594.0865243826
 30
0.0
 11
770.0283764647
 21
573.6410943928
 31
0.0
  0
SOLID
  5
2D3
330
1F
100
AcDbEntity
  8
0
  6
Continuous
 62
     7
370
    35
100
AcDbTrace
 10
770.0283764647
 20
573.6410943928
 30
0.0
 11
775.1114295617
 21
582.7975004134
 31
0.0
 12
770.2045263642
 22
584.1123011625
 32
0.0
 13
770.2045263642
 23
584.1123011625
 33
0.0
  0
LINE
  5
2D4
330
1F
100
AcDbEntity
  8
0
  6
Continuous
 62
     7
370
    35
100
AcDbLine
 10
961.7890773347
 20
544.1723152734
 30
0.0
 11
956.3107408801
 21
523.7268852836
 31
0.0
  0
SOLID
  5
2D5
330
1F
100
AcDbEntity
  8
0
  6
Continuous
 62
     7
370
    35
100
AcDbTrace
 10
956.3107408801
 20
523.7268852836
 30
0.0
 11
961.3937939771
 21
532.8832913041
 31
0.0
 12
956.4868907795
 22
534.1980920532
 32
0.0
 13
956.4868907795
 23
534.1980920532
 33
0.0
  0
MTEXT
  5
2D6
330
1F
100
AcDbEntity
  8
0
  6
Continuous
 62
     7
100
AcDbMText
 10
761.7032056145
 20
573.9274208289
 30
0.0
 40
10.5833333333
 41
0.0
 71
     1
 72
     1
  1
G
  7
SLDTEXTSTYLE0
 73
     1
 44
1.0
  0
MTEXT
  5
2D7
330
1F
100
AcDbEntity
  8
0
  6
Continuous
 62
     7
100
AcDbMText
 10
947.9855700299
 20
524.0132117196
 30
0.0
 40
10.5833333333
 41
0.0
 71
     1
 72
     1
  1
G
  7
SLDTEXTSTYLE0
 73
     1
 44
1.0
  0
LINE
  5
2D8
330
1F
100
AcDbEntity
  8
0
  6
Continuous
 62
     7
370
    25
100
AcDbLine
 10
226.0686436076
 20
546.0689125096
 30
0.0
 11
237.6595326161
 21
546.0689125096
 31
0.0
  0
ARC
  5
2D9
330
1F
100
AcDbEntity
  8
0
  6
Continuous
 62
     7
370
    25
100
AcDbCircle
 10
222.2830083014
 20
511.3189125096
 30
0.0
 40
38.0
100
AcDbArc
 50
32.2602344489
 51
66.1310934684
  0
ARC
  5
2DA
330
1F
100
AcDbEntity
  8
0
  6
Continuous
 62
     7
370
    25
100
AcDbCircle
 10
-239.7988432309
 20
455.7689125096
 30
0.0
 40
500.0000000000001
100
AcDbArc
 50
351.2736776946
 51
8.7234967018
  0
ARC
  5
2DB
330
1F
100
AcDbEntity
  8
0
  6
Continuous
 62
     7
370
    25
100
AcDbCircle
 10
222.2830083014
 20
400.200464416
 30
0.0
 40
38.00000000000001
100
AcDbArc
 50
295.0290397354
 51
327.7292012154
  0
LINE
  5
2DC
330
1F
100
AcDbEntity
  8
0
  6
Continuous
 62
     7
370
    25
100
AcDbLine
 10
115.9313548655
 20
365.7689125096
 30
0.0
 11
238.359955565
 21
365.7689125096
 31
0.0
  0
LINE
  5
2DD
330
1F
100
AcDbEntity
  8
0
  6
Continuous
 62
     7
370
    25
100
AcDbLine
 10
78.2341542593
 20
506.4567804753
 30
0.0
 11
115.9313548655
 21
365.7689125096
 31
0.0
  0
CIRCLE
  5
2DE
330
1F
100
AcDbEntity
  8
0
  6
Continuous
 62
     7
370
    25
100
AcDbCircle
 10
187.9095326161
 20
452.7689125096
 30
0.0
 40
9.000000000000028
  0
LINE
  5
2DF
330
1F
100
AcDbEntity
  8
0
  6
Continuous
 62
     7
370
    25
100
AcDbLine
 10
226.0686436076
 20
546.0689125096
 30
0.0
 11
78.2341542593
 21
506.4567804753
 31
0.0
  0
CIRCLE
  5
2E0
330
1F
100
AcDbEntity
  8
0
  6
Continuous
 62
     7
370
    25
100
AcDbCircle
 10
187.9095326161
 20
452.7689125096
 30
0.0
 40
5.500000000000028
  0
DIMENSION
  5
2E1
330
1F
100
AcDbEntity
  8
SLD-0
100
AcDbDimension
  2
_D_7
 10
260.2011566171
 20
579.402245843
 30
0.0
 11
169.2176554382
 21
579.402245843
 31
0.0
 70
   160
  1
<>
 71
     2
 42
-1.0
  3
SLDDIMSTYLE1
100
AcDbAlignedDimension
 13
78.2341542593
 23
506.4567804753
 33
0.0
 14
260.2011566171
 24
455.7565834883
 34
0.0
100
AcDbRotatedDimension
  0
DIMENSION
  5
2F5
330
1F
100
AcDbEntity
  8
SLD-0
100
AcDbDimension
  2
_D_8
 10
187.9095326161
 20
337.4740481648
 30
0.0
 11
224.0553446166
 21
337.4740481648
 31
0.0
 70
   160
  1
<>
 71
     2
 42
-1.0
  3
SLDDIMSTYLE0
100
AcDbAlignedDimension
 13
260.2011566171
 23
455.7565834883
 33
0.0
 14
187.9095326161
 24
441.7689125096
 34
0.0
100
AcDbRotatedDimension
  0
DIMENSION
  5
309
330
1F
100
AcDbEntity
  8
SLD-0
100
AcDbDimension
  2
_D_9
 10
293.5344901025
 20
452.7689125096
 30
0.0
 11
293.5344901025
 21
409.2689125096
 31
0.0
 70
   160
  1
<>
 71
     2
 42
-1.0
  3
SLDDIMSTYLE1
100
AcDbAlignedDimension
 13
238.359955565
 23
365.7689125096
 33
0.0
 14
198.9095326161
 24
452.7689125096
 34
0.0
 50
90.0
100
AcDbRotatedDimension
  0
DIMENSION
  5
31D
330
1F
100
AcDbEntity
  8
SLD-0
100
AcDbDimension
  2
_D_10
 10
343.7406394644
 20
365.7689125096
 30
0.0
 11
343.7406394644
 21
455.9189125096
 31
0.0
 70
   160
  1
<>
 71
     2
 42
-1.0
  3
SLDDIMSTYLE0
100
AcDbAlignedDimension
 13
237.6595326161
 23
546.0689125096
 33
0.0
 14
238.359955565
 24
365.7689125096
 34
0.0
 50
90.0
100
AcDbRotatedDimension
  0
DIMENSION
  5
331
330
1F
100
AcDbEntity
  8
SLD-0
100
AcDbDimension
  2
_D_11
 10
226.0686436076
 20
546.0689125096
 30
0.0
 11
57.4749396424
 21
423.6313740878
 31
0.0
 70
   162
  1
<>
 71
     1
 42
-1.0
  3
SLDDIMSTYLE3
100
AcDb2LineAngularDimension
 13
238.359955565
 23
365.7689125096
 33
0.0
 14
115.9313548655
 24
365.7689125096
 34
0.0
 15
78.2341542593
 25
506.4567804753
 35
0.0
 16
60.1269475019
 26
391.5805844208
 36
0.0
  0
MTEXT
  5
33D
330
1F
100
AcDbEntity
  8
SLD-0
100
AcDbMText
 10
104.1491456046
 20
299.9067463844
 30
0.0
 40
7.9375
 41
0.0
 71
     1
 72
     1
  1
DIMENSIONS TYP BOTH SIDES
  7
SLDTEXTSTYLE0
 73
     1
 44
1.0
  0
INSERT
  5
346
102
{ACAD_REACTORS
330
347
102
}
330
1F
100
AcDbEntity
  8
SLD-0
100
AcDbBlockReference
  2
SW_NOTE_0_3
 10
291.9280635717
 20
498.9544123798
 30
0.0
  0
LEADER
  5
347
330
1F
100
AcDbEntity
  8
SLD-0
100
AcDbLeader
  3
SLDDIMSTYLE2
 73
     2
 76
     3
 10
194.8306459501
 20
458.5220151697
 30
0.0
 10
285.2613969051
 20
498.9544123798
 30
0.0
 10
291.9280635717
 20
498.9544123798
 30
0.0
340
346
  0
INSERT
  5
353
330
1F
100
AcDbEntity
  8
SLD-0
100
AcDbBlockReference
  2
SW_CENTERMARKSYMBOL_2
 10
187.9095326161
 20
452.7689125096
 30
0.0
  0
ARC
  5
354
330
1F
100
AcDbEntity
  8
0
  6
Continuous
 62
     7
100
AcDbCircle
 10
1264.0199400961
 20
368.6041248544
 30
0.0
 40
4.499999999999957
100
AcDbArc
 50
165.0
 51
255.0
  0
ARC
  5
355
330
1F
100
AcDbEntity
  8
0
  6
Continuous
 62
     7
100
AcDbCircle
 10
1209.9280938239
 20
383.0979913801
 30
0.0
 40
4.500000000000107
100
AcDbArc
 50
255.0
 51
345.0
  0
ARC
  5
356
330
1F
100
AcDbEntity
  8
0
  6
Continuous
 62
     7
100
AcDbCircle
 10
1192.587217802
 20
318.3809610188
 30
0.0
 40
4.499999999999957
100
AcDbArc
 50
345.0
 51
75.0
  0
ARC
  5
357
330
1F
100
AcDbEntity
  8
0
  6
Continuous
 62
     7
100
AcDbCircle
 10
1246.6790640742
 20
303.887094493
 30
0.0
 40
4.500000000000107
100
AcDbArc
 50
75.0
 51
165.0
  0
LINE
  5
358
330
1F
100
AcDbEntity
  8
0
  6
Continuous
 62
     7
100
AcDbLine
 10
1260.3203214905
 20
372.1836251231
 30
0.0
 11
1259.6732738778
 21
369.7688105573
 31
0.0
  0
LINE
  5
359
330
1F
100
AcDbEntity
  8
0
  6
Continuous
 62
     7
100
AcDbLine
 10
1214.921807655
 20
384.3481202429
 30
0.0
 11
1260.3203214905
 21
372.1836251231
 31
0.0
  0
LINE
  5
35A
330
1F
100
AcDbEntity
  8
0
  6
Continuous
 62
     7
100
AcDbLine
 10
1206.3485935552
 20
379.3983727746
 30
0.0
 11
1191.3370889393
 21
323.3746748498
 31
0.0
  0
LINE
  5
35B
330
1F
100
AcDbEntity
  8
0
  6
Continuous
 62
     7
100
AcDbLine
 10
1196.2868364076
 20
314.8014607501
 30
0.0
 11
1241.6853502432
 21
302.6369656303
 31
0.0
  0
LINE
  5
35C
330
1F
100
AcDbEntity
  8
0
  6
Continuous
 62
     7
100
AcDbLine
 10
1265.2700689589
 20
363.6104110233
 30
0.0
 11
1250.2585643429
 21
307.5867130986
 31
0.0
  0
LINE
  5
35D
330
1F
100
AcDbEntity
  8
0
  6
Continuous
 62
     7
100
AcDbLine
 10
1265.2700689589
 20
363.6104110233
 30
0.0
 11
1262.8552543931
 21
364.2574586361
 31
0.0
  0
LINE
  5
35E
330
1F
100
AcDbEntity
  8
0
  6
Continuous
 62
     7
100
AcDbLine
 10
1214.921807655
 20
384.3481202429
 30
0.0
 11
1214.2747600422
 21
381.9333056772
 31
0.0
  0
LINE
  5
35F
330
1F
100
AcDbEntity
  8
0
  6
Continuous
 62
     7
100
AcDbLine
 10
1206.3485935552
 20
379.3983727746
 30
0.0
 11
1208.7634081209
 21
378.7513251618
 31
0.0
  0
LINE
  5
360
330
1F
100
AcDbEntity
  8
0
  6
Continuous
 62
     7
100
AcDbLine
 10
1191.3370889393
 20
323.3746748498
 30
0.0
 11
1193.751903505
 21
322.7276272371
 31
0.0
  0
LINE
  5
361
330
1F
100
AcDbEntity
  8
0
  6
Continuous
 62
     7
100
AcDbLine
 10
1196.2868364076
 20
314.8014607501
 30
0.0
 11
1196.9338840203
 21
317.2162753158
 31
0.0
  0
LINE
  5
362
330
1F
100
AcDbEntity
  8
0
  6
Continuous
 62
     7
100
AcDbLine
 10
1241.6853502432
 20
302.6369656303
 30
0.0
 11
1242.3323978559
 21
305.051780196
 31
0.0
  0
LINE
  5
363
330
1F
100
AcDbEntity
  8
0
  6
Continuous
 62
     7
100
AcDbLine
 10
1250.2585643429
 20
307.5867130986
 30
0.0
 11
1247.8437497772
 21
308.2337607113
 31
0.0
  0
LINE
  5
364
330
1F
100
AcDbEntity
  8
0
  6
Continuous
 62
     7
370
    25
100
AcDbLine
 10
1299.0245833179
 20
408.4462041878
 30
0.0
 11
1105.8394180601
 21
460.2100132083
 31
0.0
  0
LINE
  5
365
330
1F
100
AcDbEntity
  8
0
  6
Continuous
 62
     7
370
    25
100
AcDbLine
 10
1299.0245833179
 20
408.4462041878
 30
0.0
 11
1261.3273827116
 21
267.7583362221
 31
0.0
  0
LINE
  5
366
330
1F
100
AcDbEntity
  8
0
  6
Continuous
 62
     7
370
    25
100
AcDbLine
 10
1261.3273827116
 20
267.7583362221
 30
0.0
 11
1068.1422174538
 21
319.5221452426
 31
0.0
  0
LINE
  5
367
330
1F
100
AcDbEntity
  8
0
  6
Continuous
 62
     7
370
    25
100
AcDbLine
 10
1105.8394180601
 20
460.2100132083
 30
0.0
 11
1068.1422174538
 21
319.5221452426
 31
0.0
  0
CIRCLE
  5
368
330
1F
100
AcDbEntity
  8
0
  6
Continuous
 62
     7
370
    25
100
AcDbCircle
 10
1135.6727564414
 20
328.136239582
 30
0.0
 40
5.599999999999992
  0
CIRCLE
  5
369
330
1F
100
AcDbEntity
  8
0
  6
Continuous
 62
     7
370
    25
100
AcDbCircle
 10
1151.2018991476
 20
386.0917891593
 30
0.0
 40
5.599999999999937
  0
CIRCLE
  5
36A
330
1F
100
AcDbEntity
  8
0
  6
Continuous
 62
     7
370
    25
100
AcDbCircle
 10
1214.6490580739
 20
394.9213148642
 30
0.0
 40
4.39999999999998
  0
CIRCLE
  5
36B
330
1F
100
AcDbEntity
  8
0
  6
Continuous
 62
     7
370
    25
100
AcDbCircle
 10
1241.0658488915
 20
292.5975485003
 30
0.0
 40
4.39999999999992
  0
CIRCLE
  5
36C
330
1F
100
AcDbEntity
  8
0
  6
Continuous
 62
     7
370
    25
100
AcDbCircle
 10
1190.8377059245
 20
306.0561388456
 30
0.0
 40
4.399999999999925
  0
CIRCLE
  5
36D
330
1F
100
AcDbEntity
  8
0
  6
Continuous
 62
     7
370
    25
100
AcDbCircle
 10
1264.877201041
 20
381.4627245188
 30
0.0
 40
4.39999999999998
  0
ARC
  5
36E
330
1F
100
AcDbEntity
  8
0
  6
Continuous
 62
     7
370
    25
100
AcDbCircle
 10
1246.5864919985
 20
303.541610803
 30
0.0
 40
6.50000000000002
100
AcDbArc
 50
255.0
 51
345.0
  0
LINE
  5
36F
330
1F
100
AcDbEntity
  8
0
  6
Continuous
 62
     7
370
    25
100
AcDbLine
 10
1252.8650098694
 20
301.8592870098
 30
0.0
 11
1270.4647049363
 21
367.5422431975
 31
0.0
  0
ARC
  5
370
330
1F
100
AcDbEntity
  8
0
  6
Continuous
 62
     7
370
    25
100
AcDbCircle
 10
1264.1861870654
 20
369.2245669906
 30
0.0
 40
6.500000000000169
100
AcDbArc
 50
345.0
 51
75.0
  0
LINE
  5
371
330
1F
100
AcDbEntity
  8
0
  6
Continuous
 62
     7
370
    25
100
AcDbLine
 10
1265.8685108586
 20
375.5030848615
 30
0.0
 11
1210.8107387601
 21
390.2557704323
 31
0.0
  0
ARC
  5
372
330
1F
100
AcDbEntity
  8
0
  6
Continuous
 62
     7
370
    25
100
AcDbCircle
 10
1209.128414967
 20
383.9772525615
 30
0.0
 40
6.500000000000155
100
AcDbArc
 50
75.0
 51
165.0
  0
LINE
  5
373
330
1F
100
AcDbEntity
  8
0
  6
Continuous
 62
     7
370
    25
100
AcDbLine
 10
1202.8498970961
 20
385.6595763546
 30
0.0
 11
1185.2502020291
 21
319.976620167
 31
0.0
  0
ARC
  5
374
330
1F
100
AcDbEntity
  8
0
  6
Continuous
 62
     7
370
    25
100
AcDbCircle
 10
1191.5287199
 20
318.2942963738
 30
0.0
 40
6.500000000000015
100
AcDbArc
 50
165.0
 51
255.0
  0
LINE
  5
375
330
1F
100
AcDbEntity
  8
0
  6
Continuous
 62
     7
370
    25
100
AcDbLine
 10
1189.8463961068
 20
312.0157785029
 30
0.0
 11
1244.9041682053
 21
297.2630929321
 31
0.0
  0
LINE
  5
376
330
1F
100
AcDbEntity
  8
0
  6
Continuous
 62
     7
370
    25
100
AcDbLine
 10
1214.2747600422
 20
381.9333056772
 30
0.0
 11
1214.921807655
 21
384.3481202429
 31
0.0
  0
ARC
  5
377
330
1F
100
AcDbEntity
  8
0
  6
Continuous
 62
     7
370
    25
100
AcDbCircle
 10
1209.9280938239
 20
383.0979913801
 30
0.0
 40
4.500000000000071
100
AcDbArc
 50
255.0
 51
345.0
  0
LINE
  5
378
330
1F
100
AcDbEntity
  8
0
  6
Continuous
 62
     7
370
    25
100
AcDbLine
 10
1206.3485935552
 20
379.3983727746
 30
0.0
 11
1208.7634081209
 21
378.7513251618
 31
0.0
  0
LINE
  5
379
330
1F
100
AcDbEntity
  8
0
  6
Continuous
 62
     7
370
    25
100
AcDbLine
 10
1191.3370889393
 20
323.3746748498
 30
0.0
 11
1206.3485935552
 21
379.3983727746
 31
0.0
  0
LINE
  5
37A
330
1F
100
AcDbEntity
  8
0
  6
Continuous
 62
     7
370
    25
100
AcDbLine
 10
1193.751903505
 20
322.7276272371
 30
0.0
 11
1191.3370889393
 21
323.3746748498
 31
0.0
  0
ARC
  5
37B
330
1F
100
AcDbEntity
  8
0
  6
Continuous
 62
     7
370
    25
100
AcDbCircle
 10
1192.587217802
 20
318.3809610188
 30
0.0
 40
4.499999999999954
100
AcDbArc
 50
345.0
 51
75.0
  0
LINE
  5
37C
330
1F
100
AcDbEntity
  8
0
  6
Continuous
 62
     7
370
    25
100
AcDbLine
 10
1196.2868364076
 20
314.8014607501
 30
0.0
 11
1196.9338840203
 21
317.2162753158
 31
0.0
  0
LINE
  5
37D
330
1F
100
AcDbEntity
  8
0
  6
Continuous
 62
     7
370
    25
100
AcDbLine
 10
1241.6853502432
 20
302.6369656303
 30
0.0
 11
1196.2868364076
 21
314.8014607501
 31
0.0
  0
LINE
  5
37E
330
1F
100
AcDbEntity
  8
0
  6
Continuous
 62
     7
370
    25
100
AcDbLine
 10
1242.3323978559
 20
305.051780196
 30
0.0
 11
1241.6853502432
 21
302.6369656303
 31
0.0
  0
ARC
  5
37F
330
1F
100
AcDbEntity
  8
0
  6
Continuous
 62
     7
370
    25
100
AcDbCircle
 10
1246.6790640742
 20
303.887094493
 30
0.0
 40
4.500000000000107
100
AcDbArc
 50
75.0
 51
165.0
  0
LINE
  5
380
330
1F
100
AcDbEntity
  8
0
  6
Continuous
 62
     7
370
    25
100
AcDbLine
 10
1250.2585643429
 20
307.5867130986
 30
0.0
 11
1247.8437497772
 21
308.2337607113
 31
0.0
  0
LINE
  5
381
330
1F
100
AcDbEntity
  8
0
  6
Continuous
 62
     7
370
    25
100
AcDbLine
 10
1265.2700689589
 20
363.6104110233
 30
0.0
 11
1250.2585643429
 21
307.5867130986
 31
0.0
  0
LINE
  5
382
330
1F
100
AcDbEntity
  8
0
  6
Continuous
 62
     7
370
    25
100
AcDbLine
 10
1262.8552543931
 20
364.2574586361
 30
0.0
 11
1265.2700689589
 21
363.6104110233
 31
0.0
  0
ARC
  5
383
330
1F
100
AcDbEntity
  8
0
  6
Continuous
 62
     7
370
    25
100
AcDbCircle
 10
1264.0199400961
 20
368.6041248544
 30
0.0
 40
4.500000000000092
100
AcDbArc
 50
165.0
 51
255.0
  0
LINE
  5
384
330
1F
100
AcDbEntity
  8
0
  6
Continuous
 62
     7
370
    25
100
AcDbLine
 10
1260.3203214905
 20
372.1836251231
 30
0.0
 11
1259.6732738778
 21
369.7688105573
 31
0.0
  0
LINE
  5
385
330
1F
100
AcDbEntity
  8
0
  6
Continuous
 62
     7
370
    25
100
AcDbLine
 10
1214.921807655
 20
384.3481202429
 30
0.0
 11
1260.3203214905
 21
372.1836251231
 31
0.0
  0
CIRCLE
  5
386
330
1F
100
AcDbEntity
  8
0
  6
Continuous
 62
     7
370
    25
100
AcDbCircle
 10
1135.6727564414
 20
328.136239582
 30
0.0
 40
4.250000000000012
  0
CIRCLE
  5
387
330
1F
100
AcDbEntity
  8
0
  6
Continuous
 62
     7
370
    25
100
AcDbCircle
 10
1151.2018991476
 20
386.0917891593
 30
0.0
 40
4.249999999999954
  0
CIRCLE
  5
388
330
1F
100
AcDbEntity
  8
0
  6
Continuous
 62
     7
370
    25
100
AcDbCircle
 10
1241.0658488915
 20
292.5975485003
 30
0.0
 40
2.499999999999952
  0
CIRCLE
  5
389
330
1F
100
AcDbEntity
  8
0
  6
Continuous
 62
     7
370
    25
100
AcDbCircle
 10
1190.8377059245
 20
306.0561388456
 30
0.0
 40
2.500000000000007
  0
CIRCLE
  5
38A
330
1F
100
AcDbEntity
  8
0
  6
Continuous
 62
     7
370
    25
100
AcDbCircle
 10
1264.877201041
 20
381.4627245188
 30
0.0
 40
2.499999999999952
  0
CIRCLE
  5
38B
330
1F
100
AcDbEntity
  8
0
  6
Continuous
 62
     7
370
    25
100
AcDbCircle
 10
1214.6490580739
 20
394.9213148642
 30
0.0
 40
2.500000000000007
  0
LINE
  5
38C
330
1F
100
AcDbEntity
  8
0
  6
Continuous
 62
     7
370
    25
100
AcDbLine
 10
1067.6035445576
 20
290.4658674893
 30
0.0
 11
1066.7025370659
 21
287.1032617521
 31
0.0
  0
LINE
  5
38D
330
1F
100
AcDbEntity
  8
0
  6
Continuous
 62
     7
370
    25
100
AcDbLine
 10
1066.7025370659
 20
287.1032617521
 30
0.0
 11
1059.9410562819
 21
288.9149950678
 31
0.0
  0
LINE
  5
38E
330
1F
100
AcDbEntity
  8
0
  6
Continuous
 62
     7
370
    25
100
AcDbLine
 10
1253.1262215397
 20
237.1511860473
 30
0.0
 11
1246.3647407556
 21
238.962919363
 31
0.0
  0
LINE
  5
38F
330
1F
100
AcDbEntity
  8
0
  6
Continuous
 62
     7
370
    25
100
AcDbLine
 10
1246.3647407556
 20
238.962919363
 30
0.0
 11
1247.2657482474
 21
242.3255251002
 31
0.0
  0
LINE
  5
390
330
1F
100
AcDbEntity
  8
0
  6
Continuous
 62
     7
370
    25
100
AcDbLine
 10
1247.2657482474
 20
242.3255251002
 30
0.0
 11
1067.6035445576
 21
290.4658674893
 31
0.0
  0
LWPOLYLINE
  5
391
330
1F
100
AcDbEntity
  8
0
  6
Continuous
 62
     7
370
    25
100
AcDbPolyline
 90
       28
 70
   128
 43
0.0
 10
1163.3946229338
 20
288.6386315215
 10
1162.1370674638
 20
288.9351459053
 10
1160.9270838402
 20
289.1402007594
 10
1159.8299025934
 20
289.2427415238
 10
1158.9046730484
 20
289.2372401992
 10
1158.2012745694
 20
289.1239933635
 10
1157.7576275506
 20
288.9091061828
 10
1157.5976491175
 20
288.6041632808
 10
1157.7299637489
 20
288.2256042082
 10
1158.1474383288
 20
287.7938371825
 10
1158.8275666944
 20
287.332138876
 10
1159.7336829496
 20
286.8653995638
 10
1160.8169381325
 20
286.4187812831
 10
1162.0189336758
 20
286.0163613409
 10
1163.2748696886
 20
285.6798343005
 10
1164.5170383355
 20
285.4273424218
 10
1165.678473983
 20
285.2724976072
 10
1166.6965633349
 20
285.223647581
 10
1167.5164209307
 20
285.2834258605
 10
1168.093848035
 20
285.4486097833
 10
1168.3977154034
 20
285.7102942413
 10
1168.4116414673
 20
286.0543717577
 10
1168.134875469
 20
286.4622930245
 10
1167.5823379352
 20
286.9120669006
 10
1166.7838163072
 20
287.37944596
 10
1165.7823590927
 20
287.8392336765
 10
1164.6319551094
 20
288.2666427754
 10
1163.3946229338
 20
288.6386315215
  0
LWPOLYLINE
  5
392
330
1F
100
AcDbEntity
  8
0
  6
Continuous
 62
     7
370
    25
100
AcDbPolyline
 90
       28
 70
   128
 43
0.0
 10
1159.3753850474
 20
273.6386315215
 10
1158.1178295773
 20
273.9351459053
 10
1156.9078459537
 20
274.1402007594
 10
1155.8106647069
 20
274.2427415238
 10
1154.8854351619
 20
274.2372401992
 10
1154.182036683
 20
274.1239933635
 10
1153.7383896642
 20
273.9091061828
 10
1153.5784112311
 20
273.6041632808
 10
1153.7107258625
 20
273.2256042082
 10
1154.1282004423
 20
272.7938371825
 10
1154.808328808
 20
272.332138876
 10
1155.7144450632
 20
271.8653995638
 10
1156.7977002461
 20
271.4187812831
 10
1157.9996957894
 20
271.0163613409
 10
1159.2556318022
 20
270.6798343005
 10
1160.497800449
 20
270.4273424218
 10
1161.6592360966
 20
270.2724976072
 10
1162.6773254484
 20
270.223647581
 10
1163.4971830442
 20
270.2834258605
 10
1164.0746101486
 20
270.4486097833
 10
1164.378477517
 20
270.7102942413
 10
1164.3924035809
 20
271.0543717577
 10
1164.1156375826
 20
271.4622930245
 10
1163.5631000487
 20
271.9120669006
 10
1162.7645784207
 20
272.37944596
 10
1161.7631212062
 20
272.8392336765
 10
1160.6127172229
 20
273.2666427754
 10
1159.3753850474
 20
273.6386315215
  0
LINE
  5
393
330
1F
100
AcDbEntity
  8
0
  6
Continuous
 62
     7
370
    25
100
AcDbLine
 10
1068.1422174538
 20
319.5221452426
 30
0.0
 11
1059.9410562819
 21
288.9149950678
 31
0.0
  0
LINE
  5
394
330
1F
100
AcDbEntity
  8
0
  6
Continuous
 62
     7
370
    25
100
AcDbLine
 10
1261.3273827116
 20
267.7583362221
 30
0.0
 11
1253.1262215397
 21
237.1511860473
 31
0.0
  0
LWPOLYLINE
  5
395
330
1F
100
AcDbEntity
  8
0
  6
Continuous
 62
     7
370
    25
100
AcDbPolyline
 90
       13
 70
   128
 43
0.0
 10
1158.8190477038
 20
289.2303012573
 10
1158.8978827285
 20
289.0240023215
 10
1159.2674482816
 20
288.6277060164
 10
1159.9097466411
 20
288.2003298537
 10
1160.7810062353
 20
287.7709988128
 10
1161.8218521626
 20
287.3689710945
 10
1162.9613524931
 20
287.0216442234
 10
1164.1218521626
 20
286.7526879519
 10
1165.2242650362
 20
286.5804312053
 10
1166.1934634985
 20
286.5166129963
 10
1166.963398276
 20
286.5655824304
 10
1167.4815995859
 20
286.7240023215
 10
1167.6530221878
 20
286.8632449283
  0
LINE
  5
396
330
1F
100
AcDbEntity
  8
0
  6
Continuous
 62
     7
370
    25
100
AcDbLine
 10
1215.7571342519
 20
362.7379003905
 30
0.0
 11
1207.9331350589
 21
364.8343346558
 31
0.0
  0
LINE
  5
397
330
1F
100
AcDbEntity
  8
0
  6
Continuous
 62
     7
370
    25
100
AcDbLine
 10
1207.8683297572
 20
333.2964812052
 30
0.0
 11
1215.7571342519
 21
362.7379003905
 31
0.0
  0
LINE
  5
398
330
1F
100
AcDbEntity
  8
0
  6
Continuous
 62
     7
370
    25
100
AcDbLine
 10
1200.0443305642
 20
335.3929154705
 30
0.0
 11
1207.8683297572
 21
333.2964812052
 31
0.0
  0
LINE
  5
399
330
1F
100
AcDbEntity
  8
0
  6
Continuous
 62
     7
370
    25
100
AcDbLine
 10
1207.9331350589
 20
364.8343346558
 30
0.0
 11
1200.0443305642
 21
335.3929154705
 31
0.0
  0
LWPOLYLINE
  5
39A
330
1F
100
AcDbEntity
  8
0
  6
Continuous
 62
     7
370
    25
100
AcDbPolyline
 90
       13
 70
   128
 43
0.0
 10
1154.7998098174
 20
274.2303012573
 10
1154.878644842
 20
274.0240023215
 10
1155.2482103951
 20
273.6277060164
 10
1155.8905087546
 20
273.2003298537
 10
1156.7617683488
 20
272.7709988128
 10
1157.8026142761
 20
272.3689710945
 10
1158.9421146067
 20
272.0216442234
 10
1160.1026142761
 20
271.7526879519
 10
1161.2050271497
 20
271.5804312053
 10
1162.174225612
 20
271.5166129963
 10
1162.9441603895
 20
271.5655824304
 10
1163.4623616994
 20
271.7240023215
 10
1163.6337843013
 20
271.8632449283
  0
LINE
  5
39B
330
1F
100
AcDbEntity
  8
0
  6
Continuous
 62
     7
370
    25
100
AcDbLine
 10
1242.2572715387
 20
242.9521520805
 30
0.0
 11
1247.0869006701
 21
241.6580568549
 31
0.0
  0
LINE
  5
39C
330
1F
100
AcDbEntity
  8
0
  6
Continuous
 62
     7
370
    25
100
AcDbLine
 10
1072.2543261118
 20
288.5043040185
 30
0.0
 11
1242.2572715387
 21
242.9521520805
 31
0.0
  0
LINE
  5
39D
330
1F
100
AcDbEntity
  8
0
  6
Continuous
 62
     7
370
    25
100
AcDbLine
 10
1067.4246969803
 20
289.798399244
 30
0.0
 11
1072.2543261118
 21
288.5043040185
 31
0.0
  0
LINE
  5
39E
330
1F
100
AcDbEntity
  8
SLD-0
100
AcDbLine
 10
1151.2018991476
 20
386.0917891593
 30
0.0
 11
1135.6727564414
 21
328.136239582
 31
0.0
  0
DIMENSION
  5
39F
330
1F
100
AcDbEntity
  8
SLD-0
100
AcDbDimension
  2
_D_12
 10
1306.282653894
 20
435.5336923428
 30
0.0
 11
1337.2812646448
 21
427.2276396257
 31
0.0
 70
   160
  1
<>
 71
     2
 42
-1.0
  3
SLDDIMSTYLE4
100
AcDbAlignedDimension
 13
1270.4647049363
 23
367.5422431975
 33
0.0
 14
1299.0245833179
 24
408.4462041878
 34
0.0
 50
-15.0
100
AcDbRotatedDimension
  0
DIMENSION
  5
3B4
330
1F
100
AcDbEntity
  8
SLD-0
100
AcDbDimension
  2
_D_13
 10
1296.0493595251
 20
283.5587802212
 30
0.0
 11
1306.5315308518
 21
322.6787761859
 31
0.0
 70
   160
  1
<>
 71
     2
 42
-1.0
  3
SLDDIMSTYLE1
100
AcDbAlignedDimension
 13
1265.8685108586
 23
375.5030848615
 33
0.0
 14
1244.9041682053
 24
297.2630929321
 34
0.0
 50
75.0
100
AcDbRotatedDimension
  0
DIMENSION
  5
3C8
330
1F
100
AcDbEntity
  8
SLD-0
100
AcDbDimension
  2
_D_14
 10
1289.8496076931
 20
439.8876851856
 30
0.0
 11
1256.042203773
 21
448.9463517642
 31
0.0
 70
   160
  1
<>
 71
     2
 42
-1.0
  3
SLDDIMSTYLE1
100
AcDbAlignedDimension
 13
1202.8498970961
 23
385.6595763546
 33
0.0
 14
1270.4647049363
 24
367.5422431975
 34
0.0
 50
-15.0
100
AcDbRotatedDimension
  0
DIMENSION
  5
3DC
330
1F
100
AcDbEntity
  8
SLD-0
100
AcDbDimension
  2
_D_15
 10
1289.75201034
 20
260.141980204
 30
0.0
 11
1284.0118283624
 21
238.7193294189
 31
0.0
 70
   160
  1
<>
 71
     2
 42
-1.0
  3
SLDDIMSTYLE0
100
AcDbAlignedDimension
 13
1244.9041682053
 23
297.2630929321
 33
0.0
 14
1261.3273827116
 24
267.7583362221
 34
0.0
 50
75.0
100
AcDbRotatedDimension
  0
DIMENSION
  5
3F0
330
1F
100
AcDbEntity
  8
SLD-0
100
AcDbDimension
  2
_D_16
 10
1045.3747640009
 20
352.3315137345
 30
0.0
 11
1053.139335354
 21
381.3092885232
 31
0.0
 70
   160
  1
<>
 71
     2
 42
-1.0
  3
SLDDIMSTYLE1
100
AcDbAlignedDimension
 13
1143.8608628678
 23
388.0588139021
 33
0.0
 14
1128.3317201616
 24
330.1032643247
 34
0.0
 50
75.0
100
AcDbRotatedDimension
  0
DIMENSION
  5
404
330
1F
100
AcDbEntity
  8
SLD-0
100
AcDbDimension
  2
_D_17
 10
1112.9147868568
 20
486.61564904
 30
0.0
 11
1143.3414503849
 21
478.4628491193
 31
0.0
 70
   160
  1
<>
 71
     2
 42
-1.0
  3
SLDDIMSTYLE1
100
AcDbAlignedDimension
 13
1153.1689238903
 23
393.4328254391
 33
0.0
 14
1105.8394180601
 24
460.2100132083
 34
0.0
 50
-15.0
100
AcDbRotatedDimension
  0
DIMENSION
  5
418
330
1F
100
AcDbEntity
  8
SLD-0
100
AcDbDimension
  2
_D_18
 10
1038.4167827888
 20
327.4870514558
 30
0.0
 11
1032.5142916098
 21
305.4586544845
 31
0.0
 70
   160
  1
<>
 71
     2
 42
-1.0
  3
SLDDIMSTYLE0
100
AcDbAlignedDimension
 13
1128.3317201616
 23
330.1032643247
 33
0.0
 14
1068.1422174538
 24
319.5221452426
 34
0.0
 50
75.0
100
AcDbRotatedDimension
  0
MTEXT
  5
42C
330
1F
100
AcDbEntity
  8
SLD-0
100
AcDbMText
 10
1183.0651504516
 20
197.14046922
 30
0.0
 40
7.62
 41
0.0
 71
     2
 72
     1
  1
SECTION A-A
  7
SLDTEXTSTYLE0
 73
     1
 44
1.0
  0
INSERT
  5
435
102
{ACAD_REACTORS
330
436
102
}
330
1F
100
AcDbEntity
  8
SLD-0
100
AcDbBlockReference
  2
SW_NOTE_0_4
 10
1062.3170221665
 20
248.8498536177
 30
0.0
  0
LEADER
  5
436
330
1F
100
AcDbEntity
  8
SLD-0
100
AcDbLeader
  3
SLDDIMSTYLE2
 73
     2
 76
     3
 10
1130.8513469615
 20
325.287729335
 30
0.0
 10
1068.9836888331
 20
248.8498536177
 30
0.0
 10
1062.3170221665
 20
248.8498536177
 30
0.0
340
435
  0
MTEXT
  5
437
330
1F
100
AcDbEntity
  8
SLD-0
100
AcDbMText
 10
1026.3627290532
 20
252.2353410883
 30
0.0
 40
7.9375
 41
0.0
 71
     1
 72
     1
  1
2X
  7
SLDTEXTSTYLE0
 73
     1
 44
1.0
  0
INSERT
  5
443
330
1F
100
AcDbEntity
  8
SLD-0
100
AcDbBlockReference
  2
SW_CENTERMARKSYMBOL_3
 10
1151.2018991476
 20
386.0917891593
 30
0.0
  0
INSERT
  5
44F
330
1F
100
AcDbEntity
  8
SLD-0
100
AcDbBlockReference
  2
SW_CENTERMARKSYMBOL_4
 10
1135.6727564414
 20
328.136239582
 30
0.0
  0
LINE
  5
450
330
1F
100
AcDbEntity
  8
0
  6
Continuous
 62
     7
370
    25
100
AcDbLine
 10
876.166459119
 20
884.7779592137
 30
0.0
 11
877.3255701105
 21
884.4673763595
 31
0.0
  0
LINE
  5
451
330
1F
100
AcDbEntity
  8
0
  6
Continuous
 62
     7
370
    25
100
AcDbLine
 10
877.9781924347
 20
891.5394399977
 30
0.0
 11
876.166459119
 21
884.7779592137
 31
0.0
  0
LINE
  5
452
330
1F
100
AcDbEntity
  8
0
  6
Continuous
 62
     7
370
    25
100
AcDbLine
 10
877.9781924347
 20
891.5394399977
 30
0.0
 11
1025.812681783
 21
851.9273079633
 31
0.0
  0
LINE
  5
453
330
1F
100
AcDbEntity
  8
0
  6
Continuous
 62
     7
370
    25
100
AcDbLine
 10
1025.812681783
 20
851.9273079633
 30
0.0
 11
974.0488727625
 21
658.7421427055
 31
0.0
  0
LINE
  5
454
330
1F
100
AcDbEntity
  8
0
  6
Continuous
 62
     7
370
    25
100
AcDbLine
 10
826.2143834142
 20
698.3542747399
 30
0.0
 11
974.0488727625
 21
658.7421427055
 31
0.0
  0
LINE
  5
455
330
1F
100
AcDbEntity
  8
0
  6
Continuous
 62
     7
370
    25
100
AcDbLine
 10
828.0261167299
 20
705.1157555239
 30
0.0
 11
826.2143834142
 21
698.3542747399
 31
0.0
  0
LINE
  5
456
330
1F
100
AcDbEntity
  8
0
  6
Continuous
 62
     7
370
    25
100
AcDbLine
 10
829.1852277214
 20
704.8051726698
 30
0.0
 11
828.0261167299
 21
705.1157555239
 31
0.0
  0
LINE
  5
457
330
1F
100
AcDbEntity
  8
0
  6
Continuous
 62
     7
370
    25
100
AcDbLine
 10
829.1852277214
 20
704.8051726698
 30
0.0
 11
877.3255701105
 21
884.4673763595
 31
0.0
  0
CIRCLE
  5
458
330
1F
100
AcDbEntity
  8
0
  6
Continuous
 62
     7
370
    25
100
AcDbCircle
 10
914.9293045593
 20
778.1108013034
 30
0.0
 40
5.600000000000022
  0
CIRCLE
  5
459
330
1F
100
AcDbEntity
  8
0
  6
Continuous
 62
     7
370
    25
100
AcDbCircle
 10
972.8848541367
 20
762.5816585973
 30
0.0
 40
5.599999999999992
  0
CIRCLE
  5
45A
330
1F
100
AcDbEntity
  8
0
  6
Continuous
 62
     7
370
    25
100
AcDbCircle
 10
972.8848541367
 20
762.5816585973
 30
0.0
 40
4.250000000000123
  0
CIRCLE
  5
45B
330
1F
100
AcDbEntity
  8
0
  6
Continuous
 62
     7
370
    25
100
AcDbCircle
 10
914.9293045593
 20
778.1108013034
 30
0.0
 40
4.249999999999873
  0
LINE
  5
45C
330
1F
100
AcDbEntity
  8
0
  6
Continuous
 62
     7
370
    25
100
AcDbLine
 10
865.3520124479
 20
887.6756814658
 30
0.0
 11
867.1637457636
 21
894.4371622498
 31
0.0
  0
LINE
  5
45D
330
1F
100
AcDbEntity
  8
0
  6
Continuous
 62
     7
370
    25
100
AcDbLine
 10
865.3520124479
 20
887.6756814658
 30
0.0
 11
876.166459119
 21
884.7779592137
 31
0.0
  0
LINE
  5
45E
330
1F
100
AcDbEntity
  8
0
  6
Continuous
 62
     7
370
    25
100
AcDbLine
 10
877.9781924347
 20
891.5394399977
 30
0.0
 11
867.1637457636
 21
894.4371622498
 31
0.0
  0
LINE
  5
45F
330
1F
100
AcDbEntity
  8
0
  6
Continuous
 62
     7
370
    25
100
AcDbLine
 10
815.3999367431
 20
701.251996992
 30
0.0
 11
817.2116700588
 21
708.013477776
 31
0.0
  0
LINE
  5
460
330
1F
100
AcDbEntity
  8
0
  6
Continuous
 62
     7
370
    25
100
AcDbLine
 10
817.2116700588
 20
708.013477776
 30
0.0
 11
828.0261167299
 21
705.1157555239
 31
0.0
  0
LINE
  5
461
330
1F
100
AcDbEntity
  8
0
  6
Continuous
 62
     7
370
    25
100
AcDbLine
 10
826.2143834142
 20
698.3542747399
 30
0.0
 11
815.3999367431
 21
701.251996992
 31
0.0
  0
LINE
  5
462
330
1F
100
AcDbEntity
  8
0
  6
Continuous
 62
     7
370
    25
100
AcDbLine
 10
819.9055248107
 20
712.4680424728
 30
0.0
 11
818.6114295852
 21
707.6384133413
 31
0.0
  0
LINE
  5
463
330
1F
100
AcDbEntity
  8
0
  6
Continuous
 62
     7
370
    25
100
AcDbLine
 10
865.4576767488
 20
882.4709878996
 30
0.0
 11
819.9055248107
 21
712.4680424728
 31
0.0
  0
LINE
  5
464
330
1F
100
AcDbEntity
  8
0
  6
Continuous
 62
     7
370
    25
100
AcDbLine
 10
866.7517719743
 20
887.3006170311
 30
0.0
 11
865.4576767488
 21
882.4709878996
 31
0.0
  0
LINE
  5
465
330
1F
100
AcDbEntity
  8
0
  6
Continuous
 62
     7
370
    25
100
AcDbLine
 10
856.734229369
 20
897.2317427452
 30
0.0
 11
854.9224960532
 21
890.4702619612
 31
0.0
  0
LINE
  5
466
330
1F
100
AcDbEntity
  8
0
  6
Continuous
 62
     7
370
    25
100
AcDbLine
 10
865.3520124479
 20
887.6756814658
 30
0.0
 11
854.9224960532
 21
890.4702619612
 31
0.0
  0
LINE
  5
467
330
1F
100
AcDbEntity
  8
0
  6
Continuous
 62
     7
370
    25
100
AcDbLine
 10
867.1637457636
 20
894.4371622498
 30
0.0
 11
856.734229369
 21
897.2317427452
 31
0.0
  0
LINE
  5
468
330
1F
100
AcDbEntity
  8
0
  6
Continuous
 62
     7
370
    25
100
AcDbLine
 10
806.7821536642
 20
710.8080582714
 30
0.0
 11
804.9704203485
 21
704.0465774874
 31
0.0
  0
LINE
  5
469
330
1F
100
AcDbEntity
  8
0
  6
Continuous
 62
     7
370
    25
100
AcDbLine
 10
806.7821536642
 20
710.8080582714
 30
0.0
 11
817.2116700588
 21
708.013477776
 31
0.0
  0
LINE
  5
46A
330
1F
100
AcDbEntity
  8
0
  6
Continuous
 62
     7
370
    25
100
AcDbLine
 10
815.3999367431
 20
701.251996992
 30
0.0
 11
804.9704203485
 21
704.0465774874
 31
0.0
  0
LINE
  5
46B
330
1F
100
AcDbEntity
  8
0
  6
Continuous
 62
     7
370
    25
100
AcDbLine
 10
856.4764329645
 20
884.8775049186
 30
0.0
 11
865.4576767488
 21
882.4709878996
 31
0.0
  0
LINE
  5
46C
330
1F
100
AcDbEntity
  8
0
  6
Continuous
 62
     7
370
    25
100
AcDbLine
 10
856.4764329645
 20
884.8775049186
 30
0.0
 11
857.77052819
 21
889.7071340501
 31
0.0
  0
LINE
  5
46D
330
1F
100
AcDbEntity
  8
0
  6
Continuous
 62
     7
370
    25
100
AcDbLine
 10
810.9242810265
 20
714.8745594918
 30
0.0
 11
809.630185801
 21
710.0449303603
 31
0.0
  0
LINE
  5
46E
330
1F
100
AcDbEntity
  8
0
  6
Continuous
 62
     7
370
    25
100
AcDbLine
 10
810.9242810265
 20
714.8745594918
 30
0.0
 11
819.9055248107
 21
712.4680424728
 31
0.0
  0
LINE
  5
46F
330
1F
100
AcDbEntity
  8
SLD-0
100
AcDbLine
 10
972.8848541367
 20
762.5816585973
 30
0.0
 11
914.9293045593
 21
778.1108013034
 31
0.0
  0
DIMENSION
  5
470
330
1F
100
AcDbEntity
  8
SLD-0
100
AcDbDimension
  2
_D_19
 10
940.1862777481
 20
640.5489101798
 30
0.0
 11
997.7363473927
 21
625.1284154942
 31
0.0
 70
   160
  1
<>
 71
     2
 42
-1.0
  3
SLDDIMSTYLE1
100
AcDbAlignedDimension
 13
974.0488727625
 23
658.7421427055
 33
0.0
 14
970.9178293939
 24
755.2406223175
 34
0.0
 50
-15.0
100
AcDbRotatedDimension
  0
DIMENSION
  5
484
330
1F
100
AcDbEntity
  8
SLD-0
100
AcDbDimension
  2
_D_20
 10
882.2630869037
 20
656.1988173216
 30
0.0
 11
843.7036134124
 21
666.5307971042
 31
0.0
 70
   160
  1
<>
 71
     2
 42
-1.0
  3
SLDDIMSTYLE1
100
AcDbAlignedDimension
 13
970.9178293939
 23
755.2406223175
 33
0.0
 14
912.9622798166
 24
770.7697650236
 34
0.0
 50
-15.0
100
AcDbRotatedDimension
  0
DIMENSION
  5
498
330
1F
100
AcDbEntity
  8
SLD-0
100
AcDbDimension
  2
_D_21
 10
1007.8167846636
 20
649.6940579815
 30
0.0
 11
1020.7577369187
 21
697.990349296
 31
0.0
 70
   160
  1
<>
 71
     2
 42
-1.0
  3
SLDDIMSTYLE1
100
AcDbAlignedDimension
 13
980.2258904165
 23
760.6146338545
 33
0.0
 14
974.0488727625
 24
658.7421427055
 34
0.0
 50
75.0
100
AcDbRotatedDimension
  0
MTEXT
  5
4AC
330
1F
100
AcDbEntity
  8
SLD-0
100
AcDbMText
 10
921.5397664664
 20
608.0145064905
 30
0.0
 40
7.62
 41
0.0
 71
     2
 72
     1
  1
SECTION G-G
  7
SLDTEXTSTYLE0
 73
     1
 44
1.0
  0
INSERT
  5
4B5
102
{ACAD_REACTORS
330
4B6
102
}
330
1F
100
AcDbEntity
  8
SLD-0
100
AcDbBlockReference
  2
SW_NOTE_0_5
 10
813.8854035968
 20
839.8159765788
 30
0.0
  0
LEADER
  5
4B6
330
1F
100
AcDbEntity
  8
SLD-0
100
AcDbLeader
  3
SLDDIMSTYLE2
 73
     2
 76
     3
 10
911.9012647475
 20
782.8215310662
 30
0.0
 10
820.5520702635
 20
839.8159765788
 30
0.0
 10
813.8854035968
 20
839.8159765788
 30
0.0
340
4B5
  0
MTEXT
  5
4B7
330
1F
100
AcDbEntity
  8
SLD-0
100
AcDbMText
 10
778.4758957898
 20
843.5194579605
 30
0.0
 40
7.9375
 41
0.0
 71
     1
 72
     1
  1
2X
  7
SLDTEXTSTYLE0
 73
     1
 44
1.0
  0
INSERT
  5
4C3
330
1F
100
AcDbEntity
  8
SLD-0
100
AcDbBlockReference
  2
SW_CENTERMARKSYMBOL_5
 10
972.8848541367
 20
762.5816585973
 30
0.0
  0
INSERT
  5
4CF
330
1F
100
AcDbEntity
  8
SLD-0
100
AcDbBlockReference
  2
SW_CENTERMARKSYMBOL_6
 10
914.9293045593
 20
778.1108013034
 30
0.0
  0
OLE2FRAME
  5
4D0
330
1F
100
AcDbEntity
  8
0
100
AcDbOle2Frame
 70
     2
  3
Picture (Enhanced Metafile)
 10
22.3412260288
 20
51.8893936396
 30
0.0
 11
146.3826018853
 21
25.565500371
 31
0.0
 71
     3
 72
     0
 73
     1
 90
     5248
310
80556C2BCA965A573640F1BB99A6D7F149400000000000000000D21B4F463E4C
310
6240F1BB99A6D7F149400000000000000000D21B4F463E4C62405F79DFA1C490
310
394000000000000000006C2BCA965A5736405F79DFA1C4903940000000000000
310
0000000000000100000000010000010000000100000000000100000000140000
310
D0CF11E0A1B11AE1000000000000000000000000000000003E000300FEFF0900
310
0600000000000000000000000100000001000000000000000010000002000000
310
01000000FEFFFFFF0000000000000000FFFFFFFFFFFFFFFFFFFFFFFFFFFFFFFF
310
FFFFFFFFFFFFFFFFFFFFFFFFFFFFFFFFFFFFFFFFFFFFFFFFFFFFFFFFFFFFFFFF
310
FFFFFFFFFFFFFFFFFFFFFFFFFFFFFFFFFFFFFFFFFFFFFFFFFFFFFFFFFFFFFFFF
310
FFFFFFFFFFFFFFFFFFFFFFFFFFFFFFFFFFFFFFFFFFFFFFFFFFFFFFFFFFFFFFFF
310
FFFFFFFFFFFFFFFFFFFFFFFFFFFFFFFFFFFFFFFFFFFFFFFFFFFFFFFFFFFFFFFF
310
FFFFFFFFFFFFFFFFFFFFFFFFFFFFFFFFFFFFFFFFFFFFFFFFFFFFFFFFFFFFFFFF
310
FFFFFFFFFFFFFFFFFFFFFFFFFFFFFFFFFFFFFFFFFFFFFFFFFFFFFFFFFFFFFFFF
310
FFFFFFFFFFFFFFFFFFFFFFFFFFFFFFFFFFFFFFFFFFFFFFFFFFFFFFFFFFFFFFFF
310
FFFFFFFFFFFFFFFFFFFFFFFFFFFFFFFFFFFFFFFFFFFFFFFFFFFFFFFFFFFFFFFF
310
FFFFFFFFFFFFFFFFFFFFFFFFFFFFFFFFFFFFFFFFFFFFFFFFFFFFFFFFFFFFFFFF
310
FFFFFFFFFFFFFFFFFFFFFFFFFFFFFFFFFFFFFFFFFFFFFFFFFFFFFFFFFFFFFFFF
310
FFFFFFFFFFFFFFFFFFFFFFFFFFFFFFFFFFFFFFFFFFFFFFFFFFFFFFFFFFFFFFFF
310
FFFFFFFFFFFFFFFFFFFFFFFFFFFFFFFFFFFFFFFFFFFFFFFFFFFFFFFFFFFFFFFF
310
FFFFFFFFFFFFFFFFFFFFFFFFFFFFFFFFFFFFFFFFFFFFFFFFFFFFFFFFFFFFFFFF
310
FDFFFFFFFEFFFFFFFEFFFFFF0400000005000000060000000700000008000000
310
FEFFFFFFFFFFFFFFFFFFFFFFFFFFFFFFFFFFFFFFFFFFFFFFFFFFFFFFFFFFFFFF
310
FFFFFFFFFFFFFFFFFFFFFFFFFFFFFFFFFFFFFFFFFFFFFFFFFFFFFFFFFFFFFFFF
310
FFFFFFFFFFFFFFFFFFFFFFFFFFFFFFFFFFFFFFFFFFFFFFFFFFFFFFFFFFFFFFFF
310
FFFFFFFFFFFFFFFFFFFFFFFFFFFFFFFFFFFFFFFFFFFFFFFFFFFFFFFFFFFFFFFF
310
FFFFFFFFFFFFFFFFFFFFFFFFFFFFFFFFFFFFFFFFFFFFFFFFFFFFFFFFFFFFFFFF
310
FFFFFFFFFFFFFFFFFFFFFFFFFFFFFFFFFFFFFFFFFFFFFFFFFFFFFFFFFFFFFFFF
310
FFFFFFFFFFFFFFFFFFFFFFFFFFFFFFFFFFFFFFFFFFFFFFFFFFFFFFFFFFFFFFFF
310
FFFFFFFFFFFFFFFFFFFFFFFFFFFFFFFFFFFFFFFFFFFFFFFFFFFFFFFFFFFFFFFF
310
FFFFFFFFFFFFFFFFFFFFFFFFFFFFFFFFFFFFFFFFFFFFFFFFFFFFFFFFFFFFFFFF
310
FFFFFFFFFFFFFFFFFFFFFFFFFFFFFFFFFFFFFFFFFFFFFFFFFFFFFFFFFFFFFFFF
310
FFFFFFFFFFFFFFFFFFFFFFFFFFFFFFFFFFFFFFFFFFFFFFFFFFFFFFFFFFFFFFFF
310
FFFFFFFFFFFFFFFFFFFFFFFFFFFFFFFFFFFFFFFFFFFFFFFFFFFFFFFFFFFFFFFF
310
FFFFFFFFFFFFFFFFFFFFFFFFFFFFFFFFFFFFFFFFFFFFFFFFFFFFFFFFFFFFFFFF
310
FFFFFFFFFFFFFFFFFFFFFFFFFFFFFFFFFFFFFFFFFFFFFFFFFFFFFFFFFFFFFFFF
310
FFFFFFFFFFFFFFFFFFFFFFFFFFFFFFFFFFFFFFFFFFFFFFFFFFFFFFFFFFFFFFFF
310
52006F006F007400200045006E00740072007900000000000000000000000000
310
0000000000000000000000000000000000000000000000000000000000000000
310
16000500FFFFFFFFFFFFFFFF020000001903000000000000C000000000000046
310
00000000000000000000000020CC3E04B5B2DA0103000000000C000000000000
310
01004F006C006500000000000000000000000000000000000000000000000000
310
0000000000000000000000000000000000000000000000000000000000000000
310
0A000200FFFFFFFFFFFFFFFFFFFFFFFF00000000000000000000000000000000
310
0000000000000000000000000000000000000000000000001400000000000000
310
010043006F006D0070004F0062006A0000000000000000000000000000000000
310
0000000000000000000000000000000000000000000000000000000000000000
310
120002010100000003000000FFFFFFFF00000000000000000000000000000000
310
0000000000000000000000000000000000000000010000005800000000000000
310
43004F004E00540045004E005400530000000000000000000000000000000000
310
0000000000000000000000000000000000000000000000000000000000000000
310
12000200FFFFFFFFFFFFFFFFFFFFFFFF00000000000000000000000000000000
310
000000000000000000000000000000000000000003000000040B000000000000
310
FEFFFFFF02000000FEFFFFFF0400000005000000060000000700000008000000
310
090000000A0000000B0000000C0000000D0000000E0000000F00000010000000
310
1100000012000000130000001400000015000000160000001700000018000000
310
190000001A0000001B0000001C0000001D0000001E0000001F00000020000000
310
2100000022000000230000002400000025000000260000002700000028000000
310
290000002A0000002B0000002C0000002D0000002E0000002F000000FEFFFFFF
310
FFFFFFFFFFFFFFFFFFFFFFFFFFFFFFFFFFFFFFFFFFFFFFFFFFFFFFFFFFFFFFFF
310
FFFFFFFFFFFFFFFFFFFFFFFFFFFFFFFFFFFFFFFFFFFFFFFFFFFFFFFFFFFFFFFF
310
FFFFFFFFFFFFFFFFFFFFFFFFFFFFFFFFFFFFFFFFFFFFFFFFFFFFFFFFFFFFFFFF
310
FFFFFFFFFFFFFFFFFFFFFFFFFFFFFFFFFFFFFFFFFFFFFFFFFFFFFFFFFFFFFFFF
310
FFFFFFFFFFFFFFFFFFFFFFFFFFFFFFFFFFFFFFFFFFFFFFFFFFFFFFFFFFFFFFFF
310
FFFFFFFFFFFFFFFFFFFFFFFFFFFFFFFFFFFFFFFFFFFFFFFFFFFFFFFFFFFFFFFF
310
FFFFFFFFFFFFFFFFFFFFFFFFFFFFFFFFFFFFFFFFFFFFFFFFFFFFFFFFFFFFFFFF
310
FFFFFFFFFFFFFFFFFFFFFFFFFFFFFFFFFFFFFFFFFFFFFFFFFFFFFFFFFFFFFFFF
310
FFFFFFFFFFFFFFFFFFFFFFFFFFFFFFFFFFFFFFFFFFFFFFFFFFFFFFFFFFFFFFFF
310
FFFFFFFFFFFFFFFFFFFFFFFFFFFFFFFFFFFFFFFFFFFFFFFFFFFFFFFFFFFFFFFF
310
0100000200000000000000000000000000000000000000000000000000000000
310
0000000000000000000000000000000000000000000000000000000000000000
310
0100FEFF030A0000FFFFFFFF1903000000000000C0000000000000461C000000
310
506963747572652028456E68616E636564204D65746166696C652900FFFFFFFF
310
0E00000000000000F439B2710000000000000000000000000000000000000000
310
0000000000000000000000000000000000000000000000000000000000000000
310
74000000010000006C000000FD0A000094000000870B0000B200000062570100
310
111200003B680100BB15000020454D46000001008C0A00003800000003000000
310
0D0000005800000000000000000400000003000040010000F000000041006400
310
6F00620065002000530079007300740000000000000000000100000074000000
310
FD0A000094000000870B0000B200000062570100111200003B680100BB150000
310
20454D46000001008C0A000038000000030000000D0000005800000000000000
310
000400000003000040010000F0000000410064006F0062006500200053007900
310
7300740065006D0073000000110000000C00000008000000120000000C000000
310
010000000A0000001000000000000000000000000C0000001000000000000000
310
000000000900000010000000D7040000110100000B000000100000009D010000
310
5B000000130000000C0000000200000027000000180000000100000000000000
310
0000000000000000250000000C000000010000005F0000003400000002000000
310
2C000000000000002C0000000000000005000000000000000000000000000000
310
0000000000000000250000000C000000020000003B000000080000001B000000
310
100000003D210000F20100005800000048010000FC0A000093000000190B0000
310
B30000004B0000004921F9014921F9014921F9014921DA014921DA014921DA01
310
4921D5014621D0014221CD012821BE012821BE012821BE012321BB011D21BB01
310
1821BE01FE20CD01FE20CD01FE20CD01FA20D001F720D501F720DA01F720F801
310
F720F801F720F801F720FE01FA200302FE200602182115021821150218211502
310
1D21170223211702282115024321050243210502432105023721FE013721FE01
310
3721FE013521FD013521FD013521FD0122210902222109022221090221210902
310
1F2109021E2109020621FA010621FA010621FA010521FA010421F9010421F701
310
0421DB010421DB010421DB010421DA010521D9010621D8011E21CA011E21CA01
310
1E21CA011F21CA012121CA012221CA013A21D8013A21D8013A21D8013B21D901
310
3C21DA013C21DB013C21F2013C21F2013C21F2013D000000080000003C000000
310
080000003E000000180000009F8601009F8601006179FEFF6179FEFF13000000
310
0C000000020000003B000000080000001B000000100000002F210000E4010000
310
58000000C4000000050B00009D000000100B0000A90000002A0000002F21EF01
310
2F21EF012F21EF012F21F1012E21F2012C21F3012321F9012321F9012321F901
310
2221FA012121FA012021FA011F21FA011E21FA011D21F9011421F4011421F401
310
1421F4011221F3011121F1011121EF011121E4011121E4011121E4011121E201
310
1221E0011321DF011D21DA011D21DA011D21DA011E21D9011F21D9012021D901
310
2121D9012221D9012321DA012C21DF012C21DF012C21DF012E21E0012F21E201
310
2F21E4013D000000080000003C000000080000003E000000180000009F860100
310
9F8601006179FEFF6179FEFF130000000C000000020000005B00000038000000
310
3D0B0000A3000000430B0000A6000000010000000500000005000000B821F001
310
C821F001C821EB01B821EB01B821F001130000000C000000020000003B000000
310
080000001B0000001000000004220000E70100005800000084010000450B0000
310
9B000000590B0000AA0000005A0000000122E601FD21E501F621E501E421E501
310
E421E501E421E501D921E501D921E301D921E001D921DD01DA21DB01DC21DA01
310
DE21DA01E221D901E921D901EF21D901EF21D901EF21D9010022D9010022DB01
310
0022E0010022E1010022E1010022E1010722E1010722E1010722E1010722DF01
310
0722DF010722DF010722DB010622D8010322D6010022D401FB21D401F321D401
310
E521D401E521D401E521D401D921D401D121D601D121DF01D121E501D321E801
310
D721E901DB21EB01E221EB01EC21EB01F821EB01F821EB01F821EB010022EB01
310
0122ED010122F1010122F5010022F701F621F701E221F701E221F701E221F701
310
DA21F701D921F501D921F201D921EF01D921EF01D921EF01D121EF01D121EF01
310
D121EF01D121F201D121F201D121F201D121FC01DB21FD01E421FD01F521FD01
310
F521FD01F521FD01F921FD01FE21FD010222FB010622FA010922F6010922F201
310
0922EF010922EF010922EF010922EC010722E9010422E7013C00000008000000
310
3E000000180000009F8601009F8601006179FEFF6179FEFF130000000C000000
310
020000005B0000004C000000590B00009B0000006F0B0000AA00000001000000
310
0A0000000A0000002C22E6011722D4010C22D4012822EC012822FC013022FC01
310
3022EC014C22D4014122D4012C22E601130000000C000000020000003B000000
310
080000001B0000001000000082220000E701000058000000780100006F0B0000
310
9B000000830B0000AA000000570000007F22E6017B22E5017422E5016122E501
310
6122E5016122E5015722E5015722E3015722E0015722DB015822D9016622D901
310
6D22D9016D22D9016D22D9017E22D9017E22DB017E22E0017E22E1017E22E101
310
7E22E1018522E1018522E1018522E1018522DF018522DF018522DF018522DB01
310
8422D8018122D6017E22D4017922D4017122D4016322D4016322D4016322D401
310
5722D4014F22D6014F22DF014F22E5015122E8015522E9015922EB015F22EB01
310
6A22EB017622EB017622EB017622EB017E22EB017F22ED017F22F1017F22F501
310
7D22F7017422F7016022F7016022F7016022F7015822F7015722F5015722F201
310
5722EF015722EF015722EF014F22EF014F22EF014F22EF014F22F2014F22F201
310
4F22F2014F22FC015822FD016122FD017322FD017322FD017322FD017722FD01
310
7C22FD018022FB018422FA018622F6018622F2018622EF018622EF018622EF01
310
8622EC018522E9018222E7013C000000080000003E000000180000009F860100
310
9F8601006179FEFF6179FEFF130000000C000000020000005B00000038000000
310
300B0000A6000000340B0000AC00000001000000050000000500000093210202
310
9A2102029A21F3019321F30193210202130000000C000000020000003B000000
310
080000001B000000100000009B210000D40100005800000018010000240B0000
310
9B0000003A0B0000AA0000003F0000008021D4018021D4018021D4017421D401
310
6F21D8016F21E3016F21EE016F21EE016F21EE016F21F8017421FD018021FD01
310
8F21FD018F21FD018F21FD018F21F7018F21F7018F21F7018121F7018121F701
310
8121F7017921F7017621F5017621F0017621E1017621E1017621E1017621DC01
310
7921D9018121D9019A21D9019A21D9019A21D901A121D901A421DC01A421E101
310
A421F001A421F001A421F001A421F401A321F6019E21F7019E21F7019E21F701
310
9E21F7019E21FD019E21FD019E21FD019F21FD019F21FD019F21FD01A421FC01
310
A721FB01A921F801AB21F601AC21F201AC21EE01AC21E301AC21E301AC21E301
310
AC21D801A721D4019B21D4013C000000080000003E000000180000009F860100
310
9F8601006179FEFF6179FEFF130000000C000000020000005B0000006C000000
310
840B00009B000000870B00009F0000000100000012000000120000009222D401
310
9122D8019022D4018E22D4018E22DA018F22DA018F22D6018F22D5019022D601
310
9122DA019122DA019222D6019322D5019322D6019322DA019422DA019422D401
310
9222D401130000000C000000020000005B00000048000000830B00009B000000
310
850B00009F0000000100000009000000090000008A22D5018B22D5018B22DA01
310
8C22DA018C22D5018E22D5018E22D4018A22D4018A22D501280000000C000000
310
01000000280000000C000000020000000E000000140000000000000010000000
310
1400000000000000000000000000000000000000000000000000000000000000
310
0000000000000000000000000000000000000000000000000000000000000000
  1
OLE
  0
ENDSEC
  0
SECTION
  2
OBJECTS
  0
DICTIONARY
  5
C
330
0
100
AcDbDictionary
281
     1
  3
ACAD_GROUP
350
D
  3
ACAD_LAYOUT
350
1A
  3
ACAD_MLINESTYLE
350
17
  3
ACAD_PLOTSETTINGS
350
19
  3
ACAD_PLOTSTYLENAME
350
E
  3
ACAD_SCALELIST
350
47
  3
DWGPROPS
350
4D1
  0
DICTIONARY
  5
D
102
{ACAD_REACTORS
330
C
102
}
330
C
100
AcDbDictionary
281
     1
  0
DICTIONARY
  5
1A
102
{ACAD_REACTORS
330
C
102
}
330
C
100
AcDbDictionary
281
     1
  3
Layout1
350
1E
  3
Layout2
350
26
  3
Model
350
22
  0
DICTIONARY
  5
17
102
{ACAD_REACTORS
330
C
102
}
330
C
100
AcDbDictionary
281
     1
  3
Standard
350
18
  0
DICTIONARY
  5
19
102
{ACAD_REACTORS
330
C
102
}
330
C
100
AcDbDictionary
281
     1
  0
ACDBDICTIONARYWDFLT
  5
E
102
{ACAD_REACTORS
330
C
102
}
330
C
100
AcDbDictionary
281
     1
  3
Normal
350
F
100
AcDbDictionaryWithDefault
340
F
  0
DICTIONARY
  5
47
102
{ACAD_REACTORS
330
C
102
}
330
C
100
AcDbDictionary
281
     1
  3
A0
350
48
  3
A1
350
49
  3
A2
350
4A
  3
A3
350
4B
  3
A4
350
4C
  3
A5
350
4D
  3
A6
350
4E
  3
A7
350
4F
  3
A8
350
50
  3
A9
350
51
  3
B0
350
52
  3
B1
350
53
  3
B2
350
54
  3
B3
350
55
  3
B4
350
56
  3
B5
350
57
  3
B6
350
58
  0
XRECORD
  5
4D1
102
{ACAD_REACTORS
330
C
102
}
330
C
100
AcDbXrecord
280
     1
  1
DWGPROPS COOKIE
  2

  3

  4

  6

  7

  8
Kevin.Castro
  9

300
=
301
=
302
=
303
=
304
=
305
=
306
=
307
=
308
=
309
=
 40
0.0
 41
2460461.719313044
 42
2460461.719318357
  1

 90
        0
  0
LAYOUT
  5
1E
102
{ACAD_REACTORS
330
1A
102
}
330
1A
100
AcDbPlotSettings
  1

  2
none_device
  4

  6

 40
0.0
 41
0.0
 42
0.0
 43
0.0
 44
0.0
 45
0.0
 46
0.0
 47
0.0
 48
0.0
 49
0.0
140
0.0
141
0.0
142
1.0
143
1.0
 70
   688
 72
     1
 73
     0
 74
     5
  7

 75
    16
147
1.0
148
0.0
149
0.0
100
AcDbLayout
  1
Layout1
 70
     1
 71
     1
 10
0.0
 20
0.0
 11
420.0
 21
297.0
 12
0.0
 22
0.0
 32
0.0
 14
1.0000000000E+20
 24
1.0000000000E+20
 34
1.0000000000E+20
 15
-1.0000000000E+20
 25
-1.0000000000E+20
 35
-1.0000000000E+20
146
0.0
 13
0.0
 23
0.0
 33
0.0
 16
1.0
 26
0.0
 36
0.0
 17
0.0
 27
1.0
 37
0.0
 76
     0
330
1B
  0
LAYOUT
  5
26
102
{ACAD_REACTORS
330
1A
102
}
330
1A
100
AcDbPlotSettings
  1

  2
none_device
  4

  6

 40
0.0
 41
0.0
 42
0.0
 43
0.0
 44
0.0
 45
0.0
 46
0.0
 47
0.0
 48
0.0
 49
0.0
140
0.0
141
0.0
142
1.0
143
1.0
 70
   688
 72
     1
 73
     0
 74
     5
  7

 75
    16
147
1.0
148
0.0
149
0.0
100
AcDbLayout
  1
Layout2
 70
     1
 71
     2
 10
0.0
 20
0.0
 11
0.0
 21
0.0
 12
0.0
 22
0.0
 32
0.0
 14
0.0
 24
0.0
 34
0.0
 15
0.0
 25
0.0
 35
0.0
146
0.0
 13
0.0
 23
0.0
 33
0.0
 16
1.0
 26
0.0
 36
0.0
 17
0.0
 27
1.0
 37
0.0
 76
     0
330
23
  0
LAYOUT
  5
22
102
{ACAD_REACTORS
330
1A
102
}
330
1A
100
AcDbPlotSettings
  1

  2
none_device
  4
Letter_(8.50_x_11.00_Inches)
  6

 40
6.35
 41
6.35
 42
6.35000508
 43
6.35000508
 44
215.9
 45
279.4
 46
0.0
 47
0.0
 48
0.0
 49
0.0
140
0.0
141
0.0
142
1.0
143
1.0
 70
  1712
 72
     1
 73
     0
 74
     0
  7

 75
     0
147
1.0
148
0.0
149
0.0
100
AcDbLayout
  1
Model
 70
     1
 71
     0
 10
0.0
 20
0.0
 11
1439.3333333333
 21
931.3333333333
 12
0.0
 22
0.0
 32
0.0
 14
0.0
 24
0.0
 34
0.0
 15
1439.3333333333
 25
931.3333333333
 35
0.0
146
0.0
 13
0.0
 23
0.0
 33
0.0
 16
1.0
 26
0.0
 36
0.0
 17
0.0
 27
1.0
 37
0.0
 76
     0
330
1F
331
29
  0
MLINESTYLE
  5
18
102
{ACAD_REACTORS
330
17
102
}
330
17
100
AcDbMlineStyle
  2
Standard
 70
     0
  3

 62
   256
 51
90.0
 52
90.0
 71
     2
 49
0.5
 62
   256
  6
BYLAYER
 49
-0.5
 62
   256
  6
BYLAYER
  0
ACDBPLACEHOLDER
  5
F
102
{ACAD_REACTORS
330
E
102
}
330
E
  0
SCALE
  5
48
102
{ACAD_REACTORS
330
47
102
}
330
47
100
AcDbScale
 70
     0
300
1:1
140
1.0
141
1.0
290
     1
  0
SCALE
  5
49
102
{ACAD_REACTORS
330
47
102
}
330
47
100
AcDbScale
 70
     0
300
1:2
140
1.0
141
2.0
290
     0
  0
SCALE
  5
4A
102
{ACAD_REACTORS
330
47
102
}
330
47
100
AcDbScale
 70
     0
300
1:4
140
1.0
141
4.0
290
     0
  0
SCALE
  5
4B
102
{ACAD_REACTORS
330
47
102
}
330
47
100
AcDbScale
 70
     0
300
1:5
140
1.0
141
5.0
290
     0
  0
SCALE
  5
4C
102
{ACAD_REACTORS
330
47
102
}
330
47
100
AcDbScale
 70
     0
300
1:8
140
1.0
141
8.0
290
     0
  0
SCALE
  5
4D
102
{ACAD_REACTORS
330
47
102
}
330
47
100
AcDbScale
 70
     0
300
1:10
140
1.0
141
10.0
290
     0
  0
SCALE
  5
4E
102
{ACAD_REACTORS
330
47
102
}
330
47
100
AcDbScale
 70
     0
300
1:16
140
1.0
141
16.0
290
     0
  0
SCALE
  5
4F
102
{ACAD_REACTORS
330
47
102
}
330
47
100
AcDbScale
 70
     0
300
1:20
140
1.0
141
20.0
290
     0
  0
SCALE
  5
50
102
{ACAD_REACTORS
330
47
102
}
330
47
100
AcDbScale
 70
     0
300
1:30
140
1.0
141
30.0
290
     0
  0
SCALE
  5
51
102
{ACAD_REACTORS
330
47
102
}
330
47
100
AcDbScale
 70
     0
300
1:40
140
1.0
141
40.0
290
     0
  0
SCALE
  5
52
102
{ACAD_REACTORS
330
47
102
}
330
47
100
AcDbScale
 70
     0
300
1:50
140
1.0
141
50.0
290
     0
  0
SCALE
  5
53
102
{ACAD_REACTORS
330
47
102
}
330
47
100
AcDbScale
 70
     0
300
1:100
140
1.0
141
100.0
290
     0
  0
SCALE
  5
54
102
{ACAD_REACTORS
330
47
102
}
330
47
100
AcDbScale
 70
     0
300
2:1
140
2.0
141
1.0
290
     0
  0
SCALE
  5
55
102
{ACAD_REACTORS
330
47
102
}
330
47
100
AcDbScale
 70
     0
300
4:1
140
4.0
141
1.0
290
     0
  0
SCALE
  5
56
102
{ACAD_REACTORS
330
47
102
}
330
47
100
AcDbScale
 70
     0
300
8:1
140
8.0
141
1.0
290
     0
  0
SCALE
  5
57
102
{ACAD_REACTORS
330
47
102
}
330
47
100
AcDbScale
 70
     0
300
10:1
140
10.0
141
1.0
290
     0
  0
SCALE
  5
58
102
{ACAD_REACTORS
330
47
102
}
330
47
100
AcDbScale
 70
     0
300
100:1
140
100.0
141
1.0
290
     0
  0
ENDSEC
  0
EOF
