  0
SECTION
  2
HEADER
  9
$ACADVER
  1
AC1015
  9
$ACADMAINTVER
 70
     6
  9
$DWGCODEPAGE
  3
ANSI_1252
  9
$INSBASE
 10
0.0
 20
0.0
 30
0.0
  9
$EXTMIN
 10
0.0
 20
0.0
 30
0.0
  9
$EXTMAX
 10
1727.2
 20
1117.6
 30
0.0
  9
$LIMMIN
 10
0.0
 20
0.0
  9
$LIMMAX
 10
1727.2
 20
1117.6
  9
$ORTHOMODE
 70
     0
  9
$REGENMODE
 70
     1
  9
$FILLMODE
 70
     1
  9
$QTEXTMODE
 70
     0
  9
$MIRRTEXT
 70
     1
  9
$LTSCALE
 40
4.0
  9
$ATTMODE
 70
     1
  9
$TEXTSIZE
 40
12.7
  9
$TRACEWID
 40
1.0
  9
$TEXTSTYLE
  7
STANDARD
  9
$CLAYER
  8
0
  9
$CELTYPE
  6
ByLayer
  9
$CECOLOR
 62
   256
  9
$CELTSCALE
 40
1.0
  9
$DISPSILH
 70
     0
  9
$DIMSCALE
 40
1.0
  9
$DIMASZ
 40
8.0
  9
$DIMEXO
 40
3.048
  9
$DIMDLI
 40
3.75
  9
$DIMRND
 40
0.0
  9
$DIMDLE
 40
0.0
  9
$DIMEXE
 40
3.048
  9
$DIMTP
 40
0.0
  9
$DIMTM
 40
0.0
  9
$DIMTXT
 40
12.7
  9
$DIMCEN
 40
2.5
  9
$DIMTSZ
 40
0.0
  9
$DIMTOL
 70
     0
  9
$DIMLIM
 70
     0
  9
$DIMTIH
 70
     1
  9
$DIMTOH
 70
     1
  9
$DIMSE1
 70
     0
  9
$DIMSE2
 70
     0
  9
$DIMTAD
 70
     0
  9
$DIMZIN
 70
     1
  9
$DIMBLK
  1

  9
$DIMASO
 70
     1
  9
$DIMSHO
 70
     1
  9
$DIMPOST
  1

  9
$DIMAPOST
  1

  9
$DIMALT
 70
     0
  9
$DIMALTD
 70
     3
  9
$DIMALTF
 40
0.0393700787
  9
$DIMLFAC
 40
1.0
  9
$DIMTOFL
 70
     1
  9
$DIMTVP
 40
0.0
  9
$DIMTIX
 70
     0
  9
$DIMSOXD
 70
     0
  9
$DIMSAH
 70
     0
  9
$DIMBLK1
  1

  9
$DIMBLK2
  1

  9
$DIMSTYLE
  2
ISO-25
  9
$DIMCLRD
 70
     0
  9
$DIMCLRE
 70
     0
  9
$DIMCLRT
 70
     0
  9
$DIMTFAC
 40
1.0
  9
$DIMGAP
 40
6.096
  9
$DIMJUST
 70
     0
  9
$DIMSD1
 70
     0
  9
$DIMSD2
 70
     0
  9
$DIMTOLJ
 70
     0
  9
$DIMTZIN
 70
     1
  9
$DIMALTZ
 70
     0
  9
$DIMALTTZ
 70
     0
  9
$DIMUPT
 70
     0
  9
$DIMDEC
 70
     2
  9
$DIMTDEC
 70
     2
  9
$DIMALTU
 70
     2
  9
$DIMALTTD
 70
     3
  9
$DIMTXSTY
  7
STANDARD
  9
$DIMAUNIT
 70
     0
  9
$DIMADEC
 70
     0
  9
$DIMALTRND
 40
0.0
  9
$DIMAZIN
 70
     0
  9
$DIMDSEP
 70
    44
  9
$DIMATFIT
 70
     3
  9
$DIMFRAC
 70
     0
  9
$DIMLDRBLK
  1

  9
$DIMLUNIT
 70
     2
  9
$DIMLWD
 70
    -2
  9
$DIMLWE
 70
    -2
  9
$DIMTMOVE
 70
     0
  9
$LUNITS
 70
     2
  9
$LUPREC
 70
     6
  9
$SKETCHINC
 40
1.0
  9
$FILLETRAD
 40
0.0
  9
$AUNITS
 70
     0
  9
$AUPREC
 70
     0
  9
$MENU
  1
.
  9
$ELEVATION
 40
0.0
  9
$PELEVATION
 40
0.0
  9
$THICKNESS
 40
0.0
  9
$LIMCHECK
 70
     0
  9
$CHAMFERA
 40
0.0
  9
$CHAMFERB
 40
0.0
  9
$CHAMFERC
 40
0.0
  9
$CHAMFERD
 40
0.0
  9
$SKPOLY
 70
     0
  9
$TDCREATE
 40
2460482.585968704
  9
$TDUCREATE
 40
2460482.877635371
  9
$TDUPDATE
 40
2460482.585972489
  9
$TDUUPDATE
 40
2460482.877639155
  9
$TDINDWG
 40
0.0000000116
  9
$TDUSRTIMER
 40
0.0000000116
  9
$USRTIMER
 70
     1
  9
$ANGBASE
 50
0.0
  9
$ANGDIR
 70
     0
  9
$PDMODE
 70
     0
  9
$PDSIZE
 40
-1.0
  9
$PLINEWID
 40
0.0
  9
$SPLFRAME
 70
     0
  9
$SPLINETYPE
 70
     6
  9
$SPLINESEGS
 70
     8
  9
$HANDSEED
  5
4E1
  9
$SURFTAB1
 70
     6
  9
$SURFTAB2
 70
     6
  9
$SURFTYPE
 70
     6
  9
$SURFU
 70
     6
  9
$SURFV
 70
     6
  9
$UCSBASE
  2

  9
$UCSNAME
  2

  9
$UCSORG
 10
0.0
 20
0.0
 30
0.0
  9
$UCSXDIR
 10
1.0
 20
0.0
 30
0.0
  9
$UCSYDIR
 10
0.0
 20
1.0
 30
0.0
  9
$UCSORTHOREF
  2

  9
$UCSORTHOVIEW
 70
     0
  9
$UCSORGTOP
 10
0.0
 20
0.0
 30
0.0
  9
$UCSORGBOTTOM
 10
0.0
 20
0.0
 30
0.0
  9
$UCSORGLEFT
 10
0.0
 20
0.0
 30
0.0
  9
$UCSORGRIGHT
 10
0.0
 20
0.0
 30
0.0
  9
$UCSORGFRONT
 10
0.0
 20
0.0
 30
0.0
  9
$UCSORGBACK
 10
0.0
 20
0.0
 30
0.0
  9
$PUCSBASE
  2

  9
$PUCSNAME
  2

  9
$PUCSORG
 10
0.0
 20
0.0
 30
0.0
  9
$PUCSXDIR
 10
1.0
 20
0.0
 30
0.0
  9
$PUCSYDIR
 10
0.0
 20
1.0
 30
0.0
  9
$PUCSORTHOREF
  2

  9
$PUCSORTHOVIEW
 70
     0
  9
$PUCSORGTOP
 10
0.0
 20
0.0
 30
0.0
  9
$PUCSORGBOTTOM
 10
0.0
 20
0.0
 30
0.0
  9
$PUCSORGLEFT
 10
0.0
 20
0.0
 30
0.0
  9
$PUCSORGRIGHT
 10
0.0
 20
0.0
 30
0.0
  9
$PUCSORGFRONT
 10
0.0
 20
0.0
 30
0.0
  9
$PUCSORGBACK
 10
0.0
 20
0.0
 30
0.0
  9
$USERI1
 70
     0
  9
$USERI2
 70
     0
  9
$USERI3
 70
     0
  9
$USERI4
 70
     0
  9
$USERI5
 70
     0
  9
$USERR1
 40
0.0
  9
$USERR2
 40
0.0
  9
$USERR3
 40
0.0
  9
$USERR4
 40
0.0
  9
$USERR5
 40
0.0
  9
$WORLDVIEW
 70
     1
  9
$SHADEDGE
 70
     3
  9
$SHADEDIF
 70
    70
  9
$TILEMODE
 70
     1
  9
$MAXACTVP
 70
    64
  9
$PINSBASE
 10
0.0
 20
0.0
 30
0.0
  9
$PLIMCHECK
 70
     0
  9
$PEXTMIN
 10
1.0000000000E+20
 20
1.0000000000E+20
 30
1.0000000000E+20
  9
$PEXTMAX
 10
-1.0000000000E+20
 20
-1.0000000000E+20
 30
-1.0000000000E+20
  9
$PLIMMIN
 10
0.0
 20
0.0
  9
$PLIMMAX
 10
420.0
 20
297.0
  9
$UNITMODE
 70
     0
  9
$VISRETAIN
 70
     1
  9
$PLINEGEN
 70
     0
  9
$PSLTSCALE
 70
     1
  9
$TREEDEPTH
 70
  3020
  9
$CMLSTYLE
  2
Standard
  9
$CMLJUST
 70
     0
  9
$CMLSCALE
 40
20.0
  9
$PROXYGRAPHICS
 70
     1
  9
$MEASUREMENT
 70
     1
  9
$CELWEIGHT
370
    -1
  9
$ENDCAPS
280
     0
  9
$JOINSTYLE
280
     0
  9
$LWDISPLAY
290
     1
  9
$INSUNITS
 70
     4
  9
$HYPERLINKBASE
  1

  9
$STYLESHEET
  1

  9
$XEDIT
290
     1
  9
$CEPSNTYPE
380
     0
  9
$PSTYLEMODE
290
     1
  9
$FINGERPRINTGUID
  2
{c830a1ee-788f-45ec-9afe-d08665bd2a61}
  9
$VERSIONGUID
  2
{FAEB1C32-E019-11D5-929B-00C0DF256EC4}
  9
$EXTNAMES
290
     1
  9
$PSVPSCALE
 40
0.0
  9
$OLESTARTUP
290
     0
  0
ENDSEC
  0
SECTION
  2
CLASSES
  0
CLASS
  1
ACDBDICTIONARYWDFLT
  2
AcDbDictionaryWithDefault
  3
ObjectDBX Classes
 90
        0
280
     0
281
     0
  0
CLASS
  1
VISUALSTYLE
  2
AcDbVisualStyle
  3
ObjectDBX Classes
 90
     4095
280
     0
281
     0
  0
CLASS
  1
MATERIAL
  2
AcDbMaterial
  3
ObjectDBX Classes
 90
     1153
280
     0
281
     0
  0
CLASS
  1
SCALE
  2
AcDbScale
  3
ObjectDBX Classes
 90
     1153
280
     0
281
     0
  0
CLASS
  1
TABLESTYLE
  2
AcDbTableStyle
  3
ObjectDBX Classes
 90
     4095
280
     0
281
     0
  0
CLASS
  1
MLEADERSTYLE
  2
AcDbMLeaderStyle
  3
ACDB_MLEADERSTYLE_CLASS
 90
     4095
280
     0
281
     0
  0
CLASS
  1
SUN
  2
AcDbSun
  3
SCENEOE
 90
     1153
280
     0
281
     0
  0
CLASS
  1
ACDBPLACEHOLDER
  2
AcDbPlaceHolder
  3
ObjectDBX Classes
 90
        0
280
     0
281
     0
  0
CLASS
  1
LAYOUT
  2
AcDbLayout
  3
ObjectDBX Classes
 90
        0
280
     0
281
     0
  0
ENDSEC
  0
SECTION
  2
TABLES
  0
TABLE
  2
VPORT
  5
8
330
0
100
AcDbSymbolTable
 70
     1
  0
VPORT
  5
29
330
8
100
AcDbSymbolTableRecord
100
AcDbViewportTableRecord
  2
*Active
 70
     0
 10
0.0
 20
0.0
 11
1.0
 21
1.0
 12
863.6
 22
558.8
 13
0.0
 23
0.0
 14
10.0
 24
10.0
 15
10.0
 25
10.0
 16
0.0
 26
0.0
 36
1.0
 17
0.0
 27
0.0
 37
0.0
 40
1117.6
 41
1.5454545455
 42
50.0
 43
0.0
 44
0.0
 50
0.0
 51
0.0
 71
     0
 72
  2000
 73
     1
 74
     3
 75
     0
 76
     0
 77
     0
 78
     0
281
     0
 65
     1
110
0.0
120
0.0
130
0.0
111
1.0
121
0.0
131
0.0
112
0.0
122
1.0
132
0.0
 79
     0
146
0.0
  0
ENDTAB
  0
TABLE
  2
LTYPE
  5
5
330
0
100
AcDbSymbolTable
 70
     6
  0
LTYPE
  5
14
330
5
100
AcDbSymbolTableRecord
100
AcDbLinetypeTableRecord
  2
ByBlock
 70
     0
  3

 72
    65
 73
     0
 40
0.0
  0
LTYPE
  5
15
330
5
100
AcDbSymbolTableRecord
100
AcDbLinetypeTableRecord
  2
ByLayer
 70
     0
  3

 72
    65
 73
     0
 40
0.0
  0
LTYPE
  5
16
330
5
100
AcDbSymbolTableRecord
100
AcDbLinetypeTableRecord
  2
Continuous
 70
     0
  3
Solid line
 72
    65
 73
     0
 40
0.0
  0
LTYPE
  5
5E
330
5
100
AcDbSymbolTableRecord
100
AcDbLinetypeTableRecord
  2
HIDDEN
 70
     0
  3
Hidden __ __ __ __ __ __ __ __ __ __ __ __ __ __
 72
    65
 73
     2
 40
1.905
 49
1.27
 74
     0
 49
-0.635
 74
     0
  0
LTYPE
  5
5F
330
5
100
AcDbSymbolTableRecord
100
AcDbLinetypeTableRecord
  2
PHANTOM
 70
     0
  3
Phantom ______  __  __  ______  __  __  ______
 72
    65
 73
     6
 40
12.7
 49
6.35
 74
     0
 49
-1.27
 74
     0
 49
1.27
 74
     0
 49
-1.27
 74
     0
 49
1.27
 74
     0
 49
-1.27
 74
     0
  0
LTYPE
  5
60
330
5
100
AcDbSymbolTableRecord
100
AcDbLinetypeTableRecord
  2
CENTER
 70
     0
  3
Center ____ _ ____ _ ____ _ ____ _ ____ _ ____
 72
    65
 73
     4
 40
10.16
 49
6.35
 74
     0
 49
-1.27
 74
     0
 49
1.27
 74
     0
 49
-1.27
 74
     0
  0
LTYPE
  5
61
330
5
100
AcDbSymbolTableRecord
100
AcDbLinetypeTableRecord
  2
CENTERX2
 70
     0
  3
Center (2x) ________  __  ________  __  _____
 72
    65
 73
     4
 40
20.32
 49
12.7
 74
     0
 49
-2.54
 74
     0
 49
2.54
 74
     0
 49
-2.54
 74
     0
  0
LTYPE
  5
62
330
5
100
AcDbSymbolTableRecord
100
AcDbLinetypeTableRecord
  2
DOT2
 70
     0
  3
Dot (.5x) ........................................
 72
    65
 73
     2
 40
0.635
 49
0.0
 74
     0
 49
-0.635
 74
     0
  0
ENDTAB
  0
TABLE
  2
LAYER
  5
2
330
0
100
AcDbSymbolTable
 70
     6
  0
LAYER
  5
10
330
2
100
AcDbSymbolTableRecord
100
AcDbLayerTableRecord
  2
0
 70
     0
 62
     7
  6
Continuous
370
    -3
390
F
  0
LAYER
  5
63
330
2
100
AcDbSymbolTableRecord
100
AcDbLayerTableRecord
  2
SLD-0
 70
     0
 62
   179
  6
Continuous
370
    -3
390
F
  0
LAYER
  5
64
330
2
100
AcDbSymbolTableRecord
100
AcDbLayerTableRecord
  2
WIRE_BOND
 70
     0
 62
     6
  6
Continuous
370
   100
390
F
  0
LAYER
  5
65
330
2
100
AcDbSymbolTableRecord
100
AcDbLayerTableRecord
  2
HIGHLIGHT-BLUE
 70
     0
 62
     5
  6
Continuous
370
    70
390
F
  0
LAYER
  5
66
330
2
100
AcDbSymbolTableRecord
100
AcDbLayerTableRecord
  2
MANUAL_DIM
 70
     0
 62
   114
  6
Continuous
370
    -3
390
F
  0
LAYER
  5
67
330
2
100
AcDbSymbolTableRecord
100
AcDbLayerTableRecord
  2
TORQUE_9-10
 70
     0
 62
   155
  6
Continuous
370
    -3
390
F
  0
ENDTAB
  0
TABLE
  2
STYLE
  5
3
330
0
100
AcDbSymbolTable
 70
     5
  0
STYLE
  5
11
330
3
100
AcDbSymbolTableRecord
100
AcDbTextStyleTableRecord
  2
STANDARD
 70
     0
 40
0.0
 41
1.0
 50
0.0
 71
     0
 42
12.7
  3
GOTHIC.TTF
  4

1001
ACAD
1000
CENTURY GOTHIC
1071
       34
  0
STYLE
  5
7A
330
3
100
AcDbSymbolTableRecord
100
AcDbTextStyleTableRecord
  2
SLDTEXTSTYLE0
 70
     0
 40
0.0
 41
0.913
 50
0.0
 71
     0
 42
12.7
  3
GOTHIC.TTF
  4

1001
ACAD
1000
Century Gothic
1071
      290
  0
STYLE
  5
9A
330
3
100
AcDbSymbolTableRecord
100
AcDbTextStyleTableRecord
  2
SLDTEXTSTYLE1
 70
     0
 40
0.0
 41
0.87
 50
0.0
 71
     0
 42
12.7
  3
ARIALN.TTF
  4

1001
ACAD
1000
Arial Narrow
1071
      290
  0
STYLE
  5
A5
330
3
100
AcDbSymbolTableRecord
100
AcDbTextStyleTableRecord
  2
SLDTEXTSTYLE2
 70
     0
 40
0.0
 41
0.8969072165
 50
0.0
 71
     0
 42
12.7
  3
ARIALN.TTF
  4

1001
ACAD
1000
Arial Narrow
1071
      290
  0
STYLE
  5
AA
330
3
100
AcDbSymbolTableRecord
100
AcDbTextStyleTableRecord
  2
SLDTEXTSTYLE3
 70
     0
 40
0.0
 41
0.8969072165
 50
0.0
 71
     0
 42
12.7
  3
ARIALN.TTF
  4
bigfont
1001
ACAD
1000
Arial Narrow
1071
      290
  0
ENDTAB
  0
TABLE
  2
VIEW
  5
6
330
0
100
AcDbSymbolTable
 70
     0
  0
ENDTAB
  0
TABLE
  2
UCS
  5
7
330
0
100
AcDbSymbolTable
 70
     0
  0
ENDTAB
  0
TABLE
  2
APPID
  5
9
330
0
100
AcDbSymbolTable
 70
     1
  0
APPID
  5
12
330
9
100
AcDbSymbolTableRecord
100
AcDbRegAppTableRecord
  2
ACAD
 70
     0
  0
ENDTAB
  0
TABLE
  2
DIMSTYLE
  5
A
330
0
100
AcDbSymbolTable
 70
     8
100
AcDbDimStyleTable
  0
DIMSTYLE
105
27
330
A
100
AcDbSymbolTableRecord
100
AcDbDimStyleTableRecord
  2
ISO-25
 70
     0
 41
2.5
 42
0.625
 43
3.75
 44
1.25
 73
     0
 74
     0
 77
     1
 78
     8
140
2.5
141
2.5
143
0.0393700787
147
0.625
171
     3
172
     1
178
     0
271
     2
272
     2
274
     3
278
    44
283
     0
284
     8
340
11
  0
DIMSTYLE
105
1C4
102
{ACAD_REACTORS
330
1C3
330
285
102
}
330
A
100
AcDbSymbolTableRecord
100
AcDbDimStyleTableRecord
  2
SLDDIMSTYLE0
 70
     0
 41
8.0
 44
0.0
 45
0.000000001
 78
    12
 79
     3
140
9.525
143
0.0393700787
147
2.38125
148
0.000000001
170
     1
173
     1
178
     0
271
     1
272
     2
274
     1
276
     2
284
    12
340
7A
  0
DIMSTYLE
105
1D8
102
{ACAD_REACTORS
330
1D7
330
329
102
}
330
A
100
AcDbSymbolTableRecord
100
AcDbDimStyleTableRecord
  2
SLDDIMSTYLE1
 70
     0
 41
8.0
 44
0.0
 45
0.000000001
 78
     4
 79
     1
140
9.525
143
0.0393700787
147
2.38125
148
0.000000001
170
     1
172
     1
173
     1
178
     0
271
     1
272
     2
276
     2
284
    12
289
     0
340
7A
  0
DIMSTYLE
105
1EC
102
{ACAD_REACTORS
330
1EB
330
1FC
102
}
330
A
100
AcDbSymbolTableRecord
100
AcDbDimStyleTableRecord
  2
SLDDIMSTYLE2
 70
     0
 41
8.0
 44
0.0
 45
0.000000001
 78
     4
 79
     1
140
9.525
141
0.0
143
0.0393700787
147
2.38125
148
0.000000001
170
     1
173
     1
178
     0
271
     1
272
     2
276
     2
284
    12
340
7A
  0
DIMSTYLE
105
299
102
{ACAD_REACTORS
330
298
330
2C2
330
3CC
330
3E0
102
}
330
A
100
AcDbSymbolTableRecord
100
AcDbDimStyleTableRecord
  2
SLDDIMSTYLE3
 70
     0
 41
8.0
 44
0.0
 45
0.000000001
 78
    12
 79
     3
140
9.525
143
0.0393700787
147
2.38125
148
0.000000001
170
     1
173
     1
178
     0
271
     1
272
     2
276
     2
284
    12
340
7A
  0
DIMSTYLE
105
2AE
102
{ACAD_REACTORS
330
2AD
330
316
102
}
330
A
100
AcDbSymbolTableRecord
100
AcDbDimStyleTableRecord
  2
SLDDIMSTYLE4
 70
     0
 41
8.0
 44
0.0
 45
0.000000001
 78
     4
 79
     1
140
9.525
143
0.0393700787
147
2.38125
148
0.000000001
170
     1
173
     1
178
     0
271
     1
272
     2
276
     2
284
    12
340
7A
  0
DIMSTYLE
105
2D7
102
{ACAD_REACTORS
330
2D6
102
}
330
A
100
AcDbSymbolTableRecord
100
AcDbDimStyleTableRecord
  2
SLDDIMSTYLE5
 70
     0
 41
8.0
 44
0.0
 78
    12
 79
     3
140
9.525
144
4.0
147
2.38125
173
     1
178
     0
272
     2
276
     2
284
    12
340
7A
  0
DIMSTYLE
105
3FD
330
A
100
AcDbSymbolTableRecord
100
AcDbDimStyleTableRecord
  2
SLDDIMSTYLE6
 70
     0
 41
8.0
 44
0.0
 45
0.000000001
146
8.0
147
0.0
173
     1
178
     0
271
     0
272
     0
276
     2
340
11
  0
ENDTAB
  0
TABLE
  2
BLOCK_RECORD
  5
1
330
0
100
AcDbSymbolTable
 70
    25
  0
BLOCK_RECORD
  5
1F
330
1
100
AcDbSymbolTableRecord
100
AcDbBlockTableRecord
  2
*Model_Space
340
22
  0
BLOCK_RECORD
  5
1B
330
1
100
AcDbSymbolTableRecord
100
AcDbBlockTableRecord
  2
*Paper_Space
340
1E
  0
BLOCK_RECORD
  5
23
330
1
100
AcDbSymbolTableRecord
100
AcDbBlockTableRecord
  2
*Paper_Space0
340
26
  0
BLOCK_RECORD
  5
73
330
1
100
AcDbSymbolTableRecord
100
AcDbBlockTableRecord
  2
SW_NOTE_0
340
0
102
{BLKREFS
331
85
102
}
  0
BLOCK_RECORD
  5
1C5
330
1
100
AcDbSymbolTableRecord
100
AcDbBlockTableRecord
  2
_D
340
0
  0
BLOCK_RECORD
  5
1D9
330
1
100
AcDbSymbolTableRecord
100
AcDbBlockTableRecord
  2
_D_1
340
0
  0
BLOCK_RECORD
  5
1ED
330
1
100
AcDbSymbolTableRecord
100
AcDbBlockTableRecord
  2
_D_2
340
0
  0
BLOCK_RECORD
  5
1FD
330
1
100
AcDbSymbolTableRecord
100
AcDbBlockTableRecord
  2
_D_3
340
0
  0
BLOCK_RECORD
  5
20D
330
1
100
AcDbSymbolTableRecord
100
AcDbBlockTableRecord
  2
SW_SYMBOL_MOD_CL
340
0
102
{BLKREFS
331
212
331
213
331
33C
102
}
  0
BLOCK_RECORD
  5
214
330
1
100
AcDbSymbolTableRecord
100
AcDbBlockTableRecord
  2
SW_CENTERMARKSYMBOL_0
340
0
102
{BLKREFS
331
21F
102
}
  0
BLOCK_RECORD
  5
220
330
1
100
AcDbSymbolTableRecord
100
AcDbBlockTableRecord
  2
SW_CENTERMARKSYMBOL_1
340
0
102
{BLKREFS
331
22B
102
}
  0
BLOCK_RECORD
  5
22C
330
1
100
AcDbSymbolTableRecord
100
AcDbBlockTableRecord
  2
SW_CENTERMARKSYMBOL_2
340
0
102
{BLKREFS
331
237
102
}
  0
BLOCK_RECORD
  5
238
330
1
100
AcDbSymbolTableRecord
100
AcDbBlockTableRecord
  2
SW_CENTERMARKSYMBOL_3
340
0
102
{BLKREFS
331
243
102
}
  0
BLOCK_RECORD
  5
244
330
1
100
AcDbSymbolTableRecord
100
AcDbBlockTableRecord
  2
SW_CENTERMARKSYMBOL_4
340
0
102
{BLKREFS
331
24F
102
}
  0
BLOCK_RECORD
  5
286
330
1
100
AcDbSymbolTableRecord
100
AcDbBlockTableRecord
  2
_D_4
340
0
  0
BLOCK_RECORD
  5
29A
330
1
100
AcDbSymbolTableRecord
100
AcDbBlockTableRecord
  2
_D_5
340
0
  0
BLOCK_RECORD
  5
2AF
330
1
100
AcDbSymbolTableRecord
100
AcDbBlockTableRecord
  2
_D_6
340
0
  0
BLOCK_RECORD
  5
2C3
330
1
100
AcDbSymbolTableRecord
100
AcDbBlockTableRecord
  2
_D_7
340
0
  0
BLOCK_RECORD
  5
2D8
330
1
100
AcDbSymbolTableRecord
100
AcDbBlockTableRecord
  2
_D_8
340
0
  0
BLOCK_RECORD
  5
317
330
1
100
AcDbSymbolTableRecord
100
AcDbBlockTableRecord
  2
_D_9
340
0
  0
BLOCK_RECORD
  5
32A
330
1
100
AcDbSymbolTableRecord
100
AcDbBlockTableRecord
  2
_D_10
340
0
  0
BLOCK_RECORD
  5
33D
330
1
100
AcDbSymbolTableRecord
100
AcDbBlockTableRecord
  2
SW_CENTERMARKSYMBOL_5
340
0
102
{BLKREFS
331
348
102
}
  0
BLOCK_RECORD
  5
349
330
1
100
AcDbSymbolTableRecord
100
AcDbBlockTableRecord
  2
SW_CENTERMARKSYMBOL_6
340
0
102
{BLKREFS
331
354
102
}
  0
BLOCK_RECORD
  5
3CD
330
1
100
AcDbSymbolTableRecord
100
AcDbBlockTableRecord
  2
_D_11
340
0
  0
BLOCK_RECORD
  5
3E1
330
1
100
AcDbSymbolTableRecord
100
AcDbBlockTableRecord
  2
_D_12
340
0
  0
BLOCK_RECORD
  5
3F4
330
1
100
AcDbSymbolTableRecord
100
AcDbBlockTableRecord
  2
SW_NOTE_0_1
340
0
102
{BLKREFS
331
3FC
102
}
  0
BLOCK_RECORD
  5
3FF
330
1
100
AcDbSymbolTableRecord
100
AcDbBlockTableRecord
  2
SW_NOTE_0_2
340
0
102
{BLKREFS
331
407
102
}
  0
ENDTAB
  0
ENDSEC
  0
SECTION
  2
BLOCKS
  0
BLOCK
  5
20
330
1F
100
AcDbEntity
  8
0
100
AcDbBlockBegin
  2
*Model_Space
 70
     0
 10
0.0
 20
0.0
 30
0.0
  3
*Model_Space
  1

  0
ENDBLK
  5
21
330
1F
100
AcDbEntity
  8
0
100
AcDbBlockEnd
  0
BLOCK
  5
1C
330
1B
100
AcDbEntity
 67
     1
  8
0
100
AcDbBlockBegin
  2
*Paper_Space
 70
     0
 10
0.0
 20
0.0
 30
0.0
  3
*Paper_Space
  1

  0
ENDBLK
  5
1D
330
1B
100
AcDbEntity
 67
     1
  8
0
100
AcDbBlockEnd
  0
BLOCK
  5
24
330
23
100
AcDbEntity
  8
0
100
AcDbBlockBegin
  2
*Paper_Space0
 70
     0
 10
0.0
 20
0.0
 30
0.0
  3
*Paper_Space0
  1

  0
ENDBLK
  5
25
330
23
100
AcDbEntity
  8
0
100
AcDbBlockEnd
  0
BLOCK
  5
74
330
73
100
AcDbEntity
  8
0
100
AcDbBlockBegin
  2
SW_NOTE_0
 70
     0
 10
0.0
 20
0.0
 30
0.0
  3
SW_NOTE_0
  1

  0
LINE
  5
76
330
73
100
AcDbEntity
  8
0
  6
Continuous
 62
     0
370
     0
100
AcDbLine
 10
-4.2068751063
 20
-67.4831238575
 30
0.0
 11
-4.2068751063
 21
-52.0314569585
 31
0.0
  0
LINE
  5
77
330
73
100
AcDbEntity
  8
0
  6
Continuous
 62
     0
370
     0
100
AcDbLine
 10
-4.2068751063
 20
-52.0314569585
 30
0.0
 11
11.2447917927
 21
-52.0314569585
 31
0.0
  0
LINE
  5
78
330
73
100
AcDbEntity
  8
0
  6
Continuous
 62
     0
370
     0
100
AcDbLine
 10
11.2447917927
 20
-52.0314569585
 30
0.0
 11
11.2447917927
 21
-67.4831238575
 31
0.0
  0
LINE
  5
79
330
73
100
AcDbEntity
  8
0
  6
Continuous
 62
     0
370
     0
100
AcDbLine
 10
11.2447917927
 20
-67.4831238575
 30
0.0
 11
-4.2068751063
 21
-67.4831238575
 31
0.0
  0
MTEXT
  5
7B
330
73
100
AcDbEntity
  8
0
  6
Continuous
 62
     0
370
     0
100
AcDbMText
 10
0.0
 20
12.1666992187
 30
0.0
 40
9.525
 41
0.0
 71
     1
 72
     1
  1
NOTES: UNLESS OTHERWISE SPECIFIED
  7
SLDTEXTSTYLE0
 73
     1
 44
1.0
  0
MTEXT
  5
7C
330
73
100
AcDbEntity
  8
0
  6
Continuous
 62
     0
370
     0
100
AcDbMText
 10
39.9999991059
 20
-4.5333003521
 30
0.0
 40
9.525
 41
0.0
 71
     1
 72
     1
  1
NET WEIGHT APPROX. 0.6 KG [1.4 LBS] (YOKE)
  7
SLDTEXTSTYLE0
 73
     1
 44
1.0
  0
MTEXT
  5
7D
330
73
100
AcDbEntity
  8
0
  6
Continuous
 62
     0
370
     0
100
AcDbMText
 10
0.0
 20
-4.5333003521
 30
0.0
 40
9.525
 41
0.0
 71
     1
 72
     1
  1
1.
  7
SLDTEXTSTYLE0
 73
     1
 44
1.0
  0
MTEXT
  5
7E
330
73
100
AcDbEntity
  8
0
  6
Continuous
 62
     0
370
     0
100
AcDbMText
 10
40.0
 20
-21.2332999229
 30
0.0
 40
9.525
 41
0.0
 71
     1
 72
     1
  1
7.4 KG [16.4 LBS] (SPEAKER AND YOKE).
  7
SLDTEXTSTYLE0
 73
     1
 44
1.0
  0
MTEXT
  5
7F
330
73
100
AcDbEntity
  8
0
  6
Continuous
 62
     0
370
     0
100
AcDbMText
 10
39.9999991059
 20
-37.9332994938
 30
0.0
 40
9.525
 41
0.0
 71
     1
 72
     1
  1
THE SPEAKER IS SHOWN FOR CLARITY, SPEAKER AND MOUNTING YOKE ARE SOLD SEPARATLY.
  7
SLDTEXTSTYLE0
 73
     1
 44
1.0
  0
MTEXT
  5
80
330
73
100
AcDbEntity
  8
0
  6
Continuous
 62
     0
370
     0
100
AcDbMText
 10
0.0
 20
-37.9332994938
 30
0.0
 40
9.525
 41
0.0
 71
     1
 72
     1
  1
2.
  7
SLDTEXTSTYLE0
 73
     1
 44
1.0
  0
MTEXT
  5
81
330
73
100
AcDbEntity
  8
0
  6
Continuous
 62
     0
370
     0
100
AcDbMText
 10
39.9999991059
 20
-53.9405915782
 30
0.0
 40
9.525
 41
0.0
 71
     1
 72
     1
  1
YOKE MOUNT ATTACHMENT POINT, M8 THREAD, 2 PLACES.
  7
SLDTEXTSTYLE0
 73
     1
 44
1.0
  0
MTEXT
  5
82
330
73
100
AcDbEntity
  8
0
  6
Continuous
 62
     0
370
     0
100
AcDbMText
 10
0.0
 20
-53.9405915782
 30
0.0
 40
9.525
 41
0.0
 71
     1
 72
     1
  1
3
  7
SLDTEXTSTYLE0
 73
     1
 44
1.0
  0
MTEXT
  5
83
330
73
100
AcDbEntity
  8
0
  6
Continuous
 62
     0
370
     0
100
AcDbMText
 10
39.9999991059
 20
-73.9478824556
 30
0.0
 40
9.525
 41
0.0
 71
     1
 72
     1
  1
PARTS ARE SYMMETRICAL ABOUT CENTER LINES UNLESS OTHERWISE NOTED.
  7
SLDTEXTSTYLE0
 73
     1
 44
1.0
  0
MTEXT
  5
84
330
73
100
AcDbEntity
  8
0
  6
Continuous
 62
     0
370
     0
100
AcDbMText
 10
0.0
 20
-73.9478824556
 30
0.0
 40
9.525
 41
0.0
 71
     1
 72
     1
  1
4.
  7
SLDTEXTSTYLE0
 73
     1
 44
1.0
  0
ENDBLK
  5
75
330
73
100
AcDbEntity
  8
0
100
AcDbBlockEnd
  0
BLOCK
  5
1C6
330
1C5
100
AcDbEntity
  8
0
100
AcDbBlockBegin
  2
_D
 70
     0
 10
0.0
 20
0.0
 30
0.0
  3
_D
  1

  0
SOLID
  5
1C8
330
1C5
100
AcDbEntity
  8
SLD-0
100
AcDbTrace
 10
579.536316912
 20
451.8590901733
 30
0.0
 11
587.536316912
 21
450.8590901733
 31
0.0
 12
587.536316912
 22
452.8590901733
 32
0.0
 13
587.536316912
 23
452.8590901733
 33
0.0
  0
SOLID
  5
1C9
330
1C5
100
AcDbEntity
  8
SLD-0
100
AcDbTrace
 10
757.336316912
 20
451.8590901733
 30
0.0
 11
749.336316912
 21
452.8590901733
 31
0.0
 12
749.336316912
 22
450.8590901733
 32
0.0
 13
749.336316912
 23
450.8590901733
 33
0.0
  0
LINE
  5
1CA
330
1C5
100
AcDbEntity
  8
SLD-0
100
AcDbLine
 10
663.5062481733
 20
451.8590920359
 30
0.0
 11
660.6090605715
 21
451.8590920359
 31
0.0
  0
LINE
  5
1CB
330
1C5
100
AcDbEntity
  8
SLD-0
100
AcDbLine
 10
660.6090605715
 20
451.8590920359
 30
0.0
 11
660.6090605715
 21
436.7249251098
 31
0.0
  0
LINE
  5
1CC
330
1C5
100
AcDbEntity
  8
SLD-0
100
AcDbLine
 10
660.6090605715
 20
436.7249251098
 30
0.0
 11
663.5062481733
 21
436.7249251098
 31
0.0
  0
LINE
  5
1CD
330
1C5
100
AcDbEntity
  8
SLD-0
100
AcDbLine
 10
688.1301376493
 20
451.8590920359
 30
0.0
 11
691.0273252511
 21
451.8590920359
 31
0.0
  0
LINE
  5
1CE
330
1C5
100
AcDbEntity
  8
SLD-0
100
AcDbLine
 10
691.0273252511
 20
451.8590920359
 30
0.0
 11
691.0273252511
 21
436.7249251098
 31
0.0
  0
LINE
  5
1CF
330
1C5
100
AcDbEntity
  8
SLD-0
100
AcDbLine
 10
691.0273252511
 20
436.7249251098
 30
0.0
 11
688.1301376493
 21
436.7249251098
 31
0.0
  0
LINE
  5
1D0
330
1C5
100
AcDbEntity
  8
SLD-0
100
AcDbLine
 10
579.536316912
 20
358.611565346
 30
0.0
 11
579.536316912
 21
454.9070901733
 31
0.0
  0
LINE
  5
1D1
330
1C5
100
AcDbEntity
  8
SLD-0
100
AcDbLine
 10
757.336316912
 20
358.611565346
 30
0.0
 11
757.336316912
 21
454.9070901733
 31
0.0
  0
LINE
  5
1D2
330
1C5
100
AcDbEntity
  8
SLD-0
100
AcDbLine
 10
579.536316912
 20
451.8590901733
 30
0.0
 11
641.0173198689
 21
451.8590901733
 31
0.0
  0
LINE
  5
1D3
330
1C5
100
AcDbEntity
  8
SLD-0
100
AcDbLine
 10
757.336316912
 20
451.8590901733
 30
0.0
 11
695.8553139551
 21
451.8590901733
 31
0.0
  0
MTEXT
  5
1D4
330
1C5
100
AcDbEntity
  8
SLD-0
100
AcDbMText
 10
642.9481228338
 20
465.9572485693
 30
0.0
 40
9.525
 41
0.0
 71
     1
 72
     1
  1
2X
  7
SLDTEXTSTYLE0
 73
     1
 44
1.0
  0
MTEXT
  5
1D5
330
1C5
100
AcDbEntity
  8
SLD-0
100
AcDbMText
 10
659.9872895973
 20
465.9572495006
 30
0.0
 40
9.525
 41
0.0
 71
     1
 72
     1
  1
177.8
  7
SLDTEXTSTYLE0
 73
     1
 44
1.0
  0
MTEXT
  5
1D6
330
1C5
100
AcDbEntity
  8
SLD-0
100
AcDbMText
 10
663.5062481733
 20
448.8916247942
 30
0.0
 40
9.525
 41
0.0
 71
     1
 72
     1
  1
7.00
  7
SLDTEXTSTYLE0
 73
     1
 44
1.0
  0
ENDBLK
  5
1C7
330
1C5
100
AcDbEntity
  8
0
100
AcDbBlockEnd
  0
BLOCK
  5
1DA
330
1D9
100
AcDbEntity
  8
0
100
AcDbBlockBegin
  2
_D_1
 70
     0
 10
0.0
 20
0.0
 30
0.0
  3
_D_1
  1

  0
SOLID
  5
1DC
330
1D9
100
AcDbEntity
  8
SLD-0
100
AcDbTrace
 10
840.4541488183
 20
350.063565346
 30
0.0
 11
841.4541488183
 21
358.063565346
 31
0.0
 12
839.4541488183
 22
358.063565346
 32
0.0
 13
839.4541488183
 23
358.063565346
 33
0.0
  0
SOLID
  5
1DD
330
1D9
100
AcDbEntity
  8
SLD-0
100
AcDbTrace
 10
840.4541488183
 20
300.063565346
 30
0.0
 11
839.4541488183
 21
292.063565346
 31
0.0
 12
841.4541488183
 22
292.063565346
 32
0.0
 13
841.4541488183
 23
292.063565346
 33
0.0
  0
LINE
  5
1DE
330
1D9
100
AcDbEntity
  8
SLD-0
100
AcDbLine
 10
835.5240800795
 20
325.0635672086
 30
0.0
 11
832.6268924777
 21
325.0635672086
 31
0.0
  0
LINE
  5
1DF
330
1D9
100
AcDbEntity
  8
SLD-0
100
AcDbLine
 10
832.6268924777
 20
325.0635672086
 30
0.0
 11
832.6268924777
 21
309.9294002825
 31
0.0
  0
LINE
  5
1E0
330
1D9
100
AcDbEntity
  8
SLD-0
100
AcDbLine
 10
832.6268924777
 20
309.9294002825
 30
0.0
 11
835.5240800795
 21
309.9294002825
 31
0.0
  0
LINE
  5
1E1
330
1D9
100
AcDbEntity
  8
SLD-0
100
AcDbLine
 10
860.1479695556
 20
325.0635672086
 30
0.0
 11
863.0451571574
 21
325.0635672086
 31
0.0
  0
LINE
  5
1E2
330
1D9
100
AcDbEntity
  8
SLD-0
100
AcDbLine
 10
863.0451571574
 20
325.0635672086
 30
0.0
 11
863.0451571574
 21
309.9294002825
 31
0.0
  0
LINE
  5
1E3
330
1D9
100
AcDbEntity
  8
SLD-0
100
AcDbLine
 10
863.0451571574
 20
309.9294002825
 30
0.0
 11
860.1479695556
 21
309.9294002825
 31
0.0
  0
LINE
  5
1E4
330
1D9
100
AcDbEntity
  8
SLD-0
100
AcDbLine
 10
765.884316912
 20
350.063565346
 30
0.0
 11
843.5021488183
 21
350.063565346
 31
0.0
  0
LINE
  5
1E5
330
1D9
100
AcDbEntity
  8
SLD-0
100
AcDbLine
 10
765.784316912
 20
300.063565346
 30
0.0
 11
843.5021488183
 21
300.063565346
 31
0.0
  0
LINE
  5
1E6
330
1D9
100
AcDbEntity
  8
SLD-0
100
AcDbLine
 10
840.4541488183
 20
350.063565346
 30
0.0
 11
840.4541488183
 21
366.063565346
 31
0.0
  0
LINE
  5
1E7
330
1D9
100
AcDbEntity
  8
SLD-0
100
AcDbLine
 10
840.4541488183
 20
300.063565346
 30
0.0
 11
840.4541488183
 21
284.063565346
 31
0.0
  0
MTEXT
  5
1E8
330
1D9
100
AcDbEntity
  8
SLD-0
100
AcDbMText
 10
814.9659547401
 20
339.161723742
 30
0.0
 40
9.525
 41
0.0
 71
     1
 72
     1
  1
2X
  7
SLDTEXTSTYLE0
 73
     1
 44
1.0
  0
MTEXT
  5
1E9
330
1D9
100
AcDbEntity
  8
SLD-0
100
AcDbMText
 10
835.5240791482
 20
339.1617246733
 30
0.0
 40
9.525
 41
0.0
 71
     1
 72
     1
  1
50.0
  7
SLDTEXTSTYLE0
 73
     1
 44
1.0
  0
MTEXT
  5
1EA
330
1D9
100
AcDbEntity
  8
SLD-0
100
AcDbMText
 10
835.5240800795
 20
322.0960999669
 30
0.0
 40
9.525
 41
0.0
 71
     1
 72
     1
  1
1.97
  7
SLDTEXTSTYLE0
 73
     1
 44
1.0
  0
ENDBLK
  5
1DB
330
1D9
100
AcDbEntity
  8
0
100
AcDbBlockEnd
  0
BLOCK
  5
1EE
330
1ED
100
AcDbEntity
  8
0
100
AcDbBlockBegin
  2
_D_2
 70
     0
 10
0.0
 20
0.0
 30
0.0
  3
_D_2
  1

  0
SOLID
  5
1F0
330
1ED
100
AcDbEntity
  8
SLD-0
100
AcDbTrace
 10
665.136316912
 20
319.4344002214
 30
0.0
 11
660.2702915083
 21
313.0061969911
 31
0.0
 12
662.0023423158
 22
312.0061969911
 32
0.0
 13
662.0023423158
 23
312.0061969911
 33
0.0
  0
LINE
  5
1F1
330
1ED
100
AcDbEntity
  8
SLD-0
100
AcDbLine
 10
551.919049374
 20
187.4158859014
 30
0.0
 11
549.0218617722
 21
187.4158859014
 31
0.0
  0
LINE
  5
1F2
330
1ED
100
AcDbEntity
  8
SLD-0
100
AcDbLine
 10
549.0218617722
 20
187.4158859014
 30
0.0
 11
549.0218617722
 21
172.2817189753
 31
0.0
  0
LINE
  5
1F3
330
1ED
100
AcDbEntity
  8
SLD-0
100
AcDbLine
 10
549.0218617722
 20
172.2817189753
 30
0.0
 11
551.919049374
 21
172.2817189753
 31
0.0
  0
LINE
  5
1F4
330
1ED
100
AcDbEntity
  8
SLD-0
100
AcDbLine
 10
569.505021698
 20
187.4158859014
 30
0.0
 11
572.4022092998
 21
187.4158859014
 31
0.0
  0
LINE
  5
1F5
330
1ED
100
AcDbEntity
  8
SLD-0
100
AcDbLine
 10
572.4022092998
 20
187.4158859014
 30
0.0
 11
572.4022092998
 21
172.2817189753
 31
0.0
  0
LINE
  5
1F6
330
1ED
100
AcDbEntity
  8
SLD-0
100
AcDbLine
 10
572.4022092998
 20
172.2817189753
 30
0.0
 11
569.505021698
 21
172.2817189753
 31
0.0
  0
LINE
  5
1F7
330
1ED
100
AcDbEntity
  8
SLD-0
100
AcDbLine
 10
665.136316912
 20
319.4344002214
 30
0.0
 11
588.2127083532
 21
186.1988018959
 31
0.0
  0
LINE
  5
1F8
330
1ED
100
AcDbEntity
  8
SLD-0
100
AcDbLine
 10
588.2127083532
 20
186.1988018959
 30
0.0
 11
580.2127083532
 21
186.1988018959
 31
0.0
  0
MTEXT
  5
1F9
330
1ED
100
AcDbEntity
  8
SLD-0
100
AcDbMText
 10
541.2113627188
 20
201.5140433661
 30
0.0
 40
9.525
 41
0.0
 71
     1
 72
     1
  1
%%c
  7
SLDTEXTSTYLE0
 73
     1
 44
1.0
  0
MTEXT
  5
1FA
330
1ED
100
AcDbEntity
  8
SLD-0
100
AcDbMText
 10
555.5888207398
 20
201.5140433661
 30
0.0
 40
9.525
 41
0.0
 71
     1
 72
     1
  1
13.0
  7
SLDTEXTSTYLE0
 73
     1
 44
1.0
  0
MTEXT
  5
1FB
330
1ED
100
AcDbEntity
  8
SLD-0
100
AcDbMText
 10
551.919049374
 20
184.4484186597
 30
0.0
 40
9.525
 41
0.0
 71
     1
 72
     1
  1
.51
  7
SLDTEXTSTYLE0
 73
     1
 44
1.0
  0
ENDBLK
  5
1EF
330
1ED
100
AcDbEntity
  8
0
100
AcDbBlockEnd
  0
BLOCK
  5
1FE
330
1FD
100
AcDbEntity
  8
0
100
AcDbBlockBegin
  2
_D_3
 70
     0
 10
0.0
 20
0.0
 30
0.0
  3
_D_3
  1

  0
SOLID
  5
200
330
1FD
100
AcDbEntity
  8
SLD-0
100
AcDbTrace
 10
759.8535035197
 20
352.4953900893
 30
0.0
 11
766.301879978
 21
357.334650472
 31
0.0
 12
764.912265839
 22
358.7730428192
 32
0.0
 13
764.912265839
 23
358.7730428192
 33
0.0
  0
LINE
  5
201
330
1FD
100
AcDbEntity
  8
SLD-0
100
AcDbLine
 10
839.0430377242
 20
400.0627389331
 30
0.0
 11
836.1458501224
 21
400.0627389331
 31
0.0
  0
LINE
  5
202
330
1FD
100
AcDbEntity
  8
SLD-0
100
AcDbLine
 10
836.1458501224
 20
400.0627389331
 30
0.0
 11
836.1458501224
 21
384.9285720069
 31
0.0
  0
LINE
  5
203
330
1FD
100
AcDbEntity
  8
SLD-0
100
AcDbLine
 10
836.1458501224
 20
384.9285720069
 30
0.0
 11
839.0430377242
 21
384.9285720069
 31
0.0
  0
LINE
  5
204
330
1FD
100
AcDbEntity
  8
SLD-0
100
AcDbLine
 10
856.6290100482
 20
400.0627389331
 30
0.0
 11
859.52619765
 21
400.0627389331
 31
0.0
  0
LINE
  5
205
330
1FD
100
AcDbEntity
  8
SLD-0
100
AcDbLine
 10
859.52619765
 20
400.0627389331
 30
0.0
 11
859.52619765
 21
384.9285720069
 31
0.0
  0
LINE
  5
206
330
1FD
100
AcDbEntity
  8
SLD-0
100
AcDbLine
 10
859.52619765
 20
384.9285720069
 30
0.0
 11
856.6290100482
 21
384.9285720069
 31
0.0
  0
LINE
  5
207
330
1FD
100
AcDbEntity
  8
SLD-0
100
AcDbLine
 10
759.8535035197
 20
352.4953900893
 30
0.0
 11
809.0905585778
 21
400.0627370704
 31
0.0
  0
LINE
  5
208
330
1FD
100
AcDbEntity
  8
SLD-0
100
AcDbLine
 10
809.0905585778
 20
400.0627370704
 30
0.0
 11
817.0905585778
 21
400.0627370704
 31
0.0
  0
MTEXT
  5
209
330
1FD
100
AcDbEntity
  8
SLD-0
100
AcDbMText
 10
817.0905585778
 20
414.1608954665
 30
0.0
 40
9.525
 41
0.0
 71
     1
 72
     1
  1
4X
  7
SLDTEXTSTYLE0
 73
     1
 44
1.0
  0
MTEXT
  5
20A
330
1FD
100
AcDbEntity
  8
SLD-0
100
AcDbMText
 10
831.8543087137
 20
414.1608963978
 30
0.0
 40
9.525
 41
0.0
 71
     1
 72
     1
  1
%%c
  7
SLDTEXTSTYLE0
 73
     1
 44
1.0
  0
MTEXT
  5
20B
330
1FD
100
AcDbEntity
  8
SLD-0
100
AcDbMText
 10
846.2317667347
 20
414.1608963978
 30
0.0
 40
9.525
 41
0.0
 71
     1
 72
     1
  1
7.0
  7
SLDTEXTSTYLE0
 73
     1
 44
1.0
  0
MTEXT
  5
20C
330
1FD
100
AcDbEntity
  8
SLD-0
100
AcDbMText
 10
839.0430377242
 20
397.0952716913
 30
0.0
 40
9.525
 41
0.0
 71
     1
 72
     1
  1
.28
  7
SLDTEXTSTYLE0
 73
     1
 44
1.0
  0
ENDBLK
  5
1FF
330
1FD
100
AcDbEntity
  8
0
100
AcDbBlockEnd
  0
BLOCK
  5
20E
330
20D
100
AcDbEntity
  8
0
100
AcDbBlockBegin
  2
SW_SYMBOL_MOD_CL
 70
     0
 10
0.0
 20
0.0
 30
0.0
  3
SW_SYMBOL_MOD_CL
  1

  0
MTEXT
  5
210
330
20D
100
AcDbEntity
  8
SLD-0
 62
     0
100
AcDbMText
 10
1600.0
 20
2400.0
 30
0.0
 40
3131.498470948
 41
0.0
 71
     5
 72
     1
  1
C
  7
SLDTEXTSTYLE0
 73
     1
 44
1.0
  0
MTEXT
  5
211
330
20D
100
AcDbEntity
  8
SLD-0
 62
     0
100
AcDbMText
 10
2400.0
 20
1200.0
 30
0.0
 40
3131.498470948
 41
0.0
 71
     5
 72
     1
  1
L
  7
SLDTEXTSTYLE0
 73
     1
 44
1.0
  0
ENDBLK
  5
20F
330
20D
100
AcDbEntity
  8
0
100
AcDbBlockEnd
  0
BLOCK
  5
215
330
214
100
AcDbEntity
  8
0
100
AcDbBlockBegin
  2
SW_CENTERMARKSYMBOL_0
 70
     0
 10
0.0
 20
0.0
 30
0.0
  3
SW_CENTERMARKSYMBOL_0
  1

  0
LINE
  5
217
330
214
100
AcDbEntity
  8
SLD-0
 62
     0
100
AcDbLine
 10
0.0
 20
0.0
 30
0.0
 11
0.0
 21
2.0
 31
0.0
  0
LINE
  5
218
330
214
100
AcDbEntity
  8
SLD-0
 62
     0
100
AcDbLine
 10
0.0
 20
0.0
 30
0.0
 11
-2.0
 21
0.0
 31
0.0
  0
LINE
  5
219
330
214
100
AcDbEntity
  8
SLD-0
 62
     0
100
AcDbLine
 10
0.0
 20
0.0
 30
0.0
 11
0.0
 21
-2.0
 31
0.0
  0
LINE
  5
21A
330
214
100
AcDbEntity
  8
SLD-0
 62
     0
100
AcDbLine
 10
0.0
 20
0.0
 30
0.0
 11
2.0
 21
0.0
 31
0.0
  0
LINE
  5
21B
330
214
100
AcDbEntity
  8
SLD-0
 62
     0
100
AcDbLine
 10
0.0
 20
4.0
 30
0.0
 11
0.0
 21
5.5
 31
0.0
  0
LINE
  5
21C
330
214
100
AcDbEntity
  8
SLD-0
 62
     0
100
AcDbLine
 10
-4.0
 20
0.0
 30
0.0
 11
-5.5
 21
0.0
 31
0.0
  0
LINE
  5
21D
330
214
100
AcDbEntity
  8
SLD-0
 62
     0
100
AcDbLine
 10
0.0
 20
-4.0
 30
0.0
 11
0.0
 21
-5.5
 31
0.0
  0
LINE
  5
21E
330
214
100
AcDbEntity
  8
SLD-0
 62
     0
100
AcDbLine
 10
4.0
 20
0.0
 30
0.0
 11
5.5
 21
0.0
 31
0.0
  0
ENDBLK
  5
216
330
214
100
AcDbEntity
  8
0
100
AcDbBlockEnd
  0
BLOCK
  5
221
330
220
100
AcDbEntity
  8
0
100
AcDbBlockBegin
  2
SW_CENTERMARKSYMBOL_1
 70
     0
 10
0.0
 20
0.0
 30
0.0
  3
SW_CENTERMARKSYMBOL_1
  1

  0
LINE
  5
223
330
220
100
AcDbEntity
  8
SLD-0
 62
     0
100
AcDbLine
 10
0.0
 20
0.0
 30
0.0
 11
0.0
 21
2.0
 31
0.0
  0
LINE
  5
224
330
220
100
AcDbEntity
  8
SLD-0
 62
     0
100
AcDbLine
 10
0.0
 20
0.0
 30
0.0
 11
-2.0
 21
0.0
 31
0.0
  0
LINE
  5
225
330
220
100
AcDbEntity
  8
SLD-0
 62
     0
100
AcDbLine
 10
0.0
 20
0.0
 30
0.0
 11
0.0
 21
-2.0
 31
0.0
  0
LINE
  5
226
330
220
100
AcDbEntity
  8
SLD-0
 62
     0
100
AcDbLine
 10
0.0
 20
0.0
 30
0.0
 11
2.0
 21
0.0
 31
0.0
  0
LINE
  5
227
330
220
100
AcDbEntity
  8
SLD-0
 62
     0
100
AcDbLine
 10
0.0
 20
4.0
 30
0.0
 11
0.0
 21
5.5
 31
0.0
  0
LINE
  5
228
330
220
100
AcDbEntity
  8
SLD-0
 62
     0
100
AcDbLine
 10
-4.0
 20
0.0
 30
0.0
 11
-5.5
 21
0.0
 31
0.0
  0
LINE
  5
229
330
220
100
AcDbEntity
  8
SLD-0
 62
     0
100
AcDbLine
 10
0.0
 20
-4.0
 30
0.0
 11
0.0
 21
-5.5
 31
0.0
  0
LINE
  5
22A
330
220
100
AcDbEntity
  8
SLD-0
 62
     0
100
AcDbLine
 10
4.0
 20
0.0
 30
0.0
 11
5.5
 21
0.0
 31
0.0
  0
ENDBLK
  5
222
330
220
100
AcDbEntity
  8
0
100
AcDbBlockEnd
  0
BLOCK
  5
22D
330
22C
100
AcDbEntity
  8
0
100
AcDbBlockBegin
  2
SW_CENTERMARKSYMBOL_2
 70
     0
 10
0.0
 20
0.0
 30
0.0
  3
SW_CENTERMARKSYMBOL_2
  1

  0
LINE
  5
22F
330
22C
100
AcDbEntity
  8
SLD-0
 62
     0
100
AcDbLine
 10
0.0
 20
0.0
 30
0.0
 11
0.0
 21
2.0
 31
0.0
  0
LINE
  5
230
330
22C
100
AcDbEntity
  8
SLD-0
 62
     0
100
AcDbLine
 10
0.0
 20
0.0
 30
0.0
 11
-2.0
 21
0.0
 31
0.0
  0
LINE
  5
231
330
22C
100
AcDbEntity
  8
SLD-0
 62
     0
100
AcDbLine
 10
0.0
 20
0.0
 30
0.0
 11
0.0
 21
-2.0
 31
0.0
  0
LINE
  5
232
330
22C
100
AcDbEntity
  8
SLD-0
 62
     0
100
AcDbLine
 10
0.0
 20
0.0
 30
0.0
 11
2.0
 21
0.0
 31
0.0
  0
LINE
  5
233
330
22C
100
AcDbEntity
  8
SLD-0
 62
     0
100
AcDbLine
 10
0.0
 20
4.0
 30
0.0
 11
0.0
 21
5.5
 31
0.0
  0
LINE
  5
234
330
22C
100
AcDbEntity
  8
SLD-0
 62
     0
100
AcDbLine
 10
-4.0
 20
0.0
 30
0.0
 11
-5.5
 21
0.0
 31
0.0
  0
LINE
  5
235
330
22C
100
AcDbEntity
  8
SLD-0
 62
     0
100
AcDbLine
 10
0.0
 20
-4.0
 30
0.0
 11
0.0
 21
-5.5
 31
0.0
  0
LINE
  5
236
330
22C
100
AcDbEntity
  8
SLD-0
 62
     0
100
AcDbLine
 10
4.0
 20
0.0
 30
0.0
 11
5.5
 21
0.0
 31
0.0
  0
ENDBLK
  5
22E
330
22C
100
AcDbEntity
  8
0
100
AcDbBlockEnd
  0
BLOCK
  5
239
330
238
100
AcDbEntity
  8
0
100
AcDbBlockBegin
  2
SW_CENTERMARKSYMBOL_3
 70
     0
 10
0.0
 20
0.0
 30
0.0
  3
SW_CENTERMARKSYMBOL_3
  1

  0
LINE
  5
23B
330
238
100
AcDbEntity
  8
SLD-0
 62
     0
100
AcDbLine
 10
0.0
 20
0.0
 30
0.0
 11
0.0
 21
2.0
 31
0.0
  0
LINE
  5
23C
330
238
100
AcDbEntity
  8
SLD-0
 62
     0
100
AcDbLine
 10
0.0
 20
0.0
 30
0.0
 11
-2.0
 21
0.0
 31
0.0
  0
LINE
  5
23D
330
238
100
AcDbEntity
  8
SLD-0
 62
     0
100
AcDbLine
 10
0.0
 20
0.0
 30
0.0
 11
0.0
 21
-2.0
 31
0.0
  0
LINE
  5
23E
330
238
100
AcDbEntity
  8
SLD-0
 62
     0
100
AcDbLine
 10
0.0
 20
0.0
 30
0.0
 11
2.0
 21
0.0
 31
0.0
  0
LINE
  5
23F
330
238
100
AcDbEntity
  8
SLD-0
 62
     0
100
AcDbLine
 10
0.0
 20
4.0
 30
0.0
 11
0.0
 21
5.5
 31
0.0
  0
LINE
  5
240
330
238
100
AcDbEntity
  8
SLD-0
 62
     0
100
AcDbLine
 10
-4.0
 20
0.0
 30
0.0
 11
-5.5
 21
0.0
 31
0.0
  0
LINE
  5
241
330
238
100
AcDbEntity
  8
SLD-0
 62
     0
100
AcDbLine
 10
0.0
 20
-4.0
 30
0.0
 11
0.0
 21
-5.5
 31
0.0
  0
LINE
  5
242
330
238
100
AcDbEntity
  8
SLD-0
 62
     0
100
AcDbLine
 10
4.0
 20
0.0
 30
0.0
 11
5.5
 21
0.0
 31
0.0
  0
ENDBLK
  5
23A
330
238
100
AcDbEntity
  8
0
100
AcDbBlockEnd
  0
BLOCK
  5
245
330
244
100
AcDbEntity
  8
0
100
AcDbBlockBegin
  2
SW_CENTERMARKSYMBOL_4
 70
     0
 10
0.0
 20
0.0
 30
0.0
  3
SW_CENTERMARKSYMBOL_4
  1

  0
LINE
  5
247
330
244
100
AcDbEntity
  8
SLD-0
 62
     0
100
AcDbLine
 10
0.0
 20
0.0
 30
0.0
 11
0.0
 21
2.0
 31
0.0
  0
LINE
  5
248
330
244
100
AcDbEntity
  8
SLD-0
 62
     0
100
AcDbLine
 10
0.0
 20
0.0
 30
0.0
 11
-2.0
 21
0.0
 31
0.0
  0
LINE
  5
249
330
244
100
AcDbEntity
  8
SLD-0
 62
     0
100
AcDbLine
 10
0.0
 20
0.0
 30
0.0
 11
0.0
 21
-2.0
 31
0.0
  0
LINE
  5
24A
330
244
100
AcDbEntity
  8
SLD-0
 62
     0
100
AcDbLine
 10
0.0
 20
0.0
 30
0.0
 11
2.0
 21
0.0
 31
0.0
  0
LINE
  5
24B
330
244
100
AcDbEntity
  8
SLD-0
 62
     0
100
AcDbLine
 10
0.0
 20
4.0
 30
0.0
 11
0.0
 21
8.5
 31
0.0
  0
LINE
  5
24C
330
244
100
AcDbEntity
  8
SLD-0
 62
     0
100
AcDbLine
 10
-4.0
 20
0.0
 30
0.0
 11
-8.5
 21
0.0
 31
0.0
  0
LINE
  5
24D
330
244
100
AcDbEntity
  8
SLD-0
 62
     0
100
AcDbLine
 10
0.0
 20
-4.0
 30
0.0
 11
0.0
 21
-8.5
 31
0.0
  0
LINE
  5
24E
330
244
100
AcDbEntity
  8
SLD-0
 62
     0
100
AcDbLine
 10
4.0
 20
0.0
 30
0.0
 11
8.5
 21
0.0
 31
0.0
  0
ENDBLK
  5
246
330
244
100
AcDbEntity
  8
0
100
AcDbBlockEnd
  0
BLOCK
  5
287
330
286
100
AcDbEntity
  8
0
100
AcDbBlockBegin
  2
_D_4
 70
     0
 10
0.0
 20
0.0
 30
0.0
  3
_D_4
  1

  0
SOLID
  5
289
330
286
100
AcDbEntity
  8
SLD-0
100
AcDbTrace
 10
182.2006780602
 20
200.3937896589
 30
0.0
 11
190.2006780602
 21
199.3937896589
 31
0.0
 12
190.2006780602
 22
201.3937896589
 32
0.0
 13
190.2006780602
 23
201.3937896589
 33
0.0
  0
SOLID
  5
28A
330
286
100
AcDbEntity
  8
SLD-0
100
AcDbTrace
 10
366.6006780602
 20
200.3937896589
 30
0.0
 11
358.6006780602
 21
201.3937896589
 31
0.0
 12
358.6006780602
 22
199.3937896589
 32
0.0
 13
358.6006780602
 23
199.3937896589
 33
0.0
  0
LINE
  5
28B
330
286
100
AcDbEntity
  8
SLD-0
100
AcDbLine
 10
262.0887342535
 20
209.1779571274
 30
0.0
 11
259.1915466517
 21
209.1779571274
 31
0.0
  0
LINE
  5
28C
330
286
100
AcDbEntity
  8
SLD-0
100
AcDbLine
 10
259.1915466517
 20
209.1779571274
 30
0.0
 11
259.1915466517
 21
194.0437902013
 31
0.0
  0
LINE
  5
28D
330
286
100
AcDbEntity
  8
SLD-0
100
AcDbLine
 10
259.1915466517
 20
194.0437902013
 30
0.0
 11
262.0887342535
 21
194.0437902013
 31
0.0
  0
LINE
  5
28E
330
286
100
AcDbEntity
  8
SLD-0
100
AcDbLine
 10
286.7126237295
 20
209.1779571274
 30
0.0
 11
289.6098113313
 21
209.1779571274
 31
0.0
  0
LINE
  5
28F
330
286
100
AcDbEntity
  8
SLD-0
100
AcDbLine
 10
289.6098113313
 20
209.1779571274
 30
0.0
 11
289.6098113313
 21
194.0437902013
 31
0.0
  0
LINE
  5
290
330
286
100
AcDbEntity
  8
SLD-0
100
AcDbLine
 10
289.6098113313
 20
194.0437902013
 30
0.0
 11
286.7126237295
 21
194.0437902013
 31
0.0
  0
LINE
  5
291
330
286
100
AcDbEntity
  8
SLD-0
100
AcDbLine
 10
182.2006780602
 20
311.8921413657
 30
0.0
 11
182.2006780602
 21
197.3457896589
 31
0.0
  0
LINE
  5
292
330
286
100
AcDbEntity
  8
SLD-0
100
AcDbLine
 10
366.6006780602
 20
284.4667379886
 30
0.0
 11
366.6006780602
 21
197.3457896589
 31
0.0
  0
LINE
  5
293
330
286
100
AcDbEntity
  8
SLD-0
100
AcDbLine
 10
182.2006780602
 20
200.3937896589
 30
0.0
 11
238.506194828
 21
200.3937896589
 31
0.0
  0
LINE
  5
294
330
286
100
AcDbEntity
  8
SLD-0
100
AcDbLine
 10
366.6006780602
 20
200.3937896589
 30
0.0
 11
310.2951612924
 21
200.3937896589
 31
0.0
  0
MTEXT
  5
295
330
286
100
AcDbEntity
  8
SLD-0
100
AcDbMText
 10
258.5697756774
 20
223.2761145922
 30
0.0
 40
9.525
 41
0.0
 71
     1
 72
     1
  1
184.4
  7
SLDTEXTSTYLE0
 73
     1
 44
1.0
  0
MTEXT
  5
296
330
286
100
AcDbEntity
  8
SLD-0
100
AcDbMText
 10
262.0887342535
 20
206.2104898857
 30
0.0
 40
9.525
 41
0.0
 71
     1
 72
     1
  1
7.26
  7
SLDTEXTSTYLE0
 73
     1
 44
1.0
  0
MTEXT
  5
297
330
286
100
AcDbEntity
  8
SLD-0
100
AcDbMText
 10
240.4369977928
 20
189.1448642479
 30
0.0
 40
9.525
 41
0.0
 71
     1
 72
     1
  1
BOTH ENDS
  7
SLDTEXTSTYLE0
 73
     1
 44
1.0
  0
ENDBLK
  5
288
330
286
100
AcDbEntity
  8
0
100
AcDbBlockEnd
  0
BLOCK
  5
29B
330
29A
100
AcDbEntity
  8
0
100
AcDbBlockBegin
  2
_D_5
 70
     0
 10
0.0
 20
0.0
 30
0.0
  3
_D_5
  1

  0
SOLID
  5
29D
330
29A
100
AcDbEntity
  8
SLD-0
100
AcDbTrace
 10
366.6006780602
 20
465.0408803365
 30
0.0
 11
358.6006780602
 21
466.0408803365
 31
0.0
 12
358.6006780602
 22
464.0408803365
 32
0.0
 13
358.6006780602
 23
464.0408803365
 33
0.0
  0
SOLID
  5
29E
330
29A
100
AcDbEntity
  8
SLD-0
100
AcDbTrace
 10
138.9558506034
 20
465.0408803365
 30
0.0
 11
146.9558506034
 21
464.0408803365
 31
0.0
 12
146.9558506034
 22
466.0408803365
 32
0.0
 13
146.9558506034
 23
466.0408803365
 33
0.0
  0
LINE
  5
29F
330
29A
100
AcDbEntity
  8
SLD-0
100
AcDbLine
 10
240.4663195938
 20
465.0408821992
 30
0.0
 11
237.569131992
 21
465.0408821992
 31
0.0
  0
LINE
  5
2A0
330
29A
100
AcDbEntity
  8
SLD-0
100
AcDbLine
 10
237.569131992
 20
465.0408821992
 30
0.0
 11
237.569131992
 21
449.906715273
 31
0.0
  0
LINE
  5
2A1
330
29A
100
AcDbEntity
  8
SLD-0
100
AcDbLine
 10
237.569131992
 20
449.906715273
 30
0.0
 11
240.4663195938
 21
449.906715273
 31
0.0
  0
LINE
  5
2A2
330
29A
100
AcDbEntity
  8
SLD-0
100
AcDbLine
 10
265.0902090698
 20
465.0408821992
 30
0.0
 11
267.9873966716
 21
465.0408821992
 31
0.0
  0
LINE
  5
2A3
330
29A
100
AcDbEntity
  8
SLD-0
100
AcDbLine
 10
267.9873966716
 20
465.0408821992
 30
0.0
 11
267.9873966716
 21
449.906715273
 31
0.0
  0
LINE
  5
2A4
330
29A
100
AcDbEntity
  8
SLD-0
100
AcDbLine
 10
267.9873966716
 20
449.906715273
 30
0.0
 11
265.0902090698
 21
449.906715273
 31
0.0
  0
LINE
  5
2A5
330
29A
100
AcDbEntity
  8
SLD-0
100
AcDbLine
 10
366.6006780602
 20
367.7806337341
 30
0.0
 11
366.6006780602
 21
468.0888803365
 31
0.0
  0
LINE
  5
2A6
330
29A
100
AcDbEntity
  8
SLD-0
100
AcDbLine
 10
138.9558506034
 20
396.1298681728
 30
0.0
 11
138.9558506034
 21
468.0888803365
 31
0.0
  0
LINE
  5
2A7
330
29A
100
AcDbEntity
  8
SLD-0
100
AcDbLine
 10
366.6006780602
 20
465.0408803365
 30
0.0
 11
276.3255261895
 21
465.0408803365
 31
0.0
  0
LINE
  5
2A8
330
29A
100
AcDbEntity
  8
SLD-0
100
AcDbLine
 10
138.9558506034
 20
465.0408803365
 30
0.0
 11
229.2310024741
 21
465.0408803365
 31
0.0
  0
MTEXT
  5
2A9
330
29A
100
AcDbEntity
  8
SLD-0
100
AcDbMText
 10
231.161805439
 20
479.1390387326
 30
0.0
 40
9.525
 41
0.0
 71
     1
 72
     1
  1
 
  7
SLDTEXTSTYLE0
 73
     1
 44
1.0
  0
MTEXT
  5
2AA
330
29A
100
AcDbEntity
  8
SLD-0
100
AcDbMText
 10
236.9473610177
 20
479.1390396639
 30
0.0
 40
9.525
 41
0.0
 71
     1
 72
     1
  1
227.6
  7
SLDTEXTSTYLE0
 73
     1
 44
1.0
  0
MTEXT
  5
2AB
330
29A
100
AcDbEntity
  8
SLD-0
100
AcDbMText
 10
240.4663195938
 20
462.0734149574
 30
0.0
 40
9.525
 41
0.0
 71
     1
 72
     1
  1
8.96
  7
SLDTEXTSTYLE0
 73
     1
 44
1.0
  0
MTEXT
  5
2AC
330
29A
100
AcDbEntity
  8
SLD-0
100
AcDbMText
 10
270.884583342
 20
479.1390387326
 30
0.0
 40
9.525
 41
0.0
 71
     1
 72
     1
  1
 
  7
SLDTEXTSTYLE0
 73
     1
 44
1.0
  0
ENDBLK
  5
29C
330
29A
100
AcDbEntity
  8
0
100
AcDbBlockEnd
  0
BLOCK
  5
2B0
330
2AF
100
AcDbEntity
  8
0
100
AcDbBlockBegin
  2
_D_6
 70
     0
 10
0.0
 20
0.0
 30
0.0
  3
_D_6
  1

  0
SOLID
  5
2B2
330
2AF
100
AcDbEntity
  8
SLD-0
100
AcDbTrace
 10
429.2910901364
 20
364.063565346
 30
0.0
 11
428.2910901364
 21
356.063565346
 31
0.0
 12
430.2910901364
 22
356.063565346
 32
0.0
 13
430.2910901364
 23
356.063565346
 33
0.0
  0
SOLID
  5
2B3
330
2AF
100
AcDbEntity
  8
SLD-0
100
AcDbTrace
 10
429.2910901364
 20
286.063565346
 30
0.0
 11
430.2910901364
 21
294.063565346
 31
0.0
 12
428.2910901364
 22
294.063565346
 32
0.0
 13
428.2910901364
 23
294.063565346
 33
0.0
  0
LINE
  5
2B4
330
2AF
100
AcDbEntity
  8
SLD-0
100
AcDbLine
 10
416.9791453984
 20
325.0635672086
 30
0.0
 11
414.0819577966
 21
325.0635672086
 31
0.0
  0
LINE
  5
2B5
330
2AF
100
AcDbEntity
  8
SLD-0
100
AcDbLine
 10
414.0819577966
 20
325.0635672086
 30
0.0
 11
414.0819577966
 21
309.9294002825
 31
0.0
  0
LINE
  5
2B6
330
2AF
100
AcDbEntity
  8
SLD-0
100
AcDbLine
 10
414.0819577966
 20
309.9294002825
 30
0.0
 11
416.9791453984
 21
309.9294002825
 31
0.0
  0
LINE
  5
2B7
330
2AF
100
AcDbEntity
  8
SLD-0
100
AcDbLine
 10
441.6030348745
 20
325.0635672086
 30
0.0
 11
444.5002224762
 21
325.0635672086
 31
0.0
  0
LINE
  5
2B8
330
2AF
100
AcDbEntity
  8
SLD-0
100
AcDbLine
 10
444.5002224762
 20
325.0635672086
 30
0.0
 11
444.5002224762
 21
309.9294002825
 31
0.0
  0
LINE
  5
2B9
330
2AF
100
AcDbEntity
  8
SLD-0
100
AcDbLine
 10
444.5002224762
 20
309.9294002825
 30
0.0
 11
441.6030348745
 21
309.9294002825
 31
0.0
  0
LINE
  5
2BA
330
2AF
100
AcDbEntity
  8
SLD-0
100
AcDbLine
 10
368.3599988538
 20
364.063565346
 30
0.0
 11
432.3390901364
 21
364.063565346
 31
0.0
  0
LINE
  5
2BB
330
2AF
100
AcDbEntity
  8
SLD-0
100
AcDbLine
 10
368.1081472253
 20
286.063565346
 30
0.0
 11
432.3390901364
 21
286.063565346
 31
0.0
  0
LINE
  5
2BC
330
2AF
100
AcDbEntity
  8
SLD-0
100
AcDbLine
 10
429.2910901364
 20
364.063565346
 30
0.0
 11
429.2910901364
 21
342.1291909837
 31
0.0
  0
LINE
  5
2BD
330
2AF
100
AcDbEntity
  8
SLD-0
100
AcDbLine
 10
429.2910901364
 20
286.063565346
 30
0.0
 11
429.2910901364
 21
307.9979397082
 31
0.0
  0
MTEXT
  5
2BE
330
2AF
100
AcDbEntity
  8
SLD-0
100
AcDbMText
 10
407.6746312436
 20
339.161723742
 30
0.0
 40
9.525
 41
0.0
 71
     1
 72
     1
  1
 
  7
SLDTEXTSTYLE0
 73
     1
 44
1.0
  0
MTEXT
  5
2BF
330
2AF
100
AcDbEntity
  8
SLD-0
100
AcDbMText
 10
416.9791444671
 20
339.1617246733
 30
0.0
 40
9.525
 41
0.0
 71
     1
 72
     1
  1
78.0
  7
SLDTEXTSTYLE0
 73
     1
 44
1.0
  0
MTEXT
  5
2C0
330
2AF
100
AcDbEntity
  8
SLD-0
100
AcDbMText
 10
416.9791453984
 20
322.0960999669
 30
0.0
 40
9.525
 41
0.0
 71
     1
 72
     1
  1
3.07
  7
SLDTEXTSTYLE0
 73
     1
 44
1.0
  0
MTEXT
  5
2C1
330
2AF
100
AcDbEntity
  8
SLD-0
100
AcDbMText
 10
447.3974091467
 20
339.161723742
 30
0.0
 40
9.525
 41
0.0
 71
     1
 72
     1
  1
 
  7
SLDTEXTSTYLE0
 73
     1
 44
1.0
  0
ENDBLK
  5
2B1
330
2AF
100
AcDbEntity
  8
0
100
AcDbBlockEnd
  0
BLOCK
  5
2C4
330
2C3
100
AcDbEntity
  8
0
100
AcDbBlockBegin
  2
_D_7
 70
     0
 10
0.0
 20
0.0
 30
0.0
  3
_D_7
  1

  0
SOLID
  5
2C6
330
2C3
100
AcDbEntity
  8
SLD-0
100
AcDbTrace
 10
72.9965656914
 20
381.3005826922
 30
0.0
 11
74.1011922259
 21
373.3143570368
 31
0.0
 12
76.0330438785
 22
373.831995127
 32
0.0
 13
76.0330438785
 23
373.831995127
 33
0.0
  0
SOLID
  5
2C7
330
2C3
100
AcDbEntity
  8
SLD-0
100
AcDbTrace
 10
119.6616395233
 20
207.1441562123
 30
0.0
 11
118.5570129888
 21
215.1303818677
 31
0.0
 12
116.6251613362
 22
214.6127437775
 32
0.0
 13
116.6251613362
 23
214.6127437775
 33
0.0
  0
LINE
  5
2C8
330
2C3
100
AcDbEntity
  8
SLD-0
100
AcDbLine
 10
84.0171578693
 20
294.2223713149
 30
0.0
 11
81.1199702675
 21
294.2223713149
 31
0.0
  0
LINE
  5
2C9
330
2C3
100
AcDbEntity
  8
SLD-0
100
AcDbLine
 10
81.1199702675
 20
294.2223713149
 30
0.0
 11
81.1199702675
 21
279.0882043887
 31
0.0
  0
LINE
  5
2CA
330
2C3
100
AcDbEntity
  8
SLD-0
100
AcDbLine
 10
81.1199702675
 20
279.0882043887
 30
0.0
 11
84.0171578693
 21
279.0882043887
 31
0.0
  0
LINE
  5
2CB
330
2C3
100
AcDbEntity
  8
SLD-0
100
AcDbLine
 10
108.6410473454
 20
294.2223713149
 30
0.0
 11
111.5382349472
 21
294.2223713149
 31
0.0
  0
LINE
  5
2CC
330
2C3
100
AcDbEntity
  8
SLD-0
100
AcDbLine
 10
111.5382349472
 20
294.2223713149
 30
0.0
 11
111.5382349472
 21
279.0882043887
 31
0.0
  0
LINE
  5
2CD
330
2C3
100
AcDbEntity
  8
SLD-0
100
AcDbLine
 10
111.5382349472
 20
279.0882043887
 30
0.0
 11
108.6410473454
 21
279.0882043887
 31
0.0
  0
LINE
  5
2CE
330
2C3
100
AcDbEntity
  8
SLD-0
100
AcDbLine
 10
144.0156474792
 20
400.3300883044
 30
0.0
 11
70.0524237728
 21
380.5117022427
 31
0.0
  0
LINE
  5
2CF
330
2C3
100
AcDbEntity
  8
SLD-0
100
AcDbLine
 10
188.6763491661
 20
225.6365919269
 30
0.0
 11
116.7174976048
 21
206.3552757628
 31
0.0
  0
LINE
  5
2D0
330
2C3
100
AcDbEntity
  8
SLD-0
100
AcDbLine
 10
72.9965656914
 20
381.3005826922
 30
0.0
 11
91.7563819994
 21
311.28799509
 31
0.0
  0
LINE
  5
2D1
330
2C3
100
AcDbEntity
  8
SLD-0
100
AcDbLine
 10
119.6616395233
 20
207.1441562123
 30
0.0
 11
100.9018232153
 21
277.1567438145
 31
0.0
  0
MTEXT
  5
2D2
330
2C3
100
AcDbEntity
  8
SLD-0
100
AcDbMText
 10
74.7126437145
 20
308.3205278483
 30
0.0
 40
9.525
 41
0.0
 71
     1
 72
     1
  1
 
  7
SLDTEXTSTYLE0
 73
     1
 44
1.0
  0
MTEXT
  5
2D3
330
2C3
100
AcDbEntity
  8
SLD-0
100
AcDbMText
 10
80.4981992933
 20
308.3205287796
 30
0.0
 40
9.525
 41
0.0
 71
     1
 72
     1
  1
180.3
  7
SLDTEXTSTYLE0
 73
     1
 44
1.0
  0
MTEXT
  5
2D4
330
2C3
100
AcDbEntity
  8
SLD-0
100
AcDbMText
 10
84.0171578693
 20
291.2549040731
 30
0.0
 40
9.525
 41
0.0
 71
     1
 72
     1
  1
7.10
  7
SLDTEXTSTYLE0
 73
     1
 44
1.0
  0
MTEXT
  5
2D5
330
2C3
100
AcDbEntity
  8
SLD-0
100
AcDbMText
 10
114.4354216176
 20
308.3205278483
 30
0.0
 40
9.525
 41
0.0
 71
     1
 72
     1
  1
 
  7
SLDTEXTSTYLE0
 73
     1
 44
1.0
  0
ENDBLK
  5
2C5
330
2C3
100
AcDbEntity
  8
0
100
AcDbBlockEnd
  0
BLOCK
  5
2D9
330
2D8
100
AcDbEntity
  8
0
100
AcDbBlockBegin
  2
_D_8
 70
     0
 10
0.0
 20
0.0
 30
0.0
  3
_D_8
  1

  0
ARC
  5
2DB
330
2D8
100
AcDbEntity
  8
SLD-0
100
AcDbCircle
 10
162.5939903371
 20
405.3081402699
 30
0.0
 40
38.21271067658489
100
AcDbArc
 50
336.4787422153
 51
0.0
  0
ARC
  5
2DC
330
2D8
100
AcDbEntity
  8
SLD-0
100
AcDbCircle
 10
162.5939903371
 20
405.3081402699
 30
0.0
 40
38.21271067658489
100
AcDbArc
 50
15.0
 51
37.091336289
  0
SOLID
  5
2DD
330
2D8
100
AcDbEntity
  8
SLD-0
100
AcDbTrace
 10
200.8067010137
 20
405.3081402699
 30
0.0
 11
198.9879889772
 21
397.4536965259
 31
0.0
 12
200.9773508845
 22
397.2476887552
 32
0.0
 13
200.9773508845
 23
397.2476887552
 33
0.0
  0
SOLID
  5
2DE
330
2D8
100
AcDbEntity
  8
SLD-0
100
AcDbTrace
 10
199.5046344722
 20
415.198317558
 30
0.0
 11
197.5832712255
 21
423.0282832843
 31
0.0
 12
195.7150139158
 22
422.3144103089
 32
0.0
 13
195.7150139158
 23
422.3144103089
 33
0.0
  0
LINE
  5
2DF
330
2D8
100
AcDbEntity
  8
SLD-0
100
AcDbLine
 10
170.0355279202
 20
407.3020942558
 30
0.0
 11
202.4487763907
 21
415.9871980075
 31
0.0
  0
MTEXT
  5
2E0
330
2D8
100
AcDbEntity
  8
SLD-0
100
AcDbMText
 10
175.8868988129
 20
440.520443441
 30
0.0
 40
9.525
 41
0.0
 71
     1
 72
     1
  1
15°
  7
SLDTEXTSTYLE0
 73
     1
 44
1.0
  0
ENDBLK
  5
2DA
330
2D8
100
AcDbEntity
  8
0
100
AcDbBlockEnd
  0
BLOCK
  5
318
330
317
100
AcDbEntity
  8
0
100
AcDbBlockBegin
  2
_D_9
 70
     0
 10
0.0
 20
0.0
 30
0.0
  3
_D_9
  1

  0
SOLID
  5
31A
330
317
100
AcDbEntity
  8
SLD-0
100
AcDbTrace
 10
976.9635462951
 20
456.2786169191
 30
0.0
 11
984.9635462951
 21
455.2786169191
 31
0.0
 12
984.9635462951
 22
457.2786169191
 32
0.0
 13
984.9635462951
 23
457.2786169191
 33
0.0
  0
SOLID
  5
31B
330
317
100
AcDbEntity
  8
SLD-0
100
AcDbTrace
 10
1119.9635462951
 20
456.2786169191
 30
0.0
 11
1111.9635462951
 21
457.2786169191
 31
0.0
 12
1111.9635462951
 22
455.2786169191
 32
0.0
 13
1111.9635462951
 23
455.2786169191
 33
0.0
  0
LINE
  5
31C
330
317
100
AcDbEntity
  8
SLD-0
100
AcDbLine
 10
1036.1516024884
 20
465.0627843877
 30
0.0
 11
1033.2544148866
 21
465.0627843877
 31
0.0
  0
LINE
  5
31D
330
317
100
AcDbEntity
  8
SLD-0
100
AcDbLine
 10
1033.2544148866
 20
465.0627843877
 30
0.0
 11
1033.2544148866
 21
449.9286174615
 31
0.0
  0
LINE
  5
31E
330
317
100
AcDbEntity
  8
SLD-0
100
AcDbLine
 10
1033.2544148866
 20
449.9286174615
 30
0.0
 11
1036.1516024884
 21
449.9286174615
 31
0.0
  0
LINE
  5
31F
330
317
100
AcDbEntity
  8
SLD-0
100
AcDbLine
 10
1060.7754919645
 20
465.0627843877
 30
0.0
 11
1063.6726795663
 21
465.0627843877
 31
0.0
  0
LINE
  5
320
330
317
100
AcDbEntity
  8
SLD-0
100
AcDbLine
 10
1063.6726795663
 20
465.0627843877
 30
0.0
 11
1063.6726795663
 21
449.9286174615
 31
0.0
  0
LINE
  5
321
330
317
100
AcDbEntity
  8
SLD-0
100
AcDbLine
 10
1063.6726795663
 20
449.9286174615
 30
0.0
 11
1060.7754919645
 21
449.9286174615
 31
0.0
  0
LINE
  5
322
330
317
100
AcDbEntity
  8
SLD-0
100
AcDbLine
 10
976.9635462951
 20
366.4050109837
 30
0.0
 11
976.9635462951
 21
459.3266169191
 31
0.0
  0
LINE
  5
323
330
317
100
AcDbEntity
  8
SLD-0
100
AcDbLine
 10
1119.9635462951
 20
335.111565346
 30
0.0
 11
1119.9635462951
 21
459.3266169191
 31
0.0
  0
LINE
  5
324
330
317
100
AcDbEntity
  8
SLD-0
100
AcDbLine
 10
976.9635462951
 20
456.2786169191
 30
0.0
 11
1012.5690630629
 21
456.2786169191
 31
0.0
  0
LINE
  5
325
330
317
100
AcDbEntity
  8
SLD-0
100
AcDbLine
 10
1119.9635462951
 20
456.2786169191
 30
0.0
 11
1084.3580295274
 21
456.2786169191
 31
0.0
  0
MTEXT
  5
326
330
317
100
AcDbEntity
  8
SLD-0
100
AcDbMText
 10
1032.6326439124
 20
479.1609418524
 30
0.0
 40
9.525
 41
0.0
 71
     1
 72
     1
  1
143.0
  7
SLDTEXTSTYLE0
 73
     1
 44
1.0
  0
MTEXT
  5
327
330
317
100
AcDbEntity
  8
SLD-0
100
AcDbMText
 10
1036.1516024884
 20
462.0953171459
 30
0.0
 40
9.525
 41
0.0
 71
     1
 72
     1
  1
5.63
  7
SLDTEXTSTYLE0
 73
     1
 44
1.0
  0
MTEXT
  5
328
330
317
100
AcDbEntity
  8
SLD-0
100
AcDbMText
 10
1014.4998660278
 20
445.0296915082
 30
0.0
 40
9.525
 41
0.0
 71
     1
 72
     1
  1
BOTH ENDS
  7
SLDTEXTSTYLE0
 73
     1
 44
1.0
  0
ENDBLK
  5
319
330
317
100
AcDbEntity
  8
0
100
AcDbBlockEnd
  0
BLOCK
  5
32B
330
32A
100
AcDbEntity
  8
0
100
AcDbBlockBegin
  2
_D_10
 70
     0
 10
0.0
 20
0.0
 30
0.0
  3
_D_10
  1

  0
SOLID
  5
32D
330
32A
100
AcDbEntity
  8
SLD-0
100
AcDbTrace
 10
1119.9635462951
 20
456.2786169191
 30
0.0
 11
1111.9635462951
 21
457.2786169191
 31
0.0
 12
1111.9635462951
 22
455.2786169191
 32
0.0
 13
1111.9635462951
 23
455.2786169191
 33
0.0
  0
SOLID
  5
32E
330
32A
100
AcDbEntity
  8
SLD-0
100
AcDbTrace
 10
1135.9635462951
 20
456.2786169191
 30
0.0
 11
1143.9635462951
 21
455.2786169191
 31
0.0
 12
1143.9635462951
 22
457.2786169191
 32
0.0
 13
1143.9635462951
 23
457.2786169191
 33
0.0
  0
LINE
  5
32F
330
32A
100
AcDbEntity
  8
SLD-0
100
AcDbLine
 10
1179.8169823306
 20
465.0627843877
 30
0.0
 11
1176.9197947289
 21
465.0627843877
 31
0.0
  0
LINE
  5
330
330
32A
100
AcDbEntity
  8
SLD-0
100
AcDbLine
 10
1176.9197947289
 20
465.0627843877
 30
0.0
 11
1176.9197947289
 21
449.9286174615
 31
0.0
  0
LINE
  5
331
330
32A
100
AcDbEntity
  8
SLD-0
100
AcDbLine
 10
1176.9197947289
 20
449.9286174615
 30
0.0
 11
1179.8169823306
 21
449.9286174615
 31
0.0
  0
LINE
  5
332
330
32A
100
AcDbEntity
  8
SLD-0
100
AcDbLine
 10
1197.4029546547
 20
465.0627843877
 30
0.0
 11
1200.3001422564
 21
465.0627843877
 31
0.0
  0
LINE
  5
333
330
32A
100
AcDbEntity
  8
SLD-0
100
AcDbLine
 10
1200.3001422564
 20
465.0627843877
 30
0.0
 11
1200.3001422564
 21
449.9286174615
 31
0.0
  0
LINE
  5
334
330
32A
100
AcDbEntity
  8
SLD-0
100
AcDbLine
 10
1200.3001422564
 20
449.9286174615
 30
0.0
 11
1197.4029546547
 21
449.9286174615
 31
0.0
  0
LINE
  5
335
330
32A
100
AcDbEntity
  8
SLD-0
100
AcDbLine
 10
1119.9635462951
 20
335.111565346
 30
0.0
 11
1119.9635462951
 21
459.3266169191
 31
0.0
  0
LINE
  5
336
330
32A
100
AcDbEntity
  8
SLD-0
100
AcDbLine
 10
1135.9635462951
 20
335.361565346
 30
0.0
 11
1135.9635462951
 21
459.3266169191
 31
0.0
  0
LINE
  5
337
330
32A
100
AcDbEntity
  8
SLD-0
100
AcDbLine
 10
1119.9635462951
 20
456.2786169191
 30
0.0
 11
1103.9635462951
 21
456.2786169191
 31
0.0
  0
LINE
  5
338
330
32A
100
AcDbEntity
  8
SLD-0
100
AcDbLine
 10
1135.9635462951
 20
456.2786169191
 30
0.0
 11
1152.7154852604
 21
456.2786169191
 31
0.0
  0
MTEXT
  5
339
330
32A
100
AcDbEntity
  8
SLD-0
100
AcDbMText
 10
1176.2980237546
 20
479.1609418524
 30
0.0
 40
9.525
 41
0.0
 71
     1
 72
     1
  1
16.0
  7
SLDTEXTSTYLE0
 73
     1
 44
1.0
  0
MTEXT
  5
33A
330
32A
100
AcDbEntity
  8
SLD-0
100
AcDbMText
 10
1179.8169823306
 20
462.0953171459
 30
0.0
 40
9.525
 41
0.0
 71
     1
 72
     1
  1
.63
  7
SLDTEXTSTYLE0
 73
     1
 44
1.0
  0
MTEXT
  5
33B
330
32A
100
AcDbEntity
  8
SLD-0
100
AcDbMText
 10
1154.6462882253
 20
445.0296915082
 30
0.0
 40
9.525
 41
0.0
 71
     1
 72
     1
  1
BOTH ENDS
  7
SLDTEXTSTYLE0
 73
     1
 44
1.0
  0
ENDBLK
  5
32C
330
32A
100
AcDbEntity
  8
0
100
AcDbBlockEnd
  0
BLOCK
  5
33E
330
33D
100
AcDbEntity
  8
0
100
AcDbBlockBegin
  2
SW_CENTERMARKSYMBOL_5
 70
     0
 10
0.0
 20
0.0
 30
0.0
  3
SW_CENTERMARKSYMBOL_5
  1

  0
LINE
  5
340
330
33D
100
AcDbEntity
  8
SLD-0
 62
     0
100
AcDbLine
 10
0.0
 20
0.0
 30
0.0
 11
0.0
 21
2.0
 31
0.0
  0
LINE
  5
341
330
33D
100
AcDbEntity
  8
SLD-0
 62
     0
100
AcDbLine
 10
0.0
 20
0.0
 30
0.0
 11
-2.0
 21
0.0
 31
0.0
  0
LINE
  5
342
330
33D
100
AcDbEntity
  8
SLD-0
 62
     0
100
AcDbLine
 10
0.0
 20
0.0
 30
0.0
 11
0.0
 21
-2.0
 31
0.0
  0
LINE
  5
343
330
33D
100
AcDbEntity
  8
SLD-0
 62
     0
100
AcDbLine
 10
0.0
 20
0.0
 30
0.0
 11
2.0
 21
0.0
 31
0.0
  0
LINE
  5
344
330
33D
100
AcDbEntity
  8
SLD-0
 62
     0
100
AcDbLine
 10
0.0
 20
4.0
 30
0.0
 11
0.0
 21
7.25
 31
0.0
  0
LINE
  5
345
330
33D
100
AcDbEntity
  8
SLD-0
 62
     0
100
AcDbLine
 10
-4.0
 20
0.0
 30
0.0
 11
-7.25
 21
0.0
 31
0.0
  0
LINE
  5
346
330
33D
100
AcDbEntity
  8
SLD-0
 62
     0
100
AcDbLine
 10
0.0
 20
-4.0
 30
0.0
 11
0.0
 21
-7.25
 31
0.0
  0
LINE
  5
347
330
33D
100
AcDbEntity
  8
SLD-0
 62
     0
100
AcDbLine
 10
4.0
 20
0.0
 30
0.0
 11
7.25
 21
0.0
 31
0.0
  0
ENDBLK
  5
33F
330
33D
100
AcDbEntity
  8
0
100
AcDbBlockEnd
  0
BLOCK
  5
34A
330
349
100
AcDbEntity
  8
0
100
AcDbBlockBegin
  2
SW_CENTERMARKSYMBOL_6
 70
     0
 10
0.0
 20
0.0
 30
0.0
  3
SW_CENTERMARKSYMBOL_6
  1

  0
LINE
  5
34C
330
349
100
AcDbEntity
  8
SLD-0
 62
     0
100
AcDbLine
 10
0.0
 20
0.0
 30
0.0
 11
0.0
 21
2.0
 31
0.0
  0
LINE
  5
34D
330
349
100
AcDbEntity
  8
SLD-0
 62
     0
100
AcDbLine
 10
0.0
 20
0.0
 30
0.0
 11
-2.0
 21
0.0
 31
0.0
  0
LINE
  5
34E
330
349
100
AcDbEntity
  8
SLD-0
 62
     0
100
AcDbLine
 10
0.0
 20
0.0
 30
0.0
 11
0.0
 21
-2.0
 31
0.0
  0
LINE
  5
34F
330
349
100
AcDbEntity
  8
SLD-0
 62
     0
100
AcDbLine
 10
0.0
 20
0.0
 30
0.0
 11
2.0
 21
0.0
 31
0.0
  0
LINE
  5
350
330
349
100
AcDbEntity
  8
SLD-0
 62
     0
100
AcDbLine
 10
0.0
 20
4.0
 30
0.0
 11
0.0
 21
7.0
 31
0.0
  0
LINE
  5
351
330
349
100
AcDbEntity
  8
SLD-0
 62
     0
100
AcDbLine
 10
-4.0
 20
0.0
 30
0.0
 11
-7.0
 21
0.0
 31
0.0
  0
LINE
  5
352
330
349
100
AcDbEntity
  8
SLD-0
 62
     0
100
AcDbLine
 10
0.0
 20
-4.0
 30
0.0
 11
0.0
 21
-7.0
 31
0.0
  0
LINE
  5
353
330
349
100
AcDbEntity
  8
SLD-0
 62
     0
100
AcDbLine
 10
4.0
 20
0.0
 30
0.0
 11
7.0
 21
0.0
 31
0.0
  0
ENDBLK
  5
34B
330
349
100
AcDbEntity
  8
0
100
AcDbBlockEnd
  0
BLOCK
  5
3CE
330
3CD
100
AcDbEntity
  8
0
100
AcDbBlockBegin
  2
_D_11
 70
     0
 10
0.0
 20
0.0
 30
0.0
  3
_D_11
  1

  0
SOLID
  5
3D0
330
3CD
100
AcDbEntity
  8
SLD-0
100
AcDbTrace
 10
559.9863169128
 20
584.6763996099
 30
0.0
 11
567.9863169128
 21
583.6763996098
 31
0.0
 12
567.9863169128
 22
585.6763996098
 32
0.0
 13
567.9863169128
 23
585.6763996098
 33
0.0
  0
SOLID
  5
3D1
330
3CD
100
AcDbEntity
  8
SLD-0
100
AcDbTrace
 10
776.7863169104
 20
584.676399608
 30
0.0
 11
768.7863169104
 21
585.6763996081
 31
0.0
 12
768.7863169104
 22
583.6763996081
 32
0.0
 13
768.7863169104
 23
583.6763996081
 33
0.0
  0
LINE
  5
3D2
330
3CD
100
AcDbEntity
  8
SLD-0
100
AcDbLine
 10
656.0743721735
 20
584.6764014716
 30
0.0
 11
653.1771845718
 21
584.6764014716
 31
0.0
  0
LINE
  5
3D3
330
3CD
100
AcDbEntity
  8
SLD-0
100
AcDbLine
 10
653.1771845718
 20
584.6764014716
 30
0.0
 11
653.1771845718
 21
569.5422345455
 31
0.0
  0
LINE
  5
3D4
330
3CD
100
AcDbEntity
  8
SLD-0
100
AcDbLine
 10
653.1771845718
 20
569.5422345455
 30
0.0
 11
656.0743721735
 21
569.5422345455
 31
0.0
  0
LINE
  5
3D5
330
3CD
100
AcDbEntity
  8
SLD-0
100
AcDbLine
 10
680.6982616496
 20
584.6764014716
 30
0.0
 11
683.5954492514
 21
584.6764014716
 31
0.0
  0
LINE
  5
3D6
330
3CD
100
AcDbEntity
  8
SLD-0
100
AcDbLine
 10
683.5954492514
 20
584.6764014716
 30
0.0
 11
683.5954492514
 21
569.5422345455
 31
0.0
  0
LINE
  5
3D7
330
3CD
100
AcDbEntity
  8
SLD-0
100
AcDbLine
 10
683.5954492514
 20
569.5422345455
 30
0.0
 11
680.6982616496
 21
569.5422345455
 31
0.0
  0
LINE
  5
3D8
330
3CD
100
AcDbEntity
  8
SLD-0
100
AcDbLine
 10
559.9863169132
 20
631.8192591337
 30
0.0
 11
559.9863169127
 21
581.6283996099
 31
0.0
  0
LINE
  5
3D9
330
3CD
100
AcDbEntity
  8
SLD-0
100
AcDbLine
 10
776.7863169108
 20
631.3575804568
 30
0.0
 11
776.7863169103
 21
581.628399608
 31
0.0
  0
LINE
  5
3DA
330
3CD
100
AcDbEntity
  8
SLD-0
100
AcDbLine
 10
559.9863169128
 20
584.6763996099
 30
0.0
 11
644.8390550539
 21
584.6763996092
 31
0.0
  0
LINE
  5
3DB
330
3CD
100
AcDbEntity
  8
SLD-0
100
AcDbLine
 10
776.7863169104
 20
584.676399608
 30
0.0
 11
691.9335787693
 21
584.6763996088
 31
0.0
  0
MTEXT
  5
3DC
330
3CD
100
AcDbEntity
  8
SLD-0
100
AcDbMText
 10
646.7698580187
 20
598.774558005
 30
0.0
 40
9.525
 41
0.0
 71
     1
 72
     1
  1
 
  7
SLDTEXTSTYLE0
 73
     1
 44
1.0
  0
MTEXT
  5
3DD
330
3CD
100
AcDbEntity
  8
SLD-0
100
AcDbMText
 10
652.5554135975
 20
598.7745589363
 30
0.0
 40
9.525
 41
0.0
 71
     1
 72
     1
  1
216.8
  7
SLDTEXTSTYLE0
 73
     1
 44
1.0
  0
MTEXT
  5
3DE
330
3CD
100
AcDbEntity
  8
SLD-0
100
AcDbMText
 10
656.0743721735
 20
581.7089342299
 30
0.0
 40
9.525
 41
0.0
 71
     1
 72
     1
  1
8.54
  7
SLDTEXTSTYLE0
 73
     1
 44
1.0
  0
MTEXT
  5
3DF
330
3CD
100
AcDbEntity
  8
SLD-0
100
AcDbMText
 10
686.4926359218
 20
598.774558005
 30
0.0
 40
9.525
 41
0.0
 71
     1
 72
     1
  1
 
  7
SLDTEXTSTYLE0
 73
     1
 44
1.0
  0
ENDBLK
  5
3CF
330
3CD
100
AcDbEntity
  8
0
100
AcDbBlockEnd
  0
BLOCK
  5
3E2
330
3E1
100
AcDbEntity
  8
0
100
AcDbBlockBegin
  2
_D_12
 70
     0
 10
0.0
 20
0.0
 30
0.0
  3
_D_12
  1

  0
SOLID
  5
3E4
330
3E1
100
AcDbEntity
  8
SLD-0
100
AcDbTrace
 10
554.486316912
 20
912.2970108184
 30
0.0
 11
562.486316912
 21
911.2970108184
 31
0.0
 12
562.486316912
 22
913.2970108184
 32
0.0
 13
562.486316912
 23
913.2970108184
 33
0.0
  0
SOLID
  5
3E5
330
3E1
100
AcDbEntity
  8
SLD-0
100
AcDbTrace
 10
782.286316912
 20
912.2970108184
 30
0.0
 11
774.286316912
 21
913.2970108184
 31
0.0
 12
774.286316912
 22
911.2970108184
 32
0.0
 13
774.286316912
 23
911.2970108184
 33
0.0
  0
LINE
  5
3E6
330
3E1
100
AcDbEntity
  8
SLD-0
100
AcDbLine
 10
656.074372174
 20
912.297012681
 30
0.0
 11
653.1771845722
 21
912.297012681
 31
0.0
  0
LINE
  5
3E7
330
3E1
100
AcDbEntity
  8
SLD-0
100
AcDbLine
 10
653.1771845722
 20
912.297012681
 30
0.0
 11
653.1771845722
 21
897.1628457549
 31
0.0
  0
LINE
  5
3E8
330
3E1
100
AcDbEntity
  8
SLD-0
100
AcDbLine
 10
653.1771845722
 20
897.1628457549
 30
0.0
 11
656.074372174
 21
897.1628457549
 31
0.0
  0
LINE
  5
3E9
330
3E1
100
AcDbEntity
  8
SLD-0
100
AcDbLine
 10
680.6982616501
 20
912.297012681
 30
0.0
 11
683.5954492518
 21
912.297012681
 31
0.0
  0
LINE
  5
3EA
330
3E1
100
AcDbEntity
  8
SLD-0
100
AcDbLine
 10
683.5954492518
 20
912.297012681
 30
0.0
 11
683.5954492518
 21
897.1628457549
 31
0.0
  0
LINE
  5
3EB
330
3E1
100
AcDbEntity
  8
SLD-0
100
AcDbLine
 10
683.5954492518
 20
897.1628457549
 30
0.0
 11
680.6982616501
 21
897.1628457549
 31
0.0
  0
LINE
  5
3EC
330
3E1
100
AcDbEntity
  8
SLD-0
100
AcDbLine
 10
554.486316912
 20
792.1203530752
 30
0.0
 11
554.486316912
 21
915.3450108184
 31
0.0
  0
LINE
  5
3ED
330
3E1
100
AcDbEntity
  8
SLD-0
100
AcDbLine
 10
782.286316912
 20
791.5150256116
 30
0.0
 11
782.286316912
 21
915.3450108184
 31
0.0
  0
LINE
  5
3EE
330
3E1
100
AcDbEntity
  8
SLD-0
100
AcDbLine
 10
554.486316912
 20
912.2970108184
 30
0.0
 11
644.8390550543
 21
912.2970108184
 31
0.0
  0
LINE
  5
3EF
330
3E1
100
AcDbEntity
  8
SLD-0
100
AcDbLine
 10
782.286316912
 20
912.2970108184
 30
0.0
 11
691.9335787698
 21
912.2970108184
 31
0.0
  0
MTEXT
  5
3F0
330
3E1
100
AcDbEntity
  8
SLD-0
100
AcDbMText
 10
646.7698580192
 20
926.3951692144
 30
0.0
 40
9.525
 41
0.0
 71
     1
 72
     1
  1
 
  7
SLDTEXTSTYLE0
 73
     1
 44
1.0
  0
MTEXT
  5
3F1
330
3E1
100
AcDbEntity
  8
SLD-0
100
AcDbMText
 10
652.555413598
 20
926.3951701457
 30
0.0
 40
9.525
 41
0.0
 71
     1
 72
     1
  1
227.8
  7
SLDTEXTSTYLE0
 73
     1
 44
1.0
  0
MTEXT
  5
3F2
330
3E1
100
AcDbEntity
  8
SLD-0
100
AcDbMText
 10
656.074372174
 20
909.3295454393
 30
0.0
 40
9.525
 41
0.0
 71
     1
 72
     1
  1
8.97
  7
SLDTEXTSTYLE0
 73
     1
 44
1.0
  0
MTEXT
  5
3F3
330
3E1
100
AcDbEntity
  8
SLD-0
100
AcDbMText
 10
686.4926359223
 20
926.3951692144
 30
0.0
 40
9.525
 41
0.0
 71
     1
 72
     1
  1
 
  7
SLDTEXTSTYLE0
 73
     1
 44
1.0
  0
ENDBLK
  5
3E3
330
3E1
100
AcDbEntity
  8
0
100
AcDbBlockEnd
  0
BLOCK
  5
3F5
330
3F4
100
AcDbEntity
  8
0
100
AcDbBlockBegin
  2
SW_NOTE_0_1
 70
     0
 10
0.0
 20
0.0
 30
0.0
  3
SW_NOTE_0_1
  1

  0
LINE
  5
3F7
330
3F4
100
AcDbEntity
  8
SLD-0
 62
     0
100
AcDbLine
 10
0.0
 20
-12.3808582575
 30
0.0
 11
0.0
 21
11.546319896
 31
0.0
  0
LINE
  5
3F8
330
3F4
100
AcDbEntity
  8
SLD-0
 62
     0
100
AcDbLine
 10
0.0
 20
11.546319896
 30
0.0
 11
23.9271781534
 21
11.546319896
 31
0.0
  0
LINE
  5
3F9
330
3F4
100
AcDbEntity
  8
SLD-0
 62
     0
100
AcDbLine
 10
23.9271781534
 20
11.546319896
 30
0.0
 11
23.9271781534
 21
-12.3808582575
 31
0.0
  0
LINE
  5
3FA
330
3F4
100
AcDbEntity
  8
SLD-0
 62
     0
100
AcDbLine
 10
23.9271781534
 20
-12.3808582575
 30
0.0
 11
0.0
 21
-12.3808582575
 31
0.0
  0
MTEXT
  5
3FB
330
3F4
100
AcDbEntity
  8
SLD-0
 62
     0
100
AcDbMText
 10
11.8676776085
 20
4.1481033279
 30
0.0
 40
9.525
 41
0.0
 71
     2
 72
     1
  1
3
  7
SLDTEXTSTYLE0
 73
     1
 44
1.0
  0
ENDBLK
  5
3F6
330
3F4
100
AcDbEntity
  8
0
100
AcDbBlockEnd
  0
BLOCK
  5
400
330
3FF
100
AcDbEntity
  8
0
100
AcDbBlockBegin
  2
SW_NOTE_0_2
 70
     0
 10
0.0
 20
0.0
 30
0.0
  3
SW_NOTE_0_2
  1

  0
LINE
  5
402
330
3FF
100
AcDbEntity
  8
SLD-0
 62
     0
100
AcDbLine
 10
-23.9271781534
 20
-11.8607022107
 30
0.0
 11
-23.9271781534
 21
12.0664759428
 31
0.0
  0
LINE
  5
403
330
3FF
100
AcDbEntity
  8
SLD-0
 62
     0
100
AcDbLine
 10
-23.9271781534
 20
12.0664759428
 30
0.0
 11
0.0
 21
12.0664759428
 31
0.0
  0
LINE
  5
404
330
3FF
100
AcDbEntity
  8
SLD-0
 62
     0
100
AcDbLine
 10
0.0
 20
12.0664759428
 30
0.0
 11
0.0
 21
-11.8607022107
 31
0.0
  0
LINE
  5
405
330
3FF
100
AcDbEntity
  8
SLD-0
 62
     0
100
AcDbLine
 10
0.0
 20
-11.8607022107
 30
0.0
 11
-23.9271781534
 21
-11.8607022107
 31
0.0
  0
MTEXT
  5
406
330
3FF
100
AcDbEntity
  8
SLD-0
 62
     0
100
AcDbMText
 10
-12.0595005449
 20
4.6682593747
 30
0.0
 40
9.525
 41
0.0
 71
     2
 72
     1
  1
3
  7
SLDTEXTSTYLE0
 73
     1
 44
1.0
  0
ENDBLK
  5
401
330
3FF
100
AcDbEntity
  8
0
100
AcDbBlockEnd
  0
ENDSEC
  0
SECTION
  2
ENTITIES
  0
LINE
  5
68
330
1F
100
AcDbEntity
  8
SLD-0
 62
     7
100
AcDbLine
 10
26.0
 20
1091.6
 30
0.0
 11
1701.2
 21
1091.6
 31
0.0
  0
LINE
  5
69
330
1F
100
AcDbEntity
  8
0
  6
Continuous
 62
     7
370
    18
100
AcDbLine
 10
26.0
 20
72.0
 30
0.0
 11
1701.2
 21
72.0
 31
0.0
  0
LINE
  5
6A
330
1F
100
AcDbEntity
  8
0
  6
CENTER
 62
     7
370
    18
100
AcDbLine
 10
733.8205032522
 20
35.7070787117
 30
0.0
 11
752.5065632498
 21
35.7070787117
 31
0.0
  0
LINE
  5
6B
330
1F
100
AcDbEntity
  8
0
  6
Continuous
 62
     7
370
    18
100
AcDbLine
 10
735.7120492196
 20
33.1670787117
 30
0.0
 11
750.9520492196
 21
30.6270787117
 31
0.0
  0
LINE
  5
6C
330
1F
100
AcDbEntity
  8
0
  6
Continuous
 62
     7
370
    18
100
AcDbLine
 10
735.7120492196
 20
38.2470787117
 30
0.0
 11
750.9520492196
 21
40.7870787117
 31
0.0
  0
LINE
  5
6D
330
1F
100
AcDbEntity
  8
0
  6
CENTER
 62
     7
370
    18
100
AcDbLine
 10
718.9683692196
 20
35.7070787117
 30
0.0
 11
732.0177580758
 21
35.7070787117
 31
0.0
  0
LINE
  5
6E
330
1F
100
AcDbEntity
  8
0
  6
CENTER
 62
     7
370
    18
100
AcDbLine
 10
725.4930636477
 20
29.1155908804
 30
0.0
 11
725.4930636477
 21
42.2985665429
 31
0.0
  0
LINE
  5
6F
330
1F
100
AcDbEntity
  8
0
  6
Continuous
 62
     7
370
    18
100
AcDbLine
 10
735.7120492196
 20
38.2470787117
 30
0.0
 11
735.7120492196
 21
33.1670787117
 31
0.0
  0
LINE
  5
70
330
1F
100
AcDbEntity
  8
0
  6
Continuous
 62
     7
370
    18
100
AcDbLine
 10
750.9520492196
 20
40.7870787117
 30
0.0
 11
750.9520492196
 21
30.6270787117
 31
0.0
  0
CIRCLE
  5
71
330
1F
100
AcDbEntity
  8
0
  6
Continuous
 62
     7
370
    18
100
AcDbCircle
 10
725.4930636477
 20
35.7070787117
 30
0.0
 40
5.079999999999602
  0
CIRCLE
  5
72
330
1F
100
AcDbEntity
  8
0
  6
Continuous
 62
     7
370
    18
100
AcDbCircle
 10
725.4930636477
 20
35.7070787117
 30
0.0
 40
2.539999999999753
  0
INSERT
  5
85
330
1F
100
AcDbEntity
  8
0
  6
Continuous
 62
     7
370
     0
100
AcDbBlockReference
  2
SW_NOTE_0
 10
39.7430000213
 20
1063.0127597732
 30
0.0
  0
MTEXT
  5
86
330
1F
100
AcDbEntity
  8
0
  6
Continuous
 62
     7
370
     0
100
AcDbMText
 10
591.0086038027
 20
57.9639135513
 30
0.0
 40
7.4083333333
 41
0.0
 71
     2
 72
     1
  1
00PW4
  7
SLDTEXTSTYLE0
 73
     1
 44
1.0
  0
MTEXT
  5
87
330
1F
100
AcDbEntity
  8
0
  6
Continuous
 62
     7
370
     0
100
AcDbMText
 10
906.8023411753
 20
35.5768525952
 30
0.0
 40
7.4083333333
 41
0.0
 71
     1
 72
     1
  1
B.HAWKINS
  7
SLDTEXTSTYLE0
 73
     1
 44
1.0
  0
MTEXT
  5
88
330
1F
100
AcDbEntity
  8
0
  6
Continuous
 62
     7
370
     0
100
AcDbMText
 10
646.2577067225
 20
66.155488831
 30
0.0
 40
6.35
 41
0.0
 71
     1
 72
     1
  1
UNLESS  OTHERWISE  SPECIFIED
  7
SLDTEXTSTYLE0
 73
     1
 44
1.0
  0
MTEXT
  5
89
330
1F
100
AcDbEntity
  8
0
  6
Continuous
 62
     7
370
     0
100
AcDbMText
 10
646.2577067225
 20
57.6888222666
 30
0.0
 40
6.35
 41
0.0
 71
     1
 72
     1
  1
DIMENSIONS  ARE  IN  MM [IN]
  7
SLDTEXTSTYLE0
 73
     1
 44
1.0
  0
MTEXT
  5
8A
330
1F
100
AcDbEntity
  8
0
  6
Continuous
 62
     7
370
     0
100
AcDbMText
 10
1571.7590578966
 20
35.9698490708
 30
0.0
 40
7.4083333333
 41
0.0
 71
     2
 72
     1
  1
1:4
  7
SLDTEXTSTYLE0
 73
     1
 44
1.0
  0
MTEXT
  5
8B
330
1F
100
AcDbEntity
  8
0
  6
Continuous
 62
     7
370
     0
100
AcDbMText
 10
655.9210571763
 20
39.3837438726
 30
0.0
 40
6.35
 41
0.0
 71
     1
 72
     1
  1
PROJECTION
  7
SLDTEXTSTYLE0
 73
     1
 44
1.0
  0
MTEXT
  5
8C
330
1F
100
AcDbEntity
  8
0
  6
Continuous
 62
     7
370
     0
100
AcDbMText
 10
851.0303532275
 20
43.6175455912
 30
0.0
 40
6.35
 41
0.0
 71
     1
 72
     1
  1
%%p
  7
SLDTEXTSTYLE0
 73
     1
 44
1.0
  0
MTEXT
  5
8D
330
1F
100
AcDbEntity
  8
0
  6
Continuous
 62
     7
370
     0
100
AcDbMText
 10
857.0840198117
 20
43.6175455912
 30
0.0
 40
6.35
 41
0.0
 71
     1
 72
     1
  1
1
  7
SLDTEXTSTYLE0
 73
     1
 44
1.0
  0
MTEXT
  5
8E
330
1F
100
AcDbEntity
  8
0
  6
Continuous
 62
     7
370
     0
100
AcDbMText
 10
861.7759642692
 20
43.6175455912
 30
0.0
 40
6.35
 41
0.0
 71
     1
 72
     1
  1
%%d
  7
SLDTEXTSTYLE0
 73
     1
 44
1.0
  0
MTEXT
  5
8F
330
1F
100
AcDbEntity
  8
0
  6
Continuous
 62
     7
370
     0
100
AcDbMText
 10
788.1475100943
 20
43.6175455912
 30
0.0
 40
6.35
 41
0.0
 71
     1
 72
     1
  1
.X 
  7
SLDTEXTSTYLE0
 73
     1
 44
1.0
  0
MTEXT
  5
90
330
1F
100
AcDbEntity
  8
0
  6
Continuous
 62
     7
370
     0
100
AcDbMText
 10
797.9782513061
 20
43.6175455912
 30
0.0
 40
6.35
 41
0.0
 71
     1
 72
     1
  1
%%p
  7
SLDTEXTSTYLE0
 73
     1
 44
1.0
  0
MTEXT
  5
91
330
1F
100
AcDbEntity
  8
0
  6
Continuous
 62
     7
370
     0
100
AcDbMText
 10
804.031916959
 20
43.6175455912
 30
0.0
 40
6.35
 41
0.0
 71
     1
 72
     1
  1
 3
  7
SLDTEXTSTYLE0
 73
     1
 44
1.0
  0
MTEXT
  5
92
330
1F
100
AcDbEntity
  8
0
  6
Continuous
 62
     7
370
     0
100
AcDbMText
 10
788.1475100943
 20
35.1508790268
 30
0.0
 40
6.35
 41
0.0
 71
     1
 72
     1
  1
.XX 
  7
SLDTEXTSTYLE0
 73
     1
 44
1.0
  0
MTEXT
  5
93
330
1F
100
AcDbEntity
  8
0
  6
Continuous
 62
     7
370
     0
100
AcDbMText
 10
803.1288060078
 20
35.1508790268
 30
0.0
 40
6.35
 41
0.0
 71
     1
 72
     1
  1
%%p
  7
SLDTEXTSTYLE0
 73
     1
 44
1.0
  0
MTEXT
  5
94
330
1F
100
AcDbEntity
  8
0
  6
Continuous
 62
     7
370
     0
100
AcDbMText
 10
1366.4319255922
 20
62.7155940589
 30
0.0
 40
12.7
 41
0.0
 71
     2
 72
     1
  1
ACCESSORY, PL-CA5-YM, YOKE MOUNT, 
  7
SLDTEXTSTYLE0
 73
     1
 44
1.0
  0
MTEXT
  5
95
330
1F
100
AcDbEntity
  8
0
  6
Continuous
 62
     7
370
     0
100
AcDbMText
 10
1364.5769153152
 20
45.7822609302
 30
0.0
 40
12.7
 41
0.0
 71
     2
 72
     1
  1
BK
  7
SLDTEXTSTYLE0
 73
     1
 44
1.0
  0
MTEXT
  5
96
330
1F
100
AcDbEntity
  8
0
  6
Continuous
 62
     7
370
     0
100
AcDbMText
 10
788.2583723686
 20
66.155488831
 30
0.0
 40
6.35
 41
0.0
 71
     1
 72
     1
  1
TOLERANCES  ARE:
  7
SLDTEXTSTYLE0
 73
     1
 44
1.0
  0
MTEXT
  5
97
330
1F
100
AcDbEntity
  8
0
  6
Continuous
 62
     7
370
     0
100
AcDbMText
 10
788.2583723686
 20
57.6888222666
 30
0.0
 40
6.35
 41
0.0
 71
     1
 72
     1
  1
DECIMALS          ANGLES
  7
SLDTEXTSTYLE0
 73
     1
 44
1.0
  0
MTEXT
  5
98
330
1F
100
AcDbEntity
  8
0
  6
Continuous
 62
     7
370
     0
100
AcDbMText
 10
1014.4737745067
 20
43.612480649
 30
0.0
 40
5.2916666667
 41
0.0
 71
     1
 72
     1
  1
MFG ENGINEER
  7
SLDTEXTSTYLE0
 73
     1
 44
1.0
  0
MTEXT
  5
99
330
1F
100
AcDbEntity
  8
0
  6
Continuous
 62
     7
370
     0
100
AcDbMText
 10
906.8023411753
 20
43.612480649
 30
0.0
 40
5.2916666667
 41
0.0
 71
     1
 72
     1
  1
MECH ENGINEER
  7
SLDTEXTSTYLE0
 73
     1
 44
1.0
  0
MTEXT
  5
9B
330
1F
100
AcDbEntity
  8
0
  6
Continuous
 62
     7
370
     0
100
AcDbMText
 10
1541.9619898615
 20
35.1195047232
 30
0.0
 40
5.2916666667
 41
0.0
 71
     1
 72
     1
  1
SCALE:  
  7
SLDTEXTSTYLE1
 73
     1
 44
1.0
  0
MTEXT
  5
9C
330
1F
100
AcDbEntity
  8
SLD-0
 62
     7
100
AcDbMText
 10
1541.6540683972
 20
55.5507191535
 30
0.0
 40
12.7
 41
0.0
 71
     1
 72
     1
  1
FG-901583-2D
  7
SLDTEXTSTYLE0
 73
     1
 44
1.0
  0
MTEXT
  5
9D
330
1F
100
AcDbEntity
  8
0
  6
Continuous
 62
     7
370
     0
100
AcDbMText
 10
1687.5384492472
 20
55.7046798857
 30
0.0
 40
12.7
 41
0.0
 71
     2
 72
     1
  1
A
  7
SLDTEXTSTYLE0
 73
     1
 44
1.0
  0
MTEXT
  5
9E
330
1F
100
AcDbEntity
  8
0
  6
Continuous
 62
     7
370
     0
100
AcDbMText
 10
1683.1941573371
 20
35.9698490708
 30
0.0
 40
7.4083333333
 41
0.0
 71
     2
 72
     1
  1
1  OF  1
  7
SLDTEXTSTYLE0
 73
     1
 44
1.0
  0
MTEXT
  5
9F
330
1F
100
AcDbEntity
  8
0
  6
Continuous
 62
     7
370
     0
100
AcDbMText
 10
1541.9619898615
 20
65.703721757
 30
0.0
 40
5.2916666667
 41
0.0
 71
     1
 72
     1
  1
DRAWING NUMBER
  7
SLDTEXTSTYLE0
 73
     1
 44
1.0
  0
MTEXT
  5
A0
330
1F
100
AcDbEntity
  8
SLD-0
 62
     7
100
AcDbMText
 10
1014.4737745067
 20
65.6368225622
 30
0.0
 40
5.2916666667
 41
0.0
 71
     1
 72
     1
  1
TECH DIRECTOR
  7
SLDTEXTSTYLE0
 73
     1
 44
1.0
  0
MTEXT
  5
A1
330
1F
100
AcDbEntity
  8
SLD-0
 62
     7
100
AcDbMText
 10
906.8023411753
 20
65.6368225622
 30
0.0
 40
5.2916666667
 41
0.0
 71
     1
 72
     1
  1
DRAWN BY
  7
SLDTEXTSTYLE0
 73
     1
 44
1.0
  0
MTEXT
  5
A2
330
1F
100
AcDbEntity
  8
SLD-0
 62
     7
100
AcDbMText
 10
906.8023411753
 20
58.0706854131
 30
0.0
 40
7.4083333333
 41
0.0
 71
     1
 72
     1
  1
K.CASTRO
  7
SLDTEXTSTYLE0
 73
     1
 44
1.0
  0
MTEXT
  5
A3
330
1F
100
AcDbEntity
  8
SLD-0
 62
     7
100
AcDbMText
 10
1014.4737745067
 20
35.5768525952
 30
0.0
 40
7.4083333333
 41
0.0
 71
     1
 72
     1
  1
A.TRAN
  7
SLDTEXTSTYLE0
 73
     1
 44
1.0
  0
MTEXT
  5
A4
330
1F
100
AcDbEntity
  8
SLD-0
 62
     7
100
AcDbMText
 10
1014.4737745067
 20
58.0706854131
 30
0.0
 40
7.4083333333
 41
0.0
 71
     1
 72
     1
  1
R.VAUCHER
  7
SLDTEXTSTYLE0
 73
     1
 44
1.0
  0
MTEXT
  5
A6
330
1F
100
AcDbEntity
  8
0
  6
Continuous
 62
     7
370
     0
100
AcDbMText
 10
438.5079743403
 20
59.9186617071
 30
0.0
 40
4.2333333333
 41
0.0
 71
     2
 72
     1
  1
THIS DOCUMENT CONTAINS CONFIDENTIAL OR PROPRIETARY INFORMATION WHICH 
  7
SLDTEXTSTYLE2
 73
     1
 44
1.0
  0
MTEXT
  5
A7
330
1F
100
AcDbEntity
  8
0
  6
Continuous
 62
     7
370
     0
100
AcDbMText
 10
438.8737292695
 20
54.2742173309
 30
0.0
 40
4.2333333333
 41
0.0
 71
     2
 72
     1
  1
IS THE PROPERTY OF QSC, LLC THAT MAY NOT BE DISCLOSED, REPRODUCED OR 
  7
SLDTEXTSTYLE2
 73
     1
 44
1.0
  0
MTEXT
  5
A8
330
1F
100
AcDbEntity
  8
0
  6
Continuous
 62
     7
370
     0
100
AcDbMText
 10
438.7915606084
 20
48.6297729547
 30
0.0
 40
4.2333333333
 41
0.0
 71
     2
 72
     1
  1
USED WITHOUT EXPRESS WRITTEN CONSENT FROM QSC, LLC. NO PORTION OF THIS 
  7
SLDTEXTSTYLE2
 73
     1
 44
1.0
  0
MTEXT
  5
A9
330
1F
100
AcDbEntity
  8
0
  6
Continuous
 62
     7
370
     0
100
AcDbMText
 10
438.6504466119
 20
42.9853285784
 30
0.0
 40
4.2333333333
 41
0.0
 71
     2
 72
     1
  1
DOCUMENT MAY BE REPRODUCED, REDISTRIBUTED, OR OTHERWISE DISCLOSED TO 
  7
SLDTEXTSTYLE2
 73
     1
 44
1.0
  0
MTEXT
  5
AB
330
1F
100
AcDbEntity
  8
0
  6
Continuous
 62
     7
370
     0
100
AcDbMText
 10
437.9528869601
 20
37.3408842022
 30
0.0
 40
4.2333333333
 41
0.0
 71
     2
 72
     1
  1
ANY THIRD PARTY WITHOUT QSC\U+2019S WRITTEN PERMISSION.
  7
SLDTEXTSTYLE3
 73
     1
 44
1.0
  0
MTEXT
  5
AC
330
1F
100
AcDbEntity
  8
0
  6
Continuous
 62
     7
370
     0
100
AcDbMText
 10
1640.5776977518
 20
34.9888696445
 30
0.0
 40
5.2916666667
 41
0.0
 71
     1
 72
     1
  1
SHEET:
  7
SLDTEXTSTYLE0
 73
     1
 44
1.0
  0
MTEXT
  5
AD
330
1F
100
AcDbEntity
  8
SLD-0
100
AcDbMText
 10
195.6614407678
 20
61.1862966648
 30
0.0
 40
8.4666666667
 41
0.0
 71
     1
 72
     1
  1
QSC, LLC
  7
SLDTEXTSTYLE0
 73
     1
 44
1.0
  0
MTEXT
  5
AE
330
1F
100
AcDbEntity
  8
0
  6
Continuous
 62
     7
370
     0
100
AcDbMText
 10
1688.0036745047
 20
65.8101826075
 30
0.0
 40
5.2916666667
 41
0.0
 71
     2
 72
     1
  1
REV
  7
SLDTEXTSTYLE0
 73
     1
 44
1.0
  0
MTEXT
  5
AF
330
1F
100
AcDbEntity
  8
SLD-0
 62
     7
100
AcDbMText
 10
1121.0923070939
 20
65.6368225622
 30
0.0
 40
5.2916666667
 41
0.0
 71
     1
 72
     1
  1
REV BY
  7
SLDTEXTSTYLE0
 73
     1
 44
1.0
  0
MTEXT
  5
B0
330
1F
100
AcDbEntity
  8
SLD-0
 62
     7
100
AcDbMText
 10
1121.0923070939
 20
58.0706854131
 30
0.0
 40
7.4083333333
 41
0.0
 71
     1
 72
     1
  1
KC
  7
SLDTEXTSTYLE0
 73
     1
 44
1.0
  0
MTEXT
  5
B1
330
1F
100
AcDbEntity
  8
SLD-0
 62
     7
100
AcDbMText
 10
1121.0923070939
 20
35.5768525952
 30
0.0
 40
7.4083333333
 41
0.0
 71
     1
 72
     1
  1
05-JUNE-2024
  7
SLDTEXTSTYLE0
 73
     1
 44
1.0
  0
MTEXT
  5
B2
330
1F
100
AcDbEntity
  8
0
  6
Continuous
 62
     7
370
     0
100
AcDbMText
 10
1121.0923070939
 20
43.612480649
 30
0.0
 40
5.2916666667
 41
0.0
 71
     1
 72
     1
  1
REV DATE
  7
SLDTEXTSTYLE0
 73
     1
 44
1.0
  0
MTEXT
  5
B3
330
1F
100
AcDbEntity
  8
SLD-0
100
AcDbMText
 10
591.0943354866
 20
44.5258142709
 30
0.0
 40
5.2916666667
 41
0.0
 71
     2
 72
     1
  1
FORM
  7
SLDTEXTSTYLE0
 73
     1
 44
1.0
  0
MTEXT
  5
B4
330
1F
100
AcDbEntity
  8
0
  6
Continuous
 62
     7
370
     0
100
AcDbMText
 10
591.9227321007
 20
36.5617335982
 30
0.0
 40
7.4083333333
 41
0.0
 71
     2
 72
     1
  1
QOS40169 B
  7
SLDTEXTSTYLE0
 73
     1
 44
1.0
  0
MTEXT
  5
B5
330
1F
100
AcDbEntity
  8
SLD-0
100
AcDbMText
 10
196.885449475
 20
36.9201921417
 30
0.0
 40
6.35
 41
0.0
 71
     1
 72
     1
  1
COSTA MESA, CA 92626 USA
  7
SLDTEXTSTYLE0
 73
     1
 44
1.0
  0
MTEXT
  5
B6
330
1F
100
AcDbEntity
  8
SLD-0
100
AcDbMText
 10
196.5974025981
 20
47.7545934122
 30
0.0
 40
6.35
 41
0.0
 71
     1
 72
     1
  1
1675 MACARTHUR BLVD
  7
SLDTEXTSTYLE0
 73
     1
 44
1.0
  0
MTEXT
  5
B7
330
1F
100
AcDbEntity
  8
SLD-0
 62
     7
100
AcDbMText
 10
591.3647197975
 20
66.2879500214
 30
0.0
 40
5.2916666667
 41
0.0
 71
     2
 72
     1
  1
CAGE CODE
  7
SLDTEXTSTYLE0
 73
     1
 44
1.0
  0
LINE
  5
B8
330
1F
100
AcDbEntity
  8
0
  6
Continuous
 62
     7
370
    25
100
AcDbLine
 10
1544.2046790521
 20
830.4655783735
 30
0.0
 11
1544.5582324427
 21
830.2614763455
 31
0.0
  0
SPLINE
  5
B9
330
1F
100
AcDbEntity
  8
0
  6
Continuous
 62
     7
370
    25
100
AcDbSpline
210
0.0
220
0.0
230
1.0
 70
     8
 71
     3
 72
    24
 73
    20
 74
     0
 42
0.00000001
 43
0.00000001
 40
0.0
 40
0.0
 40
0.0
 40
0.0
 40
0.0117224454093247
 40
0.0747754790680856
 40
0.1358712997500156
 40
0.1958783568812498
 40
0.2557792457684618
 40
0.3167570880091202
 40
0.3801265571616345
 40
0.4469367023621301
 40
0.5174835936432259
 40
0.5920460094383247
 40
0.6609387155493315
 40
0.727681877496365
 40
0.7924085305072701
 40
0.8560474443761162
 40
0.9192618237658752
 40
0.9823787869120668
 40
1.0
 40
1.0
 40
1.0
 40
1.0
 10
1545.173838514217
 20
830.0179634563997
 30
0.0
 10
1545.258328020365
 20
829.9842954049194
 30
0.0
 10
1545.797272163661
 20
829.7695326492978
 30
0.0
 10
1546.859941304224
 20
829.6444294380649
 30
0.0
 10
1548.286346166293
 20
829.6498652276423
 30
0.0
 10
1549.667937759446
 20
829.9270693919717
 30
0.0
 10
1550.978536891878
 20
830.4270237805833
 30
0.0
 10
1552.21241502441
 20
831.1493211221356
 30
0.0
 10
1553.359475241825
 20
832.0943932108638
 30
0.0
 10
1554.398122178797
 20
833.2692304382603
 30
0.0
 10
1555.288052925856
 20
834.6730995594835
 30
0.0
 10
1555.939482281466
 20
836.2188228173237
 30
0.0
 10
1556.311256484848
 20
837.8138911901909
 30
0.0
 10
1556.402610968109
 20
839.3676912812465
 30
0.0
 10
1556.224294004875
 20
840.8710651333406
 30
0.0
 10
1555.789569420136
 20
842.297894870897
 30
0.0
 10
1555.090197298007
 20
843.5941896886972
 30
0.0
 10
1554.422800377483
 20
844.5076158374429
 30
0.0
 10
1553.938451894599
 20
844.905142721498
 30
0.0
 10
1553.832742201566
 20
844.9919034864649
 30
0.0
  0
LINE
  5
BA
330
1F
100
AcDbEntity
  8
0
  6
Continuous
 62
     7
370
    25
100
AcDbLine
 10
1553.3075213532
 20
845.4173314372
 30
0.0
 11
1552.9539679626
 21
845.6214334651
 31
0.0
  0
LINE
  5
BB
330
1F
100
AcDbEntity
  8
0
  6
Continuous
 62
     7
370
    25
100
AcDbLine
 10
1523.5379388102
 20
813.9349364982
 30
0.0
 11
1524.9521523726
 21
813.1185283863
 31
0.0
  0
LINE
  5
BC
330
1F
100
AcDbEntity
  8
0
  6
Continuous
 62
     7
370
    25
100
AcDbLine
 10
1542.8872975972
 20
857.5306097636
 30
0.0
 11
1541.4730840348
 21
858.3470178755
 31
0.0
  0
LINE
  5
BD
330
1F
100
AcDbEntity
  8
0
  6
Continuous
 62
     7
370
    25
100
AcDbLine
 10
1637.7921358455
 20
833.0252892821
 30
0.0
 11
1650.6039400415
 21
895.6355800927
 31
0.0
  0
LINE
  5
BE
330
1F
100
AcDbEntity
  8
0
  6
Continuous
 62
     7
370
    25
100
AcDbLine
 10
1648.3878371959
 20
900.2828663542
 30
0.0
 11
1617.7174351037
 21
917.9885126068
 31
0.0
  0
LINE
  5
BF
330
1F
100
AcDbEntity
  8
0
  6
Continuous
 62
     7
370
    25
100
AcDbLine
 10
1519.7123985235
 20
817.7599108633
 30
0.0
 11
1520.0794194535
 21
817.5480341904
 31
0.0
  0
LINE
  5
C0
330
1F
100
AcDbEntity
  8
0
  6
Continuous
 62
     7
370
    25
100
AcDbLine
 10
1537.0880649085
 20
857.1407745539
 30
0.0
 11
1534.7752691045
 21
858.4759231521
 31
0.0
  0
LINE
  5
C1
330
1F
100
AcDbEntity
  8
0
  6
Continuous
 62
     7
370
    25
100
AcDbLine
 10
1547.5996695193
 20
855.1810373753
 30
0.0
 11
1546.6494423939
 21
855.7295918185
 31
0.0
  0
SPLINE
  5
C2
330
1F
100
AcDbEntity
  8
0
  6
Continuous
 62
     7
370
    25
100
AcDbSpline
210
0.0
220
0.0
230
1.0
 70
     8
 71
     3
 72
    16
 73
    12
 74
     0
 42
0.00000001
 43
0.00000001
 40
0.0
 40
0.0
 40
0.0
 40
0.0
 40
0.0800376907534266
 40
0.1999250479551668
 40
0.3210990029299188
 40
0.4436148720418809
 40
0.5673548856644213
 40
0.6920837089773156
 40
0.8175184923812041
 40
0.943389197136651
 40
1.0
 40
1.0
 40
1.0
 40
1.0
 10
1408.582025069377
 20
906.801427310396
 30
0.0
 10
1408.180093607796
 20
906.3416536147146
 30
0.0
 10
1407.17611453275
 20
905.1931912179069
 30
0.0
 10
1405.804321965847
 20
903.0913005454975
 30
0.0
 10
1404.441882372513
 20
900.5389055565505
 30
0.0
 10
1403.300697332452
 20
897.7575874284533
 30
0.0
 10
1402.378868478222
 20
894.7719838561062
 30
0.0
 10
1401.685212320403
 20
891.5958985154473
 30
0.0
 10
1401.227571537209
 20
888.2478158677176
 30
0.0
 10
1401.037944167298
 20
885.3976269585777
 30
0.0
 10
1401.022373666662
 20
883.65965460699
 30
0.0
 10
1401.017543267387
 20
883.1204875896766
 30
0.0
  0
SPLINE
  5
C3
330
1F
100
AcDbEntity
  8
0
  6
Continuous
 62
     7
370
    25
100
AcDbSpline
210
0.0
220
0.0
230
1.0
 70
     8
 71
     3
 72
    37
 73
    33
 74
     0
 42
0.00000001
 43
0.00000001
 40
0.0
 40
0.0
 40
0.0
 40
0.0
 40
0.0185150065663348
 40
0.0534032229417317
 40
0.088263413461853
 40
0.1230908303858932
 40
0.1578803142389786
 40
0.192631953320524
 40
0.2273491429490037
 40
0.2620372777812581
 40
0.2967029158687732
 40
0.3313532700147343
 40
0.3659959145195728
 40
0.4006386257750388
 40
0.4352876312545613
 40
0.4699499341304301
 40
0.5046335174294142
 40
0.539346283880691
 40
0.5740958665955759
 40
0.6088892831938056
 40
0.64373233859661
 40
0.678628645491085
 40
0.7135780919148821
 40
0.7485745646572487
 40
0.7836027891039326
 40
0.8186236184276994
 40
0.853583155577769
 40
0.8884101789511885
 40
0.9230183616381632
 40
0.9573191805512047
 40
0.991242888731848
 40
1.0
 40
1.0
 40
1.0
 40
1.0
 10
1401.017543267387
 20
883.1204875896766
 30
0.0
 10
1401.024228809721
 20
882.476849205633
 30
0.0
 10
1401.043512060118
 20
880.6203894742366
 30
0.0
 10
1401.255939955931
 20
877.4695565552743
 30
0.0
 10
1401.727190610018
 20
873.6559528398165
 30
0.0
 10
1402.428593700559
 20
869.7768398766714
 30
0.0
 10
1403.35069348559
 20
865.8544874520569
 30
0.0
 10
1404.488288438011
 20
861.9087076636379
 30
0.0
 10
1405.833966024701
 20
857.9599462292001
 30
0.0
 10
1407.379879070888
 20
854.0283928149678
 30
0.0
 10
1409.117294504463
 20
850.1341892756352
 30
0.0
 10
1411.036740326868
 20
846.2973065980694
 30
0.0
 10
1413.128002557795
 20
842.5374850955624
 30
0.0
 10
1415.380139585812
 20
838.8742018089059
 30
0.0
 10
1417.781535363209
 20
835.3265477475779
 30
0.0
 10
1420.31998214969
 20
831.9130973459775
 30
0.0
 10
1422.982800720031
 20
828.6517749001558
 30
0.0
 10
1425.756908484385
 20
825.5598181973025
 30
0.0
 10
1428.628873066386
 20
822.6537606569619
 30
0.0
 10
1431.58498090971
 20
819.9494014144693
 30
0.0
 10
1434.611288126566
 20
817.4617988332818
 30
0.0
 10
1437.693637099431
 20
815.2052903537137
 30
0.0
 10
1440.817620176088
 20
813.1935252220451
 30
0.0
 10
1443.968453237953
 20
811.4395239933832
 30
0.0
 10
1447.130450389242
 20
809.9557647613108
 30
0.0
 10
1450.286664484885
 20
808.754169974824
 30
0.0
 10
1453.418914602665
 20
807.8446615080156
 30
0.0
 10
1456.506559716995
 20
807.2381417139866
 30
0.0
 10
1459.531290608435
 20
806.9319574758855
 30
0.0
 10
1462.460110151501
 20
806.9596762108237
 30
0.0
 10
1464.617488990779
 20
807.1444879206745
 30
0.0
 10
1465.756662478091
 20
807.4178118175381
 30
0.0
 10
1465.990394377126
 20
807.4738915228481
 30
0.0
  0
SPLINE
  5
C4
330
1F
100
AcDbEntity
  8
0
  6
Continuous
 62
     7
370
    25
100
AcDbSpline
210
0.0
220
0.0
230
1.0
 70
     8
 71
     3
 72
    38
 73
    34
 74
     0
 42
0.00000001
 43
0.00000001
 40
0.0
 40
0.0
 40
0.0
 40
0.0
 40
0.020728413455846
 40
0.0568666705725494
 40
0.092554215461822
 40
0.1274368933756848
 40
0.1615234170908985
 40
0.1949988412102794
 40
0.2280685351206502
 40
0.260898461933654
 40
0.2936065695032948
 40
0.3262706344194351
 40
0.358931454960349
 40
0.3916163220465542
 40
0.4243429142939373
 40
0.4571184824815035
 40
0.4899436370595203
 40
0.5228148851867448
 40
0.555726282158837
 40
0.5886704757931226
 40
0.6216393435379473
 40
0.6546243621858986
 40
0.687616807103982
 40
0.7206072749417043
 40
0.7535845004010111
 40
0.7865395724725854
 40
0.8194636275167314
 40
0.8523479930159599
 40
0.8851844700268005
 40
0.9179658354007155
 40
0.9506866815761187
 40
0.9833447605633043
 40
1.0
 40
1.0
 40
1.0
 40
1.0
 10
1418.687034499016
 20
904.1036687741886
 30
0.0
 10
1419.033087723985
 20
904.3080427615107
 30
0.0
 10
1419.982455835867
 20
904.8687257214197
 30
0.0
 10
1421.704673595772
 20
905.4828354765514
 30
0.0
 10
1423.832520162316
 20
905.9666807836301
 30
0.0
 10
1426.091226653678
 20
906.1577348735356
 30
0.0
 10
1428.451693324372
 20
906.0749656682685
 30
0.0
 10
1430.903013465761
 20
905.7194260945348
 30
0.0
 10
1433.434266394868
 20
905.0956382146089
 30
0.0
 10
1436.03448688679
 20
904.2056765123764
 30
0.0
 10
1438.690370153155
 20
903.0521215697712
 30
0.0
 10
1441.386333655236
 20
901.6388079833255
 30
0.0
 10
1444.10512662275
 20
899.9715455154535
 30
0.0
 10
1446.828549467664
 20
898.0582706610371
 30
0.0
 10
1449.538120718846
 20
895.9088830920078
 30
0.0
 10
1452.215245266742
 20
893.5352579980931
 30
0.0
 10
1454.841386515239
 20
890.9512286182785
 30
0.0
 10
1457.398337963424
 20
888.1724209756823
 30
0.0
 10
1459.868435568089
 20
885.2160746478335
 30
0.0
 10
1462.234726620745
 20
882.1008628546516
 30
0.0
 10
1464.481108047383
 20
878.8467179533993
 30
0.0
 10
1466.592444141358
 20
875.4746641275217
 30
0.0
 10
1468.554659467053
 20
872.0066772023797
 30
0.0
 10
1470.354808399423
 20
868.4655959567624
 30
0.0
 10
1471.981228504083
 20
864.8748905435359
 30
0.0
 10
1473.423651127269
 20
861.2584741486788
 30
0.0
 10
1474.673278180014
 20
857.6404966320455
 30
0.0
 10
1475.72294362863
 20
854.0451861786978
 30
0.0
 10
1476.566801832296
 20
850.4969732260078
 30
0.0
 10
1477.201951481712
 20
847.0191780292358
 30
0.0
 10
1477.622857380355
 20
843.637938790434
 30
0.0
 10
1477.806806633434
 20
840.898818453632
 30
0.0
 10
1477.822980686445
 20
839.3138209770243
 30
0.0
 10
1477.828443363347
 20
838.7784988100482
 30
0.0
  0
SPLINE
  5
C5
330
1F
100
AcDbEntity
  8
0
  6
Continuous
 62
     7
370
    25
100
AcDbSpline
210
0.0
220
0.0
230
1.0
 70
     8
 71
     3
 72
    18
 73
    14
 74
     0
 42
0.00000001
 43
0.00000001
 40
0.0
 40
0.0
 40
0.0
 40
0.0
 40
0.0519539556525679
 40
0.151086613304728
 40
0.2501399865534962
 40
0.3492132167589563
 40
0.4484860355631431
 40
0.5482466246630372
 40
0.6489084365812016
 40
0.7510130181776015
 40
0.8551654541688555
 40
0.9618149076345699
 40
1.0
 40
1.0
 40
1.0
 40
1.0
 10
1477.828443363347
 20
838.7784988100482
 30
0.0
 10
1477.822722296971
 20
838.2380575854974
 30
0.0
 10
1477.806084939288
 20
836.6664075873011
 30
0.0
 10
1477.621848923517
 20
834.1808371108712
 30
0.0
 10
1477.213393869203
 20
831.3970622524279
 30
0.0
 10
1476.609905304819
 20
828.8105323331869
 30
0.0
 10
1475.823582797528
 20
826.4323594686003
 30
0.0
 10
1474.862453835178
 20
824.2723572227303
 30
0.0
 10
1473.733081152667
 20
822.3374644290335
 30
0.0
 10
1472.442128005764
 20
820.6244831265648
 30
0.0
 10
1470.975192747727
 20
819.1561111243692
 30
0.0
 10
1469.727954689569
 20
818.142002956917
 30
0.0
 10
1468.913981234009
 20
817.7074072787163
 30
0.0
 10
1468.699380142776
 20
817.592827735428
 30
0.0
  0
LINE
  5
C6
330
1F
100
AcDbEntity
  8
0
  6
Continuous
 62
     7
370
    25
100
AcDbLine
 10
1432.8516118961
 20
876.7618824075
 30
0.0
 11
1432.7100428257
 21
873.9693925575
 31
0.0
  0
SPLINE
  5
C7
330
1F
100
AcDbEntity
  8
0
  6
Continuous
 62
     7
370
    25
100
AcDbSpline
210
0.0
220
0.0
230
1.0
 70
     8
 71
     3
 72
    20
 73
    16
 74
     0
 42
0.00000001
 43
0.00000001
 40
0.0
 40
0.0
 40
0.0
 40
0.0
 40
0.0855129135368105
 40
0.1628391242487792
 40
0.2414632144471212
 40
0.3214387217751073
 40
0.4032888942752793
 40
0.4875025446606534
 40
0.574473025919431
 40
0.6643511375057086
 40
0.7451539257582994
 40
0.8255670361347293
 40
0.9056351535895261
 40
0.985449149566921
 40
1.0
 40
1.0
 40
1.0
 40
1.0
 10
1432.710042825672
 20
873.9693925575108
 30
0.0
 10
1432.740537311463
 20
872.8858215145021
 30
0.0
 10
1432.798606849212
 20
870.8224166741454
 30
0.0
 10
1433.247644807992
 20
867.7908155422809
 30
0.0
 10
1433.926185206098
 20
864.8772548495897
 30
0.0
 10
1434.88531921122
 20
861.9814013256689
 30
0.0
 10
1436.129506161548
 20
859.1186965715609
 30
0.0
 10
1437.676578975295
 20
856.3052671023903
 30
0.0
 10
1439.542156884033
 20
853.5678356003708
 30
0.0
 10
1441.641041351026
 20
851.0603710937843
 30
0.0
 10
1443.910832342213
 20
848.8266816220863
 30
0.0
 10
1446.275567696946
 20
846.8815559366261
 30
0.0
 10
1448.807312662085
 20
845.1905783290671
 30
0.0
 10
1450.722841513484
 20
844.0734574715196
 30
0.0
 10
1451.821329598855
 20
843.6017725400162
 30
0.0
 10
1451.990714030036
 20
843.5290397676871
 30
0.0
  0
LINE
  5
C8
330
1F
100
AcDbEntity
  8
0
  6
Continuous
 62
     7
370
    25
100
AcDbLine
 10
1494.385705407
 20
754.4643161334
 30
0.0
 11
1499.3354528753
 21
751.606887742
 31
0.0
  0
SPLINE
  5
C9
330
1F
100
AcDbEntity
  8
0
  6
Continuous
 62
     7
370
    25
100
AcDbSpline
210
0.0
220
0.0
230
1.0
 70
     8
 71
     3
 72
    21
 73
    17
 74
     0
 42
0.00000001
 43
0.00000001
 40
0.0
 40
0.0
 40
0.0
 40
0.0
 40
0.0406034371461386
 40
0.117577426267391
 40
0.1946022478772124
 40
0.2716759300647867
 40
0.3488090214615748
 40
0.4260099488804988
 40
0.5032829709013895
 40
0.5806247980485137
 40
0.6580193477685017
 40
0.7354194671767248
 40
0.8127416125363595
 40
0.8898714810375159
 40
0.9666630698449069
 40
1.0
 40
1.0
 40
1.0
 40
1.0
 10
1426.099413501602
 20
815.2778103369158
 30
0.0
 10
1426.48083543393
 20
814.7629777257296
 30
0.0
 10
1427.585338211949
 20
813.2721508983377
 30
0.0
 10
1429.507943169176
 20
810.9182925563006
 30
0.0
 10
1431.889020816615
 20
808.2887072913122
 30
0.0
 10
1434.361618970234
 20
805.8507818105345
 30
0.0
 10
1436.906208498379
 20
803.6203723973847
 30
0.0
 10
1439.505973051071
 20
801.6148118396346
 30
0.0
 10
1442.143021982759
 20
799.8492941090308
 30
0.0
 10
1444.799362632946
 20
798.338030413312
 30
0.0
 10
1447.456682078983
 20
797.093322778571
 30
0.0
 10
1450.095334900446
 20
796.1281502869052
 30
0.0
 10
1452.697323367483
 20
795.4460280092776
 30
0.0
 10
1455.23443134536
 20
795.0768835934554
 30
0.0
 10
1457.249740693124
 20
794.9664144746578
 30
0.0
 10
1458.377244302351
 20
795.0896496184556
 30
0.0
 10
1458.718550164125
 20
795.1269540462291
 30
0.0
  0
SPLINE
  5
CA
330
1F
100
AcDbEntity
  8
0
  6
Continuous
 62
     7
370
    25
100
AcDbSpline
210
0.0
220
0.0
230
1.0
 70
     8
 71
     3
 72
    20
 73
    16
 74
     0
 42
0.00000001
 43
0.00000001
 40
0.0
 40
0.0
 40
0.0
 40
0.0
 40
0.0656836536876835
 40
0.1462124571929056
 40
0.227227945063766
 40
0.3085907524036648
 40
0.3901623151592279
 40
0.4718320126770299
 40
0.5535161561584524
 40
0.6351681161688679
 40
0.7167709517147928
 40
0.7983204052567874
 40
0.8798198673296398
 40
0.9612770961980435
 40
0.9999999999999999
 40
0.9999999999999999
 40
0.9999999999999999
 40
0.9999999999999999
 10
1393.363165634913
 20
905.2775264601013
 30
0.0
 10
1393.045537024168
 20
904.6973891008213
 30
0.0
 10
1392.338492622031
 20
903.4059976503233
 30
0.0
 10
1391.500575709031
 20
901.1509776522349
 30
0.0
 10
1390.805487404932
 20
898.5766875590671
 30
0.0
 10
1390.341422326235
 20
895.8146872773594
 30
0.0
 10
1390.10424326292
 20
892.8948137189044
 30
0.0
 10
1390.097477017045
 20
889.838125219453
 30
0.0
 10
1390.319724984458
 20
886.6690555714729
 30
0.0
 10
1390.768329794577
 20
883.4114713714034
 30
0.0
 10
1391.439092717164
 20
880.0894774698081
 30
0.0
 10
1392.325437394065
 20
876.726867314382
 30
0.0
 10
1393.423126200032
 20
873.3486354288457
 30
0.0
 10
1394.48739525581
 20
870.5651699893878
 30
0.0
 10
1395.202702213055
 20
868.9210178597936
 30
0.0
 10
1395.433179263452
 20
868.3912602090454
 30
0.0
  0
SPLINE
  5
CB
330
1F
100
AcDbEntity
  8
0
  6
Continuous
 62
     7
370
    25
100
AcDbSpline
210
0.0
220
0.0
230
1.0
 70
     8
 71
     3
 72
    16
 73
    12
 74
     0
 42
0.00000001
 43
0.00000001
 40
0.0
 40
0.0
 40
0.0
 40
0.0
 40
0.0625907421906031
 40
0.1814384240115278
 40
0.3002895211868927
 40
0.4191385448314694
 40
0.5379866195270591
 40
0.6568348765012116
 40
0.775684140043698
 40
0.8945354804469535
 40
1.0
 40
1.0
 40
1.0
 40
1.0
 10
1395.433179263452
 20
868.3912602090454
 30
0.0
 10
1395.954650098378
 20
867.2292649849788
 30
0.0
 10
1397.466292925186
 20
863.8608661645663
 30
0.0
 10
1400.107462204761
 20
858.3207729962437
 30
0.0
 10
1403.409713705113
 20
851.8003322465463
 30
0.0
 10
1406.884001340204
 20
845.3518450223442
 30
0.0
 10
1410.520837717932
 20
838.9869491809094
 30
0.0
 10
1414.313570842646
 20
832.716717089303
 30
0.0
 10
1418.257885807918
 20
826.5559269721094
 30
0.0
 10
1422.182513126554
 20
820.7312287693605
 30
0.0
 10
1424.846779803969
 20
817.0218260232194
 30
0.0
 10
1426.099413501602
 20
815.2778103369158
 30
0.0
  0
LINE
  5
CC
330
1F
100
AcDbEntity
  8
0
  6
Continuous
 62
     7
370
    25
100
AcDbLine
 10
1366.7079276564
 20
832.8123296294
 30
0.0
 11
1370.2434615623
 21
830.7713093499
 31
0.0
  0
LINE
  5
CD
330
1F
100
AcDbEntity
  8
0
  6
Continuous
 62
     7
370
    25
100
AcDbLine
 10
1357.914096638
 20
833.2476989243
 30
0.0
 11
1362.8638441063
 21
830.3902705329
 31
0.0
  0
LWPOLYLINE
  5
CE
330
1F
100
AcDbEntity
  8
0
  6
Continuous
 62
     7
370
    25
100
AcDbPolyline
 90
       16
 70
   128
 43
0.0
 10
1544.6559125625
 20
830.2075502268
 10
1543.8198249236
 20
830.8645580017
 10
1543.2072021912
 20
831.826400011
 10
1542.8448189183
 20
833.0510391434
 10
1542.7485129929
 20
834.4849527924
 10
1542.922493446
 20
836.0654720509
 10
1543.3591564969
 20
837.7235206431
 10
1544.0394178751
 20
839.3866338893
 10
1544.933546894
 20
840.9821257602
 10
1546.0024658249
 20
842.440265605
 10
1547.1994577815
 20
843.6973257155
 10
1548.4722084712
 20
844.6983665328
 10
1549.7650925818
 20
845.3996377697
 10
1551.0216048736
 20
845.7704905082
 10
1552.18682973
 20
845.7947167039
 10
1553.2098412334
 20
845.4712575559
  0
LWPOLYLINE
  5
CF
330
1F
100
AcDbEntity
  8
0
  6
Continuous
 62
     7
370
    25
100
AcDbPolyline
 90
       12
 70
   128
 43
0.0
 10
1550.0244311836
 20
831.4373243749
 10
1549.4036613681
 20
831.9935751415
 10
1549.0311793252
 20
832.8580688623
 10
1548.9371613346
 20
833.9607693973
 10
1549.1292241749
 20
835.2123425073
 10
1549.591808057
 20
836.5113931823
 10
1550.2874371858
 20
837.7526800623
 10
1551.1597558264
 20
838.8356414665
 10
1552.1380939104
 20
839.6725423026
 10
1553.1431923046
 20
840.1955818421
 10
1554.0936239147
 20
840.3623865321
 10
1554.9123904242
 20
840.1594428487
  0
LWPOLYLINE
  5
D0
330
1F
100
AcDbEntity
  8
0
  6
Continuous
 62
     7
370
    25
100
AcDbPolyline
 90
       16
 70
   128
 43
0.0
 10
1544.2046790521
 20
830.4655783735
 10
1543.4662715331
 20
831.0686600296
 10
1542.8536488006
 20
832.0305020389
 10
1542.4912655277
 20
833.2551411713
 10
1542.3949596023
 20
834.6890548204
 10
1542.5689400554
 20
836.2695740789
 10
1543.0056031063
 20
837.9276226711
 10
1543.6858644845
 20
839.5907359173
 10
1544.5799935034
 20
841.1862277882
 10
1545.6489124343
 20
842.6443676329
 10
1546.8459043909
 20
843.9014277434
 10
1548.1186550806
 20
844.9024685607
 10
1549.4115391912
 20
845.6037397977
 10
1550.668051483
 20
845.9745925361
 10
1551.8332763394
 20
845.9988187318
 10
1552.8562878428
 20
845.6753595838
  0
LWPOLYLINE
  5
D1
330
1F
100
AcDbEntity
  8
0
  6
Continuous
 62
     7
370
    25
100
AcDbPolyline
 90
       12
 70
   128
 43
0.0
 10
1550.0244311836
 20
831.4373243749
 10
1550.843197693
 20
831.2343806915
 10
1551.7936293032
 20
831.4011853815
 10
1552.7987276974
 20
831.924224921
 10
1553.7770657814
 20
832.7611257571
 10
1554.649384422
 20
833.8440871613
 10
1555.3450135508
 20
835.0853740413
 10
1555.8075974329
 20
836.3844247162
 10
1555.9996602732
 20
837.6359978262
 10
1555.9056422826
 20
838.7386983613
 10
1555.5331602396
 20
839.6031920821
 10
1554.9123904242
 20
840.1594428487
  0
LINE
  5
D2
330
1F
100
AcDbEntity
  8
0
  6
Continuous
 62
     7
370
    25
100
AcDbLine
 10
1554.2384228195
 20
834.8649001869
 30
0.0
 11
1554.8198045839
 21
837.9482774415
 31
0.0
  0
LINE
  5
D3
330
1F
100
AcDbEntity
  8
0
  6
Continuous
 62
     7
370
    25
100
AcDbLine
 10
1554.8198045839
 20
837.9482774415
 30
0.0
 11
1553.0497925682
 21
838.8817608663
 31
0.0
  0
LINE
  5
D4
330
1F
100
AcDbEntity
  8
0
  6
Continuous
 62
     7
370
    25
100
AcDbLine
 10
1553.0497925682
 20
838.8817608663
 30
0.0
 11
1550.6983987882
 21
836.7318670366
 31
0.0
  0
LINE
  5
D5
330
1F
100
AcDbEntity
  8
0
  6
Continuous
 62
     7
370
    25
100
AcDbLine
 10
1550.6983987882
 20
836.7318670366
 30
0.0
 11
1550.1170170239
 21
833.6484897821
 31
0.0
  0
LINE
  5
D6
330
1F
100
AcDbEntity
  8
0
  6
Continuous
 62
     7
370
    25
100
AcDbLine
 10
1550.1170170239
 20
833.6484897821
 30
0.0
 11
1551.8870290395
 21
832.7150063572
 31
0.0
  0
LINE
  5
D7
330
1F
100
AcDbEntity
  8
0
  6
Continuous
 62
     7
370
    25
100
AcDbLine
 10
1551.8870290395
 20
832.7150063572
 30
0.0
 11
1554.2384228195
 21
834.8649001869
 31
0.0
  0
LINE
  5
D8
330
1F
100
AcDbEntity
  8
0
  6
Continuous
 62
     7
370
    25
100
AcDbLine
 10
1551.8870290395
 20
832.7150063572
 30
0.0
 11
1550.132035806
 21
833.7281423857
 31
0.0
  0
LINE
  5
D9
330
1F
100
AcDbEntity
  8
0
  6
Continuous
 62
     7
370
    25
100
AcDbLine
 10
1551.4099956948
 20
836.4977164106
 30
0.0
 11
1551.6115729062
 21
837.5667877626
 31
0.0
  0
LINE
  5
DA
330
1F
100
AcDbEntity
  8
0
  6
Continuous
 62
     7
370
    25
100
AcDbLine
 10
1550.4968215768
 20
835.6627956847
 30
0.0
 11
1551.4099956948
 21
836.4977164106
 31
0.0
  0
LINE
  5
DB
330
1F
100
AcDbEntity
  8
0
  6
Continuous
 62
     7
370
    25
100
AcDbLine
 10
1544.6559125625
 20
830.2075502268
 30
0.0
 11
1545.1619678531
 21
829.9981007375
 31
0.0
  0
LINE
  5
DC
330
1F
100
AcDbEntity
  8
0
  6
Continuous
 62
     7
370
    25
100
AcDbLine
 10
1553.8426579267
 20
845.0214547235
 30
0.0
 11
1553.2098412334
 21
845.4712575559
 31
0.0
  0
LINE
  5
DD
330
1F
100
AcDbEntity
  8
0
  6
Continuous
 62
     7
370
    25
100
AcDbLine
 10
1554.2384228195
 20
834.8649001869
 30
0.0
 11
1551.4099956948
 21
836.4977164106
 31
0.0
  0
LINE
  5
DE
330
1F
100
AcDbEntity
  8
0
  6
Continuous
 62
     7
370
    25
100
AcDbLine
 10
1552.9539679626
 20
845.6214334651
 30
0.0
 11
1552.8562878428
 21
845.6753595838
 31
0.0
  0
LWPOLYLINE
  5
DF
330
1F
100
AcDbEntity
  8
0
  6
Continuous
 62
     7
370
    25
100
AcDbPolyline
 90
        9
 70
   128
 43
0.0
 10
1541.3894839929
 20
857.5705302824
 10
1542.0635673538
 20
857.7157736502
 10
1542.6642913598
 20
857.6333892628
 10
1543.1541860211
 20
857.328515823
 10
1543.5026942969
 20
856.8201697253
 10
1543.6880780822
 20
856.1400589136
 10
1543.6987741159
 20
855.3306051072
 10
1543.5341152359
 20
854.4422977581
 10
1543.2043719933
 20
853.5305447856
  0
LINE
  5
E0
330
1F
100
AcDbEntity
  8
0
  6
Continuous
 62
     7
370
    25
100
AcDbLine
 10
1536.886063404
 20
839.4630814353
 30
0.0
 11
1543.2043719933
 21
853.5305447856
 31
0.0
  0
ARC
  5
E1
330
1F
100
AcDbEntity
  8
0
  6
Continuous
 62
     7
370
    25
100
AcDbCircle
 10
1530.6555760342
 20
842.2596561271
 30
0.0
 40
6.829333999160964
100
AcDbArc
 50
320.192843763
 51
335.8269161411
  0
LWPOLYLINE
  5
E2
330
1F
100
AcDbEntity
  8
0
  6
Continuous
 62
     7
370
    25
100
AcDbPolyline
 90
       16
 70
   128
 43
0.0
 10
1535.9018947791
 20
837.8874778944
 10
1535.0864895195
 20
836.7350373723
 10
1534.4596738982
 20
835.4635537063
 10
1534.0675406835
 20
834.1665252076
 10
1533.9389253172
 20
832.939328622
 10
1534.0832855061
 20
831.8722056184
 10
1534.4900057508
 20
831.0436268853
 10
1535.1291779551
 20
830.5145218034
 10
1535.9538007116
 20
830.323798015
 10
1536.9032355418
 20
830.4854803577
 10
1537.9076659346
 20
830.987679551
 10
1538.893231291
 20
831.7934664722
 10
1539.7874582486
 20
832.8435877321
 10
1540.5245899971
 20
834.0608228624
 10
1541.0504216925
 20
835.3556627077
 10
1541.3262864005
 20
836.6328914644
  0
ARC
  5
E3
330
1F
100
AcDbEntity
  8
0
  6
Continuous
 62
     7
370
    25
100
AcDbCircle
 10
1547.0819053384
 20
835.9033941366
 30
0.0
 40
5.801664908394441
100
AcDbArc
 50
155.3365208669
 51
172.7765481507
  0
LINE
  5
E4
330
1F
100
AcDbEntity
  8
0
  6
Continuous
 62
     7
370
    25
100
AcDbLine
 10
1551.1955683236
 20
859.2220648809
 30
0.0
 11
1541.8095011094
 21
838.3243586872
 31
0.0
  0
ARC
  5
E5
330
1F
100
AcDbEntity
  8
0
  6
Continuous
 62
     7
370
    25
100
AcDbCircle
 10
1556.3611692378
 20
857.1366177803
 30
0.0
 40
5.570684196284888
100
AcDbArc
 50
114.7499876016
 51
158.0151735987
  0
LWPOLYLINE
  5
E6
330
1F
100
AcDbEntity
  8
0
  6
Continuous
 62
     7
370
    25
100
AcDbPolyline
 90
        9
 70
   128
 43
0.0
 10
1649.219390597
 20
894.4914297812
 10
1637.3637292324
 20
890.7152111465
 10
1625.4951682427
 20
886.8642994192
 10
1613.6139936649
 20
882.9387874078
 10
1601.7204918403
 20
878.9387697187
 10
1589.814949407
 20
874.8643427539
 10
1577.8976532936
 20
870.7156047089
 10
1565.9688907116
 20
866.4926555699
 10
1554.0289491491
 20
862.1955971117
  0
LWPOLYLINE
  5
E7
330
1F
100
AcDbEntity
  8
0
  6
Continuous
 62
     7
370
    25
100
AcDbPolyline
 90
        9
 70
   128
 43
0.0
 10
1531.570363399
 20
812.0905185033
 10
1544.5931629174
 20
814.244881851
 10
1557.6417075644
 20
816.4982046437
 10
1570.7155900837
 20
818.8504165533
 10
1583.8144024277
 20
821.3014441651
 10
1596.9377357711
 20
823.8512109804
 10
1610.0851805231
 20
826.4996374187
 10
1623.2563263404
 20
829.2466408204
 10
1636.4507621399
 20
832.092135449
  0
LWPOLYLINE
  5
E8
330
1F
100
AcDbEntity
  8
0
  6
Continuous
 62
     7
370
    25
100
AcDbPolyline
 90
       26
 70
   128
 43
0.0
 10
1540.8349474436
 20
857.3658202795
 10
1538.7143606876
 20
856.4337279827
 10
1536.5787410627
 20
855.200232485
 10
1534.4582835178
 20
853.6827738462
 10
1532.3829686293
 20
851.9028070039
 10
1530.3821387139
 20
849.8854984286
 10
1528.4840829651
 20
847.6593703011
 10
1526.7156374805
 20
845.2558972458
 10
1525.1018058331
 20
842.709061319
 10
1523.6654055525
 20
840.0548715457
 10
1522.4267455144
 20
837.3308547981
 10
1521.4033387983
 20
834.5755252133
 10
1520.6096550754
 20
831.8278396519
 10
1520.0569160254
 20
829.1266468978
 10
1519.7529366765
 20
826.5101383856
 10
1519.7020149105
 20
824.0153082224
 10
1519.9048706965
 20
821.6774301379
 10
1520.3586359114
 20
819.5295587587
 10
1521.0568948913
 20
817.6020622582
 10
1521.9897751413
 20
815.9221929886
 10
1523.1440869194
 20
814.5137021677
 10
1524.5035097232
 20
813.3965040668
 10
1526.048823041
 20
812.5863944479
 10
1527.7581781051
 20
812.0948272323
 10
1529.6074068062
 20
811.9287525558
 10
1531.5703633991
 20
812.0905185036
  0
LWPOLYLINE
  5
E9
330
1F
100
AcDbEntity
  8
0
  6
Continuous
 62
     7
370
    25
100
AcDbPolyline
 90
        9
 70
   128
 43
0.0
 10
1541.3894839929
 20
857.5705302824
 10
1541.3201681689
 20
857.5449502237
 10
1541.2508519892
 20
857.5193676816
 10
1541.1815354538
 20
857.4937826562
 10
1541.1122185628
 20
857.4681951474
 10
1541.0429013162
 20
857.4426051553
 10
1540.9735837141
 20
857.41701268
 10
1540.9042657565
 20
857.3914177214
 10
1540.8349474436
 20
857.3658202795
  0
LWPOLYLINE
  5
EA
330
1F
100
AcDbEntity
  8
0
  6
Continuous
 62
     7
370
    25
100
AcDbPolyline
 90
       23
 70
   128
 43
0.0
 10
1539.4207338812
 20
858.1822283914
 10
1537.3001471252
 20
857.2501360945
 10
1535.1645275003
 20
856.0166405969
 10
1533.0440699554
 20
854.499181958
 10
1530.9687550669
 20
852.7192151157
 10
1528.9679251515
 20
850.7019065404
 10
1527.0698694027
 20
848.4757784129
 10
1525.3014239181
 20
846.0723053577
 10
1523.6875922707
 20
843.5254694308
 10
1522.2511919901
 20
840.8712796575
 10
1521.012531952
 20
838.14726291
 10
1519.9891252359
 20
835.3919333252
 10
1519.195441513
 20
832.6442477637
 10
1518.642702463
 20
829.9430550096
 10
1518.3387231141
 20
827.3265464974
 10
1518.2878013481
 20
824.8317163342
 10
1518.4906571341
 20
822.4938382497
 10
1518.944422349
 20
820.3459668705
 10
1519.642681329
 20
818.41847037
 10
1520.5755615789
 20
816.7386011004
 10
1521.729873357
 20
815.3301102795
 10
1523.0892961608
 20
814.2129121786
 10
1523.5379388102
 20
813.9349364982
  0
LWPOLYLINE
  5
EB
330
1F
100
AcDbEntity
  8
0
  6
Continuous
 62
     7
370
    25
100
AcDbPolyline
 90
        9
 70
   128
 43
0.0
 10
1539.9752704305
 20
858.3869383942
 10
1539.9059546066
 20
858.3613583355
 10
1539.8366384268
 20
858.3357757934
 10
1539.7673218914
 20
858.310190768
 10
1539.6980050004
 20
858.2846032592
 10
1539.6286877538
 20
858.2590132672
 10
1539.5593701517
 20
858.2334207918
 10
1539.4900521942
 20
858.2078258332
 10
1539.4207338812
 20
858.1822283914
  0
ARC
  5
EC
330
1F
100
AcDbEntity
  8
0
  6
Continuous
 62
     7
370
    25
100
AcDbCircle
 10
1540.6834891804
 20
856.8403667523
 30
0.0
 40
1.701016649292741
100
AcDbArc
 50
62.3421896037
 51
114.6043785552
  0
LINE
  5
ED
330
1F
100
AcDbEntity
  8
0
  6
Continuous
 62
     7
370
    25
100
AcDbLine
 10
1549.7813547612
 20
860.0384729927
 30
0.0
 11
1540.395287547
 21
839.140766799
 31
0.0
  0
LWPOLYLINE
  5
EE
330
1F
100
AcDbEntity
  8
0
  6
Continuous
 62
     7
370
    25
100
AcDbPolyline
 90
        9
 70
   128
 43
0.0
 10
1534.4162343162
 20
831.1456571341
 10
1534.5395871492
 20
831.1402061268
 10
1535.4890219794
 20
831.3018884695
 10
1536.4934523722
 20
831.8040876628
 10
1537.4790177286
 20
832.609874584
 10
1538.3732446863
 20
833.659995844
 10
1539.1103764347
 20
834.8772309743
 10
1539.6362081301
 20
836.1720708195
 10
1539.9120728381
 20
837.4492995763
  0
LINE
  5
EF
330
1F
100
AcDbEntity
  8
0
  6
Continuous
 62
     7
370
    25
100
AcDbLine
 10
1647.8051770346
 20
895.3078378926
 30
0.0
 11
1649.2193905961
 21
894.4914297813
 31
0.0
  0
LWPOLYLINE
  5
F0
330
1F
100
AcDbEntity
  8
0
  6
Continuous
 62
     7
370
    25
100
AcDbPolyline
 90
        9
 70
   128
 43
0.0
 10
1647.8051770346
 20
895.307837893
 10
1635.94951567
 20
891.5316192583
 10
1624.0809546803
 20
887.680707531
 10
1612.1997801025
 20
883.7551955196
 10
1600.3062782779
 20
879.7551778305
 10
1588.4007358447
 20
875.6807508657
 10
1576.4834397312
 20
871.5320128207
 10
1564.5546771492
 20
867.3090636817
 10
1552.6147355867
 20
863.0120052235
  0
ARC
  5
F1
330
1F
100
AcDbEntity
  8
0
  6
Continuous
 62
     7
370
    25
100
AcDbCircle
 10
1554.9469556755
 20
857.9530258921
 30
0.0
 40
5.570684196286981
100
AcDbArc
 50
114.7499876016
 51
158.0151735987
  0
ARC
  5
F2
330
1F
100
AcDbEntity
  8
0
  6
Continuous
 62
     7
370
    25
100
AcDbCircle
 10
1545.667691776
 20
836.7198022484
 30
0.0
 40
5.801664908397411
100
AcDbArc
 50
155.3365208669
 51
172.7765481507
  0
LINE
  5
F3
330
1F
100
AcDbEntity
  8
0
  6
Continuous
 62
     7
370
    25
100
AcDbLine
 10
1638.5578727117
 20
896.411906268
 30
0.0
 11
1615.9704894549
 21
909.4513250704
 31
0.0
  0
LINE
  5
F4
330
1F
100
AcDbEntity
  8
0
  6
Continuous
 62
     7
370
    25
100
AcDbLine
 10
1616.3365148587
 20
911.2400627551
 30
0.0
 11
1638.9238981155
 21
898.2006439528
 31
0.0
  0
LINE
  5
F5
330
1F
100
AcDbEntity
  8
0
  6
Continuous
 62
     7
370
    25
100
AcDbLine
 10
1638.9238981155
 20
898.2006439528
 30
0.0
 11
1638.5578727117
 21
896.411906268
 31
0.0
  0
LINE
  5
F6
330
1F
100
AcDbEntity
  8
0
  6
Continuous
 62
     7
370
    25
100
AcDbLine
 10
1638.9238981155
 20
898.2006439528
 30
0.0
 11
1647.1200505382
 21
900.3961462742
 31
0.0
  0
LINE
  5
F7
330
1F
100
AcDbEntity
  8
0
  6
Continuous
 62
     7
370
    25
100
AcDbLine
 10
1638.5578727117
 20
896.411906268
 30
0.0
 11
1646.7540251345
 21
898.6074085894
 31
0.0
  0
SPLINE
  5
F8
330
1F
100
AcDbEntity
  8
0
  6
Continuous
 62
     7
370
    25
100
AcDbSpline
210
0.0
220
0.0
230
1.0
 70
     8
 71
     3
 72
     9
 73
     5
 74
     0
 42
0.00000001
 43
0.00000001
 40
0.0
 40
0.0
 40
0.0
 40
0.0
 40
0.4268896489066004
 40
0.9999999999999999
 40
0.9999999999999999
 40
0.9999999999999999
 40
0.9999999999999999
 10
1637.733691858331
 20
833.1031472821418
 30
0.0
 10
1637.687106303985
 20
832.9136286710049
 30
0.0
 10
1637.577978442804
 20
832.4696764420805
 30
0.0
 10
1636.861425848769
 20
832.2296799329863
 30
0.0
 10
1636.450762140025
 20
832.0921354493981
 30
0.0
  0
SPLINE
  5
F9
330
1F
100
AcDbEntity
  8
0
  6
Continuous
 62
     7
370
    25
100
AcDbSpline
210
0.0
220
0.0
230
1.0
 70
     8
 71
     3
 72
    11
 73
     7
 74
     0
 42
0.00000001
 43
0.00000001
 40
0.0
 40
0.0
 40
0.0
 40
0.0
 40
0.2500000000000016
 40
0.4999999999999995
 40
0.7500000000000004
 40
1.0
 40
1.0
 40
1.0
 40
1.0
 10
1649.219390596943
 20
894.4914297808207
 30
0.0
 10
1649.615506649865
 20
894.6505864412809
 30
0.0
 10
1650.407738755709
 20
894.9688997622015
 30
0.0
 10
1650.724263859354
 20
895.7690797488218
 30
0.0
 10
1650.350624360581
 20
896.6810893248772
 30
0.0
 10
1649.530241812354
 20
897.2606997828142
 30
0.0
 10
1649.12005053824
 20
897.5505050117827
 30
0.0
  0
SPLINE
  5
FA
330
1F
100
AcDbEntity
  8
0
  6
Continuous
 62
     7
370
    25
100
AcDbSpline
210
0.0
220
0.0
230
1.0
 70
     8
 71
     3
 72
    11
 73
     7
 74
     0
 42
0.00000001
 43
0.00000001
 40
0.0
 40
0.0
 40
0.0
 40
0.0
 40
0.2499999999999918
 40
0.5000000000000047
 40
0.7500000000000009
 40
1.0
 40
1.0
 40
1.0
 40
1.0
 10
1647.80517703457
 20
895.3078378926433
 30
0.0
 10
1648.043551010916
 20
895.4067739661696
 30
0.0
 10
1648.520298963607
 20
895.6046461132219
 30
0.0
 10
1648.71232705957
 20
896.0950803369439
 30
0.0
 10
1648.490256394084
 20
896.652612314327
 30
0.0
 10
1647.999435554332
 20
897.0072627435892
 30
0.0
 10
1647.754025134456
 20
897.1845879582203
 30
0.0
  0
LINE
  5
FB
330
1F
100
AcDbEntity
  8
0
  6
Continuous
 62
     7
370
    25
100
AcDbLine
 10
1649.1200505382
 20
897.5505050118
 30
0.0
 11
1647.7540251345
 21
897.1845879582
 31
0.0
  0
LWPOLYLINE
  5
FC
330
1F
100
AcDbEntity
  8
0
  6
Continuous
 62
     7
370
    25
100
AcDbPolyline
 90
        9
 70
   128
 43
0.0
 10
1647.1200505382
 20
900.3961462742
 10
1647.6389810591
 20
900.4701798397
 10
1648.109837069
 20
900.4038879646
 10
1648.5145238356
 20
900.1998182086
 10
1648.8374894735
 20
899.8658128578
 10
1649.0663225942
 20
899.4147075506
 10
1649.1922292693
 20
898.863838011
 10
1649.2103709758
 20
898.2343738465
 10
1649.1200505382
 20
897.5505050118
  0
LWPOLYLINE
  5
FD
330
1F
100
AcDbEntity
  8
0
  6
Continuous
 62
     7
370
    25
100
AcDbPolyline
 90
        9
 70
   128
 43
0.0
 10
1646.7540251345
 20
898.6074085894
 10
1647.0134903949
 20
898.6444253722
 10
1647.2489183998
 20
898.6112794347
 10
1647.4512617831
 20
898.5092445566
 10
1647.6127446021
 20
898.3422418812
 10
1647.7271611624
 20
898.1166892276
 10
1647.7901145
 20
897.8412544578
 10
1647.7991853533
 20
897.5265223756
 10
1647.7540251345
 20
897.1845879582
  0
ARC
  5
FE
330
1F
100
AcDbEntity
  8
0
  6
Continuous
 62
     7
370
    25
100
AcDbCircle
 10
1633.8687354156
 20
893.6273989415
 30
0.0
 40
4.405359915059258
100
AcDbArc
 50
341.1165911008
 51
55.7711460017
  0
LINE
  5
FF
330
1F
100
AcDbEntity
  8
0
  6
Continuous
 62
     7
370
    25
100
AcDbLine
 10
1636.346749584
 20
897.2697390907
 30
0.0
 11
1636.2760389059
 21
897.3105594963
 31
0.0
  0
LWPOLYLINE
  5
100
330
1F
100
AcDbEntity
  8
0
  6
Continuous
 62
     7
370
    25
100
AcDbPolyline
 90
       10
 70
   128
 43
0.0
 10
1634.811765144
 20
891.1655179349
 10
1634.1871228808
 20
891.7274062769
 10
1633.5539907559
 20
892.7006863444
 10
1633.171918696
 20
893.852425862
 10
1633.0869902305
 20
895.043708046
 10
1633.3094489858
 20
896.1308466835
 10
1633.8124631526
 20
896.9827168103
 10
1634.535361799
 20
897.496570317
 10
1635.3909526792
 20
897.610428887
 10
1636.2760389059
 20
897.3105594963
  0
LWPOLYLINE
  5
101
330
1F
100
AcDbEntity
  8
0
  6
Continuous
 62
     7
370
    25
100
AcDbPolyline
 90
        8
 70
   128
 43
0.0
 10
1636.1062938955
 20
891.5820159275
 10
1635.5531482846
 20
892.0933233304
 10
1634.9200161596
 20
893.066603398
 10
1634.5379440998
 20
894.2183429156
 10
1634.4530156343
 20
895.4096250995
 10
1634.6754743895
 20
896.496763737
 10
1635.1784885564
 20
897.3486338639
 10
1635.4506383924
 20
897.6031164433
  0
LINE
  5
102
330
1F
100
AcDbEntity
  8
0
  6
Continuous
 62
     7
370
    25
100
AcDbLine
 10
1632.8450597906
 20
830.6353765687
 30
0.0
 11
1624.6489073679
 21
828.4398742474
 31
0.0
  0
LINE
  5
103
330
1F
100
AcDbEntity
  8
0
  6
Continuous
 62
     7
370
    25
100
AcDbLine
 10
1624.6489073679
 20
828.4398742474
 30
0.0
 11
1624.8848240976
 21
829.5927809595
 31
0.0
  0
LINE
  5
104
330
1F
100
AcDbEntity
  8
0
  6
Continuous
 62
     7
370
    25
100
AcDbLine
 10
1624.6489073679
 20
828.4398742474
 30
0.0
 11
1623.2527202388
 21
829.2458759208
 31
0.0
  0
ARC
  5
105
330
1F
100
AcDbEntity
  8
0
  6
Continuous
 62
     7
370
    25
100
AcDbCircle
 10
1631.5762971673
 20
834.539540726
 30
0.0
 40
4.105149980379096
100
AcDbArc
 50
288.0029573192
 51
315.6066204959
  0
LWPOLYLINE
  5
106
330
1F
100
AcDbEntity
  8
0
  6
Continuous
 62
     7
370
    25
100
AcDbPolyline
 90
        3
 70
   128
 43
0.0
 10
1545.7636061643
 20
851.0931151743
 10
1545.1987604018
 20
850.314321953
 10
1544.4169590911
 20
848.8878786015
  0
LWPOLYLINE
  5
107
330
1F
100
AcDbEntity
  8
0
  6
Continuous
 62
     7
370
    25
100
AcDbPolyline
 90
        7
 70
   128
 43
0.0
 10
1533.9831160134
 20
832.3383422997
 10
1534.2303499046
 20
832.2580781873
 10
1535.0754274383
 20
832.2699702204
 10
1536.0065120407
 20
832.6563669259
 10
1536.9324626637
 20
833.3794451019
 10
1537.7626408088
 20
834.3684248187
 10
1538.4157828549
 20
835.5264978509
  0
LINE
  5
108
330
1F
100
AcDbEntity
  8
0
  6
Continuous
 62
     7
370
    25
100
AcDbLine
 10
1538.4157828549
 20
835.5264978509
 30
0.0
 11
1544.4169590911
 21
848.8878786015
 31
0.0
  0
LWPOLYLINE
  5
109
330
1F
100
AcDbEntity
  8
0
  6
Continuous
 62
     7
370
    25
100
AcDbPolyline
 90
       21
 70
   128
 43
0.0
 10
1519.7123985235
 20
817.7599108633
 10
1519.5800250663
 20
817.8380331447
 10
1518.2085407396
 20
818.8794211597
 10
1517.0433958299
 20
820.221322883
 10
1516.1023950778
 20
821.8432325287
 10
1515.399918046
 20
823.7203654711
 10
1514.9466993833
 20
825.8240369818
 10
1514.7496647867
 20
828.1221005656
 10
1514.8118251692
 20
830.5794391947
 10
1515.1322306494
 20
833.1585019376
 10
1515.7059850667
 20
835.8198777796
 10
1516.5243208006
 20
838.5228978682
 10
1517.5747327495
 20
841.2262569795
 10
1518.841169423
 20
843.8886447087
 10
1520.3042782271
 20
846.4693767407
 10
1521.9417011937
 20
848.9290165521
 10
1523.7284166358
 20
851.2299780466
 10
1525.6371215077
 20
853.3370999132
 10
1527.6386486259
 20
855.2181829312
 10
1529.7024123778
 20
856.8444820107
 10
1531.7968761037
 20
858.1911454503
  0
ARC
  5
10A
330
1F
100
AcDbEntity
  8
0
  6
Continuous
 62
     7
370
    25
100
AcDbCircle
 10
1533.531015352
 20
855.7717615177
 30
0.0
 40
2.97668566458636
100
AcDbArc
 50
65.2916347451
 51
125.6317783939
  0
ARC
  5
10B
330
1F
100
AcDbEntity
  8
0
  6
Continuous
 62
     7
370
    25
100
AcDbCircle
 10
1545.4122062299
 20
852.9958304093
 30
0.0
 40
3.000700712770362
100
AcDbArc
 50
65.6496101752
 51
124.5848591461
  0
LINE
  5
10C
330
1F
100
AcDbEntity
  8
0
  6
Continuous
 62
     7
370
    25
100
AcDbLine
 10
1593.5358841303
 20
799.8151534498
 30
0.0
 11
1506.9657903645
 21
749.8393020847
 31
0.0
  0
ARC
  5
10D
330
1F
100
AcDbEntity
  8
0
  6
Continuous
 62
     7
370
    25
100
AcDbCircle
 10
1506.0733815193
 20
763.2072873532
 30
0.0
 40
13.39773949909415
100
AcDbArc
 50
218.6793501651
 51
273.8192372328
  0
LWPOLYLINE
  5
10E
330
1F
100
AcDbEntity
  8
0
  6
Continuous
 62
     7
370
    25
100
AcDbPolyline
 90
       12
 70
   128
 43
0.0
 10
1495.6117149708
 20
878.6942213467
 10
1494.2612060761
 20
866.7192743142
 10
1493.1796030525
 20
854.8606812284
 10
1492.3677349703
 20
843.1275319376
 10
1491.8262241427
 20
831.5288201351
 10
1491.5554856484
 20
820.0734364651
 10
1491.555727014
 20
808.7701617081
 10
1491.8269480544
 20
797.6276600498
 10
1492.3689408733
 20
786.6544724403
 10
1493.1812900224
 20
775.8590100472
 10
1494.2633728198
 20
765.2495478078
 10
1495.6143598275
 20
754.834218087
  0
ARC
  5
10F
330
1F
100
AcDbEntity
  8
0
  6
Continuous
 62
     7
370
    25
100
AcDbCircle
 10
1555.0557675212
 20
854.0231551734
 30
0.0
 40
64.36036738357502
100
AcDbArc
 50
137.6891205613
 51
157.4600827829
  0
LINE
  5
110
330
1F
100
AcDbEntity
  8
0
  6
Continuous
 62
     7
370
    25
100
AcDbLine
 10
1515.6570603992
 20
902.0789738612
 30
0.0
 11
1507.4610641814
 21
897.3475259563
 31
0.0
  0
LINE
  5
111
330
1F
100
AcDbEntity
  8
0
  6
Continuous
 62
     7
370
    25
100
AcDbLine
 10
1515.6570603992
 20
902.0789738612
 30
0.0
 11
1620.1918303107
 21
930.0806895649
 31
0.0
  0
LINE
  5
112
330
1F
100
AcDbEntity
  8
0
  6
Continuous
 62
     7
370
    25
100
AcDbLine
 10
1620.1918303107
 20
930.0806895649
 30
0.0
 11
1610.6033154473
 21
883.2223630673
 31
0.0
  0
LINE
  5
113
330
1F
100
AcDbEntity
  8
0
  6
Continuous
 62
     7
370
    25
100
AcDbLine
 10
1598.5184715128
 20
824.1646705233
 30
0.0
 11
1593.5358841303
 21
799.8151534498
 31
0.0
  0
LINE
  5
114
330
1F
100
AcDbEntity
  8
0
  6
Continuous
 62
     7
370
    25
100
AcDbLine
 10
1507.4610641814
 20
897.3475259563
 30
0.0
 11
1502.5113167131
 21
900.2049543477
 31
0.0
  0
LINE
  5
115
330
1F
100
AcDbEntity
  8
0
  6
Continuous
 62
     7
370
    25
100
AcDbLine
 10
1495.6117149708
 20
878.6942213467
 30
0.0
 11
1490.6619675025
 21
881.5516497381
 31
0.0
  0
ARC
  5
116
330
1F
100
AcDbEntity
  8
0
  6
Continuous
 62
     7
370
    25
100
AcDbCircle
 10
1550.1060200529
 20
856.8805835647
 30
0.0
 40
64.36036738356538
100
AcDbArc
 50
137.6891205613
 51
157.4600827829
  0
LINE
  5
117
330
1F
100
AcDbEntity
  8
0
  6
Continuous
 62
     7
370
    25
100
AcDbLine
 10
1495.6143598275
 20
754.834218087
 30
0.0
 11
1490.6646123592
 21
757.6916464784
 31
0.0
  0
LWPOLYLINE
  5
118
330
1F
100
AcDbEntity
  8
0
  6
Continuous
 62
     7
370
    25
100
AcDbPolyline
 90
       12
 70
   128
 43
0.0
 10
1490.6646123592
 20
757.6916464784
 10
1489.3136253515
 20
768.1069761992
 10
1488.2315425541
 20
778.7164384385
 10
1487.419193405
 20
789.5119008317
 10
1486.8772005861
 20
800.4850884412
 10
1486.6059795457
 20
811.6275900994
 10
1486.6057381801
 20
822.9308648565
 10
1486.8764766744
 20
834.3862485265
 10
1487.417987502
 20
845.984960329
 10
1488.2298555842
 20
857.7181096198
 10
1489.3114586078
 20
869.5767027056
 10
1490.6619675025
 20
881.5516497381
  0
LINE
  5
119
330
1F
100
AcDbEntity
  8
0
  6
Continuous
 62
     7
370
    25
100
AcDbLine
 10
1489.8757481228
 20
882.5371780232
 30
0.0
 11
1490.8416321252
 21
881.9795850573
 31
0.0
  0
LINE
  5
11A
330
1F
100
AcDbEntity
  8
0
  6
Continuous
 62
     7
370
    25
100
AcDbLine
 10
1499.506112893
 20
900.2658133959
 30
0.0
 11
1501.5230209806
 21
899.1014771405
 31
0.0
  0
ARC
  5
11B
330
1F
100
AcDbEntity
  8
0
  6
Continuous
 62
     7
370
    25
100
AcDbCircle
 10
1546.5301373741
 20
863.2419413487
 30
0.0
 40
59.85002907074904
100
AcDbArc
 50
141.7852442734
 51
161.1922884018
  0
LINE
  5
11C
330
1F
100
AcDbEntity
  8
0
  6
Continuous
 62
     7
370
    25
100
AcDbLine
 10
1510.7073129309
 20
904.9364022526
 30
0.0
 11
1515.6570603992
 21
902.0789738612
 31
0.0
  0
LINE
  5
11D
330
1F
100
AcDbEntity
  8
0
  6
Continuous
 62
     7
370
    25
100
AcDbLine
 10
1502.5113167131
 20
900.2049543477
 30
0.0
 11
1510.7073129309
 21
904.9364022526
 31
0.0
  0
ARC
  5
11E
330
1F
100
AcDbEntity
  8
0
  6
Continuous
 62
     7
370
    25
100
AcDbCircle
 10
1980.7338327762
 20
823.2721973785
 30
0.0
 40
494.4228930788618
100
AcDbArc
 50
173.1155741299
 51
183.1814217585
  0
LINE
  5
11F
330
1F
100
AcDbEntity
  8
0
  6
Continuous
 62
     7
370
    25
100
AcDbLine
 10
1380.0050668725
 20
979.0491961868
 30
0.0
 11
1371.5197854982
 21
974.1507475159
 31
0.0
  0
LINE
  5
120
330
1F
100
AcDbEntity
  8
0
  6
Continuous
 62
     7
370
    25
100
AcDbLine
 10
1380.0050668725
 20
979.0491961868
 30
0.0
 11
1509.5467073704
 21
904.2663989239
 31
0.0
  0
LINE
  5
121
330
1F
100
AcDbEntity
  8
0
  6
Continuous
 62
     7
370
    25
100
AcDbLine
 10
1375.0553194042
 20
972.1097272363
 30
0.0
 11
1499.506112893
 21
900.2658133959
 31
0.0
  0
LINE
  5
122
330
1F
100
AcDbEntity
  8
0
  6
Continuous
 62
     7
370
    25
100
AcDbLine
 10
1371.5197854982
 20
974.1507475159
 30
0.0
 11
1375.0553194042
 21
972.1097272363
 31
0.0
  0
LINE
  5
123
330
1F
100
AcDbEntity
  8
0
  6
Continuous
 62
     7
370
    25
100
AcDbLine
 10
1379.1854516302
 20
980.8623566521
 30
0.0
 11
1380.0050668725
 21
981.0819068842
 31
0.0
  0
LINE
  5
124
330
1F
100
AcDbEntity
  8
0
  6
Continuous
 62
     7
370
    25
100
AcDbLine
 10
1374.2357041619
 20
983.7197850434
 30
0.0
 11
1379.1854516302
 21
980.8623566521
 31
0.0
  0
LINE
  5
125
330
1F
100
AcDbEntity
  8
0
  6
Continuous
 62
     7
370
    25
100
AcDbLine
 10
1374.2357041619
 20
983.7197850434
 30
0.0
 11
1478.7704740734
 21
1011.7215007472
 31
0.0
  0
LINE
  5
126
330
1F
100
AcDbEntity
  8
0
  6
Continuous
 62
     7
370
    25
100
AcDbLine
 10
1478.7704740734
 20
1011.7215007472
 30
0.0
 11
1620.1918303107
 21
930.0806895649
 31
0.0
  0
LINE
  5
127
330
1F
100
AcDbEntity
  8
0
  6
Continuous
 62
     7
370
    25
100
AcDbLine
 10
1511.5269281732
 20
905.1559524847
 30
0.0
 11
1380.0050668725
 21
981.0819068842
 31
0.0
  0
LWPOLYLINE
  5
128
330
1F
100
AcDbEntity
  8
0
  6
Continuous
 62
     7
370
    25
100
AcDbPolyline
 90
       26
 70
   128
 43
0.0
 10
1485.5511632949
 20
953.7761770493
 10
1486.6560903664
 20
953.2398748938
 10
1487.9319215265
 20
952.801647935
 10
1489.298491611
 20
952.4890315843
 10
1490.6699339957
 20
952.3216686768
 10
1491.9600759119
 20
952.3100752395
 10
1493.087852998
 20
952.4549797306
 10
1493.982402872
 20
952.7472772682
 10
1494.5875176756
 20
953.1686017228
 10
1494.86517582
 20
953.6924797296
 10
1494.797931023
 20
954.2859941066
 10
1494.3900085224
 20
954.9118521627
 10
1493.6670395892
 20
955.5307289346
 10
1492.6744510204
 20
956.1037381185
 10
1491.4746108062
 20
956.5948754401
 10
1490.1429093199
 20
956.9732809353
 10
1488.7630222637
 20
957.2151779949
 10
1487.4216530161
 20
957.3053673372
 10
1486.2030847401
 20
957.2381820341
 10
1485.1838845622
 20
957.0178435853
 10
1484.4280925779
 20
956.6581966658
 10
1483.9831979771
 20
956.1818392143
 10
1483.8771551238
 20
955.6187025215
 10
1484.1166270805
 20
955.0041705366
 10
1484.6865669434
 20
954.3768565646
 10
1485.5511632949
 20
953.7761770493
  0
LWPOLYLINE
  5
129
330
1F
100
AcDbEntity
  8
0
  6
Continuous
 62
     7
370
    25
100
AcDbPolyline
 90
       26
 70
   128
 43
0.0
 10
1526.5319254085
 20
964.7536886562
 10
1527.63685248
 20
964.2173865007
 10
1528.91268364
 20
963.7791595419
 10
1530.2792537245
 20
963.4665431912
 10
1531.6506961093
 20
963.2991802837
 10
1532.9408380254
 20
963.2875868464
 10
1534.0686151115
 20
963.4324913375
 10
1534.9631649856
 20
963.7247888751
 10
1535.5682797891
 20
964.1461133297
 10
1535.8459379336
 20
964.6699913364
 10
1535.7786931365
 20
965.2635057134
 10
1535.370770636
 20
965.8893637696
 10
1534.6478017028
 20
966.5082405414
 10
1533.6552131339
 20
967.0812497254
 10
1532.4553729197
 20
967.572387047
 10
1531.1236714334
 20
967.9507925421
 10
1529.7437843772
 20
968.1926896018
 10
1528.4024151296
 20
968.2828789441
 10
1527.1838468537
 20
968.215693641
 10
1526.1646466758
 20
967.9953551922
 10
1525.4088546914
 20
967.6357082727
 10
1524.9639600906
 20
967.1593508212
 10
1524.8579172373
 20
966.5962141283
 10
1525.097389194
 20
965.9816821435
 10
1525.667329057
 20
965.3543681715
 10
1526.5319254085
 20
964.7536886562
  0
LINE
  5
12A
330
1F
100
AcDbEntity
  8
0
  6
Continuous
 62
     7
370
    25
100
AcDbLine
 10
1511.5269281732
 20
905.1559524847
 30
0.0
 11
1510.7073129309
 21
904.9364022526
 31
0.0
  0
LINE
  5
12B
330
1F
100
AcDbEntity
  8
0
  6
Continuous
 62
     7
370
    25
100
AcDbLine
 10
1487.1269335165
 20
794.72397427
 30
0.0
 11
1470.100521302
 21
784.8916404351
 31
0.0
  0
LWPOLYLINE
  5
12C
330
1F
100
AcDbEntity
  8
0
  6
Continuous
 62
     7
370
    25
100
AcDbPolyline
 90
        9
 70
   128
 43
0.0
 10
1471.100521302
 20
781.5265080088
 10
1470.6899967745
 20
781.8338187205
 10
1470.3148263436
 20
782.2553039329
 10
1470.007319435
 20
782.7546656226
 10
1469.7939583371
 20
783.2888990962
 10
1469.6931175645
 20
783.8119965255
 10
1469.7134814567
 20
784.2789091113
 10
1469.853296289
 20
784.6494266552
 10
1470.100521302
 20
784.8916404351
  0
LINE
  5
12D
330
1F
100
AcDbEntity
  8
0
  6
Continuous
 62
     7
370
    25
100
AcDbLine
 10
1471.100521302
 20
781.5265080088
 30
0.0
 11
1488.9668878489
 21
771.2124741417
 31
0.0
  0
LINE
  5
12E
330
1F
100
AcDbEntity
  8
0
  6
Continuous
 62
     7
370
    25
100
AcDbLine
 10
1489.9541578246
 20
762.8853976033
 30
0.0
 11
1375.0553194042
 21
829.2150851563
 31
0.0
  0
LINE
  5
12F
330
1F
100
AcDbEntity
  8
0
  6
Continuous
 62
     7
370
    25
100
AcDbLine
 10
1375.0553194042
 20
972.1097272363
 30
0.0
 11
1375.0553194042
 21
829.2150851563
 31
0.0
  0
LWPOLYLINE
  5
130
330
1F
100
AcDbEntity
  8
0
  6
Continuous
 62
     7
370
    25
100
AcDbPolyline
 90
       14
 70
   128
 43
0.0
 10
1394.4567376127
 20
908.9873803979
 10
1392.8979543203
 20
907.0366480002
 10
1391.5774203477
 20
904.7922047872
 10
1390.5067634609
 20
902.2738138706
 10
1389.6954111704
 20
899.5036505681
 10
1389.1505077183
 20
896.5061071418
 10
1388.8768511711
 20
893.3075780157
 10
1388.8768511711
 20
889.9362273635
 10
1389.1505077183
 20
886.4217411134
 10
1389.6954111704
 20
882.7950655527
 10
1390.5067634609
 20
879.0881348352
 10
1391.5774203477
 20
875.3335897894
 10
1392.8979543203
 20
871.5644905048
 10
1394.4567376127
 20
867.8140252262
  0
ARC
  5
131
330
1F
100
AcDbEntity
  8
0
  6
Continuous
 62
     7
370
    25
100
AcDbCircle
 10
1670.5493973135
 20
991.8259838287
 30
0.0
 40
302.6650336875618
100
AcDbArc
 50
204.1880854552
 51
215.8138063279
  0
LWPOLYLINE
  5
132
330
1F
100
AcDbEntity
  8
0
  6
Continuous
 62
     7
370
    25
100
AcDbPolyline
 90
       14
 70
   128
 43
0.0
 10
1425.1114084444
 20
814.7206021008
 10
1427.5798168244
 20
811.4959138773
 10
1430.1834302992
 20
808.4682509638
 10
1432.8993274302
 20
805.6642680042
 10
1435.7035982668
 20
803.1086504305
 10
1438.5715548425
 20
800.8238971397
 10
1441.4779485206
 20
798.8301224204
 10
1444.3971922756
 20
797.144878872
 10
1447.3035859537
 20
795.7830028777
 10
1450.1715425294
 20
794.7564839886
 10
1452.9758133659
 20
794.0743593717
 10
1455.6917104969
 20
793.7426342493
 10
1458.2953239718
 20
793.7642290306
 10
1460.7637323518
 20
794.1389536018
  0
ARC
  5
133
330
1F
100
AcDbEntity
  8
0
  6
Continuous
 62
     7
370
    25
100
AcDbCircle
 10
1447.6932669474
 20
852.1235692469
 30
0.0
 40
59.43948786286525
100
AcDbArc
 50
282.7028849088
 51
310.8129095299
  0
ARC
  5
134
330
1F
100
AcDbEntity
  8
0
  6
Continuous
 62
     7
370
    25
100
AcDbCircle
 10
1215.2389257163
 20
728.9398780629
 30
0.0
 40
302.770993412402
100
AcDbArc
 50
25.8226641226
 51
35.8135176591
  0
LWPOLYLINE
  5
135
330
1F
100
AcDbEntity
  8
0
  6
Continuous
 62
     7
370
    25
100
AcDbPolyline
 90
       14
 70
   128
 43
0.0
 10
1460.7637323518
 20
906.1060254459
 10
1458.2953239718
 20
909.3307136694
 10
1455.6917104969
 20
912.3583765829
 10
1452.9758133659
 20
915.1623595425
 10
1450.1715425294
 20
917.7179771162
 10
1447.3035859537
 20
920.002730407
 10
1444.3971922756
 20
921.9965051263
 10
1441.4779485206
 20
923.6817486747
 10
1438.5715548425
 20
925.043624669
 10
1435.7035982668
 20
926.0701435581
 10
1432.8993274302
 20
926.752268175
 10
1430.1834302992
 20
927.0839932974
 10
1427.5798168244
 20
927.0623985161
 10
1425.1114084444
 20
926.6876739449
  0
ARC
  5
136
330
1F
100
AcDbEntity
  8
0
  6
Continuous
 62
     7
370
    25
100
AcDbCircle
 10
1438.2666449925
 20
868.5093131691
 30
0.0
 40
59.64714503814375
100
AcDbArc
 50
102.7413970036
 51
137.2636804536
  0
LINE
  5
137
330
1F
100
AcDbEntity
  8
0
  6
Continuous
 62
     7
370
    25
100
AcDbLine
 10
1380.0050668725
 20
981.0819068842
 30
0.0
 11
1380.0050668725
 21
979.0491961868
 31
0.0
  0
ARC
  5
138
330
1F
100
AcDbEntity
  8
0
  6
Continuous
 62
     7
370
    25
100
AcDbCircle
 10
1448.1214095311
 20
853.2911629898
 30
0.0
 40
60.24172501801756
100
AcDbArc
 50
282.8028927939
 51
299.4999534908
  0
LWPOLYLINE
  5
139
330
1F
100
AcDbEntity
  8
0
  6
Continuous
 62
     7
370
    25
100
AcDbPolyline
 90
       14
 70
   128
 43
0.0
 10
1425.8185152256
 20
815.1288061568
 10
1428.2869236056
 20
811.9041179332
 10
1430.8905370804
 20
808.8764550197
 10
1433.6064342114
 20
806.0724720601
 10
1436.410705048
 20
803.5168544864
 10
1439.2786616237
 20
801.2321011956
 10
1442.1850553018
 20
799.2383264763
 10
1445.1042990568
 20
797.5530829279
 10
1448.0106927349
 20
796.1912069336
 10
1450.8786493106
 20
795.1646880445
 10
1453.6829201471
 20
794.4825634276
 10
1456.3988172781
 20
794.1508383052
 10
1459.002430753
 20
794.1724330866
 10
1461.470839133
 20
794.5471576577
  0
ARC
  5
13A
330
1F
100
AcDbEntity
  8
0
  6
Continuous
 62
     7
370
    25
100
AcDbCircle
 10
1671.2565040947
 20
992.2341878846
 30
0.0
 40
302.665033687534
100
AcDbArc
 50
204.1880854552
 51
215.8138063279
  0
LWPOLYLINE
  5
13B
330
1F
100
AcDbEntity
  8
0
  6
Continuous
 62
     7
370
    25
100
AcDbPolyline
 90
       14
 70
   128
 43
0.0
 10
1395.1638443939
 20
909.3955844538
 10
1393.6050611015
 20
907.4448520561
 10
1392.2845271289
 20
905.2004088431
 10
1391.2138702421
 20
902.6820179265
 10
1390.4025179516
 20
899.911854624
 10
1389.8576144995
 20
896.9143111977
 10
1389.5839579523
 20
893.7157820716
 10
1389.5839579523
 20
890.3444314194
 10
1389.8576144995
 20
886.8299451693
 10
1390.4025179516
 20
883.2032696086
 10
1391.2138702421
 20
879.4963388911
 10
1392.2845271289
 20
875.7417938453
 10
1393.6050611015
 20
871.9726945607
 10
1395.1638443939
 20
868.2222292821
  0
ARC
  5
13C
330
1F
100
AcDbEntity
  8
0
  6
Continuous
 62
     7
370
    25
100
AcDbCircle
 10
1439.3680531397
 20
868.464580792
 30
0.0
 40
60.24416263511785
100
AcDbArc
 50
120.4949155699
 51
137.201774176
  0
ARC
  5
13D
330
1F
100
AcDbEntity
  8
0
  6
Continuous
 62
     7
370
    25
100
AcDbCircle
 10
1438.4901727338
 20
869.7548890092
 30
0.0
 40
57.75691562903237
100
AcDbArc
 50
102.0922099153
 51
137.9128675418
  0
LWPOLYLINE
  5
13E
330
1F
100
AcDbEntity
  8
0
  6
Continuous
 62
     7
370
    25
100
AcDbPolyline
 90
        3
 70
   128
 43
0.0
 10
1395.627241595
 20
908.4670374535
 10
1394.1353707723
 20
906.562314784
 10
1393.4025184841
 20
905.3785724882
  0
LINE
  5
13F
330
1F
100
AcDbEntity
  8
0
  6
Continuous
 62
     7
370
    25
100
AcDbLine
 10
1458.749171091
 20
795.0918077679
 30
0.0
 11
1460.8984248462
 21
795.4127571735
 31
0.0
  0
ARC
  5
140
330
1F
100
AcDbEntity
  8
0
  6
Continuous
 62
     7
370
    25
100
AcDbCircle
 10
1448.8888636753
 20
851.6816325913
 30
0.0
 40
57.53621381621116
100
AcDbArc
 50
282.0479651428
 51
310.8329204732
  0
LWPOLYLINE
  5
141
330
1F
100
AcDbEntity
  8
0
  6
Continuous
 62
     7
370
    25
100
AcDbPolyline
 90
        8
 70
   128
 43
0.0
 10
1443.2981544032
 20
922.6681121928
 10
1442.2338745938
 20
923.2469720988
 10
1439.4244187384
 20
924.5667968188
 10
1436.6513062047
 20
925.5662024177
 10
1433.938418023
 20
926.23658238
 10
1431.3091165938
 20
926.5721636389
 10
1428.786044499
 20
926.5700562914
 10
1426.3909295123
 20
926.230278485
  0
LWPOLYLINE
  5
142
330
1F
100
AcDbEntity
  8
0
  6
Continuous
 62
     7
370
    25
100
AcDbPolyline
 90
       34
 70
   128
 43
0.0
 10
1484.3033170975
 20
836.5333765025
 10
1484.1789278635
 20
840.3068147381
 10
1483.8065082531
 20
844.2011758247
 10
1483.1882980417
 20
848.1930386165
 10
1482.328015218
 20
852.258395581
 10
1481.2308336244
 20
856.372797183
 10
1479.90335184
 20
860.5114989273
 10
1478.3535534965
 20
864.6496101745
 10
1476.5907592634
 20
868.7622438366
 10
1474.6255707926
 20
872.824666051
 10
1472.469806959
 20
876.8124449324
 10
1470.1364327798
 20
880.7015975094
 10
1467.6394814418
 20
884.4687339609
 10
1464.9939699044
 20
888.0911982848
 10
1462.215808585
 20
891.5472045546
 10
1459.3217056728
 20
894.8159679419
 10
1456.3290666433
 20
897.8778297191
 10
1453.2558895796
 20
900.7143754891
 10
1450.1206569303
 20
903.3085459319
 10
1446.9422243533
 20
905.6447394013
 10
1443.7397073163
 20
907.7089057549
 10
1440.5323661335
 20
909.4886308533
 10
1437.3394901321
 20
910.9732112203
 10
1434.1802816442
 20
912.153718415
 10
1431.0737405212
 20
913.0230527282
 10
1428.038549867
 20
913.575985881
 10
1425.0929636755
 20
913.8091924683
 10
1422.2546970484
 20
913.7212699585
 10
1419.5408196553
 20
913.3127471276
 10
1416.9676530741
 20
912.5860808802
 10
1414.5506726314
 20
911.5456414726
 10
1412.3044143321
 20
910.1976862297
 10
1410.2423874377
 20
908.550321913
 10
1408.5897470409
 20
906.8604200362
  0
LWPOLYLINE
  5
143
330
1F
100
AcDbEntity
  8
0
  6
Continuous
 62
     7
370
    25
100
AcDbPolyline
 90
       14
 70
   128
 43
0.0
 10
1466.0379995708
 20
807.4524291363
 10
1467.6394814418
 20
807.8376741647
 10
1470.1364327798
 20
808.721891966
 10
1472.469806959
 20
809.9169880603
 10
1474.6255707926
 20
811.415774999
 10
1476.5907592634
 20
813.2092389012
 10
1478.3535534965
 20
815.286593664
 10
1479.90335184
 20
817.6353458313
 10
1481.2308336244
 20
820.2413697312
 10
1482.328015218
 20
823.0889924294
 10
1483.1882980417
 20
826.1610879879
 10
1483.8065082531
 20
829.4391804626
 10
1484.1789278635
 20
832.9035550195
 10
1484.3033170975
 20
836.5333765025
  0
LWPOLYLINE
  5
144
330
1F
100
AcDbEntity
  8
0
  6
Continuous
 62
     7
370
    25
100
AcDbPolyline
 90
       18
 70
   128
 43
0.0
 10
1444.8821140464
 20
802.1328957876
 10
1444.750803349
 20
803.019863389
 10
1444.3746054941
 20
803.9386492051
 10
1443.8043280866
 20
804.7651661203
 10
1443.1169902504
 20
805.3877884453
 10
1442.405420769
 20
805.722427585
 10
1441.7657210437
 20
805.7238886694
 10
1441.2842860672
 20
805.3919743708
 10
1441.0261363007
 20
804.7715115545
 10
1441.0261363007
 20
803.946297162
 10
1441.2842860672
 20
803.0277809696
 10
1441.7657210437
 20
802.1400136787
 10
1442.405420769
 20
801.4028931814
 10
1443.1169902504
 20
800.9159716853
 10
1443.8043280866
 20
800.7450106365
 10
1444.3746054941
 20
800.9130992721
 10
1444.750803349
 20
801.3975362903
 10
1444.8821140464
 20
802.1328957876
  0
LWPOLYLINE
  5
145
330
1F
100
AcDbEntity
  8
0
  6
Continuous
 62
     7
370
    25
100
AcDbPolyline
 90
       18
 70
   128
 43
0.0
 10
1395.3846393633
 20
887.8650365334
 10
1395.2533286659
 20
888.7520041348
 10
1394.877130811
 20
889.6707899509
 10
1394.3068534035
 20
890.4973068661
 10
1393.6195155674
 20
891.1199291911
 10
1392.9079460859
 20
891.4545683308
 10
1392.2682463606
 20
891.4560294152
 10
1391.7868113841
 20
891.1241151166
 10
1391.5286616176
 20
890.5036523003
 10
1391.5286616176
 20
889.6784379078
 10
1391.7868113841
 20
888.7599217154
 10
1392.2682463606
 20
887.8721544245
 10
1392.9079460859
 20
887.1350339272
 10
1393.6195155674
 20
886.6481124311
 10
1394.3068534035
 20
886.4771513823
 10
1394.877130811
 20
886.6452400179
 10
1395.2533286659
 20
887.1296770361
 10
1395.3846393633
 20
887.8650365334
  0
LWPOLYLINE
  5
146
330
1F
100
AcDbEntity
  8
0
  6
Continuous
 62
     7
370
    25
100
AcDbPolyline
 90
       18
 70
   128
 43
0.0
 10
1444.8821140464
 20
916.4486094516
 10
1444.750803349
 20
917.335577053
 10
1444.3746054941
 20
918.2543628691
 10
1443.8043280866
 20
919.0808797843
 10
1443.1169902504
 20
919.7035021093
 10
1442.405420769
 20
920.038141249
 10
1441.7657210437
 20
920.0396023334
 10
1441.2842860672
 20
919.7076880348
 10
1441.0261363007
 20
919.0872252185
 10
1441.0261363007
 20
918.262010826
 10
1441.2842860672
 20
917.3434946336
 10
1441.7657210437
 20
916.4557273427
 10
1442.405420769
 20
915.7186068454
 10
1443.1169902504
 20
915.2316853493
 10
1443.8043280866
 20
915.0607243005
 10
1444.3746054941
 20
915.2288129361
 10
1444.750803349
 20
915.7132499543
 10
1444.8821140464
 20
916.4486094516
  0
LINE
  5
147
330
1F
100
AcDbEntity
  8
0
  6
Continuous
 62
     7
370
    25
100
AcDbLine
 10
1468.6426454952
 20
817.5190747102
 30
0.0
 11
1468.7310998371
 21
817.5705009142
 31
0.0
  0
LWPOLYLINE
  5
148
330
1F
100
AcDbEntity
  8
0
  6
Continuous
 62
     7
370
    25
100
AcDbPolyline
 90
       39
 70
   128
 43
0.0
 10
1468.9961988858
 20
817.7231767382
 10
1467.6555700327
 20
817.0281245275
 10
1465.3740372708
 20
816.1656700151
 10
1462.9425685834
 20
815.617875819
 10
1460.3782189764
 20
815.388584322
 10
1457.6989755197
 20
815.479403839
 10
1454.9236311811
 20
815.8896973365
 10
1452.0716530071
 20
816.6165869004
 10
1449.1630455755
 20
817.6549739226
 10
1446.2182106775
 20
818.9975748643
 10
1443.2578042142
 20
820.6349723445
 10
1440.3025913097
 20
822.5556811963
 10
1437.3733006593
 20
824.7462290273
 10
1434.4904791322
 20
827.1912507182
 10
1431.6743476502
 20
829.8735961986
 10
1428.9446593521
 20
832.7744507424
 10
1426.3205610402
 20
835.873466939
 10
1423.8204588786
 20
839.1489074166
 10
1421.4618892878
 20
842.5777973135
 10
1419.2613959386
 20
846.1360854308
 10
1417.2344137111
 20
849.7988129341
 10
1415.395160429
 20
853.5402884214
 10
1413.7565371327
 20
857.3342681306
 10
1412.3300375872
 20
861.1541400198
 10
1411.1256676619
 20
864.9731104325
 10
1410.1518751465
 20
868.7643920351
 10
1409.4154904959
 20
872.5013917111
 10
1408.9216789192
 20
876.157897093
 10
1408.6739041498
 20
879.7082604225
 10
1408.6739041498
 20
883.1275784519
 10
1408.9216789192
 20
886.3918671221
 10
1409.4154904959
 20
889.4782297932
 10
1410.1518751465
 20
892.3650178489
 10
1411.1256676619
 20
895.031982545
 10
1412.3300375872
 20
897.4604170403
 10
1413.7565371327
 20
899.6332876118
 10
1415.395160429
 20
901.5353531335
 10
1417.2344137111
 20
903.1532719826
 10
1419.000262254
 20
904.3280629763
  0
LWPOLYLINE
  5
149
330
1F
100
AcDbEntity
  8
0
  6
Continuous
 62
     7
370
    25
100
AcDbPolyline
 90
       27
 70
   128
 43
0.0
 10
1468.1100456195
 20
854.5348716059
 10
1467.9859677544
 20
857.020872008
 10
1467.6154759402
 20
859.6152316676
 10
1467.00377107
 20
862.281531462
 10
1466.1594401392
 20
864.9823423866
 10
1465.0943357033
 20
867.6797509764
 10
1463.8234094938
 20
870.3358915276
 10
1462.3645025288
 20
872.913477649
 10
1460.7380946642
 20
875.3763256818
 10
1458.9670171012
 20
877.6898626382
 10
1457.0761318866
 20
879.8216115306
 10
1455.0919829039
 20
881.7416472774
 10
1453.0424232555
 20
883.4230167856
 10
1450.9562242662
 20
884.8421173128
 10
1448.8626715967
 20
885.9790277983
 10
1446.7911541376
 20
886.8177885112
 10
1444.770751453
 20
887.3466250894
 10
1442.8298255678
 20
887.5581138268
 10
1440.995622827
 20
887.449285885
 10
1439.2938914164
 20
887.0216689698
 10
1437.7485199147
 20
886.2812658852
 10
1436.3812019504
 20
885.2384702678
 10
1435.2111316704
 20
883.907920682
 10
1434.2547342967
 20
882.3082951274
 10
1433.525435552
 20
880.4620488405
 10
1433.0334731919
 20
878.395099072
 10
1432.8314527345
 20
876.8008716647
  0
LWPOLYLINE
  5
14A
330
1F
100
AcDbEntity
  8
0
  6
Continuous
 62
     7
370
    25
100
AcDbPolyline
 90
       14
 70
   128
 43
0.0
 10
1452.0374795763
 20
843.4841683742
 10
1453.0424232555
 20
843.0434329084
 10
1455.0919829039
 20
842.3584312162
 10
1457.0761318866
 20
841.9876173097
 10
1458.9670171012
 20
841.9361966033
 10
1460.7380946642
 20
842.2048909312
 10
1462.3645025288
 20
842.7899284138
 10
1463.8234094938
 20
843.6830964074
 10
1465.0943357033
 20
844.8718567911
 10
1466.1594401392
 20
846.339521975
 10
1467.00377107
 20
848.0654891571
 10
1467.6154759402
 20
850.0255295415
 10
1467.9859677544
 20
852.1921284576
 10
1468.1100456195
 20
854.5348716059
  0
ARC
  5
14B
330
1F
100
AcDbEntity
  8
0
  6
Continuous
 62
     7
370
    25
100
AcDbCircle
 10
1445.1229357053
 20
918.8327551436
 30
0.0
 40
3.396525490631504
100
AcDbArc
 50
158.5134813641
 51
261.4811421032
  0
LINE
  5
14C
330
1F
100
AcDbEntity
  8
0
  6
Continuous
 62
     7
370
    25
100
AcDbLine
 10
1487.12699798
 20
794.7226844955
 30
0.0
 11
1477.1715891139
 21
788.9736809942
 31
0.0
  0
LWPOLYLINE
  5
14D
330
1F
100
AcDbEntity
  8
0
  6
Continuous
 62
     7
370
    25
100
AcDbPolyline
 90
        9
 70
   128
 43
0.0
 10
1477.1715891139
 20
788.9736809942
 10
1476.9243641009
 20
788.7314672143
 10
1476.7845492685
 20
788.3609496704
 10
1476.7641853763
 20
787.8940370846
 10
1476.865026149
 20
787.3709396553
 10
1477.0783872469
 20
786.8367061817
 10
1477.3858941555
 20
786.3373444921
 10
1477.7610645863
 20
785.9158592796
 10
1478.1715891139
 20
785.6085485679
  0
LINE
  5
14E
330
1F
100
AcDbEntity
  8
0
  6
Continuous
 62
     7
370
    25
100
AcDbLine
 10
1478.1715891139
 20
785.6085485679
 30
0.0
 11
1488.132093537
 21
779.8584717583
 31
0.0
  0
ARC
  5
14F
330
1F
100
AcDbEntity
  8
0
  6
Continuous
 62
     7
370
    25
100
AcDbCircle
 10
1500.9894016438
 20
765.837203798
 30
0.0
 40
13.15109797005948
100
AcDbArc
 50
218.271040829
 51
239.8582977975
  0
LWPOLYLINE
  5
150
330
1F
100
AcDbEntity
  8
0
  6
Continuous
 62
     7
370
    25
100
AcDbPolyline
 90
       12
 70
   128
 43
0.0
 10
1362.3955831341
 20
837.0127600464
 10
1361.0814788866
 20
847.0697764461
 10
1360.0197893308
 20
857.3094138909
 10
1359.2112827996
 20
867.7242620679
 10
1358.6565444004
 20
878.3067838659
 10
1358.3559755911
 20
889.0493208304
 10
1358.3097938902
 20
899.9440987055
 10
1358.5180327189
 20
910.9832330604
 10
1358.9805413769
 20
922.1587349948
 10
1359.6969851519
 20
933.4625169209
 10
1360.6668455614
 20
944.8863984162
 10
1361.889420728
 20
956.4221121431
  0
ARC
  5
151
330
1F
100
AcDbEntity
  8
0
  6
Continuous
 62
     7
370
    25
100
AcDbCircle
 10
1373.0873002084
 20
843.6755063124
 30
0.0
 40
12.59781734282235
100
AcDbArc
 50
211.9298798136
 51
239.5765235803
  0
LINE
  5
152
330
1F
100
AcDbEntity
  8
0
  6
Continuous
 62
     7
370
    25
100
AcDbLine
 10
1370.4941815955
 20
828.6226848756
 30
0.0
 11
1372.4845415089
 21
829.7716951963
 31
0.0
  0
ARC
  5
153
330
1F
100
AcDbEntity
  8
0
  6
Continuous
 62
     7
370
    25
100
AcDbCircle
 10
1369.6017727503
 20
841.9906701441
 30
0.0
 40
13.3977394990935
100
AcDbArc
 50
218.6793501651
 51
273.8192372328
  0
LWPOLYLINE
  5
154
330
1F
100
AcDbEntity
  8
0
  6
Continuous
 62
     7
370
    25
100
AcDbPolyline
 90
       12
 70
   128
 43
0.0
 10
1359.1401062018
 20
957.4776041376
 10
1357.7895973071
 20
945.5026571051
 10
1356.7079942835
 20
933.6440640193
 10
1355.8961262013
 20
921.9109147285
 10
1355.3546153737
 20
910.312202926
 10
1355.0838768794
 20
898.856819256
 10
1355.084118245
 20
887.5535444989
 10
1355.3553392854
 20
876.4110428407
 10
1355.8973321043
 20
865.4378552312
 10
1356.7096812534
 20
854.6423928381
 10
1357.7917640508
 20
844.0329305987
 10
1359.1427510585
 20
833.6176008779
  0
ARC
  5
155
330
1F
100
AcDbEntity
  8
0
  6
Continuous
 62
     7
370
    25
100
AcDbCircle
 10
1418.5841587522
 20
932.8065379643
 30
0.0
 40
64.36036738355483
100
AcDbArc
 50
137.6891205613
 51
157.4600827829
  0
LINE
  5
156
330
1F
100
AcDbEntity
  8
0
  6
Continuous
 62
     7
370
    25
100
AcDbLine
 10
1370.9894554124
 20
976.1309087472
 30
0.0
 11
1379.1854516302
 21
980.8623566521
 31
0.0
  0
ARC
  5
157
330
1F
100
AcDbEntity
  8
0
  6
Continuous
 62
     7
370
    25
100
AcDbCircle
 10
1418.5438099794
 20
937.1268754686
 30
0.0
 40
59.85002907076903
100
AcDbArc
 50
141.7852442734
 51
161.1922884018
  0
ARC
  5
158
330
1F
100
AcDbEntity
  8
0
  6
Continuous
 62
     7
370
    25
100
AcDbCircle
 10
1376.3530905115
 20
841.3812131399
 30
0.0
 40
12.23514936405106
100
AcDbArc
 50
211.5913549008
 51
263.9112353481
  0
LWPOLYLINE
  5
159
330
1F
100
AcDbEntity
  8
0
  6
Continuous
 62
     7
370
    25
100
AcDbPolyline
 90
       12
 70
   128
 43
0.0
 10
1365.93111704
 20
834.9717397668
 10
1364.6170127926
 20
845.0287561665
 10
1363.5553232367
 20
855.2683936113
 10
1362.7468167056
 20
865.6832417883
 10
1362.1920783063
 20
876.2657635863
 10
1361.8915094971
 20
887.0083005509
 10
1361.8453277962
 20
897.903078426
 10
1362.0535666248
 20
908.9422127808
 10
1362.5160752828
 20
920.1177147152
 10
1363.2325190578
 20
931.4214966413
 10
1364.2023794673
 20
942.8453781366
 10
1365.4249546339
 20
954.3810918636
  0
ARC
  5
15A
330
1F
100
AcDbEntity
  8
0
  6
Continuous
 62
     7
370
    25
100
AcDbCircle
 10
1422.0793438853
 20
935.0858551891
 30
0.0
 40
59.85002907076749
100
AcDbArc
 50
141.7852442734
 51
161.1922884018
  0
LINE
  5
15B
330
1F
100
AcDbEntity
  8
0
  6
Continuous
 62
     7
370
    25
100
AcDbLine
 10
1359.1401062018
 20
957.4776041376
 30
0.0
 11
1354.1903587335
 21
960.3350325289
 31
0.0
  0
ARC
  5
15C
330
1F
100
AcDbEntity
  8
0
  6
Continuous
 62
     7
370
    25
100
AcDbCircle
 10
1413.6344112839
 20
935.6639663556
 30
0.0
 40
64.3603673835568
100
AcDbArc
 50
137.6891205613
 51
157.4600827829
  0
LINE
  5
15D
330
1F
100
AcDbEntity
  8
0
  6
Continuous
 62
     7
370
    25
100
AcDbLine
 10
1370.9894554124
 20
976.1309087472
 30
0.0
 11
1366.0397079441
 21
978.9883371386
 31
0.0
  0
LINE
  5
15E
330
1F
100
AcDbEntity
  8
0
  6
Continuous
 62
     7
370
    25
100
AcDbLine
 10
1365.4249546339
 20
954.3810918636
 30
0.0
 11
1361.889420728
 21
956.4221121431
 31
0.0
  0
LWPOLYLINE
  5
15F
330
1F
100
AcDbEntity
  8
0
  6
Continuous
 62
     7
370
    25
100
AcDbPolyline
 90
       14
 70
   128
 43
0.0
 10
1493.1803930068
 20
952.475818634
 10
1493.1829521212
 20
952.4796946315
 10
1493.3009308811
 20
952.9833393481
 10
1493.0482123666
 20
953.5411859093
 10
1492.4472517265
 20
954.1036672001
 10
1491.5514469512
 20
954.6208042893
 10
1490.4403942261
 20
955.0466472772
 10
1489.2128154614
 20
955.3433581455
 10
1487.9777864178
 20
955.4845728315
 10
1486.8450448454
 20
955.4577437905
 10
1485.915239804
 20
955.2652549008
 10
1485.2709885519
 20
954.9242096447
 10
1484.96953564
 20
954.46491139
 10
1484.9642188812
 20
954.1570760244
  0
LINE
  5
160
330
1F
100
AcDbEntity
  8
0
  6
Continuous
 62
     7
370
    25
100
AcDbLine
 10
1359.1427510585
 20
833.6176008779
 30
0.0
 11
1354.1930035902
 21
836.4750292693
 31
0.0
  0
LWPOLYLINE
  5
161
330
1F
100
AcDbEntity
  8
0
  6
Continuous
 62
     7
370
    25
100
AcDbPolyline
 90
       12
 70
   128
 43
0.0
 10
1354.1903587335
 20
960.3350325289
 10
1352.8398498388
 20
948.3600854965
 10
1351.7582468152
 20
936.5014924107
 10
1350.946378733
 20
924.7683431199
 10
1350.4048679054
 20
913.1696313173
 10
1350.1341294111
 20
901.7142476474
 10
1350.1343707767
 20
890.4109728903
 10
1350.4055918171
 20
879.268471232
 10
1350.947584636
 20
868.2952836226
 10
1351.7599337851
 20
857.4998212294
 10
1352.8420165825
 20
846.8903589901
 10
1354.1930035902
 20
836.4750292693
  0
LINE
  5
162
330
1F
100
AcDbEntity
  8
0
  6
Continuous
 62
     7
370
    25
100
AcDbLine
 10
1365.93111704
 20
834.9717397668
 30
0.0
 11
1362.3955831341
 21
837.0127600464
 31
0.0
  0
LINE
  5
163
330
1F
100
AcDbEntity
  8
0
  6
Continuous
 62
     7
370
    25
100
AcDbLine
 10
1374.2357041619
 20
983.7197850434
 30
0.0
 11
1366.0397079441
 21
978.9883371386
 31
0.0
  0
ARC
  5
164
330
1F
100
AcDbEntity
  8
0
  6
Continuous
 62
     7
370
    25
100
AcDbCircle
 10
1445.1229357053
 20
804.5170414796
 30
0.0
 40
3.396525490632662
100
AcDbArc
 50
158.5134813641
 51
261.4811421032
  0
ARC
  5
165
330
1F
100
AcDbEntity
  8
0
  6
Continuous
 62
     7
370
    25
100
AcDbCircle
 10
1395.6254610223
 20
890.2491822254
 30
0.0
 40
3.396525490633608
100
AcDbArc
 50
158.5134813642
 51
261.4811421031
  0
LWPOLYLINE
  5
166
330
1F
100
AcDbEntity
  8
0
  6
Continuous
 62
     7
370
    25
100
AcDbPolyline
 90
       14
 70
   128
 43
0.0
 10
1534.16115512
 20
963.4533302404
 10
1534.1637142347
 20
963.4572062384
 10
1534.2816929947
 20
963.960850955
 10
1534.0289744801
 20
964.5186975162
 10
1533.4280138401
 20
965.0811788069
 10
1532.5322090648
 20
965.5983158962
 10
1531.4211563396
 20
966.0241588841
 10
1530.193577575
 20
966.3208697524
 10
1528.9585485313
 20
966.4620844383
 10
1527.8258069589
 20
966.4352553974
 10
1526.8960019175
 20
966.2427665076
 10
1526.2517506654
 20
965.9017212516
 10
1525.9502977535
 20
965.4424229969
 10
1525.9449809948
 20
965.1345876308
  0
ARC
  5
167
330
1F
100
AcDbEntity
  8
0
  6
Continuous
 62
     7
370
    25
100
AcDbCircle
 10
1364.5177928748
 20
844.6205865888
 30
0.0
 40
13.15109797005808
100
AcDbArc
 50
218.271040829
 51
239.8582977975
  0
ARC
  5
168
330
1F
100
AcDbEntity
  8
0
  6
Continuous
 62
     7
370
    25
100
AcDbCircle
 10
560.744557857
 20
323.1995532725
 30
0.0
 40
7.0000000000013
100
AcDbArc
 50
206.6153277199
 51
259.6448769884
  0
LINE
  5
169
330
1F
100
AcDbEntity
  8
0
  6
Continuous
 62
     7
370
    25
100
AcDbLine
 10
559.486316912
 20
316.313565346
 30
0.0
 11
559.986316912
 21
316.313565346
 31
0.0
  0
LINE
  5
16A
330
1F
100
AcDbEntity
  8
0
  6
Continuous
 62
     7
370
    25
100
AcDbLine
 10
559.986316912
 20
333.813565346
 30
0.0
 11
559.486316912
 21
333.813565346
 31
0.0
  0
ARC
  5
16B
330
1F
100
AcDbEntity
  8
0
  6
Continuous
 62
     7
370
    25
100
AcDbCircle
 10
560.744557857
 20
326.9275774194
 30
0.0
 40
7.000000000001351
100
AcDbArc
 50
100.3551230116
 51
153.3846722801
  0
ARC
  5
16C
330
1F
100
AcDbEntity
  8
0
  6
Continuous
 62
     7
370
    25
100
AcDbCircle
 10
776.0280759671
 20
326.9275774194
 30
0.0
 40
7.000000000001351
100
AcDbArc
 50
26.6153277199
 51
79.6448769884
  0
LINE
  5
16D
330
1F
100
AcDbEntity
  8
0
  6
Continuous
 62
     7
370
    25
100
AcDbLine
 10
777.286316912
 20
333.813565346
 30
0.0
 11
776.786316912
 21
333.813565346
 31
0.0
  0
LINE
  5
16E
330
1F
100
AcDbEntity
  8
0
  6
Continuous
 62
     7
370
    25
100
AcDbLine
 10
776.786316912
 20
316.313565346
 30
0.0
 11
777.286316912
 21
316.313565346
 31
0.0
  0
ARC
  5
16F
330
1F
100
AcDbEntity
  8
0
  6
Continuous
 62
     7
370
    25
100
AcDbCircle
 10
776.0280759671
 20
323.1995532725
 30
0.0
 40
7.0000000000013
100
AcDbArc
 50
280.3551230116
 51
333.3846722801
  0
LINE
  5
170
330
1F
100
AcDbEntity
  8
0
  6
Continuous
 62
     7
370
    25
100
AcDbLine
 10
554.486316912
 20
320.063565346
 30
0.0
 11
554.486316912
 21
329.448035135
 31
0.0
  0
ARC
  5
171
330
1F
100
AcDbEntity
  8
0
  6
Continuous
 62
     7
370
    25
100
AcDbCircle
 10
560.4438216176
 20
325.8350120367
 30
0.0
 40
6.96748148371567
100
AcDbArc
 50
97.8988574332
 51
148.7646193307
  0
LINE
  5
172
330
1F
100
AcDbEntity
  8
0
  6
Continuous
 62
     7
370
    25
100
AcDbLine
 10
559.486316912
 20
316.313565346
 30
0.0
 11
559.486316912
 21
332.7363874768
 31
0.0
  0
LINE
  5
173
330
1F
100
AcDbEntity
  8
0
  6
Continuous
 62
     7
370
    25
100
AcDbLine
 10
559.986316912
 20
332.7363874768
 30
0.0
 11
559.486316912
 21
332.7363874768
 31
0.0
  0
LINE
  5
174
330
1F
100
AcDbEntity
  8
0
  6
Continuous
 62
     7
370
    25
100
AcDbLine
 10
559.486316912
 20
333.813565346
 30
0.0
 11
559.486316912
 21
332.7363874768
 31
0.0
  0
LINE
  5
175
330
1F
100
AcDbEntity
  8
0
  6
Continuous
 62
     7
370
    25
100
AcDbLine
 10
554.486316912
 20
330.063565346
 30
0.0
 11
554.486316912
 21
329.448035135
 31
0.0
  0
ARC
  5
176
330
1F
100
AcDbEntity
  8
0
  6
Continuous
 62
     7
370
    25
100
AcDbCircle
 10
776.1152644499
 20
323.4902295183
 30
0.0
 40
6.977487697624229
100
AcDbArc
 50
279.6618470094
 51
332.1806316428
  0
LINE
  5
177
330
1F
100
AcDbEntity
  8
0
  6
Continuous
 62
     7
370
    25
100
AcDbLine
 10
777.286316912
 20
316.6117143659
 30
0.0
 11
777.286316912
 21
333.813565346
 31
0.0
  0
LINE
  5
178
330
1F
100
AcDbEntity
  8
0
  6
Continuous
 62
     7
370
    25
100
AcDbLine
 10
782.286316912
 20
320.2339362145
 30
0.0
 11
782.286316912
 21
330.063565346
 31
0.0
  0
LINE
  5
179
330
1F
100
AcDbEntity
  8
0
  6
Continuous
 62
     7
370
    25
100
AcDbLine
 10
776.786316912
 20
316.6117143659
 30
0.0
 11
777.286316912
 21
316.6117143659
 31
0.0
  0
LINE
  5
17A
330
1F
100
AcDbEntity
  8
0
  6
Continuous
 62
     7
370
    25
100
AcDbLine
 10
777.286316912
 20
316.6117143659
 30
0.0
 11
777.286316912
 21
316.313565346
 31
0.0
  0
LINE
  5
17B
330
1F
100
AcDbEntity
  8
0
  6
Continuous
 62
     7
370
    25
100
AcDbLine
 10
782.286316912
 20
320.2339362145
 30
0.0
 11
782.286316912
 21
320.063565346
 31
0.0
  0
LINE
  5
17C
330
1F
100
AcDbEntity
  8
0
  6
Continuous
 62
     7
370
    25
100
AcDbLine
 10
564.986316912
 20
290.063565346
 30
0.0
 11
564.986316912
 21
360.063565346
 31
0.0
  0
SPLINE
  5
17D
330
1F
100
AcDbEntity
  8
0
  6
Continuous
 62
     7
370
    25
100
AcDbSpline
210
0.0
220
0.0
230
1.0
 70
     8
 71
     3
 72
    11
 73
     7
 74
     0
 42
0.00000001
 43
0.00000001
 40
0.0
 40
0.0
 40
0.0
 40
0.0
 40
0.2500000000000011
 40
0.4999999999999998
 40
0.7499999999999988
 40
1.0
 40
1.0
 40
1.0
 40
1.0
 10
564.9863169120429
 20
290.0635653459562
 30
0.0
 10
564.3311316930117
 20
290.073186872017
 30
0.0
 10
563.0207612549493
 20
290.0924299241386
 30
0.0
 10
561.3680365694647
 20
290.1212945023211
 30
0.0
 10
560.2117905038527
 20
290.1501590805037
 30
0.0
 10
560.0614747759795
 20
290.1694021326254
 30
0.0
 10
559.986316912043
 20
290.1790236586862
 30
0.0
  0
LINE
  5
17E
330
1F
100
AcDbEntity
  8
0
  6
Continuous
 62
     7
370
    25
100
AcDbLine
 10
559.986316912
 20
290.1790236587
 30
0.0
 11
559.9863169132
 21
359.9481070332
 31
0.0
  0
SPLINE
  5
17F
330
1F
100
AcDbEntity
  8
0
  6
Continuous
 62
     7
370
    25
100
AcDbSpline
210
0.0
220
0.0
230
1.0
 70
     8
 71
     3
 72
    11
 73
     7
 74
     0
 42
0.00000001
 43
0.00000001
 40
0.0
 40
0.0
 40
0.0
 40
0.0
 40
0.2500000000000016
 40
0.4999999999999995
 40
0.7500000000000004
 40
1.0
 40
1.0
 40
1.0
 40
1.0
 10
559.986316912043
 20
359.9481070332262
 30
0.0
 10
560.0614747759795
 20
359.9577285592871
 30
0.0
 10
560.2117905038527
 20
359.9769716114087
 30
0.0
 10
561.3680365694646
 20
360.0058361895912
 30
0.0
 10
563.0207612549493
 20
360.0347007677737
 30
0.0
 10
564.3311316930117
 20
360.0539438198954
 30
0.0
 10
564.9863169120429
 20
360.0635653459562
 30
0.0
  0
LINE
  5
180
330
1F
100
AcDbEntity
  8
0
  6
Continuous
 62
     7
370
    25
100
AcDbLine
 10
771.786316912
 20
290.063565346
 30
0.0
 11
771.786316912
 21
360.063565346
 31
0.0
  0
SPLINE
  5
181
330
1F
100
AcDbEntity
  8
0
  6
Continuous
 62
     7
370
    25
100
AcDbSpline
210
0.0
220
0.0
230
1.0
 70
     8
 71
     3
 72
    11
 73
     7
 74
     0
 42
0.00000001
 43
0.00000001
 40
0.0
 40
0.0
 40
0.0
 40
0.0
 40
0.2500000000000016
 40
0.4999999999999995
 40
0.7500000000000004
 40
1.0
 40
1.0
 40
1.0
 40
1.0
 10
776.7863169120428
 20
359.9481070332262
 30
0.0
 10
776.7111590481063
 20
359.9577285592871
 30
0.0
 10
776.5608433202331
 20
359.9769716114087
 30
0.0
 10
775.4045972546211
 20
360.0058361895912
 30
0.0
 10
773.7518725691365
 20
360.0347007677737
 30
0.0
 10
772.4415021310741
 20
360.0539438198954
 30
0.0
 10
771.7863169120429
 20
360.0635653459562
 30
0.0
  0
LINE
  5
182
330
1F
100
AcDbEntity
  8
0
  6
Continuous
 62
     7
370
    25
100
AcDbLine
 10
776.786316912
 20
290.1790236587
 30
0.0
 11
776.7863169108
 21
359.9481070332
 31
0.0
  0
SPLINE
  5
183
330
1F
100
AcDbEntity
  8
0
  6
Continuous
 62
     7
370
    25
100
AcDbSpline
210
0.0
220
0.0
230
1.0
 70
     8
 71
     3
 72
    11
 73
     7
 74
     0
 42
0.00000001
 43
0.00000001
 40
0.0
 40
0.0
 40
0.0
 40
0.0
 40
0.2500000000000011
 40
0.4999999999999998
 40
0.7499999999999988
 40
1.0
 40
1.0
 40
1.0
 40
1.0
 10
771.7863169120429
 20
290.0635653459562
 30
0.0
 10
772.4415021310741
 20
290.073186872017
 30
0.0
 10
773.7518725691365
 20
290.0924299241386
 30
0.0
 10
775.404597254621
 20
290.1212945023211
 30
0.0
 10
776.5608433202331
 20
290.1501590805037
 30
0.0
 10
776.7111590481063
 20
290.1694021326254
 30
0.0
 10
776.7863169120428
 20
290.1790236586862
 30
0.0
  0
LINE
  5
184
330
1F
100
AcDbEntity
  8
0
  6
Continuous
 62
     7
370
    25
100
AcDbLine
 10
771.786316912
 20
290.063565346
 30
0.0
 11
564.986316912
 21
290.063565346
 31
0.0
  0
LINE
  5
185
330
1F
100
AcDbEntity
  8
0
  6
Continuous
 62
     7
370
    25
100
AcDbLine
 10
771.786316912
 20
286.063565346
 30
0.0
 11
564.986316912
 21
286.063565346
 31
0.0
  0
LINE
  5
186
330
1F
100
AcDbEntity
  8
0
  6
Continuous
 62
     7
370
    25
100
AcDbLine
 10
771.786316912
 20
286.063565346
 30
0.0
 11
771.786316912
 21
290.063565346
 31
0.0
  0
LINE
  5
187
330
1F
100
AcDbEntity
  8
0
  6
Continuous
 62
     7
370
    25
100
AcDbLine
 10
564.986316912
 20
286.063565346
 30
0.0
 11
564.986316912
 21
290.063565346
 31
0.0
  0
LINE
  5
188
330
1F
100
AcDbEntity
  8
0
  6
Continuous
 62
     7
370
    25
100
AcDbLine
 10
564.986316912
 20
360.063565346
 30
0.0
 11
771.786316912
 21
360.063565346
 31
0.0
  0
LINE
  5
189
330
1F
100
AcDbEntity
  8
0
  6
Continuous
 62
     7
370
    25
100
AcDbLine
 10
757.236316912
 20
346.563565346
 30
0.0
 11
757.336316912
 21
346.563565346
 31
0.0
  0
ARC
  5
18A
330
1F
100
AcDbEntity
  8
0
  6
Continuous
 62
     7
370
    25
100
AcDbCircle
 10
757.336316912
 20
350.063565346
 30
0.0
 40
3.500000000000057
100
AcDbArc
 50
270.0
 51
90.0
  0
LINE
  5
18B
330
1F
100
AcDbEntity
  8
0
  6
Continuous
 62
     7
370
    25
100
AcDbLine
 10
757.336316912
 20
353.563565346
 30
0.0
 11
757.236316912
 21
353.563565346
 31
0.0
  0
ARC
  5
18C
330
1F
100
AcDbEntity
  8
0
  6
Continuous
 62
     7
370
    25
100
AcDbCircle
 10
757.236316912
 20
350.063565346
 30
0.0
 40
3.500000000000057
100
AcDbArc
 50
90.0
 51
270.0
  0
LINE
  5
18D
330
1F
100
AcDbEntity
  8
0
  6
Continuous
 62
     7
370
    25
100
AcDbLine
 10
757.236316912
 20
296.563565346
 30
0.0
 11
757.336316912
 21
296.563565346
 31
0.0
  0
ARC
  5
18E
330
1F
100
AcDbEntity
  8
0
  6
Continuous
 62
     7
370
    25
100
AcDbCircle
 10
757.336316912
 20
300.063565346
 30
0.0
 40
3.5
100
AcDbArc
 50
270.0
 51
90.0
  0
LINE
  5
18F
330
1F
100
AcDbEntity
  8
0
  6
Continuous
 62
     7
370
    25
100
AcDbLine
 10
757.336316912
 20
303.563565346
 30
0.0
 11
757.236316912
 21
303.563565346
 31
0.0
  0
ARC
  5
190
330
1F
100
AcDbEntity
  8
0
  6
Continuous
 62
     7
370
    25
100
AcDbCircle
 10
757.236316912
 20
300.063565346
 30
0.0
 40
3.5
100
AcDbArc
 50
90.0
 51
270.0
  0
LINE
  5
191
330
1F
100
AcDbEntity
  8
0
  6
Continuous
 62
     7
370
    25
100
AcDbLine
 10
579.536316912
 20
296.563565346
 30
0.0
 11
579.436316912
 21
296.563565346
 31
0.0
  0
ARC
  5
192
330
1F
100
AcDbEntity
  8
0
  6
Continuous
 62
     7
370
    25
100
AcDbCircle
 10
579.536316912
 20
300.063565346
 30
0.0
 40
3.5
100
AcDbArc
 50
270.0
 51
90.0
  0
LINE
  5
193
330
1F
100
AcDbEntity
  8
0
  6
Continuous
 62
     7
370
    25
100
AcDbLine
 10
579.436316912
 20
303.563565346
 30
0.0
 11
579.536316912
 21
303.563565346
 31
0.0
  0
ARC
  5
194
330
1F
100
AcDbEntity
  8
0
  6
Continuous
 62
     7
370
    25
100
AcDbCircle
 10
579.436316912
 20
300.063565346
 30
0.0
 40
3.5
100
AcDbArc
 50
90.0
 51
270.0
  0
LINE
  5
195
330
1F
100
AcDbEntity
  8
0
  6
Continuous
 62
     7
370
    25
100
AcDbLine
 10
579.536316912
 20
346.563565346
 30
0.0
 11
579.436316912
 21
346.563565346
 31
0.0
  0
ARC
  5
196
330
1F
100
AcDbEntity
  8
0
  6
Continuous
 62
     7
370
    25
100
AcDbCircle
 10
579.536316912
 20
350.063565346
 30
0.0
 40
3.500000000000057
100
AcDbArc
 50
270.0
 51
90.0
  0
LINE
  5
197
330
1F
100
AcDbEntity
  8
0
  6
Continuous
 62
     7
370
    25
100
AcDbLine
 10
579.436316912
 20
353.563565346
 30
0.0
 11
579.536316912
 21
353.563565346
 31
0.0
  0
ARC
  5
198
330
1F
100
AcDbEntity
  8
0
  6
Continuous
 62
     7
370
    25
100
AcDbCircle
 10
579.436316912
 20
350.063565346
 30
0.0
 40
3.500000000000057
100
AcDbArc
 50
90.0
 51
270.0
  0
ARC
  5
199
330
1F
100
AcDbEntity
  8
0
  6
Continuous
 62
     7
370
    25
100
AcDbCircle
 10
668.386316912
 20
325.063565346
 30
0.0
 40
6.5
100
AcDbArc
 50
90.0
 51
270.0
  0
ARC
  5
19A
330
1F
100
AcDbEntity
  8
0
  6
Continuous
 62
     7
370
    25
100
AcDbCircle
 10
668.386316912
 20
325.063565346
 30
0.0
 40
6.5
100
AcDbArc
 50
270.0
 51
90.0
  0
LINE
  5
19B
330
1F
100
AcDbEntity
  8
0
  6
Continuous
 62
     7
370
    25
100
AcDbLine
 10
564.986316912
 20
364.063565346
 30
0.0
 11
771.786316912
 21
364.063565346
 31
0.0
  0
LINE
  5
19C
330
1F
100
AcDbEntity
  8
0
  6
Continuous
 62
     7
370
    25
100
AcDbLine
 10
771.786316912
 20
364.063565346
 30
0.0
 11
771.786316912
 21
360.063565346
 31
0.0
  0
LINE
  5
19D
330
1F
100
AcDbEntity
  8
0
  6
Continuous
 62
     7
370
    25
100
AcDbLine
 10
564.986316912
 20
364.063565346
 30
0.0
 11
564.986316912
 21
360.063565346
 31
0.0
  0
LINE
  5
19E
330
1F
100
AcDbEntity
  8
0
  6
Continuous
 62
     7
370
    25
100
AcDbLine
 10
768.386316912
 20
405.3081402699
 30
0.0
 11
568.386316912
 21
405.3081402699
 31
0.0
  0
LINE
  5
19F
330
1F
100
AcDbEntity
  8
0
  6
Continuous
 62
     7
370
    25
100
AcDbLine
 10
768.386316912
 20
405.3081402699
 30
0.0
 11
768.386316912
 21
364.063565346
 31
0.0
  0
LINE
  5
1A0
330
1F
100
AcDbEntity
  8
0
  6
Continuous
 62
     7
370
    25
100
AcDbLine
 10
768.386316912
 20
286.063565346
 30
0.0
 11
768.386316912
 21
259.6573416924
 31
0.0
  0
LINE
  5
1A1
330
1F
100
AcDbEntity
  8
0
  6
Continuous
 62
     7
370
    25
100
AcDbLine
 10
768.386316912
 20
259.6573416924
 30
0.0
 11
568.386316912
 21
259.6573416924
 31
0.0
  0
LINE
  5
1A2
330
1F
100
AcDbEntity
  8
0
  6
Continuous
 62
     7
370
    25
100
AcDbLine
 10
568.386316912
 20
405.3081402699
 30
0.0
 11
568.386316912
 21
364.063565346
 31
0.0
  0
LINE
  5
1A3
330
1F
100
AcDbEntity
  8
0
  6
Continuous
 62
     7
370
    25
100
AcDbLine
 10
568.386316912
 20
286.063565346
 30
0.0
 11
568.386316912
 21
259.6573416924
 31
0.0
  0
ARC
  5
1A4
330
1F
100
AcDbEntity
  8
0
  6
Continuous
 62
     7
370
    25
100
AcDbCircle
 10
631.386316912
 20
285.4561075009
 30
0.0
 40
5.600000000000086
100
AcDbArc
 50
173.7726087167
 51
6.2273912833
  0
CIRCLE
  5
1A5
330
1F
100
AcDbEntity
  8
0
  6
Continuous
 62
     7
370
    25
100
AcDbCircle
 10
690.386316912
 20
370.4061075009
 30
0.0
 40
4.399999999999977
  0
CIRCLE
  5
1A6
330
1F
100
AcDbEntity
  8
0
  6
Continuous
 62
     7
370
    25
100
AcDbCircle
 10
742.386316912
 20
278.4061075009
 30
0.0
 40
4.399999999999977
  0
CIRCLE
  5
1A7
330
1F
100
AcDbEntity
  8
0
  6
Continuous
 62
     7
370
    25
100
AcDbCircle
 10
690.386316912
 20
278.4061075009
 30
0.0
 40
4.399999999999977
  0
CIRCLE
  5
1A8
330
1F
100
AcDbEntity
  8
0
  6
Continuous
 62
     7
370
    25
100
AcDbCircle
 10
742.386316912
 20
370.4061075009
 30
0.0
 40
4.399999999999977
  0
ARC
  5
1A9
330
1F
100
AcDbEntity
  8
0
  6
Continuous
 62
     7
370
    25
100
AcDbCircle
 10
744.886316912
 20
290.4061075009
 30
0.0
 40
6.500000000000057
100
AcDbArc
 50
270.0
 51
318.0806868626
  0
ARC
  5
1AA
330
1F
100
AcDbEntity
  8
0
  6
Continuous
 62
     7
370
    25
100
AcDbCircle
 10
744.886316912
 20
358.4061075009
 30
0.0
 40
6.5
100
AcDbArc
 50
60.5026104138
 51
90.0
  0
LINE
  5
1AB
330
1F
100
AcDbEntity
  8
0
  6
Continuous
 62
     7
370
    25
100
AcDbLine
 10
744.886316912
 20
364.9061075009
 30
0.0
 11
687.886316912
 21
364.9061075009
 31
0.0
  0
ARC
  5
1AC
330
1F
100
AcDbEntity
  8
0
  6
Continuous
 62
     7
370
    25
100
AcDbCircle
 10
687.886316912
 20
358.4061075009
 30
0.0
 40
6.50000000000003
100
AcDbArc
 50
90.0
 51
119.4973895862
  0
ARC
  5
1AD
330
1F
100
AcDbEntity
  8
0
  6
Continuous
 62
     7
370
    25
100
AcDbCircle
 10
687.886316912
 20
290.4061075009
 30
0.0
 40
6.5
100
AcDbArc
 50
221.9193131374
 51
270.0
  0
LINE
  5
1AE
330
1F
100
AcDbEntity
  8
0
  6
Continuous
 62
     7
370
    25
100
AcDbLine
 10
687.886316912
 20
283.9061075009
 30
0.0
 11
744.886316912
 21
283.9061075009
 31
0.0
  0
ARC
  5
1AF
330
1F
100
AcDbEntity
  8
0
  6
Continuous
 62
     7
370
    25
100
AcDbCircle
 10
631.386316912
 20
285.4561075009
 30
0.0
 40
4.250000000000115
100
AcDbArc
 50
171.7824988036
 51
8.2175011964
  0
CIRCLE
  5
1B0
330
1F
100
AcDbEntity
  8
0
  6
Continuous
 62
     7
370
    25
100
AcDbCircle
 10
690.386316912
 20
278.4061075009
 30
0.0
 40
2.499999999999943
  0
CIRCLE
  5
1B1
330
1F
100
AcDbEntity
  8
0
  6
Continuous
 62
     7
370
    25
100
AcDbCircle
 10
690.386316912
 20
370.4061075009
 30
0.0
 40
2.499999999999943
  0
CIRCLE
  5
1B2
330
1F
100
AcDbEntity
  8
0
  6
Continuous
 62
     7
370
    25
100
AcDbCircle
 10
742.386316912
 20
278.4061075009
 30
0.0
 40
2.499999999999943
  0
CIRCLE
  5
1B3
330
1F
100
AcDbEntity
  8
0
  6
Continuous
 62
     7
370
    25
100
AcDbCircle
 10
742.386316912
 20
370.4061075009
 30
0.0
 40
2.499999999999943
  0
LINE
  5
1B4
330
1F
100
AcDbEntity
  8
0
  6
Continuous
 62
     7
370
    25
100
AcDbLine
 10
575.386316912
 20
231.45171379
 30
0.0
 11
575.386316912
 21
227.9704881661
 31
0.0
  0
LINE
  5
1B5
330
1F
100
AcDbEntity
  8
0
  6
Continuous
 62
     7
370
    25
100
AcDbLine
 10
575.386316912
 20
227.9704881661
 30
0.0
 11
568.386316912
 21
227.9704881661
 31
0.0
  0
LINE
  5
1B6
330
1F
100
AcDbEntity
  8
0
  6
Continuous
 62
     7
370
    25
100
AcDbLine
 10
768.386316912
 20
227.9704881661
 30
0.0
 11
761.386316912
 21
227.9704881661
 31
0.0
  0
LINE
  5
1B7
330
1F
100
AcDbEntity
  8
0
  6
Continuous
 62
     7
370
    25
100
AcDbLine
 10
761.386316912
 20
227.9704881661
 30
0.0
 11
761.386316912
 21
231.45171379
 31
0.0
  0
LINE
  5
1B8
330
1F
100
AcDbEntity
  8
0
  6
Continuous
 62
     7
370
    25
100
AcDbLine
 10
761.386316912
 20
231.45171379
 30
0.0
 11
575.386316912
 21
231.45171379
 31
0.0
  0
LWPOLYLINE
  5
1B9
330
1F
100
AcDbEntity
  8
0
  6
Continuous
 62
     7
370
    25
100
AcDbPolyline
 90
       28
 70
   128
 43
0.0
 10
668.386316912
 20
254.4792948127
 10
667.0948680359
 20
254.4402264079
 10
665.8730415029
 20
254.3251273813
 10
664.7867062978
 20
254.1402027512
 10
663.8944270326
 20
253.8954218524
 10
663.2443067135
 20
253.6039808864
 10
662.8713934952
 20
253.2815915111
 10
662.7957912257
 20
252.9456338212
 10
663.0215756431
 20
252.6142193827
 10
663.5365746509
 20
252.3052148338
 10
664.3130245192
 20
252.0352786897
 10
665.3090666348
 20
251.8189632779
 10
666.4710041094
 20
251.667930218
 10
667.7361965929
 20
251.5903217416
 10
669.0364372311
 20
251.5903217416
 10
670.3016297147
 20
251.667930218
 10
671.4635671892
 20
251.8189632779
 10
672.4596093049
 20
252.0352786897
 10
673.2360591732
 20
252.3052148338
 10
673.751058181
 20
252.6142193827
 10
673.9768425984
 20
252.9456338212
 10
673.9012403289
 20
253.2815915111
 10
673.5283271106
 20
253.6039808864
 10
672.8782067915
 20
253.8954218524
 10
671.9859275263
 20
254.1402027512
 10
670.8995923212
 20
254.3251273813
 10
669.6777657882
 20
254.4402264079
 10
668.386316912
 20
254.4792948127
  0
LWPOLYLINE
  5
1BA
330
1F
100
AcDbEntity
  8
0
  6
Continuous
 62
     7
370
    25
100
AcDbPolyline
 90
       28
 70
   128
 43
0.0
 10
668.386316912
 20
238.9501521065
 10
667.0948680359
 20
238.9110837017
 10
665.8730415029
 20
238.7959846751
 10
664.7867062978
 20
238.6110600451
 10
663.8944270326
 20
238.3662791462
 10
663.2443067135
 20
238.0748381802
 10
662.8713934952
 20
237.7524488049
 10
662.7957912257
 20
237.416491115
 10
663.0215756431
 20
237.0850766766
 10
663.5365746509
 20
236.7760721277
 10
664.3130245192
 20
236.5061359836
 10
665.3090666348
 20
236.2898205717
 10
666.4710041094
 20
236.1387875119
 10
667.7361965929
 20
236.0611790354
 10
669.0364372311
 20
236.0611790354
 10
670.3016297147
 20
236.1387875119
 10
671.4635671892
 20
236.2898205717
 10
672.4596093049
 20
236.5061359836
 10
673.2360591732
 20
236.7760721277
 10
673.751058181
 20
237.0850766766
 10
673.9768425984
 20
237.416491115
 10
673.9012403289
 20
237.7524488049
 10
673.5283271106
 20
238.0748381802
 10
672.8782067915
 20
238.3662791462
 10
671.9859275263
 20
238.6110600451
 10
670.8995923212
 20
238.7959846751
 10
669.6777657882
 20
238.9110837017
 10
668.386316912
 20
238.9501521065
  0
LINE
  5
1BB
330
1F
100
AcDbEntity
  8
0
  6
Continuous
 62
     7
370
    25
100
AcDbLine
 10
768.386316912
 20
259.6573416924
 30
0.0
 11
768.386316912
 21
227.9704881661
 31
0.0
  0
LINE
  5
1BC
330
1F
100
AcDbEntity
  8
0
  6
Continuous
 62
     7
370
    25
100
AcDbLine
 10
568.386316912
 20
259.6573416924
 30
0.0
 11
568.386316912
 21
227.9704881661
 31
0.0
  0
LWPOLYLINE
  5
1BD
330
1F
100
AcDbEntity
  8
0
  6
Continuous
 62
     7
370
    25
100
AcDbPolyline
 90
       14
 70
   128
 43
0.0
 10
663.8135152312
 20
253.8665578793
 10
663.8677955587
 20
253.772743863
 10
664.2241124707
 20
253.4889149539
 10
664.8419559953
 20
253.236937632
 10
665.6825047515
 20
253.032644559
 10
666.6929439697
 20
252.8888722201
 10
667.8097840376
 20
252.8146543601
 10
668.9628497864
 20
252.8146543601
 10
670.0796898544
 20
252.8888722201
 10
671.0901290726
 20
253.032644559
 10
671.9306778288
 20
253.236937632
 10
672.5485213534
 20
253.4889149539
 10
672.9048382654
 20
253.772743863
 10
672.9591185928
 20
253.8665578793
  0
LWPOLYLINE
  5
1BE
330
1F
100
AcDbEntity
  8
0
  6
Continuous
 62
     7
370
    25
100
AcDbPolyline
 90
       14
 70
   128
 43
0.0
 10
663.8135152312
 20
238.3374151731
 10
663.8677955587
 20
238.2436011569
 10
664.2241124707
 20
237.9597722478
 10
664.8419559953
 20
237.7077949258
 10
665.6825047515
 20
237.5035018529
 10
666.6929439697
 20
237.359729514
 10
667.8097840376
 20
237.285511654
 10
668.9628497864
 20
237.285511654
 10
670.0796898544
 20
237.359729514
 10
671.0901290726
 20
237.5035018529
 10
671.9306778288
 20
237.7077949258
 10
672.5485213534
 20
237.9597722478
 10
672.9048382654
 20
238.2436011569
 10
672.9591185928
 20
238.3374151731
  0
LINE
  5
1BF
330
1F
100
AcDbEntity
  8
0
  6
Continuous
 62
     7
370
    25
100
AcDbLine
 10
756.386316912
 20
230.7606998145
 30
0.0
 11
761.386316912
 21
230.7606998145
 31
0.0
  0
LINE
  5
1C0
330
1F
100
AcDbEntity
  8
0
  6
Continuous
 62
     7
370
    25
100
AcDbLine
 10
580.386316912
 20
230.7606998145
 30
0.0
 11
756.386316912
 21
230.7606998145
 31
0.0
  0
LINE
  5
1C1
330
1F
100
AcDbEntity
  8
0
  6
Continuous
 62
     7
370
    25
100
AcDbLine
 10
575.386316912
 20
230.7606998145
 30
0.0
 11
580.386316912
 21
230.7606998145
 31
0.0
  0
LINE
  5
1C2
330
1F
100
AcDbEntity
  8
SLD-0
100
AcDbLine
 10
668.386316912
 20
325.063565346
 30
0.0
 11
668.386316912
 21
221.341980507
 31
0.0
  0
DIMENSION
  5
1C3
330
1F
100
AcDbEntity
  8
SLD-0
100
AcDbDimension
  2
_D
 10
757.336316912
 20
451.8590901733
 30
0.0
 11
668.436316912
 21
451.8590901733
 31
0.0
 70
   160
  1
2X<>
 71
     2
 42
-1.0
  3
SLDDIMSTYLE0
100
AcDbAlignedDimension
 13
579.536316912
 23
355.563565346
 33
0.0
 14
757.336316912
 24
355.563565346
 34
0.0
100
AcDbRotatedDimension
  0
DIMENSION
  5
1D7
330
1F
100
AcDbEntity
  8
SLD-0
100
AcDbDimension
  2
_D_1
 10
840.4541488183
 20
300.063565346
 30
0.0
 11
840.4541488183
 21
325.063565346
 31
0.0
 70
   160
  1
2X<>
 71
     2
 42
-1.0
  3
SLDDIMSTYLE1
100
AcDbAlignedDimension
 13
762.836316912
 23
350.063565346
 33
0.0
 14
762.736316912
 24
300.063565346
 34
0.0
 50
90.0
100
AcDbRotatedDimension
  0
DIMENSION
  5
1EB
330
1F
100
AcDbEntity
  8
SLD-0
100
AcDbDimension
  2
_D_2
 10
671.636316912
 20
330.6927304706
 30
0.0
 11
560.712035536
 21
186.1988018959
 31
0.0
 70
   163
  1
<>
 71
     1
 42
-1.0
  3
SLDDIMSTYLE2
100
AcDbDiametricDimension
 15
665.136316912
 25
319.4344002214
 35
0.0
 40
0.0
  0
DIMENSION
  5
1FC
330
1F
100
AcDbEntity
  8
SLD-0
100
AcDbDimension
  2
_D_3
 10
754.8191303044
 20
347.6317406026
 30
0.0
 11
840.4541488183
 21
400.0627370704
 31
0.0
 70
   163
  1
4X<>
 71
     1
 42
-1.0
  3
SLDDIMSTYLE2
100
AcDbDiametricDimension
 15
759.8535035197
 25
352.4953900893
 35
0.0
 40
0.0
  0
INSERT
  5
212
330
1F
100
AcDbEntity
  8
SLD-0
100
AcDbBlockReference
  2
SW_SYMBOL_MOD_CL
 10
529.8945711987
 20
323.5798315511
 30
0.0
 41
0.0030416748
 42
0.0030416748
 43
0.0030416748
  0
INSERT
  5
213
330
1F
100
AcDbEntity
  8
SLD-0
100
AcDbBlockReference
  2
SW_SYMBOL_MOD_CL
 10
661.4277845495
 20
204.418259771
 30
0.0
 41
0.0030416748
 42
0.0030416748
 43
0.0030416748
  0
INSERT
  5
21F
330
1F
100
AcDbEntity
  8
SLD-0
100
AcDbBlockReference
  2
SW_CENTERMARKSYMBOL_0
 10
579.536316912
 20
350.063565346
 30
0.0
  0
INSERT
  5
22B
330
1F
100
AcDbEntity
  8
SLD-0
100
AcDbBlockReference
  2
SW_CENTERMARKSYMBOL_1
 10
579.536316912
 20
300.063565346
 30
0.0
  0
INSERT
  5
237
330
1F
100
AcDbEntity
  8
SLD-0
100
AcDbBlockReference
  2
SW_CENTERMARKSYMBOL_2
 10
757.336316912
 20
350.063565346
 30
0.0
  0
INSERT
  5
243
330
1F
100
AcDbEntity
  8
SLD-0
100
AcDbBlockReference
  2
SW_CENTERMARKSYMBOL_3
 10
757.236316912
 20
300.063565346
 30
0.0
  0
INSERT
  5
24F
330
1F
100
AcDbEntity
  8
SLD-0
100
AcDbBlockReference
  2
SW_CENTERMARKSYMBOL_4
 10
668.386316912
 20
325.063565346
 30
0.0
  0
LINE
  5
250
330
1F
100
AcDbEntity
  8
SLD-0
  6
CENTERX2
370
    18
100
AcDbLine
 10
787.9088387465
 20
325.063565346
 30
0.0
 11
547.0148235382
 21
325.063565346
 31
0.0
  0
ARC
  5
251
330
1F
100
AcDbEntity
  8
0
  6
Continuous
 62
     7
370
    25
100
AcDbCircle
 10
223.6006780602
 20
325.063565346
 30
0.0
 40
8.750000000000016
100
AcDbArc
 50
61.2699235668
 51
241.2699235668
  0
ARC
  5
252
330
1F
100
AcDbEntity
  8
0
  6
Continuous
 62
     7
370
    25
100
AcDbCircle
 10
223.6006780602
 20
325.063565346
 30
0.0
 40
5.00000000000004
100
AcDbArc
 50
61.2699235668
 51
241.2699235668
  0
ARC
  5
253
330
1F
100
AcDbEntity
  8
0
  6
Continuous
 62
     7
370
    25
100
AcDbCircle
 10
223.6006780602
 20
325.063565346
 30
0.0
 40
5.00000000000004
100
AcDbArc
 50
241.2699235668
 51
61.2699235668
  0
LINE
  5
254
330
1F
100
AcDbEntity
  8
0
  6
Continuous
 62
     7
370
    25
100
AcDbLine
 10
226.6383278357
 20
323.3984275615
 30
0.0
 11
226.5615545701
 21
326.8616783272
 31
0.0
  0
LINE
  5
255
330
1F
100
AcDbEntity
  8
0
  6
Continuous
 62
     7
370
    25
100
AcDbLine
 10
226.5615545701
 20
326.8616783272
 30
0.0
 11
223.5239047945
 21
328.5268161116
 31
0.0
  0
LINE
  5
256
330
1F
100
AcDbEntity
  8
0
  6
Continuous
 62
     7
370
    25
100
AcDbLine
 10
223.5239047945
 20
328.5268161116
 30
0.0
 11
220.5630282846
 21
326.7287031304
 31
0.0
  0
LINE
  5
257
330
1F
100
AcDbEntity
  8
0
  6
Continuous
 62
     7
370
    25
100
AcDbLine
 10
220.5630282846
 20
326.7287031304
 30
0.0
 11
220.6398015503
 21
323.2654523647
 31
0.0
  0
LINE
  5
258
330
1F
100
AcDbEntity
  8
0
  6
Continuous
 62
     7
370
    25
100
AcDbLine
 10
220.6398015503
 20
323.2654523647
 30
0.0
 11
223.6774513258
 21
321.6003145803
 31
0.0
  0
LINE
  5
259
330
1F
100
AcDbEntity
  8
0
  6
Continuous
 62
     7
370
    25
100
AcDbLine
 10
223.6774513258
 20
321.6003145803
 30
0.0
 11
226.6383278357
 21
323.3984275615
 31
0.0
  0
ARC
  5
25A
330
1F
100
AcDbEntity
  8
0
  6
Continuous
 62
     7
370
    25
100
AcDbCircle
 10
223.6006780602
 20
325.063565346
 30
0.0
 40
8.750000000000016
100
AcDbArc
 50
241.2699235668
 51
61.2699235668
  0
ARC
  5
25B
330
1F
100
AcDbEntity
  8
0
  6
Continuous
 62
     7
370
    25
100
AcDbCircle
 10
206.6071340477
 20
346.4552119079
 30
0.0
 40
4.000000000005085
100
AcDbArc
 50
340.0000000001
 51
94.7762762807
  0
LINE
  5
25C
330
1F
100
AcDbEntity
  8
0
  6
Continuous
 62
     7
370
    25
100
AcDbLine
 10
205.0377573328
 20
330.4481672203
 30
0.0
 11
210.3659045309
 21
345.0871313346
 31
0.0
  0
ARC
  5
25D
330
1F
100
AcDbEntity
  8
0
  6
Continuous
 62
     7
370
    25
100
AcDbCircle
 10
201.2789868496
 20
331.8162477936
 30
0.0
 40
3.999999999996641
100
AcDbArc
 50
313.1119523822
 51
340.0
  0
ARC
  5
25E
330
1F
100
AcDbEntity
  8
0
  6
Continuous
 62
     7
370
    25
100
AcDbCircle
 10
207.6006780602
 20
325.063565346
 30
0.0
 40
5.250000000005032
100
AcDbArc
 50
133.1119523823
 51
6.8880476177
  0
ARC
  5
25F
330
1F
100
AcDbEntity
  8
0
  6
Continuous
 62
     7
370
    25
100
AcDbCircle
 10
216.7839150926
 20
326.1729154287
 30
0.0
 40
3.999999999961217
100
AcDbArc
 50
159.9999999998
 51
186.8880476178
  0
LINE
  5
260
330
1F
100
AcDbEntity
  8
0
  6
Continuous
 62
     7
370
    25
100
AcDbLine
 10
220.9402926308
 20
349.2876864623
 30
0.0
 11
213.0251446095
 21
327.540996002
 31
0.0
  0
ARC
  5
261
330
1F
100
AcDbEntity
  8
0
  6
Continuous
 62
     7
370
    25
100
AcDbCircle
 10
224.699063114
 20
347.919605889
 30
0.0
 40
4.000000000055485
100
AcDbArc
 50
94.4787984609
 51
160.0000000002
  0
ARC
  5
262
330
1F
100
AcDbEntity
  8
0
  6
Continuous
 62
     7
370
    25
100
AcDbCircle
 10
497.7023827193
 20
-3137.404652696
 30
0.0
 40
3500.000000000003
100
AcDbArc
 50
92.2285771106
 51
94.4787984606
  0
ARC
  5
263
330
1F
100
AcDbEntity
  8
0
  6
Continuous
 62
     7
370
    25
100
AcDbCircle
 10
497.7023827193
 20
3787.531783388
 30
0.0
 40
3500.000000000001
100
AcDbArc
 50
265.2106787874
 51
267.7714228894
  0
ARC
  5
264
330
1F
100
AcDbEntity
  8
0
  6
Continuous
 62
     7
370
    25
100
AcDbCircle
 10
207.6006780602
 20
325.063565346
 30
0.0
 40
25.40000000000249
100
AcDbArc
 50
94.7893212126
 51
265.2106787874
  0
LWPOLYLINE
  5
265
330
1F
100
AcDbEntity
  8
0
  6
Continuous
 62
     7
370
    25
100
AcDbPolyline
 90
        9
 70
   128
 43
0.0
 10
206.2740731225
 20
350.4413215928
 10
206.1748104458
 20
350.4330262393
 10
206.0755480053
 20
350.424728061
 10
205.9762858011
 20
350.4164270576
 10
205.877023833
 20
350.4081232293
 10
205.7777621014
 20
350.399816576
 10
205.6785006062
 20
350.3915070978
 10
205.5792393475
 20
350.3831947946
 10
205.4799783254
 20
350.3748796665
  0
LINE
  5
266
330
1F
100
AcDbEntity
  8
0
  6
Continuous
 62
     7
370
    25
100
AcDbLine
 10
366.6006780602
 20
290.063565346
 30
0.0
 11
366.6006780602
 21
360.063565346
 31
0.0
  0
SPLINE
  5
267
330
1F
100
AcDbEntity
  8
0
  6
Continuous
 62
     7
370
    25
100
AcDbSpline
210
0.0
220
0.0
230
1.0
 70
     8
 71
     3
 72
    11
 73
     7
 74
     0
 42
0.00000001
 43
0.00000001
 40
0.0
 40
0.0
 40
0.0
 40
0.0
 40
0.2500000000000011
 40
0.4999999999999998
 40
0.7499999999999988
 40
1.0
 40
1.0
 40
1.0
 40
1.0
 10
366.6006780601792
 20
290.0635653459562
 30
0.0
 10
366.5255201962426
 20
290.073186872017
 30
0.0
 10
366.3752044683693
 20
290.0924299241386
 30
0.0
 10
365.2189584027573
 20
290.1212945023211
 30
0.0
 10
363.566233717273
 20
290.1501590805037
 30
0.0
 10
362.2558632792104
 20
290.1694021326254
 30
0.0
 10
361.6006780601792
 20
290.1790236586862
 30
0.0
  0
SPLINE
  5
268
330
1F
100
AcDbEntity
  8
0
  6
Continuous
 62
     7
370
    25
100
AcDbSpline
210
0.0
220
0.0
230
1.0
 70
     8
 71
     3
 72
    11
 73
     7
 74
     0
 42
0.00000001
 43
0.00000001
 40
0.0
 40
0.0
 40
0.0
 40
0.0
 40
0.2500000000000016
 40
0.4999999999999995
 40
0.7500000000000004
 40
1.0
 40
1.0
 40
1.0
 40
1.0
 10
361.6006780601792
 20
359.9481070332262
 30
0.0
 10
362.2558632792104
 20
359.9577285592871
 30
0.0
 10
363.5662337172728
 20
359.9769716114087
 30
0.0
 10
365.2189584027574
 20
360.0058361895912
 30
0.0
 10
366.3752044683693
 20
360.0347007677737
 30
0.0
 10
366.5255201962426
 20
360.0539438198954
 30
0.0
 10
366.6006780601792
 20
360.0635653459562
 30
0.0
  0
LINE
  5
269
330
1F
100
AcDbEntity
  8
0
  6
Continuous
 62
     7
370
    25
100
AcDbLine
 10
366.6006780602
 20
360.063565346
 30
0.0
 11
364.6006780602
 21
360.063565346
 31
0.0
  0
LINE
  5
26A
330
1F
100
AcDbEntity
  8
0
  6
Continuous
 62
     7
370
    25
100
AcDbLine
 10
366.6006780602
 20
290.063565346
 30
0.0
 11
364.6006780602
 21
290.063565346
 31
0.0
  0
ARC
  5
26B
330
1F
100
AcDbEntity
  8
0
  6
Continuous
 62
     7
370
    25
100
AcDbCircle
 10
362.6006780602
 20
290.063565346
 30
0.0
 40
2.000000000000057
100
AcDbArc
 50
270.0
 51
0.0
  0
ARC
  5
26C
330
1F
100
AcDbEntity
  8
0
  6
Continuous
 62
     7
370
    25
100
AcDbCircle
 10
362.6006780602
 20
290.063565346
 30
0.0
 40
4.000000000000057
100
AcDbArc
 50
270.0
 51
0.0
  0
ARC
  5
26D
330
1F
100
AcDbEntity
  8
0
  6
Continuous
 62
     7
370
    25
100
AcDbCircle
 10
362.6006780602
 20
360.063565346
 30
0.0
 40
4.000000000000114
100
AcDbArc
 50
0.0
 51
90.0
  0
ARC
  5
26E
330
1F
100
AcDbEntity
  8
0
  6
Continuous
 62
     7
370
    25
100
AcDbCircle
 10
362.6006780602
 20
360.063565346
 30
0.0
 40
2.000000000000057
100
AcDbArc
 50
0.0
 51
90.0
  0
LINE
  5
26F
330
1F
100
AcDbEntity
  8
0
  6
Continuous
 62
     7
370
    25
100
AcDbLine
 10
350.6006780602
 20
362.063565346
 30
0.0
 11
362.6006780602
 21
362.063565346
 31
0.0
  0
LINE
  5
270
330
1F
100
AcDbEntity
  8
0
  6
Continuous
 62
     7
370
    25
100
AcDbLine
 10
350.6006780602
 20
364.063565346
 30
0.0
 11
362.6006780602
 21
364.063565346
 31
0.0
  0
LINE
  5
271
330
1F
100
AcDbEntity
  8
0
  6
Continuous
 62
     7
370
    25
100
AcDbLine
 10
350.6006780602
 20
364.063565346
 30
0.0
 11
350.6006780602
 21
362.063565346
 31
0.0
  0
LINE
  5
272
330
1F
100
AcDbEntity
  8
0
  6
Continuous
 62
     7
370
    25
100
AcDbLine
 10
350.6006780602
 20
286.063565346
 30
0.0
 11
350.6006780602
 21
288.063565346
 31
0.0
  0
LINE
  5
273
330
1F
100
AcDbEntity
  8
0
  6
Continuous
 62
     7
370
    25
100
AcDbLine
 10
362.6006780602
 20
288.063565346
 30
0.0
 11
350.6006780602
 21
288.063565346
 31
0.0
  0
LINE
  5
274
330
1F
100
AcDbEntity
  8
0
  6
Continuous
 62
     7
370
    25
100
AcDbLine
 10
362.6006780602
 20
286.063565346
 30
0.0
 11
350.6006780602
 21
286.063565346
 31
0.0
  0
LINE
  5
275
330
1F
100
AcDbEntity
  8
0
  6
Continuous
 62
     7
370
    25
100
AcDbLine
 10
205.0377573328
 20
330.4481672203
 30
0.0
 11
203.6069844218
 21
326.5171509551
 31
0.0
  0
ARC
  5
276
330
1F
100
AcDbEntity
  8
0
  6
Continuous
 62
     7
370
    25
100
AcDbCircle
 10
207.6006780602
 20
325.063565346
 30
0.0
 40
4.250000000000026
100
AcDbArc
 50
160.0
 51
340.0
  0
LINE
  5
277
330
1F
100
AcDbEntity
  8
0
  6
Continuous
 62
     7
370
    25
100
AcDbLine
 10
211.5943716985
 20
323.6099797368
 30
0.0
 11
213.0251446095
 21
327.540996002
 31
0.0
  0
LINE
  5
278
330
1F
100
AcDbEntity
  8
0
  6
Continuous
 62
     7
370
    25
100
AcDbLine
 10
315.6435158026
 20
259.6573416924
 30
0.0
 11
197.3865685105
 21
227.9704881661
 31
0.0
  0
ARC
  5
279
330
1F
100
AcDbEntity
  8
0
  6
Continuous
 62
     7
370
    25
100
AcDbCircle
 10
204.0041656945
 20
265.3898335307
 30
0.0
 40
38.0
100
AcDbArc
 50
227.2707987846
 51
259.9709602646
  0
ARC
  5
27A
330
1F
100
AcDbEntity
  8
0
  6
Continuous
 62
     7
370
    25
100
AcDbCircle
 10
635.9587872756
 20
438.6604162439
 30
0.0
 40
500.0000000000002
100
AcDbArc
 50
186.2765032982
 51
203.7263223054
  0
ARC
  5
27B
330
1F
100
AcDbEntity
  8
0
  6
Continuous
 62
     7
370
    25
100
AcDbCircle
 10
175.2445950657
 20
372.7220123215
 30
0.0
 40
38.00000000000002
100
AcDbArc
 50
128.8689065316
 51
162.7397655511
  0
LINE
  5
27C
330
1F
100
AcDbEntity
  8
0
  6
Continuous
 62
     7
370
    25
100
AcDbLine
 10
162.5939903371
 20
405.3081402699
 30
0.0
 11
151.3980512942
 21
402.3081974449
 31
0.0
  0
LINE
  5
27D
330
1F
100
AcDbEntity
  8
0
  6
Continuous
 62
     7
370
    25
100
AcDbLine
 10
162.5939903371
 20
405.3081402699
 30
0.0
 11
315.6435158026
 21
405.3081402699
 31
0.0
  0
LINE
  5
27E
330
1F
100
AcDbEntity
  8
0
  6
Continuous
 62
     7
370
    25
100
AcDbLine
 10
315.6435158026
 20
405.3081402699
 30
0.0
 11
315.6435158026
 21
357.8570784161
 31
0.0
  0
LINE
  5
27F
330
1F
100
AcDbEntity
  8
0
  6
Continuous
 62
     7
370
    25
100
AcDbLine
 10
315.6435158026
 20
292.2700522758
 30
0.0
 11
315.6435158026
 21
259.6573416924
 31
0.0
  0
LINE
  5
280
330
1F
100
AcDbEntity
  8
0
  6
Continuous
 62
     7
370
    25
100
AcDbLine
 10
219.3946941623
 20
317.3907432151
 30
0.0
 11
221.19725869
 21
320.6790955569
 31
0.0
  0
LINE
  5
281
330
1F
100
AcDbEntity
  8
0
  6
Continuous
 62
     7
370
    25
100
AcDbLine
 10
227.806661958
 20
332.7363874768
 30
0.0
 11
226.0040974304
 21
329.448035135
 31
0.0
  0
LINE
  5
282
330
1F
100
AcDbEntity
  8
0
  6
Continuous
 62
     7
370
    25
100
AcDbLine
 10
361.6006780602
 20
290.1790236587
 30
0.0
 11
361.6006780602
 21
359.9481070332
 31
0.0
  0
LINE
  5
283
330
1F
100
AcDbEntity
  8
0
  6
Continuous
 62
     7
370
    25
100
AcDbLine
 10
362.6006780602
 20
286.063565346
 30
0.0
 11
362.6006780602
 21
288.063565346
 31
0.0
  0
LINE
  5
284
330
1F
100
AcDbEntity
  8
0
  6
Continuous
 62
     7
370
    25
100
AcDbLine
 10
362.6006780602
 20
364.063565346
 30
0.0
 11
362.6006780602
 21
362.063565346
 31
0.0
  0
DIMENSION
  5
285
330
1F
100
AcDbEntity
  8
SLD-0
100
AcDbDimension
  2
_D_4
 10
366.6006780602
 20
200.3937896589
 30
0.0
 11
274.4006780602
 21
200.3937896589
 31
0.0
 70
   160
  1
<>\PBOTH ENDS
 71
     2
 42
-1.0
  3
SLDDIMSTYLE0
100
AcDbAlignedDimension
 13
182.2006780602
 23
325.063565346
 33
0.0
 14
366.6006780602
 24
290.063565346
 34
0.0
100
AcDbRotatedDimension
  0
DIMENSION
  5
298
330
1F
100
AcDbEntity
  8
SLD-0
100
AcDbDimension
  2
_D_5
 10
138.9558506034
 20
465.0408803365
 30
0.0
 11
252.7782643318
 21
465.0408803365
 31
0.0
 70
   160
  1
<>
 71
     2
 42
-1.0
  3
SLDDIMSTYLE3
100
AcDbAlignedDimension
 13
366.6006780602
 23
360.063565346
 33
0.0
 14
138.9558506034
 24
383.9970744212
 34
0.0
 50
0.0
100
AcDbRotatedDimension
  0
DIMENSION
  5
2AD
330
1F
100
AcDbEntity
  8
SLD-0
100
AcDbDimension
  2
_D_6
 10
429.2910901364
 20
286.063565346
 30
0.0
 11
429.2910901364
 21
325.063565346
 31
0.0
 70
   160
  1
<>
 71
     2
 42
-1.0
  3
SLDDIMSTYLE4
100
AcDbAlignedDimension
 13
362.6006780602
 23
364.063565346
 33
0.0
 14
362.6006780602
 24
286.063565346
 34
0.0
 50
90.0
100
AcDbRotatedDimension
  0
DIMENSION
  5
2C2
330
1F
100
AcDbEntity
  8
SLD-0
100
AcDbDimension
  2
_D_7
 10
119.6616395233
 20
207.1441562123
 30
0.0
 11
96.3291026073
 21
294.2223694522
 31
0.0
 70
   160
  1
<>
 71
     2
 42
-1.0
  3
SLDDIMSTYLE3
100
AcDbAlignedDimension
 13
151.3980512942
 23
402.3081974449
 33
0.0
 14
197.3865685105
 24
227.9704881661
 34
0.0
 50
-75.0
100
AcDbRotatedDimension
  0
DIMENSION
  5
2D6
330
1F
100
AcDbEntity
  8
SLD-0
100
AcDbDimension
  2
_D_8
 10
162.5939903371
 20
405.3081402699
 30
0.0
 11
185.464815748
 21
435.9208272196
 31
0.0
 70
   162
  1
<>
 71
     1
 42
-1.0
  3
SLDDIMSTYLE5
100
AcDb2LineAngularDimension
 13
162.5939903371
 23
405.3081402699
 33
0.0
 14
315.6435158026
 24
405.3081402699
 34
0.0
 15
151.3980512942
 25
402.3081974449
 35
0.0
 16
200.0045274954
 26
397.5194968204
 36
0.0
  0
ARC
  5
2E1
330
1F
100
AcDbEntity
  8
0
  6
Continuous
 62
     7
370
    25
100
AcDbCircle
 10
1119.9635462951
 20
325.063565346
 30
0.0
 40
5.000000000000013
100
AcDbArc
 50
255.0
 51
75.0
  0
ARC
  5
2E2
330
1F
100
AcDbEntity
  8
0
  6
Continuous
 62
     7
370
    25
100
AcDbCircle
 10
1119.9635462951
 20
325.063565346
 30
0.0
 40
8.750000000000076
100
AcDbArc
 50
255.0
 51
75.0
  0
ARC
  5
2E3
330
1F
100
AcDbEntity
  8
0
  6
Continuous
 62
     7
370
    25
100
AcDbCircle
 10
1119.9635462951
 20
325.063565346
 30
0.0
 40
5.000000000000013
100
AcDbArc
 50
75.0
 51
255.0
  0
LINE
  5
2E4
330
1F
100
AcDbEntity
  8
0
  6
Continuous
 62
     7
370
    25
100
AcDbLine
 10
1123.3096115101
 20
324.1669898738
 30
0.0
 11
1122.4130360379
 21
327.5130550887
 31
0.0
  0
LINE
  5
2E5
330
1F
100
AcDbEntity
  8
0
  6
Continuous
 62
     7
370
    25
100
AcDbLine
 10
1122.4130360379
 20
327.5130550887
 30
0.0
 11
1119.066970823
 21
328.4096305609
 31
0.0
  0
LINE
  5
2E6
330
1F
100
AcDbEntity
  8
0
  6
Continuous
 62
     7
370
    25
100
AcDbLine
 10
1119.066970823
 20
328.4096305609
 30
0.0
 11
1116.6174810802
 21
325.9601408181
 31
0.0
  0
LINE
  5
2E7
330
1F
100
AcDbEntity
  8
0
  6
Continuous
 62
     7
370
    25
100
AcDbLine
 10
1116.6174810802
 20
325.9601408181
 30
0.0
 11
1117.5140565523
 21
322.6140756032
 31
0.0
  0
LINE
  5
2E8
330
1F
100
AcDbEntity
  8
0
  6
Continuous
 62
     7
370
    25
100
AcDbLine
 10
1117.5140565523
 20
322.6140756032
 30
0.0
 11
1120.8601217673
 21
321.717500131
 31
0.0
  0
LINE
  5
2E9
330
1F
100
AcDbEntity
  8
0
  6
Continuous
 62
     7
370
    25
100
AcDbLine
 10
1120.8601217673
 20
321.717500131
 30
0.0
 11
1123.3096115101
 21
324.1669898738
 31
0.0
  0
ARC
  5
2EA
330
1F
100
AcDbEntity
  8
0
  6
Continuous
 62
     7
370
    25
100
AcDbCircle
 10
1119.9635462951
 20
325.063565346
 30
0.0
 40
8.750000000000076
100
AcDbArc
 50
75.0
 51
255.0
  0
ARC
  5
2EB
330
1F
100
AcDbEntity
  8
0
  6
Continuous
 62
     7
370
    25
100
AcDbCircle
 10
1136.9570903076
 20
346.4552119079
 30
0.0
 40
4.000000000005165
100
AcDbArc
 50
85.2237237193
 51
199.9999999999
  0
LWPOLYLINE
  5
2EC
330
1F
100
AcDbEntity
  8
0
  6
Continuous
 62
     7
370
    25
100
AcDbPolyline
 90
        9
 70
   128
 43
0.0
 10
1137.2901512328
 20
350.4413215928
 10
1137.3894139095
 20
350.4330262393
 10
1137.48867635
 20
350.424728061
 10
1137.5879385543
 20
350.4164270576
 10
1137.6872005223
 20
350.4081232293
 10
1137.7864622539
 20
350.399816576
 10
1137.8857237491
 20
350.3915070978
 10
1137.9849850078
 20
350.3831947946
 10
1138.0842460299
 20
350.3748796665
  0
ARC
  5
2ED
330
1F
100
AcDbEntity
  8
0
  6
Continuous
 62
     7
370
    25
100
AcDbCircle
 10
1135.9635462951
 20
325.063565346
 30
0.0
 40
25.4000000000025
100
AcDbArc
 50
274.7893212126
 51
85.2106787874
  0
ARC
  5
2EE
330
1F
100
AcDbEntity
  8
0
  6
Continuous
 62
     7
370
    25
100
AcDbCircle
 10
845.861841636
 20
3787.531783388
 30
0.0
 40
3500.000000000001
100
AcDbArc
 50
272.2285771106
 51
274.7893212126
  0
ARC
  5
2EF
330
1F
100
AcDbEntity
  8
0
  6
Continuous
 62
     7
370
    25
100
AcDbCircle
 10
845.861841636
 20
-3137.404652696
 30
0.0
 40
3500.000000000003
100
AcDbArc
 50
85.5212015394
 51
87.7714228894
  0
ARC
  5
2F0
330
1F
100
AcDbEntity
  8
0
  6
Continuous
 62
     7
370
    25
100
AcDbCircle
 10
1118.8651612413
 20
347.919605889
 30
0.0
 40
4.000000000055592
100
AcDbArc
 50
19.9999999998
 51
85.5212015391
  0
LINE
  5
2F1
330
1F
100
AcDbEntity
  8
0
  6
Continuous
 62
     7
370
    25
100
AcDbLine
 10
1122.6239317245
 20
349.2876864623
 30
0.0
 11
1130.5390797458
 21
327.540996002
 31
0.0
  0
ARC
  5
2F2
330
1F
100
AcDbEntity
  8
0
  6
Continuous
 62
     7
370
    25
100
AcDbCircle
 10
1126.7803092627
 20
326.1729154287
 30
0.0
 40
3.999999999961133
100
AcDbArc
 50
353.1119523822
 51
20.0000000002
  0
ARC
  5
2F3
330
1F
100
AcDbEntity
  8
0
  6
Continuous
 62
     7
370
    25
100
AcDbCircle
 10
1135.9635462951
 20
325.063565346
 30
0.0
 40
5.250000000005144
100
AcDbArc
 50
173.1119523823
 51
46.8880476177
  0
ARC
  5
2F4
330
1F
100
AcDbEntity
  8
0
  6
Continuous
 62
     7
370
    25
100
AcDbCircle
 10
1142.2852375057
 20
331.8162477936
 30
0.0
 40
3.999999999996561
100
AcDbArc
 50
200.0
 51
226.8880476178
  0
LINE
  5
2F5
330
1F
100
AcDbEntity
  8
0
  6
Continuous
 62
     7
370
    25
100
AcDbLine
 10
1138.5264670225
 20
330.4481672203
 30
0.0
 11
1133.1983198244
 21
345.0871313346
 31
0.0
  0
LINE
  5
2F6
330
1F
100
AcDbEntity
  8
0
  6
Continuous
 62
     7
370
    25
100
AcDbLine
 10
976.9635462951
 20
290.063565346
 30
0.0
 11
976.9635462951
 21
360.063565346
 31
0.0
  0
SPLINE
  5
2F7
330
1F
100
AcDbEntity
  8
0
  6
Continuous
 62
     7
370
    25
100
AcDbSpline
210
0.0
220
0.0
230
1.0
 70
     8
 71
     3
 72
    11
 73
     7
 74
     0
 42
0.00000001
 43
0.00000001
 40
0.0
 40
0.0
 40
0.0
 40
0.0
 40
0.2500000000000016
 40
0.4999999999999995
 40
0.7500000000000004
 40
1.0
 40
1.0
 40
1.0
 40
1.0
 10
981.9635462951297
 20
359.9481070332262
 30
0.0
 10
981.3083610760985
 20
359.9577285592871
 30
0.0
 10
979.9979906380362
 20
359.9769716114087
 30
0.0
 10
978.3452659525516
 20
360.0058361895912
 30
0.0
 10
977.1890198869397
 20
360.0347007677737
 30
0.0
 10
977.0387041590665
 20
360.0539438198954
 30
0.0
 10
976.9635462951298
 20
360.0635653459562
 30
0.0
  0
SPLINE
  5
2F8
330
1F
100
AcDbEntity
  8
0
  6
Continuous
 62
     7
370
    25
100
AcDbSpline
210
0.0
220
0.0
230
1.0
 70
     8
 71
     3
 72
    11
 73
     7
 74
     0
 42
0.00000001
 43
0.00000001
 40
0.0
 40
0.0
 40
0.0
 40
0.0
 40
0.2500000000000011
 40
0.4999999999999998
 40
0.7499999999999988
 40
1.0
 40
1.0
 40
1.0
 40
1.0
 10
976.9635462951298
 20
290.0635653459562
 30
0.0
 10
977.0387041590665
 20
290.073186872017
 30
0.0
 10
977.1890198869397
 20
290.0924299241386
 30
0.0
 10
978.3452659525517
 20
290.1212945023211
 30
0.0
 10
979.9979906380361
 20
290.1501590805037
 30
0.0
 10
981.3083610760985
 20
290.1694021326254
 30
0.0
 10
981.9635462951297
 20
290.1790236586862
 30
0.0
  0
LINE
  5
2F9
330
1F
100
AcDbEntity
  8
0
  6
Continuous
 62
     7
370
    25
100
AcDbLine
 10
976.9635462951
 20
360.063565346
 30
0.0
 11
978.9635462951
 21
360.063565346
 31
0.0
  0
LINE
  5
2FA
330
1F
100
AcDbEntity
  8
0
  6
Continuous
 62
     7
370
    25
100
AcDbLine
 10
976.9635462951
 20
290.063565346
 30
0.0
 11
978.9635462951
 21
290.063565346
 31
0.0
  0
ARC
  5
2FB
330
1F
100
AcDbEntity
  8
0
  6
Continuous
 62
     7
370
    25
100
AcDbCircle
 10
980.9635462951
 20
290.063565346
 30
0.0
 40
4.0
100
AcDbArc
 50
180.0
 51
270.0
  0
ARC
  5
2FC
330
1F
100
AcDbEntity
  8
0
  6
Continuous
 62
     7
370
    25
100
AcDbCircle
 10
980.9635462951
 20
290.063565346
 30
0.0
 40
2.0
100
AcDbArc
 50
180.0
 51
270.0
  0
ARC
  5
2FD
330
1F
100
AcDbEntity
  8
0
  6
Continuous
 62
     7
370
    25
100
AcDbCircle
 10
980.9635462951
 20
360.063565346
 30
0.0
 40
4.0
100
AcDbArc
 50
90.0
 51
180.0
  0
ARC
  5
2FE
330
1F
100
AcDbEntity
  8
0
  6
Continuous
 62
     7
370
    25
100
AcDbCircle
 10
980.9635462951
 20
360.063565346
 30
0.0
 40
2.0
100
AcDbArc
 50
90.0
 51
180.0
  0
LINE
  5
2FF
330
1F
100
AcDbEntity
  8
0
  6
Continuous
 62
     7
370
    25
100
AcDbLine
 10
992.9635462951
 20
364.063565346
 30
0.0
 11
992.9635462951
 21
362.063565346
 31
0.0
  0
LINE
  5
300
330
1F
100
AcDbEntity
  8
0
  6
Continuous
 62
     7
370
    25
100
AcDbLine
 10
992.9635462951
 20
362.063565346
 30
0.0
 11
980.9635462951
 21
362.063565346
 31
0.0
  0
LINE
  5
301
330
1F
100
AcDbEntity
  8
0
  6
Continuous
 62
     7
370
    25
100
AcDbLine
 10
992.9635462951
 20
364.063565346
 30
0.0
 11
980.9635462951
 21
364.063565346
 31
0.0
  0
LINE
  5
302
330
1F
100
AcDbEntity
  8
0
  6
Continuous
 62
     7
370
    25
100
AcDbLine
 10
980.9635462951
 20
286.063565346
 30
0.0
 11
992.9635462951
 21
286.063565346
 31
0.0
  0
LINE
  5
303
330
1F
100
AcDbEntity
  8
0
  6
Continuous
 62
     7
370
    25
100
AcDbLine
 10
980.9635462951
 20
288.063565346
 30
0.0
 11
992.9635462951
 21
288.063565346
 31
0.0
  0
LINE
  5
304
330
1F
100
AcDbEntity
  8
0
  6
Continuous
 62
     7
370
    25
100
AcDbLine
 10
992.9635462951
 20
286.063565346
 30
0.0
 11
992.9635462951
 21
288.063565346
 31
0.0
  0
LINE
  5
305
330
1F
100
AcDbEntity
  8
0
  6
Continuous
 62
     7
370
    25
100
AcDbLine
 10
1131.9698526568
 20
323.6099797368
 30
0.0
 11
1130.5390797458
 21
327.540996002
 31
0.0
  0
ARC
  5
306
330
1F
100
AcDbEntity
  8
0
  6
Continuous
 62
     7
370
    25
100
AcDbCircle
 10
1135.9635462951
 20
325.063565346
 30
0.0
 40
4.250000000000052
100
AcDbArc
 50
200.0
 51
20.0
  0
LINE
  5
307
330
1F
100
AcDbEntity
  8
0
  6
Continuous
 62
     7
370
    25
100
AcDbLine
 10
1138.5264670225
 20
330.4481672203
 30
0.0
 11
1139.9572399335
 21
326.5171509551
 31
0.0
  0
LINE
  5
308
330
1F
100
AcDbEntity
  8
0
  6
Continuous
 62
     7
370
    25
100
AcDbLine
 10
1180.9702340182
 20
405.3081402699
 30
0.0
 11
1192.1661730611
 21
402.3081974449
 31
0.0
  0
ARC
  5
309
330
1F
100
AcDbEntity
  8
0
  6
Continuous
 62
     7
370
    25
100
AcDbCircle
 10
1168.3196292897
 20
372.7220123215
 30
0.0
 40
38.00000000000004
100
AcDbArc
 50
17.2602344489
 51
51.1310934684
  0
ARC
  5
30A
330
1F
100
AcDbEntity
  8
0
  6
Continuous
 62
     7
370
    25
100
AcDbCircle
 10
707.6054370797
 20
438.6604162439
 30
0.0
 40
500.0000000000001
100
AcDbArc
 50
336.2736776946
 51
353.7234967018
  0
ARC
  5
30B
330
1F
100
AcDbEntity
  8
0
  6
Continuous
 62
     7
370
    25
100
AcDbCircle
 10
1139.5600586608
 20
265.3898335307
 30
0.0
 40
38.00000000000002
100
AcDbArc
 50
280.0290397354
 51
312.7292012154
  0
LINE
  5
30C
330
1F
100
AcDbEntity
  8
0
  6
Continuous
 62
     7
370
    25
100
AcDbLine
 10
1027.9207085527
 20
259.6573416924
 30
0.0
 11
1146.1776558448
 21
227.9704881661
 31
0.0
  0
LINE
  5
30D
330
1F
100
AcDbEntity
  8
0
  6
Continuous
 62
     7
370
    25
100
AcDbLine
 10
1027.9207085527
 20
405.3081402699
 30
0.0
 11
1027.9207085527
 21
357.8570784161
 31
0.0
  0
LINE
  5
30E
330
1F
100
AcDbEntity
  8
0
  6
Continuous
 62
     7
370
    25
100
AcDbLine
 10
1027.9207085527
 20
292.2700522758
 30
0.0
 11
1027.9207085527
 21
259.6573416924
 31
0.0
  0
LINE
  5
30F
330
1F
100
AcDbEntity
  8
0
  6
Continuous
 62
     7
370
    25
100
AcDbLine
 10
1180.9702340182
 20
405.3081402699
 30
0.0
 11
1027.9207085527
 21
405.3081402699
 31
0.0
  0
LINE
  5
310
330
1F
100
AcDbEntity
  8
0
  6
Continuous
 62
     7
370
    25
100
AcDbLine
 10
1117.6988796505
 20
316.6117143659
 30
0.0
 11
1118.6694510696
 21
320.2339362145
 31
0.0
  0
LINE
  5
311
330
1F
100
AcDbEntity
  8
0
  6
Continuous
 62
     7
370
    25
100
AcDbLine
 10
1122.2282129398
 20
333.515416326
 30
0.0
 11
1121.2576415206
 21
329.8931944774
 31
0.0
  0
LINE
  5
312
330
1F
100
AcDbEntity
  8
0
  6
Continuous
 62
     7
370
    25
100
AcDbLine
 10
981.9635462951
 20
290.1790236587
 30
0.0
 11
981.9635462951
 21
359.9481070332
 31
0.0
  0
LINE
  5
313
330
1F
100
AcDbEntity
  8
0
  6
Continuous
 62
     7
370
    25
100
AcDbLine
 10
980.9635462951
 20
286.063565346
 30
0.0
 11
980.9635462951
 21
288.063565346
 31
0.0
  0
LINE
  5
314
330
1F
100
AcDbEntity
  8
0
  6
Continuous
 62
     7
370
    25
100
AcDbLine
 10
980.9635462951
 20
364.063565346
 30
0.0
 11
980.9635462951
 21
362.063565346
 31
0.0
  0
LINE
  5
315
330
1F
100
AcDbEntity
  8
SLD-0
100
AcDbLine
 10
1135.9635462951
 20
325.063565346
 30
0.0
 11
970.4689876735
 21
325.063565346
 31
0.0
  0
DIMENSION
  5
316
330
1F
100
AcDbEntity
  8
SLD-0
100
AcDbDimension
  2
_D_9
 10
1119.9635462951
 20
456.2786169191
 30
0.0
 11
1048.4635462951
 21
456.2786169191
 31
0.0
 70
   160
  1
<>\PBOTH ENDS
 71
     2
 42
-1.0
  3
SLDDIMSTYLE4
100
AcDbAlignedDimension
 13
976.9635462951
 23
360.063565346
 33
0.0
 14
1119.9635462951
 24
332.063565346
 34
0.0
100
AcDbRotatedDimension
  0
DIMENSION
  5
329
330
1F
100
AcDbEntity
  8
SLD-0
100
AcDbDimension
  2
_D_10
 10
1135.9635462951
 20
456.2786169191
 30
0.0
 11
1188.6099684926
 21
456.2786169191
 31
0.0
 70
   160
  1
<>\PBOTH ENDS
 71
     2
 42
-1.0
  3
SLDDIMSTYLE1
100
AcDbAlignedDimension
 13
1119.9635462951
 23
332.063565346
 33
0.0
 14
1135.9635462951
 24
332.313565346
 34
0.0
100
AcDbRotatedDimension
  0
INSERT
  5
33C
330
1F
100
AcDbEntity
  8
SLD-0
100
AcDbBlockReference
  2
SW_SYMBOL_MOD_CL
 10
952.1693468868
 20
318.5496042268
 30
0.0
 41
0.0030416748
 42
0.0030416748
 43
0.0030416748
  0
INSERT
  5
348
330
1F
100
AcDbEntity
  8
SLD-0
100
AcDbBlockReference
  2
SW_CENTERMARKSYMBOL_5
 10
1135.9635462951
 20
325.063565346
 30
0.0
  0
INSERT
  5
354
330
1F
100
AcDbEntity
  8
SLD-0
100
AcDbBlockReference
  2
SW_CENTERMARKSYMBOL_6
 10
1119.9635462951
 20
325.063565346
 30
0.0
  0
ARC
  5
355
330
1F
100
AcDbEntity
  8
0
  6
Continuous
 62
     7
370
    25
100
AcDbCircle
 10
560.744557857
 20
780.1848591899
 30
0.0
 40
7.000000000001407
100
AcDbArc
 50
100.3551230116
 51
153.3846722801
  0
LINE
  5
356
330
1F
100
AcDbEntity
  8
0
  6
Continuous
 62
     7
370
    25
100
AcDbLine
 10
559.986316912
 20
787.0708471165
 30
0.0
 11
559.486316912
 21
787.0708471165
 31
0.0
  0
LINE
  5
357
330
1F
100
AcDbEntity
  8
0
  6
Continuous
 62
     7
370
    25
100
AcDbLine
 10
559.486316912
 20
769.5708471165
 30
0.0
 11
559.986316912
 21
769.5708471165
 31
0.0
  0
ARC
  5
358
330
1F
100
AcDbEntity
  8
0
  6
Continuous
 62
     7
370
    25
100
AcDbCircle
 10
560.744557857
 20
776.456835043
 30
0.0
 40
7.000000000001295
100
AcDbArc
 50
206.6153277199
 51
259.6448769884
  0
LINE
  5
359
330
1F
100
AcDbEntity
  8
0
  6
Continuous
 62
     7
370
    25
100
AcDbLine
 10
562.386316912
 20
783.3208471165
 30
0.0
 11
561.986316912
 21
783.3208471165
 31
0.0
  0
LINE
  5
35A
330
1F
100
AcDbEntity
  8
0
  6
Continuous
 62
     7
370
    25
100
AcDbLine
 10
561.986316912
 20
773.3208471165
 30
0.0
 11
562.386316912
 21
773.3208471165
 31
0.0
  0
ARC
  5
35B
330
1F
100
AcDbEntity
  8
0
  6
Continuous
 62
     7
370
    25
100
AcDbCircle
 10
776.0280759671
 20
776.456835043
 30
0.0
 40
7.000000000001295
100
AcDbArc
 50
280.3551230116
 51
333.3846722801
  0
LINE
  5
35C
330
1F
100
AcDbEntity
  8
0
  6
Continuous
 62
     7
370
    25
100
AcDbLine
 10
776.786316912
 20
769.5708471165
 30
0.0
 11
777.286316912
 21
769.5708471165
 31
0.0
  0
ARC
  5
35D
330
1F
100
AcDbEntity
  8
0
  6
Continuous
 62
     7
370
    25
100
AcDbCircle
 10
776.0280759671
 20
780.1848591899
 30
0.0
 40
7.000000000001407
100
AcDbArc
 50
26.6153277199
 51
79.6448769884
  0
LINE
  5
35E
330
1F
100
AcDbEntity
  8
0
  6
Continuous
 62
     7
370
    25
100
AcDbLine
 10
777.286316912
 20
787.0708471165
 30
0.0
 11
776.786316912
 21
787.0708471165
 31
0.0
  0
LINE
  5
35F
330
1F
100
AcDbEntity
  8
0
  6
Continuous
 62
     7
370
    25
100
AcDbLine
 10
774.386316912
 20
773.3208471165
 30
0.0
 11
774.786316912
 21
773.3208471165
 31
0.0
  0
LINE
  5
360
330
1F
100
AcDbEntity
  8
0
  6
Continuous
 62
     7
370
    25
100
AcDbLine
 10
774.786316912
 20
783.3208471165
 30
0.0
 11
774.386316912
 21
783.3208471165
 31
0.0
  0
LINE
  5
361
330
1F
100
AcDbEntity
  8
0
  6
Continuous
 62
     7
370
    25
100
AcDbLine
 10
559.986316912
 20
791.3143911289
 30
0.0
 11
561.986316912
 21
791.3143911289
 31
0.0
  0
LINE
  5
362
330
1F
100
AcDbEntity
  8
0
  6
Continuous
 62
     7
370
    25
100
AcDbLine
 10
774.786316912
 20
791.3143911289
 30
0.0
 11
776.786316912
 21
791.3143911289
 31
0.0
  0
LINE
  5
363
330
1F
100
AcDbEntity
  8
0
  6
Continuous
 62
     7
370
    25
100
AcDbLine
 10
776.786316912
 20
819.7208471165
 30
0.0
 11
774.786316912
 21
819.7208471165
 31
0.0
  0
LINE
  5
364
330
1F
100
AcDbEntity
  8
0
  6
Continuous
 62
     7
370
    25
100
AcDbLine
 10
561.986316912
 20
819.7208471165
 30
0.0
 11
559.986316912
 21
819.7208471165
 31
0.0
  0
LINE
  5
365
330
1F
100
AcDbEntity
  8
0
  6
Continuous
 62
     7
370
    25
100
AcDbLine
 10
776.786316912
 20
789.1376100841
 30
0.0
 11
774.786316912
 21
789.1376100841
 31
0.0
  0
LINE
  5
366
330
1F
100
AcDbEntity
  8
0
  6
Continuous
 62
     7
370
    25
100
AcDbLine
 10
561.986316912
 20
789.1376100841
 30
0.0
 11
559.986316912
 21
789.1376100841
 31
0.0
  0
LINE
  5
367
330
1F
100
AcDbEntity
  8
0
  6
Continuous
 62
     7
370
    25
100
AcDbLine
 10
774.386316912
 20
818.3208471165
 30
0.0
 11
768.386316912
 21
818.3208471165
 31
0.0
  0
LINE
  5
368
330
1F
100
AcDbEntity
  8
0
  6
Continuous
 62
     7
370
    25
100
AcDbLine
 10
768.386316912
 20
770.3208471165
 30
0.0
 11
774.386316912
 21
770.3208471165
 31
0.0
  0
LINE
  5
369
330
1F
100
AcDbEntity
  8
0
  6
Continuous
 62
     7
370
    25
100
AcDbLine
 10
768.386316912
 20
792.8919828572
 30
0.0
 11
774.386316912
 21
792.8919828572
 31
0.0
  0
LINE
  5
36A
330
1F
100
AcDbEntity
  8
0
  6
Continuous
 62
     7
370
    25
100
AcDbLine
 10
568.386316912
 20
818.3208471165
 30
0.0
 11
562.386316912
 21
818.3208471165
 31
0.0
  0
LINE
  5
36B
330
1F
100
AcDbEntity
  8
0
  6
Continuous
 62
     7
370
    25
100
AcDbLine
 10
562.386316912
 20
770.3208471165
 30
0.0
 11
568.386316912
 21
770.3208471165
 31
0.0
  0
LINE
  5
36C
330
1F
100
AcDbEntity
  8
0
  6
Continuous
 62
     7
370
    25
100
AcDbLine
 10
562.386316912
 20
792.8919828572
 30
0.0
 11
568.386316912
 21
792.8919828572
 31
0.0
  0
LINE
  5
36D
330
1F
100
AcDbEntity
  8
0
  6
Continuous
 62
     7
370
    25
100
AcDbLine
 10
559.486316912
 20
787.0708471165
 30
0.0
 11
559.486316912
 21
774.1148632186
 31
0.0
  0
LINE
  5
36E
330
1F
100
AcDbEntity
  8
0
  6
Continuous
 62
     7
370
    25
100
AcDbLine
 10
554.486316912
 20
783.3208471165
 30
0.0
 11
554.486316912
 21
775.9174277463
 31
0.0
  0
LINE
  5
36F
330
1F
100
AcDbEntity
  8
0
  6
Continuous
 62
     7
370
    25
100
AcDbLine
 10
559.486316912
 20
769.5708471165
 30
0.0
 11
559.486316912
 21
774.1148632186
 31
0.0
  0
LINE
  5
370
330
1F
100
AcDbEntity
  8
0
  6
Continuous
 62
     7
370
    25
100
AcDbLine
 10
554.486316912
 20
773.3208471165
 30
0.0
 11
554.486316912
 21
775.9174277463
 31
0.0
  0
LINE
  5
371
330
1F
100
AcDbEntity
  8
0
  6
Continuous
 62
     7
370
    25
100
AcDbLine
 10
777.286316912
 20
769.5708471165
 30
0.0
 11
777.286316912
 21
780.5855137611
 31
0.0
  0
LINE
  5
372
330
1F
100
AcDbEntity
  8
0
  6
Continuous
 62
     7
370
    25
100
AcDbLine
 10
782.286316912
 20
773.3208471165
 30
0.0
 11
782.286316912
 21
779.614942342
 31
0.0
  0
LINE
  5
373
330
1F
100
AcDbEntity
  8
0
  6
Continuous
 62
     7
370
    25
100
AcDbLine
 10
782.286316912
 20
783.3208471165
 30
0.0
 11
782.286316912
 21
779.614942342
 31
0.0
  0
LINE
  5
374
330
1F
100
AcDbEntity
  8
0
  6
Continuous
 62
     7
370
    25
100
AcDbLine
 10
777.286316912
 20
787.0708471165
 30
0.0
 11
777.286316912
 21
780.5855137611
 31
0.0
  0
LINE
  5
375
330
1F
100
AcDbEntity
  8
0
  6
Continuous
 62
     7
370
    25
100
AcDbLine
 10
564.986316912
 20
635.3208471165
 30
0.0
 11
771.786316912
 21
635.3208471165
 31
0.0
  0
LINE
  5
376
330
1F
100
AcDbEntity
  8
0
  6
Continuous
 62
     7
370
    25
100
AcDbLine
 10
771.786316912
 20
639.3208471165
 30
0.0
 11
771.786316912
 21
635.3208471165
 31
0.0
  0
LINE
  5
377
330
1F
100
AcDbEntity
  8
0
  6
Continuous
 62
     7
370
    25
100
AcDbLine
 10
564.986316912
 20
639.3208471165
 30
0.0
 11
564.986316912
 21
635.3208471165
 31
0.0
  0
LINE
  5
378
330
1F
100
AcDbEntity
  8
0
  6
Continuous
 62
     7
370
    25
100
AcDbLine
 10
771.786316912
 20
651.3208471165
 30
0.0
 11
564.986316912
 21
651.3208471165
 31
0.0
  0
LINE
  5
379
330
1F
100
AcDbEntity
  8
0
  6
Continuous
 62
     7
370
    25
100
AcDbLine
 10
771.786316912
 20
651.3208471165
 30
0.0
 11
771.786316912
 21
639.3208471165
 31
0.0
  0
LINE
  5
37A
330
1F
100
AcDbEntity
  8
0
  6
Continuous
 62
     7
370
    25
100
AcDbLine
 10
564.986316912
 20
651.3208471165
 30
0.0
 11
564.986316912
 21
639.3208471165
 31
0.0
  0
LINE
  5
37B
330
1F
100
AcDbEntity
  8
0
  6
Continuous
 62
     7
370
    25
100
AcDbLine
 10
774.786316912
 20
640.3208471165
 30
0.0
 11
776.7863169108
 21
640.3208471165
 31
0.0
  0
SPLINE
  5
37C
330
1F
100
AcDbEntity
  8
0
  6
Continuous
 62
     7
370
    25
100
AcDbSpline
210
0.0
220
0.0
230
1.0
 70
     8
 71
     3
 72
    11
 73
     7
 74
     0
 42
0.00000001
 43
0.00000001
 40
0.0
 40
0.0
 40
0.0
 40
0.0
 40
0.2500000000000016
 40
0.4999999999999995
 40
0.7500000000000004
 40
1.0
 40
1.0
 40
1.0
 40
1.0
 10
776.7863169120428
 20
640.3208471164764
 30
0.0
 10
776.7111590481063
 20
639.6656618974453
 30
0.0
 10
776.5608433202331
 20
638.3552914593828
 30
0.0
 10
775.4045972546211
 20
636.7025667738983
 30
0.0
 10
773.7518725691365
 20
635.5463207082863
 30
0.0
 10
772.4415021310741
 20
635.3960049804131
 30
0.0
 10
771.7863169120429
 20
635.3208471164764
 30
0.0
  0
SPLINE
  5
37D
330
1F
100
AcDbEntity
  8
0
  6
Continuous
 62
     7
370
    25
100
AcDbSpline
210
0.0
220
0.0
230
1.0
 70
     8
 71
     3
 72
    11
 73
     7
 74
     0
 42
0.00000001
 43
0.00000001
 40
0.0
 40
0.0
 40
0.0
 40
0.0
 40
0.2499999999999918
 40
0.5000000000000047
 40
0.7500000000000009
 40
1.0
 40
1.0
 40
1.0
 40
1.0
 10
774.7863169120428
 20
640.3208471164764
 30
0.0
 10
774.7412221936809
 20
639.9277359850577
 30
0.0
 10
774.6510327569569
 20
639.1415137222201
 30
0.0
 10
773.9572851175898
 20
638.1498789109295
 30
0.0
 10
772.965650306299
 20
637.4561312715623
 30
0.0
 10
772.1794280434616
 20
637.3659418348384
 30
0.0
 10
771.7863169120429
 20
637.3208471164764
 30
0.0
  0
LINE
  5
37E
330
1F
100
AcDbEntity
  8
0
  6
Continuous
 62
     7
370
    25
100
AcDbLine
 10
561.986316912
 20
640.3208471165
 30
0.0
 11
559.9863169132
 21
640.3208471165
 31
0.0
  0
SPLINE
  5
37F
330
1F
100
AcDbEntity
  8
0
  6
Continuous
 62
     7
370
    25
100
AcDbSpline
210
0.0
220
0.0
230
1.0
 70
     8
 71
     3
 72
    11
 73
     7
 74
     0
 42
0.00000001
 43
0.00000001
 40
0.0
 40
0.0
 40
0.0
 40
0.0
 40
0.2500000000000016
 40
0.4999999999999995
 40
0.7500000000000004
 40
1.0
 40
1.0
 40
1.0
 40
1.0
 10
559.986316912043
 20
640.3208471164764
 30
0.0
 10
560.0614747759795
 20
639.6656618974453
 30
0.0
 10
560.2117905038527
 20
638.3552914593828
 30
0.0
 10
561.3680365694646
 20
636.7025667738983
 30
0.0
 10
563.0207612549493
 20
635.5463207082863
 30
0.0
 10
564.3311316930117
 20
635.3960049804131
 30
0.0
 10
564.9863169120429
 20
635.3208471164764
 30
0.0
  0
SPLINE
  5
380
330
1F
100
AcDbEntity
  8
0
  6
Continuous
 62
     7
370
    25
100
AcDbSpline
210
0.0
220
0.0
230
1.0
 70
     8
 71
     3
 72
    11
 73
     7
 74
     0
 42
0.00000001
 43
0.00000001
 40
0.0
 40
0.0
 40
0.0
 40
0.0
 40
0.2499999999999918
 40
0.5000000000000047
 40
0.7500000000000009
 40
1.0
 40
1.0
 40
1.0
 40
1.0
 10
561.986316912043
 20
640.3208471164764
 30
0.0
 10
562.0314116304048
 20
639.9277359850577
 30
0.0
 10
562.1216010671288
 20
639.1415137222201
 30
0.0
 10
562.8153487064959
 20
638.1498789109295
 30
0.0
 10
563.8069835177866
 20
637.4561312715623
 30
0.0
 10
564.5932057806241
 20
637.3659418348384
 30
0.0
 10
564.9863169120429
 20
637.3208471164764
 30
0.0
  0
LINE
  5
381
330
1F
100
AcDbEntity
  8
0
  6
Continuous
 62
     7
370
    25
100
AcDbLine
 10
774.786316912
 20
640.3208471165
 30
0.0
 11
774.786316912
 21
777.5348228403
 31
0.0
  0
LINE
  5
382
330
1F
100
AcDbEntity
  8
0
  6
Continuous
 62
     7
370
    25
100
AcDbLine
 10
776.786316912
 20
640.3208471165
 30
0.0
 11
776.786316912
 21
777.5348228403
 31
0.0
  0
LINE
  5
383
330
1F
100
AcDbEntity
  8
0
  6
Continuous
 62
     7
370
    25
100
AcDbLine
 10
559.986316912
 20
640.3208471165
 30
0.0
 11
559.986316912
 21
777.5348228403
 31
0.0
  0
LINE
  5
384
330
1F
100
AcDbEntity
  8
0
  6
Continuous
 62
     7
370
    25
100
AcDbLine
 10
561.986316912
 20
640.3208471165
 30
0.0
 11
561.986316912
 21
777.5348228403
 31
0.0
  0
LINE
  5
385
330
1F
100
AcDbEntity
  8
0
  6
Continuous
 62
     7
370
    25
100
AcDbLine
 10
774.786316912
 20
780.9812325459
 30
0.0
 11
774.786316912
 21
777.5348228403
 31
0.0
  0
LINE
  5
386
330
1F
100
AcDbEntity
  8
0
  6
Continuous
 62
     7
370
    25
100
AcDbLine
 10
776.786316912
 20
780.9812325459
 30
0.0
 11
776.786316912
 21
777.5348228403
 31
0.0
  0
LINE
  5
387
330
1F
100
AcDbEntity
  8
0
  6
Continuous
 62
     7
370
    25
100
AcDbLine
 10
559.986316912
 20
780.9812325459
 30
0.0
 11
559.986316912
 21
777.5348228403
 31
0.0
  0
LINE
  5
388
330
1F
100
AcDbEntity
  8
0
  6
Continuous
 62
     7
370
    25
100
AcDbLine
 10
561.986316912
 20
780.9812325459
 30
0.0
 11
561.986316912
 21
777.5348228403
 31
0.0
  0
LINE
  5
389
330
1F
100
AcDbEntity
  8
0
  6
Continuous
 62
     7
370
    25
100
AcDbLine
 10
559.986316912
 20
795.6474520542
 30
0.0
 11
559.986316912
 21
791.3143911289
 31
0.0
  0
LINE
  5
38A
330
1F
100
AcDbEntity
  8
0
  6
Continuous
 62
     7
370
    25
100
AcDbLine
 10
561.986316912
 20
795.6474520542
 30
0.0
 11
561.986316912
 21
791.3143911289
 31
0.0
  0
LINE
  5
38B
330
1F
100
AcDbEntity
  8
0
  6
Continuous
 62
     7
370
    25
100
AcDbLine
 10
774.786316912
 20
795.6474520542
 30
0.0
 11
774.786316912
 21
791.3143911289
 31
0.0
  0
LINE
  5
38C
330
1F
100
AcDbEntity
  8
0
  6
Continuous
 62
     7
370
    25
100
AcDbLine
 10
776.786316912
 20
795.6474520542
 30
0.0
 11
776.786316912
 21
791.3143911289
 31
0.0
  0
LINE
  5
38D
330
1F
100
AcDbEntity
  8
0
  6
Continuous
 62
     7
370
    25
100
AcDbLine
 10
559.986316912
 20
795.6474520542
 30
0.0
 11
559.986316912
 21
796.4415468512
 31
0.0
  0
LINE
  5
38E
330
1F
100
AcDbEntity
  8
0
  6
Continuous
 62
     7
370
    25
100
AcDbLine
 10
561.986316912
 20
795.6474520542
 30
0.0
 11
561.986316912
 21
796.4415468512
 31
0.0
  0
LINE
  5
38F
330
1F
100
AcDbEntity
  8
0
  6
Continuous
 62
     7
370
    25
100
AcDbLine
 10
774.786316912
 20
795.6474520542
 30
0.0
 11
774.786316912
 21
796.4415468512
 31
0.0
  0
LINE
  5
390
330
1F
100
AcDbEntity
  8
0
  6
Continuous
 62
     7
370
    25
100
AcDbLine
 10
776.786316912
 20
795.6474520542
 30
0.0
 11
776.786316912
 21
796.4415468512
 31
0.0
  0
LINE
  5
391
330
1F
100
AcDbEntity
  8
0
  6
Continuous
 62
     7
370
    25
100
AcDbLine
 10
774.786316912
 20
796.4415468512
 30
0.0
 11
774.786316912
 21
819.7208471165
 31
0.0
  0
LINE
  5
392
330
1F
100
AcDbEntity
  8
0
  6
Continuous
 62
     7
370
    25
100
AcDbLine
 10
776.786316912
 20
796.4415468512
 30
0.0
 11
776.786316912
 21
819.7208471165
 31
0.0
  0
LINE
  5
393
330
1F
100
AcDbEntity
  8
0
  6
Continuous
 62
     7
370
    25
100
AcDbLine
 10
559.986316912
 20
796.4415468512
 30
0.0
 11
559.986316912
 21
819.7208471165
 31
0.0
  0
LINE
  5
394
330
1F
100
AcDbEntity
  8
0
  6
Continuous
 62
     7
370
    25
100
AcDbLine
 10
561.986316912
 20
796.4415468512
 30
0.0
 11
561.986316912
 21
819.7208471165
 31
0.0
  0
LINE
  5
395
330
1F
100
AcDbEntity
  8
0
  6
Continuous
 62
     7
370
    25
100
AcDbLine
 10
774.786316912
 20
780.9812325459
 30
0.0
 11
774.786316912
 21
788.8963805672
 31
0.0
  0
LINE
  5
396
330
1F
100
AcDbEntity
  8
0
  6
Continuous
 62
     7
370
    25
100
AcDbLine
 10
776.786316912
 20
780.9812325459
 30
0.0
 11
776.786316912
 21
788.8963805672
 31
0.0
  0
LINE
  5
397
330
1F
100
AcDbEntity
  8
0
  6
Continuous
 62
     7
370
    25
100
AcDbLine
 10
559.986316912
 20
780.9812325459
 30
0.0
 11
559.986316912
 21
788.8963805672
 31
0.0
  0
LINE
  5
398
330
1F
100
AcDbEntity
  8
0
  6
Continuous
 62
     7
370
    25
100
AcDbLine
 10
561.986316912
 20
780.9812325459
 30
0.0
 11
561.986316912
 21
788.8963805672
 31
0.0
  0
LINE
  5
399
330
1F
100
AcDbEntity
  8
0
  6
Continuous
 62
     7
370
    25
100
AcDbLine
 10
559.986316912
 20
791.3143911289
 30
0.0
 11
559.986316912
 21
789.1376100841
 31
0.0
  0
LINE
  5
39A
330
1F
100
AcDbEntity
  8
0
  6
Continuous
 62
     7
370
    25
100
AcDbLine
 10
561.986316912
 20
791.3143911289
 30
0.0
 11
561.986316912
 21
789.1376100841
 31
0.0
  0
LINE
  5
39B
330
1F
100
AcDbEntity
  8
0
  6
Continuous
 62
     7
370
    25
100
AcDbLine
 10
774.786316912
 20
791.3143911289
 30
0.0
 11
774.786316912
 21
789.1376100841
 31
0.0
  0
LINE
  5
39C
330
1F
100
AcDbEntity
  8
0
  6
Continuous
 62
     7
370
    25
100
AcDbLine
 10
776.786316912
 20
791.3143911289
 30
0.0
 11
776.786316912
 21
789.1376100841
 31
0.0
  0
LINE
  5
39D
330
1F
100
AcDbEntity
  8
0
  6
Continuous
 62
     7
370
    25
100
AcDbLine
 10
774.786316912
 20
789.1376100841
 30
0.0
 11
774.786316912
 21
788.8963805672
 31
0.0
  0
LINE
  5
39E
330
1F
100
AcDbEntity
  8
0
  6
Continuous
 62
     7
370
    25
100
AcDbLine
 10
776.786316912
 20
789.1376100841
 30
0.0
 11
776.786316912
 21
788.8963805672
 31
0.0
  0
LINE
  5
39F
330
1F
100
AcDbEntity
  8
0
  6
Continuous
 62
     7
370
    25
100
AcDbLine
 10
559.986316912
 20
789.1376100841
 30
0.0
 11
559.986316912
 21
788.8963805672
 31
0.0
  0
LINE
  5
3A0
330
1F
100
AcDbEntity
  8
0
  6
Continuous
 62
     7
370
    25
100
AcDbLine
 10
561.986316912
 20
789.1376100841
 30
0.0
 11
561.986316912
 21
788.8963805672
 31
0.0
  0
LINE
  5
3A1
330
1F
100
AcDbEntity
  8
0
  6
Continuous
 62
     7
370
    25
100
AcDbLine
 10
774.386316912
 20
774.7307631359
 30
0.0
 11
774.386316912
 21
770.3208471165
 31
0.0
  0
LINE
  5
3A2
330
1F
100
AcDbEntity
  8
0
  6
Continuous
 62
     7
370
    25
100
AcDbLine
 10
774.386316912
 20
818.3208471165
 30
0.0
 11
774.386316912
 21
800.4156947708
 31
0.0
  0
LINE
  5
3A3
330
1F
100
AcDbEntity
  8
0
  6
Continuous
 62
     7
370
    25
100
AcDbLine
 10
774.386316912
 20
800.4156947708
 30
0.0
 11
774.386316912
 21
792.8919828572
 31
0.0
  0
LINE
  5
3A4
330
1F
100
AcDbEntity
  8
0
  6
Continuous
 62
     7
370
    25
100
AcDbLine
 10
774.386316912
 20
785.2664398558
 30
0.0
 11
774.386316912
 21
774.7307631359
 31
0.0
  0
LINE
  5
3A5
330
1F
100
AcDbEntity
  8
0
  6
Continuous
 62
     7
370
    25
100
AcDbLine
 10
774.386316912
 20
790.3271534781
 30
0.0
 11
774.386316912
 21
785.2664398558
 31
0.0
  0
LINE
  5
3A6
330
1F
100
AcDbEntity
  8
0
  6
Continuous
 62
     7
370
    25
100
AcDbLine
 10
774.386316912
 20
792.8919828572
 30
0.0
 11
774.386316912
 21
790.3271534781
 31
0.0
  0
LINE
  5
3A7
330
1F
100
AcDbEntity
  8
0
  6
Continuous
 62
     7
370
    25
100
AcDbLine
 10
562.386316912
 20
774.7307631359
 30
0.0
 11
562.386316912
 21
770.3208471165
 31
0.0
  0
LINE
  5
3A8
330
1F
100
AcDbEntity
  8
0
  6
Continuous
 62
     7
370
    25
100
AcDbLine
 10
562.386316912
 20
818.3208471165
 30
0.0
 11
562.386316912
 21
800.4156947708
 31
0.0
  0
LINE
  5
3A9
330
1F
100
AcDbEntity
  8
0
  6
Continuous
 62
     7
370
    25
100
AcDbLine
 10
562.386316912
 20
792.8919828572
 30
0.0
 11
562.386316912
 21
800.4156947708
 31
0.0
  0
LINE
  5
3AA
330
1F
100
AcDbEntity
  8
0
  6
Continuous
 62
     7
370
    25
100
AcDbLine
 10
562.386316912
 20
774.7307631359
 30
0.0
 11
562.386316912
 21
785.2664398558
 31
0.0
  0
LINE
  5
3AB
330
1F
100
AcDbEntity
  8
0
  6
Continuous
 62
     7
370
    25
100
AcDbLine
 10
562.386316912
 20
790.3271534781
 30
0.0
 11
562.386316912
 21
785.2664398558
 31
0.0
  0
LINE
  5
3AC
330
1F
100
AcDbEntity
  8
0
  6
Continuous
 62
     7
370
    25
100
AcDbLine
 10
562.386316912
 20
792.8919828572
 30
0.0
 11
562.386316912
 21
790.3271534781
 31
0.0
  0
LINE
  5
3AD
330
1F
100
AcDbEntity
  8
0
  6
Continuous
 62
     7
370
    25
100
AcDbLine
 10
761.386316912
 20
839.3275348395
 30
0.0
 11
761.386316912
 21
838.1275348395
 31
0.0
  0
LINE
  5
3AE
330
1F
100
AcDbEntity
  8
0
  6
Continuous
 62
     7
370
    25
100
AcDbLine
 10
768.386316912
 20
839.3275348395
 30
0.0
 11
761.386316912
 21
839.3275348395
 31
0.0
  0
LINE
  5
3AF
330
1F
100
AcDbEntity
  8
0
  6
Continuous
 62
     7
370
    25
100
AcDbLine
 10
768.386316912
 20
686.2780093741
 30
0.0
 11
568.386316912
 21
686.2780093741
 31
0.0
  0
LINE
  5
3B0
330
1F
100
AcDbEntity
  8
0
  6
Continuous
 62
     7
370
    25
100
AcDbLine
 10
575.386316912
 20
839.3275348395
 30
0.0
 11
568.386316912
 21
839.3275348395
 31
0.0
  0
LINE
  5
3B1
330
1F
100
AcDbEntity
  8
0
  6
Continuous
 62
     7
370
    25
100
AcDbLine
 10
575.386316912
 20
838.1275348395
 30
0.0
 11
575.386316912
 21
839.3275348395
 31
0.0
  0
LINE
  5
3B2
330
1F
100
AcDbEntity
  8
0
  6
Continuous
 62
     7
370
    25
100
AcDbLine
 10
575.386316912
 20
838.1275348395
 30
0.0
 11
761.386316912
 21
838.1275348395
 31
0.0
  0
CIRCLE
  5
3B3
330
1F
100
AcDbEntity
  8
0
  6
Continuous
 62
     7
370
    25
100
AcDbCircle
 10
668.386316912
 20
774.2780093741
 30
0.0
 40
5.600000000000023
  0
CIRCLE
  5
3B4
330
1F
100
AcDbEntity
  8
0
  6
Continuous
 62
     7
370
    25
100
AcDbCircle
 10
668.386316912
 20
714.2780093741
 30
0.0
 40
5.600000000000023
  0
LINE
  5
3B5
330
1F
100
AcDbEntity
  8
0
  6
Continuous
 62
     7
370
    25
100
AcDbLine
 10
768.386316912
 20
839.3275348395
 30
0.0
 11
768.386316912
 21
686.2780093741
 31
0.0
  0
LINE
  5
3B6
330
1F
100
AcDbEntity
  8
0
  6
Continuous
 62
     7
370
    25
100
AcDbLine
 10
568.386316912
 20
839.3275348395
 30
0.0
 11
568.386316912
 21
686.2780093741
 31
0.0
  0
CIRCLE
  5
3B7
330
1F
100
AcDbEntity
  8
0
  6
Continuous
 62
     7
370
    25
100
AcDbCircle
 10
668.386316912
 20
774.2780093741
 30
0.0
 40
4.25
  0
CIRCLE
  5
3B8
330
1F
100
AcDbEntity
  8
0
  6
Continuous
 62
     7
370
    25
100
AcDbCircle
 10
668.386316912
 20
714.2780093741
 30
0.0
 40
4.249999999999886
  0
LINE
  5
3B9
330
1F
100
AcDbEntity
  8
0
  6
Continuous
 62
     7
370
    25
100
AcDbLine
 10
761.386316912
 20
850.5234738824
 30
0.0
 11
768.386316912
 21
850.5234738824
 31
0.0
  0
LINE
  5
3BA
330
1F
100
AcDbEntity
  8
0
  6
Continuous
 62
     7
370
    25
100
AcDbLine
 10
761.386316912
 20
850.5234738824
 30
0.0
 11
761.386316912
 21
839.3275348395
 31
0.0
  0
LINE
  5
3BB
330
1F
100
AcDbEntity
  8
0
  6
Continuous
 62
     7
370
    25
100
AcDbLine
 10
768.386316912
 20
839.3275348395
 30
0.0
 11
768.386316912
 21
850.5234738824
 31
0.0
  0
LINE
  5
3BC
330
1F
100
AcDbEntity
  8
0
  6
Continuous
 62
     7
370
    25
100
AcDbLine
 10
568.386316912
 20
850.5234738824
 30
0.0
 11
575.386316912
 21
850.5234738824
 31
0.0
  0
LINE
  5
3BD
330
1F
100
AcDbEntity
  8
0
  6
Continuous
 62
     7
370
    25
100
AcDbLine
 10
575.386316912
 20
850.5234738824
 30
0.0
 11
575.386316912
 21
839.3275348395
 31
0.0
  0
LINE
  5
3BE
330
1F
100
AcDbEntity
  8
0
  6
Continuous
 62
     7
370
    25
100
AcDbLine
 10
568.386316912
 20
839.3275348395
 30
0.0
 11
568.386316912
 21
850.5234738824
 31
0.0
  0
LINE
  5
3BF
330
1F
100
AcDbEntity
  8
0
  6
Continuous
 62
     7
370
    25
100
AcDbLine
 10
580.386316912
 20
849.0743361864
 30
0.0
 11
575.386316912
 21
849.0743361864
 31
0.0
  0
LINE
  5
3C0
330
1F
100
AcDbEntity
  8
0
  6
Continuous
 62
     7
370
    25
100
AcDbLine
 10
756.386316912
 20
849.0743361864
 30
0.0
 11
580.386316912
 21
849.0743361864
 31
0.0
  0
LINE
  5
3C1
330
1F
100
AcDbEntity
  8
0
  6
Continuous
 62
     7
370
    25
100
AcDbLine
 10
761.386316912
 20
849.0743361864
 30
0.0
 11
756.386316912
 21
849.0743361864
 31
0.0
  0
LINE
  5
3C2
330
1F
100
AcDbEntity
  8
0
  6
Continuous
 62
     7
370
    25
100
AcDbLine
 10
761.386316912
 20
862.9656745733
 30
0.0
 11
768.386316912
 21
862.9656745733
 31
0.0
  0
LINE
  5
3C3
330
1F
100
AcDbEntity
  8
0
  6
Continuous
 62
     7
370
    25
100
AcDbLine
 10
761.386316912
 20
850.5234738824
 30
0.0
 11
761.386316912
 21
862.9656745733
 31
0.0
  0
LINE
  5
3C4
330
1F
100
AcDbEntity
  8
0
  6
Continuous
 62
     7
370
    25
100
AcDbLine
 10
768.386316912
 20
850.5234738824
 30
0.0
 11
768.386316912
 21
862.9656745733
 31
0.0
  0
LINE
  5
3C5
330
1F
100
AcDbEntity
  8
0
  6
Continuous
 62
     7
370
    25
100
AcDbLine
 10
568.386316912
 20
862.9656745733
 30
0.0
 11
575.386316912
 21
862.9656745733
 31
0.0
  0
LINE
  5
3C6
330
1F
100
AcDbEntity
  8
0
  6
Continuous
 62
     7
370
    25
100
AcDbLine
 10
575.386316912
 20
862.9656745733
 30
0.0
 11
575.386316912
 21
850.5234738824
 31
0.0
  0
LINE
  5
3C7
330
1F
100
AcDbEntity
  8
0
  6
Continuous
 62
     7
370
    25
100
AcDbLine
 10
568.386316912
 20
850.5234738824
 30
0.0
 11
568.386316912
 21
862.9656745733
 31
0.0
  0
LINE
  5
3C8
330
1F
100
AcDbEntity
  8
0
  6
Continuous
 62
     7
370
    25
100
AcDbLine
 10
580.386316912
 20
858.3724039467
 30
0.0
 11
575.386316912
 21
858.3724039467
 31
0.0
  0
LINE
  5
3C9
330
1F
100
AcDbEntity
  8
0
  6
Continuous
 62
     7
370
    25
100
AcDbLine
 10
580.386316912
 20
858.3724039467
 30
0.0
 11
580.386316912
 21
849.0743361864
 31
0.0
  0
LINE
  5
3CA
330
1F
100
AcDbEntity
  8
0
  6
Continuous
 62
     7
370
    25
100
AcDbLine
 10
756.386316912
 20
858.3724039467
 30
0.0
 11
761.386316912
 21
858.3724039467
 31
0.0
  0
LINE
  5
3CB
330
1F
100
AcDbEntity
  8
0
  6
Continuous
 62
     7
370
    25
100
AcDbLine
 10
756.386316912
 20
858.3724039467
 30
0.0
 11
756.386316912
 21
849.0743361864
 31
0.0
  0
DIMENSION
  5
3CC
330
1F
100
AcDbEntity
  8
SLD-0
100
AcDbDimension
  2
_D_11
 10
776.7863169104
 20
584.676399608
 30
0.0
 11
668.3863169116
 21
584.676399609
 31
0.0
 70
   160
  1
<>
 71
     2
 42
-1.0
  3
SLDDIMSTYLE3
100
AcDbAlignedDimension
 13
559.9863169132
 23
640.3208471165
 33
0.0
 14
776.7863169108
 24
640.3208471165
 34
0.0
 50
-0.0000000005
100
AcDbRotatedDimension
  0
DIMENSION
  5
3E0
330
1F
100
AcDbEntity
  8
SLD-0
100
AcDbDimension
  2
_D_12
 10
782.286316912
 20
912.2970108184
 30
0.0
 11
668.386316912
 21
912.2970108184
 31
0.0
 70
   160
  1
<>
 71
     2
 42
-1.0
  3
SLDDIMSTYLE3
100
AcDbAlignedDimension
 13
554.486316912
 23
783.3208471165
 33
0.0
 14
782.286316912
 24
783.3208471165
 34
0.0
100
AcDbRotatedDimension
  0
INSERT
  5
3FC
102
{ACAD_REACTORS
330
3FE
102
}
330
1F
100
AcDbEntity
  8
SLD-0
100
AcDbBlockReference
  2
SW_NOTE_0_1
 10
826.0078023407
 20
819.7659297789
 30
0.0
  0
LEADER
  5
3FE
330
1F
100
AcDbEntity
  8
SLD-0
100
AcDbLeader
  3
SLDDIMSTYLE6
 73
     2
 76
     3
 10
782.286316912
 20
778.0672559852
 30
0.0
 10
818.0078023407
 20
819.7659297789
 30
0.0
 10
826.0078023407
 20
819.7659297789
 30
0.0
340
3FC
  0
INSERT
  5
407
102
{ACAD_REACTORS
330
408
102
}
330
1F
100
AcDbEntity
  8
SLD-0
100
AcDbBlockReference
  2
SW_NOTE_0_2
 10
508.1924577373
 20
819.2457737321
 30
0.0
  0
LEADER
  5
408
330
1F
100
AcDbEntity
  8
SLD-0
100
AcDbLeader
  3
SLDDIMSTYLE6
 73
     2
 76
     3
 10
554.486316912
 20
778.0864120064
 30
0.0
 10
516.1924577373
 20
819.2457737321
 30
0.0
 10
508.1924577373
 20
819.2457737321
 30
0.0
340
407
  0
SPLINE
  5
409
330
1F
100
AcDbEntity
  8
0
  6
Continuous
 62
     7
370
    25
100
AcDbSpline
210
0.0
220
0.0
230
1.0
 70
     8
 71
     3
 72
    13
 73
     9
 74
     0
 42
0.00000001
 43
0.00000001
 40
0.0
 40
0.0
 40
0.0
 40
0.0
 40
0.0769060436682257
 40
0.2976370765953064
 40
0.5119857643654031
 40
0.7230475271023957
 40
0.9343901874113844
 40
0.9999999999999999
 40
0.9999999999999999
 40
0.9999999999999999
 40
0.9999999999999999
 10
1598.886812637245
 20
454.9113497820194
 30
0.0
 10
1599.045828663067
 20
454.8526638547102
 30
0.0
 10
1599.661242781383
 20
454.6255411604658
 30
0.0
 10
1600.796977106503
 20
454.5151860752833
 30
0.0
 10
1602.219703774899
 20
454.5659640577173
 30
0.0
 10
1603.583398498767
 20
454.893271217606
 30
0.0
 10
1604.594683835647
 20
455.2726063947625
 30
0.0
 10
1605.106093504901
 20
455.6020893364828
 30
0.0
 10
1605.227246034086
 20
455.6801435738444
 30
0.0
  0
LINE
  5
40A
330
1F
100
AcDbEntity
  8
0
  6
Continuous
 62
     7
370
    25
100
AcDbLine
 10
1597.8976153771
 20
455.3533660312
 30
0.0
 11
1598.2511687677
 21
455.1493143924
 31
0.0
  0
SPLINE
  5
40B
330
1F
100
AcDbEntity
  8
0
  6
Continuous
 62
     7
370
    25
100
AcDbSpline
210
0.0
220
0.0
230
1.0
 70
     8
 71
     3
 72
    19
 73
    15
 74
     0
 42
0.00000001
 43
0.00000001
 40
0.0
 40
0.0
 40
0.0
 40
0.0
 40
0.0596248580618204
 40
0.1489168391886618
 40
0.243168355928266
 40
0.3426025112479336
 40
0.4479464068548255
 40
0.5437527480297808
 40
0.6364053400456761
 40
0.7264727757085992
 40
0.8152377611166961
 40
0.9035259073753504
 40
0.9917282363878811
 40
1.0
 40
1.0
 40
1.0
 40
1.0
 10
1605.227246034086
 20
455.6801435738444
 30
0.0
 10
1605.512505984006
 20
455.8464980976628
 30
0.0
 10
1606.224960679414
 20
456.2619790007134
 30
0.0
 10
1607.234273027974
 20
457.1714375146192
 30
0.0
 10
1608.254588947607
 20
458.3788168114986
 30
0.0
 10
1609.112886003466
 20
459.8229180635716
 30
0.0
 10
1609.721264391956
 20
461.3937743532716
 30
0.0
 10
1610.041646194939
 20
462.9989868836921
 30
0.0
 10
1610.081501124989
 20
464.5464689874536
 30
0.0
 10
1609.852795684839
 20
466.0364157220607
 30
0.0
 10
1609.370615665987
 20
467.4457661293098
 30
0.0
 10
1608.621584824075
 20
468.7107845966434
 30
0.0
 10
1607.989554064731
 20
469.539613989292
 30
0.0
 10
1607.567157979723
 20
469.8686028234832
 30
0.0
 10
1607.530941411412
 20
469.896810581581
 30
0.0
  0
LINE
  5
40C
330
1F
100
AcDbEntity
  8
0
  6
Continuous
 62
     7
370
    25
100
AcDbLine
 10
1606.9988374079
 20
470.3061047308
 30
0.0
 11
1606.6452840173
 21
470.5101563696
 31
0.0
  0
LINE
  5
40D
330
1F
100
AcDbEntity
  8
0
  6
Continuous
 62
     7
370
    25
100
AcDbLine
 10
1361.9734453273
 20
437.81914303
 30
0.0
 11
1508.2031276767
 21
353.4233852214
 31
0.0
  0
LINE
  5
40E
330
1F
100
AcDbEntity
  8
0
  6
Continuous
 62
     7
370
    25
100
AcDbLine
 10
1599.3377601373
 20
481.3460569676
 30
0.0
 11
1597.9235465749
 21
482.1622635228
 31
0.0
  0
LINE
  5
40F
330
1F
100
AcDbEntity
  8
0
  6
Continuous
 62
     7
370
    25
100
AcDbLine
 10
1625.8962691252
 20
494.6197178787
 30
0.0
 11
1624.4820555629
 21
495.4359244339
 31
0.0
  0
LINE
  5
410
330
1F
100
AcDbEntity
  8
0
  6
Continuous
 62
     7
370
    25
100
AcDbLine
 10
1612.8679409818
 20
478.4140461895
 30
0.0
 11
1614.2821545442
 21
477.5978396343
 31
0.0
  0
LINE
  5
411
330
1F
100
AcDbEntity
  8
0
  6
Continuous
 62
     7
370
    25
100
AcDbLine
 10
1347.0148652737
 20
488.4203574899
 30
0.0
 11
1359.8266694697
 21
440.5936227548
 31
0.0
  0
LINE
  5
412
330
1F
100
AcDbEntity
  8
0
  6
Continuous
 62
     7
370
    25
100
AcDbLine
 10
1619.6230098941
 20
496.6238620524
 30
0.0
 11
1619.2567586721
 21
496.8352421835
 31
0.0
  0
LINE
  5
413
330
1F
100
AcDbEntity
  8
0
  6
Continuous
 62
     7
370
    25
100
AcDbLine
 10
1639.632408104
 20
561.1140074687
 30
0.0
 11
1634.6826606357
 21
563.970730412
 31
0.0
  0
LINE
  5
414
330
1F
100
AcDbEntity
  8
0
  6
Continuous
 62
     7
370
    25
100
AcDbLine
 10
1476.0952480263
 20
463.6749042178
 30
0.0
 11
1478.1926135294
 21
465.5344309959
 31
0.0
  0
LINE
  5
415
330
1F
100
AcDbEntity
  8
0
  6
Continuous
 62
     7
370
    25
100
AcDbLine
 10
1502.852508934
 20
635.4308031965
 30
0.0
 11
1499.3169750281
 21
637.4713195845
 31
0.0
  0
LINE
  5
416
330
1F
100
AcDbEntity
  8
0
  6
Continuous
 62
     7
370
    25
100
AcDbLine
 10
1503.160799335
 20
639.8779400464
 30
0.0
 11
1498.2110518667
 21
642.7346629896
 31
0.0
  0
LWPOLYLINE
  5
417
330
1F
100
AcDbEntity
  8
0
  6
Continuous
 62
     7
370
    25
100
AcDbPolyline
 90
       13
 70
   128
 43
0.0
 10
1598.8625661544
 20
454.8836262265
 10
1598.0270290647
 20
455.2926622041
 10
1597.2667442755
 20
456.0624094572
 10
1596.7406411081
 20
457.1234623086
 10
1596.4717127956
 20
458.429447657
 10
1596.4717127956
 20
459.9232876761
 10
1596.7406411081
 20
461.5396943886
 10
1597.2667442755
 20
463.2080230649
 10
1598.0270290647
 20
464.8553597363
 10
1598.9882673822
 20
466.4097078855
 10
1600.1084485011
 20
467.8031350398
 10
1601.3386151312
 20
468.974741746
 10
1602.6250030878
 20
469.8733231693
  0
LWPOLYLINE
  5
418
330
1F
100
AcDbEntity
  8
0
  6
Continuous
 62
     7
370
    25
100
AcDbPolyline
 90
       12
 70
   128
 43
0.0
 10
1606.1605369937
 20
456.6039853978
 10
1605.1644619866
 20
456.1945041036
 10
1604.2490830527
 20
456.1489937588
 10
1603.4885587492
 20
456.4711413409
 10
1602.9445022322
 20
457.1348483687
 10
1602.6609897251
 20
458.0863452459
 10
1602.6609897251
 20
459.2485473544
 10
1602.9445022322
 20
460.5272999913
 10
1603.4885587492
 20
461.8190062228
 10
1604.2490830527
 20
463.0190196922
 10
1605.1644619866
 20
464.030122445
 10
1606.1605369937
 20
464.7704009494
  0
LWPOLYLINE
  5
419
330
1F
100
AcDbEntity
  8
0
  6
Continuous
 62
     7
370
    25
100
AcDbPolyline
 90
       13
 70
   128
 43
0.0
 10
1597.8976153771
 20
455.3533660312
 10
1597.6734756741
 20
455.4967138429
 10
1596.9131908849
 20
456.2664610961
 10
1596.3870877175
 20
457.3275139474
 10
1596.118159405
 20
458.6334992958
 10
1596.118159405
 20
460.1273393149
 10
1596.3870877175
 20
461.7437460274
 10
1596.9131908849
 20
463.4120747037
 10
1597.6734756741
 20
465.0594113751
 10
1598.6347139916
 20
466.6137595243
 10
1599.7548951105
 20
468.0071866786
 10
1600.9850617406
 20
469.1787933848
 10
1602.2714496972
 20
470.0773748081
  0
LWPOLYLINE
  5
41A
330
1F
100
AcDbEntity
  8
0
  6
Continuous
 62
     7
370
    25
100
AcDbPolyline
 90
       12
 70
   128
 43
0.0
 10
1606.1605369937
 20
456.6039853978
 10
1607.1566120008
 20
457.3442639022
 10
1608.0719909348
 20
458.3553666549
 10
1608.8325152382
 20
459.5553801244
 10
1609.3765717552
 20
460.8470863559
 10
1609.6600842623
 20
462.1258389927
 10
1609.6600842623
 20
463.2880411012
 10
1609.3765717552
 20
464.2395379784
 10
1608.8325152382
 20
464.9032450062
 10
1608.0719909348
 20
465.2253925883
 10
1607.1566120008
 20
465.1798822435
 10
1606.1605369937
 20
464.7704009494
  0
LINE
  5
41B
330
1F
100
AcDbEntity
  8
0
  6
Continuous
 62
     7
370
    25
100
AcDbLine
 10
1608.6100267365
 20
462.1009043967
 30
0.0
 11
1607.3852818651
 21
463.8439734506
 31
0.0
  0
LINE
  5
41C
330
1F
100
AcDbEntity
  8
0
  6
Continuous
 62
     7
370
    25
100
AcDbLine
 10
1607.3852818651
 20
463.8439734506
 30
0.0
 11
1604.9357921223
 21
462.4302622275
 31
0.0
  0
LINE
  5
41D
330
1F
100
AcDbEntity
  8
0
  6
Continuous
 62
     7
370
    25
100
AcDbLine
 10
1604.9357921223
 20
462.4302622275
 30
0.0
 11
1603.7110472509
 21
459.2734819505
 31
0.0
  0
LINE
  5
41E
330
1F
100
AcDbEntity
  8
0
  6
Continuous
 62
     7
370
    25
100
AcDbLine
 10
1603.7110472509
 20
459.2734819505
 30
0.0
 11
1604.9357921223
 21
457.5304128965
 31
0.0
  0
LINE
  5
41F
330
1F
100
AcDbEntity
  8
0
  6
Continuous
 62
     7
370
    25
100
AcDbLine
 10
1604.9357921223
 20
457.5304128965
 30
0.0
 11
1607.3852818651
 21
458.9441241196
 31
0.0
  0
LINE
  5
420
330
1F
100
AcDbEntity
  8
0
  6
Continuous
 62
     7
370
    25
100
AcDbLine
 10
1607.3852818651
 20
458.9441241196
 30
0.0
 11
1608.6100267365
 21
462.1009043967
 31
0.0
  0
ARC
  5
421
330
1F
100
AcDbEntity
  8
0
  6
Continuous
 62
     7
370
    25
100
AcDbCircle
 10
1605.1041488668
 20
466.655231608
 30
0.0
 40
4.062299483055967
100
AcDbArc
 50
53.2994422628
 51
127.6098521451
  0
ARC
  5
422
330
1F
100
AcDbEntity
  8
0
  6
Continuous
 62
     7
370
    25
100
AcDbCircle
 10
1604.8283307695
 20
466.5547873133
 30
0.0
 40
4.352730577017496
100
AcDbArc
 50
65.3276638674
 51
125.9741377812
  0
LINE
  5
423
330
1F
100
AcDbEntity
  8
0
  6
Continuous
 62
     7
370
    25
100
AcDbLine
 10
1604.5568547404
 20
460.5765372301
 30
0.0
 11
1605.3742211668
 21
462.6832994417
 31
0.0
  0
LINE
  5
424
330
1F
100
AcDbEntity
  8
0
  6
Continuous
 62
     7
370
    25
100
AcDbLine
 10
1604.1184256959
 20
460.3235000159
 30
0.0
 11
1604.5568547404
 21
460.5765372301
 31
0.0
  0
LINE
  5
425
330
1F
100
AcDbEntity
  8
0
  6
Continuous
 62
     7
370
    25
100
AcDbLine
 10
1608.6100267365
 20
462.1009043967
 30
0.0
 11
1606.4875758283
 21
463.3258667294
 31
0.0
  0
LINE
  5
426
330
1F
100
AcDbEntity
  8
0
  6
Continuous
 62
     7
370
    25
100
AcDbLine
 10
1607.3852818651
 20
458.9441241196
 30
0.0
 11
1604.5568547404
 21
460.5765372301
 31
0.0
  0
SPLINE
  5
427
330
1F
100
AcDbEntity
  8
0
  6
Continuous
 62
     7
370
    25
100
AcDbSpline
210
0.0
220
0.0
230
1.0
 70
     8
 71
     3
 72
    11
 73
     7
 74
     0
 42
0.00000001
 43
0.00000001
 40
0.0
 40
0.0
 40
0.0
 40
0.0
 40
0.2500000000000016
 40
0.4999999999999995
 40
0.7500000000000004
 40
1.0
 40
1.0
 40
1.0
 40
1.0
 10
1501.631382607614
 20
403.1972767247394
 30
0.0
 10
1501.128977284193
 20
402.8377683436564
 30
0.0
 10
1500.124166637353
 20
402.1187515814903
 30
0.0
 10
1498.17246266628
 20
401.6095156221107
 30
0.0
 10
1496.208796499971
 20
401.6035417497881
 30
0.0
 10
1495.176035402958
 20
402.0604297117766
 30
0.0
 10
1494.659654854451
 20
402.2888736927709
 30
0.0
  0
SPLINE
  5
428
330
1F
100
AcDbEntity
  8
0
  6
Continuous
 62
     7
370
    25
100
AcDbSpline
210
0.0
220
0.0
230
1.0
 70
     8
 71
     3
 72
    11
 73
     7
 74
     0
 42
0.00000001
 43
0.00000001
 40
0.0
 40
0.0
 40
0.0
 40
0.0
 40
0.2500000000000011
 40
0.4999999999999998
 40
0.7499999999999988
 40
1.0
 40
1.0
 40
1.0
 40
1.0
 10
1507.470543986906
 20
354.4655549090601
 30
0.0
 10
1507.983402812451
 20
354.2502575940084
 30
0.0
 10
1509.009120463542
 20
353.8196629639052
 30
0.0
 10
1510.962221460966
 20
353.8650768340559
 30
0.0
 10
1512.903360263155
 20
354.4137527912633
 30
0.0
 10
1513.901127464072
 20
355.1590628853147
 30
0.0
 10
1514.400011064531
 20
355.5317179323404
 30
0.0
  0
SPLINE
  5
429
330
1F
100
AcDbEntity
  8
0
  6
Continuous
 62
     7
370
    25
100
AcDbSpline
210
0.0
220
0.0
230
1.0
 70
     8
 71
     3
 72
    11
 73
     7
 74
     0
 42
0.00000001
 43
0.00000001
 40
0.0
 40
0.0
 40
0.0
 40
0.0
 40
0.2499999999999918
 40
0.5000000000000047
 40
0.7500000000000009
 40
1.0
 40
1.0
 40
1.0
 40
1.0
 10
1500.21716904524
 20
404.0134832799484
 30
0.0
 10
1499.915021506596
 20
403.8004075844871
 30
0.0
 10
1499.310726429307
 20
403.3742561935645
 30
0.0
 10
1498.137591012886
 20
403.0766026175023
 30
0.0
 10
1496.957278279324
 20
403.0809062936744
 30
0.0
 10
1496.336212931932
 20
403.3602977372447
 30
0.0
 10
1496.025680258236
 20
403.4999934590297
 30
0.0
  0
LINE
  5
42A
330
1F
100
AcDbEntity
  8
0
  6
Continuous
 62
     7
370
    25
100
AcDbLine
 10
1500.2171690452
 20
404.0134832799
 30
0.0
 11
1501.6313826068
 21
403.1972767252
 31
0.0
  0
LINE
  5
42B
330
1F
100
AcDbEntity
  8
0
  6
Continuous
 62
     7
370
    25
100
AcDbLine
 10
1494.6596548545
 20
402.2888736928
 30
0.0
 11
1496.0256802582
 21
403.499993459
 31
0.0
  0
ARC
  5
42C
330
1F
100
AcDbEntity
  8
0
  6
Continuous
 62
     7
370
    25
100
AcDbCircle
 10
1500.3656272924
 20
403.0405847096
 30
0.0
 40
5.755275051272192
100
AcDbArc
 50
130.085213876
 51
187.5049893195
  0
ARC
  5
42D
330
1F
100
AcDbEntity
  8
0
  6
Continuous
 62
     7
370
    25
100
AcDbCircle
 10
1354.135944943
 20
487.4363425182
 30
0.0
 40
5.755275051270687
100
AcDbArc
 50
130.085213876
 51
187.5049893195
  0
ARC
  5
42E
330
1F
100
AcDbEntity
  8
0
  6
Continuous
 62
     7
370
    25
100
AcDbCircle
 10
1498.8786664772
 20
403.8758489675
 30
0.0
 40
2.877637525635904
100
AcDbArc
 50
130.085213876
 51
187.5049893195
  0
LINE
  5
42F
330
1F
100
AcDbEntity
  8
0
  6
Continuous
 62
     7
370
    25
100
AcDbLine
 10
1504.8558072772
 20
414.7105928962
 30
0.0
 11
1496.6596548545
 21
407.4438742986
 31
0.0
  0
LINE
  5
430
330
1F
100
AcDbEntity
  8
0
  6
Continuous
 62
     7
370
    25
100
AcDbLine
 10
1504.8558072772
 20
414.7105928962
 30
0.0
 11
1505.2218326809
 21
413.3442123595
 31
0.0
  0
LINE
  5
431
330
1F
100
AcDbEntity
  8
0
  6
Continuous
 62
     7
370
    25
100
AcDbLine
 10
1505.2218326809
 20
413.3442123595
 30
0.0
 11
1497.0256802582
 21
406.077493762
 31
0.0
  0
LINE
  5
432
330
1F
100
AcDbEntity
  8
0
  6
Continuous
 62
     7
370
    25
100
AcDbLine
 10
1504.8558072772
 20
414.7105928962
 30
0.0
 11
1358.6261249278
 21
499.1063507048
 31
0.0
  0
LINE
  5
433
330
1F
100
AcDbEntity
  8
0
  6
Continuous
 62
     7
370
    25
100
AcDbLine
 10
1358.6261249278
 20
499.1063507048
 30
0.0
 11
1350.4299725051
 21
491.8396321073
 31
0.0
  0
LWPOLYLINE
  5
434
330
1F
100
AcDbEntity
  8
0
  6
Continuous
 62
     7
370
    25
100
AcDbPolyline
 90
        9
 70
   128
 43
0.0
 10
1609.4612892116
 20
490.7618941616
 10
1608.7872058507
 20
490.1289234273
 10
1608.1864818447
 20
489.3529905315
 10
1607.6965871835
 20
488.4824940688
 10
1607.3480789077
 20
487.5717310097
 10
1607.1626951224
 20
486.6775099421
 10
1607.1519990887
 20
485.8556076517
 10
1607.3166579686
 20
485.1572900614
 10
1607.6464012113
 20
484.6261145329
  0
LWPOLYLINE
  5
435
330
1F
100
AcDbEntity
  8
0
  6
Continuous
 62
     7
370
    25
100
AcDbPolyline
 90
        9
 70
   128
 43
0.0
 10
1609.4612892116
 20
490.7618941616
 10
1609.5306050356
 20
490.8163363517
 10
1609.5999212154
 20
490.8707764689
 10
1609.6692377508
 20
490.925214513
 10
1609.7385546418
 20
490.979650484
 10
1609.8078718884
 20
491.034084382
 10
1609.8771894905
 20
491.0885162068
 10
1609.946507448
 20
491.1429459583
 10
1610.0158257609
 20
491.1973736367
  0
LWPOLYLINE
  5
436
330
1F
100
AcDbEntity
  8
0
  6
Continuous
 62
     7
370
    25
100
AcDbPolyline
 90
       26
 70
   128
 43
0.0
 10
1610.0158257609
 20
491.1973736367
 10
1612.1364125169
 20
492.713392501
 10
1614.2720321419
 20
493.9453264873
 10
1616.3924896868
 20
494.8757576135
 10
1618.4678045752
 20
495.4915307654
 10
1620.4686344907
 20
495.7839396927
 10
1622.3666902395
 20
495.7488501046
 10
1624.1351357241
 20
495.3867581233
 10
1625.7489673715
 20
494.7027832695
 10
1627.185367652
 20
493.7065960789
 10
1628.4240276902
 20
492.412281373
 10
1629.4474344063
 20
490.8381391179
 10
1630.2411181292
 20
489.0064256857
 10
1630.7938571792
 20
486.9430391777
 10
1631.0978365281
 20
484.6771532584
 10
1631.1487582941
 20
482.2408046767
 10
1630.9459025081
 20
479.6684403071
 10
1630.4921372932
 20
476.9964301144
 10
1629.7938783132
 20
474.262552929
 10
1628.8609980633
 20
471.5054623019
 10
1627.7066862852
 20
468.7641399926
 10
1626.3472634813
 20
466.0773448168
 10
1624.8019501636
 20
463.4830646456
 10
1623.0925950994
 20
461.0179793055
 10
1621.2433663984
 20
458.7169419724
 10
1619.2804098055
 20
456.6124863913
  0
LWPOLYLINE
  5
437
330
1F
100
AcDbEntity
  8
0
  6
Continuous
 62
     7
370
    25
100
AcDbPolyline
 90
        9
 70
   128
 43
0.0
 10
1619.2804098056
 20
456.612486391
 10
1606.2576102872
 20
443.7322397536
 10
1593.2090656401
 20
430.9212419134
 10
1580.1351831209
 20
418.1798927127
 10
1567.0363707769
 20
405.5085898203
 10
1553.9130374335
 20
392.9077287188
 10
1540.7655926815
 20
380.377702692
 10
1527.5944468642
 20
367.918902813
 10
1514.4000110646
 20
355.5317179321
  0
LWPOLYLINE
  5
438
330
1F
100
AcDbEntity
  8
0
  6
Continuous
 62
     7
370
    25
100
AcDbPolyline
 90
        9
 70
   128
 43
0.0
 10
1501.6313826075
 20
403.197276725
 10
1513.4870439722
 20
413.108002159
 10
1525.3556049619
 20
422.9589179552
 10
1537.2367795397
 20
432.7497867027
 10
1549.1302813643
 20
442.4803724375
 10
1561.0358237975
 20
452.1504406486
 10
1572.953119911
 20
461.7597582833
 10
1584.881882493
 20
471.3080937533
 10
1596.8218240554
 20
480.7952169397
  0
LWPOLYLINE
  5
439
330
1F
100
AcDbEntity
  8
0
  6
Continuous
 62
     7
370
    25
100
AcDbPolyline
 90
        9
 70
   128
 43
0.0
 10
1599.6552048809
 20
481.0924676959
 10
1599.4004604817
 20
481.3075268389
 10
1599.1036509012
 20
481.4527030902
 10
1598.7708306179
 20
481.5250350681
 10
1598.4087886759
 20
481.5230473066
 10
1598.0249101979
 20
481.446780353
 10
1597.62702574
 20
481.2977899411
 10
1597.2232515595
 20
481.079115256
 10
1596.8218240555
 20
480.7952169393
  0
LINE
  5
43A
330
1F
100
AcDbEntity
  8
0
  6
Continuous
 62
     7
370
    25
100
AcDbLine
 10
1599.6552048809
 20
481.0924676959
 30
0.0
 11
1609.0412720952
 21
471.0284365155
 31
0.0
  0
ARC
  5
43B
330
1F
100
AcDbEntity
  8
0
  6
Continuous
 62
     7
370
    25
100
AcDbCircle
 10
1607.501543829
 20
469.7023487528
 30
0.0
 40
2.032060995212648
100
AcDbArc
 50
5.4297778427
 51
40.7366073272
  0
LWPOLYLINE
  5
43C
330
1F
100
AcDbEntity
  8
0
  6
Continuous
 62
     7
370
    25
100
AcDbPolyline
 90
       16
 70
   128
 43
0.0
 10
1614.9488784254
 20
477.411857709
 10
1615.764283685
 20
477.2006637381
 10
1616.3910993063
 20
476.6526844204
 10
1616.7832325211
 20
475.8082153115
 10
1616.9118478873
 20
474.7293542877
 10
1616.7674876985
 20
473.4954351907
 10
1616.3607674537
 20
472.1971940281
 10
1615.7215952495
 20
470.9300967187
 10
1614.8969724929
 20
469.7873190236
 10
1613.9475376628
 20
468.8528948849
 10
1612.9431072699
 20
468.195537005
 10
1611.9575419135
 20
467.8635840714
 10
1611.0633149559
 20
467.8814461805
 10
1610.3261832075
 20
468.2478098454
 10
1609.800351512
 20
468.9357345832
 10
1609.5244868041
 20
469.8946339783
  0
ARC
  5
43D
330
1F
100
AcDbEntity
  8
0
  6
Continuous
 62
     7
370
    25
100
AcDbCircle
 10
1614.9791559594
 20
478.8011743037
 30
0.0
 40
1.389646476441462
100
AcDbArc
 50
223.1133507019
 51
268.7515442078
  0
LINE
  5
43E
330
1F
100
AcDbEntity
  8
0
  6
Continuous
 62
     7
370
    25
100
AcDbLine
 10
1613.9647098006
 20
477.851428906
 30
0.0
 11
1607.6464012113
 21
484.6261145329
 31
0.0
  0
LWPOLYLINE
  5
43F
330
1F
100
AcDbEntity
  8
0
  6
Continuous
 62
     7
370
    25
100
AcDbPolyline
 90
        9
 70
   128
 43
0.0
 10
1500.2171690452
 20
404.0134832802
 10
1512.0728304098
 20
413.9242087142
 10
1523.9413913995
 20
423.7751245104
 10
1535.8225659773
 20
433.5659932579
 10
1547.7160678019
 20
443.2965789927
 10
1559.6216102351
 20
452.9666472038
 10
1571.5389063486
 20
462.5759648385
 10
1583.4676689306
 20
472.1243003085
 10
1595.4076104931
 20
481.6114234949
  0
LINE
  5
440
330
1F
100
AcDbEntity
  8
0
  6
Continuous
 62
     7
370
    25
100
AcDbLine
 10
1486.8419226637
 20
399.0037077593
 30
0.0
 11
1486.9126333419
 21
398.9628974316
 31
0.0
  0
LWPOLYLINE
  5
441
330
1F
100
AcDbEntity
  8
0
  6
Continuous
 62
     7
370
    25
100
AcDbPolyline
 90
       10
 70
   128
 43
0.0
 10
1485.6315444286
 20
403.74522931
 10
1486.5166306553
 20
403.1124959637
 10
1487.3722215355
 20
402.2676696949
 10
1488.0951201819
 20
401.3126490202
 10
1488.5981343487
 20
400.3626235273
 10
1488.820593104
 20
399.5321803116
 10
1488.7356646385
 20
398.921483081
 10
1488.3535925786
 20
398.6041909344
 10
1487.7204604537
 20
398.6185739874
 10
1486.9126333419
 20
398.9628974316
  0
LINE
  5
442
330
1F
100
AcDbEntity
  8
0
  6
Continuous
 62
     7
370
    25
100
AcDbLine
 10
1485.6315444286
 20
403.74522931
 30
0.0
 11
1485.5608337505
 21
403.7860396377
 31
0.0
  0
LWPOLYLINE
  5
443
330
1F
100
AcDbEntity
  8
0
  6
Continuous
 62
     7
370
    25
100
AcDbPolyline
 90
       10
 70
   128
 43
0.0
 10
1486.8419226637
 20
399.0037077593
 10
1485.956836437
 20
399.6364411056
 10
1485.1012455568
 20
400.4812673743
 10
1484.3783469105
 20
401.4362880491
 10
1483.8753327436
 20
402.386313542
 10
1483.6528739884
 20
403.2167567577
 10
1483.7378024539
 20
403.8274539883
 10
1484.1198745137
 20
404.1447461349
 10
1484.7530066387
 20
404.1303630819
 10
1485.5608337505
 20
403.7860396377
  0
LINE
  5
444
330
1F
100
AcDbEntity
  8
0
  6
Continuous
 62
     7
370
    25
100
AcDbLine
 10
1495.9925577583
 20
364.8441943424
 30
0.0
 11
1496.0632684365
 21
364.8033840146
 31
0.0
  0
LWPOLYLINE
  5
445
330
1F
100
AcDbEntity
  8
0
  6
Continuous
 62
     7
370
    25
100
AcDbPolyline
 90
       10
 70
   128
 43
0.0
 10
1494.7821795232
 20
369.585715893
 10
1495.6672657499
 20
368.9529825467
 10
1496.5228566301
 20
368.108156278
 10
1497.2457552765
 20
367.1531356032
 10
1497.7487694434
 20
366.2031101103
 10
1497.9712281986
 20
365.3726668946
 10
1497.8862997331
 20
364.761969664
 10
1497.5042276733
 20
364.4446775174
 10
1496.8710955483
 20
364.4590605705
 10
1496.0632684365
 20
364.8033840146
  0
LINE
  5
446
330
1F
100
AcDbEntity
  8
0
  6
Continuous
 62
     7
370
    25
100
AcDbLine
 10
1494.7821795232
 20
369.585715893
 30
0.0
 11
1494.7114688451
 21
369.6265262208
 31
0.0
  0
LWPOLYLINE
  5
447
330
1F
100
AcDbEntity
  8
0
  6
Continuous
 62
     7
370
    25
100
AcDbPolyline
 90
       10
 70
   128
 43
0.0
 10
1495.9925577583
 20
364.8441943424
 10
1495.1074715316
 20
365.4769276887
 10
1494.2518806514
 20
366.3217539574
 10
1493.5289820051
 20
367.2767746322
 10
1493.0259678382
 20
368.2268001251
 10
1492.803509083
 20
369.0572433408
 10
1492.8884375485
 20
369.6679405714
 10
1493.2705096083
 20
369.985232718
 10
1493.9036417333
 20
369.970849665
 10
1494.7114688451
 20
369.6265262208
  0
LINE
  5
448
330
1F
100
AcDbEntity
  8
0
  6
Continuous
 62
     7
370
    25
100
AcDbLine
 10
1370.3396827415
 20
437.3641467727
 30
0.0
 11
1370.2689720634
 21
437.4049571005
 31
0.0
  0
LWPOLYLINE
  5
449
330
1F
100
AcDbEntity
  8
0
  6
Continuous
 62
     7
370
    25
100
AcDbPolyline
 90
       10
 70
   128
 43
0.0
 10
1370.3396827415
 20
437.3641467727
 10
1371.1475098533
 20
437.0198233285
 10
1371.7806419783
 20
437.0054402755
 10
1372.1627140381
 20
437.3227324221
 10
1372.2476425036
 20
437.9334296527
 10
1372.0251837484
 20
438.7638728684
 10
1371.5221695815
 20
439.7138983613
 10
1370.7992709352
 20
440.6689190361
 10
1369.943680055
 20
441.5137453048
 10
1369.0585938282
 20
442.1464786511
  0
LINE
  5
44A
330
1F
100
AcDbEntity
  8
0
  6
Continuous
 62
     7
370
    25
100
AcDbLine
 10
1368.9878831501
 20
442.1872889789
 30
0.0
 11
1369.0585938282
 21
442.1464786511
 31
0.0
  0
LWPOLYLINE
  5
44B
330
1F
100
AcDbEntity
  8
0
  6
Continuous
 62
     7
370
    25
100
AcDbPolyline
 90
       10
 70
   128
 43
0.0
 10
1368.9878831501
 20
442.1872889789
 10
1368.1800560383
 20
442.531612423
 10
1367.5469239133
 20
442.5459954761
 10
1367.1648518535
 20
442.2287033295
 10
1367.079923388
 20
441.6180060989
 10
1367.3023821432
 20
440.7875628832
 10
1367.8053963101
 20
439.8375373903
 10
1368.5282949565
 20
438.8825167155
 10
1369.3838858367
 20
438.0376904468
 10
1370.2689720634
 20
437.4049571005
  0
LINE
  5
44C
330
1F
100
AcDbEntity
  8
0
  6
Continuous
 62
     7
370
    25
100
AcDbLine
 10
1361.1890476469
 20
471.5236601897
 30
0.0
 11
1361.1183369688
 21
471.5644705174
 31
0.0
  0
LWPOLYLINE
  5
44D
330
1F
100
AcDbEntity
  8
0
  6
Continuous
 62
     7
370
    25
100
AcDbPolyline
 90
       10
 70
   128
 43
0.0
 10
1361.1890476469
 20
471.5236601897
 10
1361.9968747587
 20
471.1793367455
 10
1362.6300068837
 20
471.1649536925
 10
1363.0120789435
 20
471.4822458391
 10
1363.097007409
 20
472.0929430697
 10
1362.8745486538
 20
472.9233862853
 10
1362.3715344869
 20
473.8734117782
 10
1361.6486358405
 20
474.828432453
 10
1360.7930449604
 20
475.6732587217
 10
1359.9079587336
 20
476.305992068
  0
LINE
  5
44E
330
1F
100
AcDbEntity
  8
0
  6
Continuous
 62
     7
370
    25
100
AcDbLine
 10
1359.8372480555
 20
476.3468023958
 30
0.0
 11
1359.9079587336
 21
476.305992068
 31
0.0
  0
LWPOLYLINE
  5
44F
330
1F
100
AcDbEntity
  8
0
  6
Continuous
 62
     7
370
    25
100
AcDbPolyline
 90
       10
 70
   128
 43
0.0
 10
1359.8372480555
 20
476.3468023958
 10
1359.0294209437
 20
476.69112584
 10
1358.3962888187
 20
476.705508893
 10
1358.0142167589
 20
476.3882167464
 10
1357.9292882934
 20
475.7775195158
 10
1358.1517470486
 20
474.9470763001
 10
1358.6547612155
 20
473.9970508072
 10
1359.3776598619
 20
473.0420301324
 10
1360.233250742
 20
472.1972038637
 10
1361.1183369688
 20
471.5644705174
  0
LWPOLYLINE
  5
450
330
1F
100
AcDbEntity
  8
0
  6
Continuous
 62
     7
370
    25
100
AcDbPolyline
 90
       14
 70
   128
 43
0.0
 10
1429.1398408083
 20
416.134356461
 10
1428.0053324621
 20
416.8982219955
 10
1426.8676234027
 20
417.8757739197
 10
1425.7928331451
 20
419.0102004692
 10
1424.8434245925
 20
420.2355728964
 10
1424.0745739189
 20
421.4806770098
 10
1423.5309639309
 20
422.6731518842
 10
1423.244187265
 20
423.7436952142
 10
1423.2309103387
 20
424.6300909129
 10
1423.4919047585
 20
425.2808248842
 10
1424.0120024777
 20
425.6580788349
 10
1424.7609773071
 20
425.7399281367
 10
1425.6953015521
 20
425.5216160057
 10
1426.7606756837
 20
425.0158299494
  0
LWPOLYLINE
  5
451
330
1F
100
AcDbEntity
  8
0
  6
Continuous
 62
     7
370
    25
100
AcDbPolyline
 90
       14
 70
   128
 43
0.0
 10
1429.1398408083
 20
416.134356461
 10
1430.2052149399
 20
415.6285704047
 10
1431.1395391849
 20
415.4102582737
 10
1431.8885140143
 20
415.4921075756
 10
1432.4086117334
 20
415.8693615263
 10
1432.6696061533
 20
416.5200954975
 10
1432.656329227
 20
417.4064911962
 10
1432.3695525611
 20
418.4770345263
 10
1431.8259425731
 20
419.6695094006
 10
1431.0570918995
 20
420.9146135141
 10
1430.1076833469
 20
422.1399859412
 10
1429.0328930893
 20
423.2744124907
 10
1427.8951840299
 20
424.251964415
 10
1426.7606756837
 20
425.0158299494
  0
LINE
  5
452
330
1F
100
AcDbEntity
  8
0
  6
Continuous
 62
     7
370
    25
100
AcDbLine
 10
1488.7419301253
 20
399.9442543008
 30
0.0
 11
1488.2786587456
 21
400.1740171978
 31
0.0
  0
ARC
  5
453
330
1F
100
AcDbEntity
  8
0
  6
Continuous
 62
     7
370
    25
100
AcDbCircle
 10
1491.7364907179
 20
406.2753997829
 30
0.0
 40
7.012927300442981
100
AcDbArc
 50
198.7963006444
 51
239.7914887401
  0
LINE
  5
454
330
1F
100
AcDbEntity
  8
0
  6
Continuous
 62
     7
370
    25
100
AcDbLine
 10
1488.2079480675
 20
400.2148275256
 30
0.0
 11
1488.2786587456
 21
400.1740171978
 31
0.0
  0
LINE
  5
455
330
1F
100
AcDbEntity
  8
0
  6
Continuous
 62
     7
370
    25
100
AcDbLine
 10
1497.8925652199
 20
365.7847408839
 30
0.0
 11
1497.4292938402
 21
366.0145037809
 31
0.0
  0
ARC
  5
456
330
1F
100
AcDbEntity
  8
0
  6
Continuous
 62
     7
370
    25
100
AcDbCircle
 10
1500.8871258125
 20
372.115886366
 30
0.0
 40
7.012927300443209
100
AcDbArc
 50
198.7963006444
 51
239.7914887401
  0
LWPOLYLINE
  5
457
330
1F
100
AcDbEntity
  8
0
  6
Continuous
 62
     7
370
    25
100
AcDbPolyline
 90
        9
 70
   128
 43
0.0
 10
1510.6168782834
 20
353.8955601369
 10
1510.3875827792
 20
353.7349871156
 10
1509.8334109719
 20
353.4361014803
 10
1509.2934266918
 20
353.2698624699
 10
1508.7883812321
 20
353.2426585561
 10
1508.3376832065
 20
353.3555351703
 10
1507.9586526873
 20
353.6041545273
 10
1507.6658556049
 20
353.9789623247
 10
1507.4705439869
 20
354.4655549091
  0
ARC
  5
458
330
1F
100
AcDbEntity
  8
0
  6
Continuous
 62
     7
370
    25
100
AcDbCircle
 10
1362.8322092829
 20
439.2013696909
 30
0.0
 40
1.627275659975624
100
AcDbArc
 50
192.0621849023
 51
238.1477185743
  0
LINE
  5
459
330
1F
100
AcDbEntity
  8
0
  6
Continuous
 62
     7
370
    25
100
AcDbLine
 10
1497.3585831621
 20
366.0553141087
 30
0.0
 11
1497.4292938402
 21
366.0145037809
 31
0.0
  0
ARC
  5
45A
330
1F
100
AcDbEntity
  8
0
  6
Continuous
 62
     7
370
    25
100
AcDbCircle
 10
1597.0973190777
 20
479.9148887555
 30
0.0
 40
2.394440481941702
100
AcDbArc
 50
69.8144940334
 51
134.8845005299
  0
LWPOLYLINE
  5
45B
330
1F
100
AcDbEntity
  8
0
  6
Continuous
 62
     7
370
    25
100
AcDbPolyline
 90
        9
 70
   128
 43
0.0
 10
1608.0470756493
 20
491.5781007168
 10
1607.3729922883
 20
490.9451299825
 10
1606.7722682824
 20
490.1691970867
 10
1606.2823736211
 20
489.298700624
 10
1605.9338653453
 20
488.3879375649
 10
1605.74848156
 20
487.4937164973
 10
1605.7377855263
 20
486.6718142069
 10
1605.9024444063
 20
485.9734966166
 10
1606.2321876489
 20
485.4423210881
  0
LWPOLYLINE
  5
45C
330
1F
100
AcDbEntity
  8
0
  6
Continuous
 62
     7
370
    25
100
AcDbPolyline
 90
        9
 70
   128
 43
0.0
 10
1608.0470756493
 20
491.5781007168
 10
1608.1163914733
 20
491.6325429069
 10
1608.185707653
 20
491.6869830241
 10
1608.2550241884
 20
491.7414210682
 10
1608.3243410794
 20
491.7958570393
 10
1608.393658326
 20
491.8502909372
 10
1608.4629759281
 20
491.904722762
 10
1608.5322938856
 20
491.9591525136
 10
1608.6016121986
 20
492.0135801919
  0
LWPOLYLINE
  5
45D
330
1F
100
AcDbEntity
  8
0
  6
Continuous
 62
     7
370
    25
100
AcDbPolyline
 90
       10
 70
   128
 43
0.0
 10
1608.6016121986
 20
492.0135801919
 10
1610.7221989546
 20
493.5295990563
 10
1612.8578185795
 20
494.7615330425
 10
1614.9782761244
 20
495.6919641687
 10
1617.0535910129
 20
496.3077373206
 10
1619.0544209283
 20
496.6001462479
 10
1620.9524766771
 20
496.5650566598
 10
1622.7209221617
 20
496.2029646785
 10
1624.3347538091
 20
495.5189898247
 10
1624.4820555629
 20
495.4359244339
  0
LINE
  5
45E
330
1F
100
AcDbEntity
  8
0
  6
Continuous
 62
     7
370
    25
100
AcDbLine
 10
1612.5504962382
 20
478.6676354613
 30
0.0
 11
1606.2321876489
 21
485.4423210881
 31
0.0
  0
ARC
  5
45F
330
1F
100
AcDbEntity
  8
0
  6
Continuous
 62
     7
370
    25
100
AcDbCircle
 10
1432.9188673698
 20
420.9188982978
 30
0.0
 40
4.31183486247439
100
AcDbArc
 50
235.9702831929
 51
266.8571876202
  0
LWPOLYLINE
  5
460
330
1F
100
AcDbEntity
  8
0
  6
Continuous
 62
     7
370
    25
100
AcDbPolyline
 90
        9
 70
   128
 43
0.0
 10
1424.5840705333
 20
425.7477576683
 10
1424.6102126688
 20
424.9548149805
 10
1424.8969893347
 20
423.8842716504
 10
1425.4405993227
 20
422.6917967761
 10
1426.2094499963
 20
421.4466926627
 10
1427.1588585489
 20
420.2213202355
 10
1428.2336488065
 20
419.086893686
 10
1429.3713578659
 20
418.1093417617
 10
1430.5058662121
 20
417.3454762273
  0
LWPOLYLINE
  5
461
330
1F
100
AcDbEntity
  8
0
  6
Continuous
 62
     7
370
    25
100
AcDbPolyline
 90
       11
 70
   128
 43
0.0
 10
1615.0198937925
 20
477.4078726112
 10
1615.3690189587
 20
476.6244218667
 10
1615.497634325
 20
475.5455608429
 10
1615.3532741361
 20
474.3116417459
 10
1614.9465538914
 20
473.0134005834
 10
1614.3073816871
 20
471.7463032739
 10
1613.4827589306
 20
470.6035255788
 10
1612.5333241004
 20
469.6691014401
 10
1611.5288937076
 20
469.0117435602
 10
1610.5433283512
 20
468.6797906267
 10
1609.9651985
 20
468.6497726049
  0
ARC
  5
462
330
1F
100
AcDbEntity
  8
0
  6
Continuous
 62
     7
370
    25
100
AcDbCircle
 10
1613.5546657039
 20
479.5991771427
 30
0.0
 40
1.369717569475118
100
AcDbArc
 50
222.8512731615
 51
239.9098313507
  0
LINE
  5
463
330
1F
100
AcDbEntity
  8
0
  6
Continuous
 62
     7
370
    25
100
AcDbLine
 10
1362.5550730507
 20
472.7347799559
 30
0.0
 11
1363.0183444303
 21
472.5050170589
 31
0.0
  0
ARC
  5
464
330
1F
100
AcDbEntity
  8
0
  6
Continuous
 62
     7
370
    25
100
AcDbCircle
 10
1366.1022885793
 20
478.9093062304
 30
0.0
 40
7.12122611299579
100
AcDbArc
 50
199.1216988634
 51
239.466090521
  0
SPLINE
  5
465
330
1F
100
AcDbEntity
  8
0
  6
Continuous
 62
     7
370
    25
100
AcDbSpline
210
0.0
220
0.0
230
1.0
 70
     8
 71
     3
 72
     9
 73
     5
 74
     0
 42
0.00000001
 43
0.00000001
 40
0.0
 40
0.0
 40
0.0
 40
0.0
 40
0.6377680316629702
 40
1.0
 40
1.0
 40
1.0
 40
1.0
 10
1361.240861637528
 20
438.8613127176765
 30
0.0
 10
1360.801804264339
 20
439.1723714888867
 30
0.0
 10
1360.113376260126
 20
439.6601017540729
 30
0.0
 10
1359.963009861942
 20
440.3885043580476
 30
0.0
 10
1359.908542345556
 20
440.6523550670271
 30
0.0
  0
SPLINE
  5
466
330
1F
100
AcDbEntity
  8
0
  6
Continuous
 62
     7
370
    25
100
AcDbSpline
210
0.0
220
0.0
230
1.0
 70
     8
 71
     3
 72
    11
 73
     7
 74
     0
 42
0.00000001
 43
0.00000001
 40
0.0
 40
0.0
 40
0.0
 40
0.0
 40
0.2500000000000016
 40
0.4999999999999995
 40
0.7500000000000004
 40
1.0
 40
1.0
 40
1.0
 40
1.0
 10
1348.33063244637
 20
491.674067309401
 30
0.0
 10
1347.934516393448
 20
491.2532145870974
 30
0.0
 10
1347.142284287604
 20
490.4115091424902
 30
0.0
 10
1346.82575918396
 20
488.9585375649235
 30
0.0
 10
1347.199398682732
 20
487.6035989703526
 30
0.0
 10
1348.01978123096
 20
486.9909539910424
 30
0.0
 10
1348.429972505073
 20
486.6846315013873
 30
0.0
  0
LINE
  5
467
330
1F
100
AcDbEntity
  8
0
  6
Continuous
 62
     7
370
    25
100
AcDbLine
 10
1349.606705109
 20
490.93758811
 30
0.0
 11
1348.3306324472
 21
491.6740673089
 31
0.0
  0
LINE
  5
468
330
1F
100
AcDbEntity
  8
0
  6
Continuous
 62
     7
370
    25
100
AcDbLine
 10
1362.5550730507
 20
472.7347799559
 30
0.0
 11
1362.4843623725
 21
472.7755902837
 31
0.0
  0
LWPOLYLINE
  5
469
330
1F
100
AcDbEntity
  8
0
  6
Continuous
 62
     7
370
    25
100
AcDbPolyline
 90
        4
 70
   128
 43
0.0
 10
1359.2053556766
 20
498.7720504642
 10
1361.6005073733
 20
500.7685861884
 10
1373.469068363
 20
510.6195019846
 10
1384.6521077632
 20
519.8370085255
  0
LWPOLYLINE
  5
46A
330
1F
100
AcDbEntity
  8
0
  6
Continuous
 62
     7
370
    25
100
AcDbPolyline
 90
        5
 70
   128
 43
0.0
 10
1348.3306324463
 20
491.6740673097
 10
1360.1862938109
 20
501.5847927436
 10
1372.0548548007
 20
511.4357085399
 10
1383.9360293784
 20
521.2265772873
 10
1384.2178808915
 20
521.4579865778
  0
LINE
  5
46B
330
1F
100
AcDbEntity
  8
0
  6
Continuous
 62
     7
370
    25
100
AcDbLine
 10
1371.7057081453
 20
438.575266539
 30
0.0
 11
1372.168979525
 21
438.345503642
 31
0.0
  0
ARC
  5
46C
330
1F
100
AcDbEntity
  8
0
  6
Continuous
 62
     7
370
    25
100
AcDbCircle
 10
1375.2529236739
 20
444.7497928134
 30
0.0
 40
7.121226112994821
100
AcDbArc
 50
199.1216988634
 51
239.466090521
  0
LINE
  5
46D
330
1F
100
AcDbEntity
  8
0
  6
Continuous
 62
     7
370
    25
100
AcDbLine
 10
1371.7057081453
 20
438.575266539
 30
0.0
 11
1371.6349974672
 21
438.6160768668
 31
0.0
  0
LWPOLYLINE
  5
46E
330
1F
100
AcDbEntity
  8
0
  6
Continuous
 62
     7
370
    25
100
AcDbPolyline
 90
       11
 70
   128
 43
0.0
 10
1613.9643155053
 20
477.011663392
 10
1614.3764873584
 20
476.2735616497
 10
1614.5073427656
 20
475.2737694317
 10
1614.3440726879
 20
474.1101533662
 10
1613.9026591382
 20
472.8966163013
 10
1613.2263107502
 20
471.7519476999
 10
1612.3812332165
 20
470.7881957001
 10
1611.4501486141
 20
470.0996990626
 10
1610.5241979912
 20
469.7538526353
 10
1609.6940198461
 20
469.784510276
 10
1609.5317620212
 20
469.8425596498
  0
LINE
  5
46F
330
1F
100
AcDbEntity
  8
0
  6
Continuous
 62
     7
370
    25
100
AcDbLine
 10
1607.9631392691
 20
483.4463099143
 30
0.0
 11
1613.9643155053
 21
477.011663392
 31
0.0
  0
LINE
  5
470
330
1F
100
AcDbEntity
  8
0
  6
Continuous
 62
     7
370
    25
100
AcDbLine
 10
1607.5813018734
 20
483.9957591457
 30
0.0
 11
1607.9631392691
 21
483.4463099143
 31
0.0
  0
LWPOLYLINE
  5
471
330
1F
100
AcDbEntity
  8
0
  6
Continuous
 62
     7
370
    25
100
AcDbPolyline
 90
        8
 70
   128
 43
0.0
 10
1619.2567586721
 20
496.8352421835
 10
1618.6671010535
 20
497.1436538062
 10
1617.029678087
 20
497.7131855111
 10
1615.2429626448
 20
497.9516605425
 10
1613.334257773
 20
497.8554347305
 10
1611.3327306547
 20
497.4259785151
 10
1609.2689669029
 20
496.669854476
 10
1607.1745031769
 20
495.5986170494
  0
LWPOLYLINE
  5
472
330
1F
100
AcDbEntity
  8
0
  6
Continuous
 62
     7
370
    25
100
AcDbPolyline
 90
        9
 70
   128
 43
0.0
 10
1603.720498582
 20
485.89492958
 10
1603.1943837327
 20
486.7732911814
 10
1602.9626621671
 20
487.9413658943
 10
1603.0423818846
 20
489.3132172343
 10
1603.4276778215
 20
490.7879166563
 10
1604.090203351
 20
492.2569689738
 10
1604.9812157734
 20
493.6122944638
 10
1606.0351623683
 20
494.7541804053
 10
1607.1745031769
 20
495.5986170494
  0
LINE
  5
473
330
1F
100
AcDbEntity
  8
0
  6
Continuous
 62
     7
370
    25
100
AcDbLine
 10
1603.720498582
 20
485.89492958
 30
0.0
 11
1609.7216748182
 21
479.4602830576
 31
0.0
  0
LWPOLYLINE
  5
474
330
1F
100
AcDbEntity
  8
0
  6
Continuous
 62
     7
370
    25
100
AcDbPolyline
 90
        8
 70
   128
 43
0.0
 10
1609.7216748182
 20
479.4602830576
 10
1610.1338466713
 20
478.7221813153
 10
1610.2647020785
 20
477.7223890973
 10
1610.1014320008
 20
476.5587730319
 10
1609.6600184511
 20
475.3452359669
 10
1608.9836700631
 20
474.2005673655
 10
1608.1385925294
 20
473.2368153657
 10
1607.4731365402
 20
472.7098398936
  0
LINE
  5
475
330
1F
100
AcDbEntity
  8
0
  6
Continuous
 62
     7
370
    25
100
AcDbLine
 10
1623.3143188814
 20
558.125344095
 30
0.0
 11
1631.5103150993
 21
562.8556238897
 31
0.0
  0
ARC
  5
476
330
1F
100
AcDbEntity
  8
0
  6
Continuous
 62
     7
370
    25
100
AcDbCircle
 10
1632.843153704
 20
549.4322075143
 30
0.0
 40
13.4894242254373
100
AcDbArc
 50
38.7749791577
 51
95.6704297075
  0
LWPOLYLINE
  5
477
330
1F
100
AcDbEntity
  8
0
  6
Continuous
 62
     7
370
    25
100
AcDbPolyline
 90
       12
 70
   128
 43
0.0
 10
1643.3596643098
 20
557.8801404338
 10
1644.7101732045
 20
547.462884047
 10
1645.7917762281
 20
536.8515430245
 10
1646.6036443103
 20
526.0542511709
 10
1647.145155138
 20
515.0792848263
 10
1647.4158936322
 20
503.9350565215
 10
1647.4156522666
 20
492.63010853
 10
1647.1444312262
 20
481.1731063203
 10
1646.6024384073
 20
469.5728319134
 10
1645.7900892582
 20
457.8381771513
 10
1644.7080064608
 20
445.9781368812
 10
1643.3570194531
 20
434.0018020609
  0
ARC
  5
478
330
1F
100
AcDbEntity
  8
0
  6
Continuous
 62
     7
370
    25
100
AcDbCircle
 10
1583.7808722662
 20
458.7535967731
 30
0.0
 40
64.51332153222155
100
AcDbArc
 50
318.3756305605
 51
337.4388331343
  0
LINE
  5
479
330
1F
100
AcDbEntity
  8
0
  6
Continuous
 62
     7
370
    25
100
AcDbLine
 10
1545.4354951504
 20
365.9374831772
 30
0.0
 11
1632.0055889162
 21
415.9009963952
 31
0.0
  0
LINE
  5
47A
330
1F
100
AcDbEntity
  8
0
  6
Continuous
 62
     7
370
    25
100
AcDbLine
 10
1518.7795489699
 20
465.4446913411
 30
0.0
 11
1528.855003681
 21
427.8328068298
 31
0.0
  0
LINE
  5
47B
330
1F
100
AcDbEntity
  8
0
  6
Continuous
 62
     7
370
    25
100
AcDbLine
 10
1541.4046780232
 20
380.9846083565
 30
0.0
 11
1545.4354951504
 21
365.9374831772
 31
0.0
  0
LINE
  5
47C
330
1F
100
AcDbEntity
  8
0
  6
Continuous
 62
     7
370
    25
100
AcDbLine
 10
1623.3143188814
 20
558.125344095
 30
0.0
 11
1518.7795489699
 21
465.4446913411
 31
0.0
  0
LINE
  5
47D
330
1F
100
AcDbEntity
  8
0
  6
Continuous
 62
     7
370
    25
100
AcDbLine
 10
1618.3645714131
 20
560.9820670382
 30
0.0
 11
1617.5449561708
 21
560.2553951785
 31
0.0
  0
LINE
  5
47E
330
1F
100
AcDbEntity
  8
0
  6
Continuous
 62
     7
370
    25
100
AcDbLine
 10
1623.3143188814
 20
558.125344095
 30
0.0
 11
1618.3645714131
 21
560.9820670382
 31
0.0
  0
LINE
  5
47F
330
1F
100
AcDbEntity
  8
0
  6
Continuous
 62
     7
370
    25
100
AcDbLine
 10
1518.7795489699
 20
465.4446913411
 30
0.0
 11
1377.3581927326
 21
547.065346862
 31
0.0
  0
LINE
  5
480
330
1F
100
AcDbEntity
  8
0
  6
Continuous
 62
     7
370
    25
100
AcDbLine
 10
1481.8929626441
 20
639.7459996159
 30
0.0
 11
1377.3581927326
 21
547.065346862
 31
0.0
  0
LINE
  5
481
330
1F
100
AcDbEntity
  8
0
  6
Continuous
 62
     7
370
    25
100
AcDbLine
 10
1486.8427101124
 20
636.8892766727
 30
0.0
 11
1481.8929626441
 21
639.7459996159
 31
0.0
  0
LINE
  5
482
330
1F
100
AcDbEntity
  8
0
  6
Continuous
 62
     7
370
    25
100
AcDbLine
 10
1486.0230948701
 20
636.1626048129
 30
0.0
 11
1486.8427101124
 21
636.8892766727
 31
0.0
  0
LINE
  5
483
330
1F
100
AcDbEntity
  8
0
  6
Continuous
 62
     7
370
    25
100
AcDbLine
 10
1486.0230948701
 20
636.1626048129
 30
0.0
 11
1617.5449561708
 21
560.2553951785
 31
0.0
  0
LWPOLYLINE
  5
484
330
1F
100
AcDbEntity
  8
0
  6
Continuous
 62
     7
370
    25
100
AcDbPolyline
 90
       26
 70
   128
 43
0.0
 10
1511.9988597484
 20
562.9354241625
 10
1510.8939326769
 20
563.3972358949
 10
1509.6181015169
 20
563.6169527922
 10
1508.2515314323
 20
563.5807692338
 10
1506.8800890476
 20
563.2909587656
 10
1505.5899471314
 20
562.7657312453
 10
1504.4621700454
 20
562.0380886496
 10
1503.5676201713
 20
561.1537514388
 10
1502.9625053677
 20
560.1682857723
 10
1502.6848472233
 20
559.1436120822
 10
1502.7520920203
 20
558.1441143849
 10
1503.1600145209
 20
557.2325947967
 10
1503.8829834541
 20
556.4663274456
 10
1504.8755720229
 20
555.8934597274
 10
1506.0754122372
 20
555.5499870277
 10
1507.4071137234
 20
555.4574909995
 10
1508.7870007796
 20
555.6217835083
 10
1510.1283700272
 20
556.0325414516
 10
1511.3469383032
 20
556.6639553972
 10
1512.3661384811
 20
557.4763512847
 10
1513.1219304654
 20
558.4186832926
 10
1513.5668250663
 20
559.4317412354
 10
1513.6728679195
 20
560.4518709566
 10
1513.4333959628
 20
561.4149739542
 10
1512.8634560999
 20
562.2605349246
 10
1511.9988597484
 20
562.9354241625
  0
LWPOLYLINE
  5
485
330
1F
100
AcDbEntity
  8
0
  6
Continuous
 62
     7
370
    25
100
AcDbPolyline
 90
       26
 70
   128
 43
0.0
 10
1471.0180976349
 20
526.6018311747
 10
1469.9131705633
 20
527.0636429071
 10
1468.6373394033
 20
527.2833598045
 10
1467.2707693188
 20
527.247176246
 10
1465.899326934
 20
526.9573657779
 10
1464.6091850179
 20
526.4321382575
 10
1463.4814079318
 20
525.7044956618
 10
1462.5868580577
 20
524.820158451
 10
1461.9817432542
 20
523.8346927845
 10
1461.7040851097
 20
522.8100190944
 10
1461.7713299068
 20
521.8105213972
 10
1462.1792524073
 20
520.899001809
 10
1462.9022213405
 20
520.1327344579
 10
1463.8948099094
 20
519.5598667397
 10
1465.0946501236
 20
519.21639404
 10
1466.4263516099
 20
519.1238980117
 10
1467.8062386661
 20
519.2881905205
 10
1469.1476079137
 20
519.6989484638
 10
1470.3661761896
 20
520.3303624094
 10
1471.3853763676
 20
521.1427582969
 10
1472.1411683519
 20
522.0850903049
 10
1472.5860629527
 20
523.0981482476
 10
1472.692105806
 20
524.1182779688
 10
1472.4526338493
 20
525.0813809664
 10
1471.8826939864
 20
525.9269419369
 10
1471.0180976349
 20
526.6018311747
  0
LINE
  5
486
330
1F
100
AcDbEntity
  8
0
  6
Continuous
 62
     7
370
    25
100
AcDbLine
 10
1545.4354951504
 20
365.9374831772
 30
0.0
 11
1533.0616080452
 21
373.079012602
 31
0.0
  0
LINE
  5
487
330
1F
100
AcDbEntity
  8
0
  6
Continuous
 62
     7
370
    25
100
AcDbLine
 10
1377.3581927326
 20
547.065346862
 30
0.0
 11
1395.9806359537
 21
477.54737434
 31
0.0
  0
LWPOLYLINE
  5
488
330
1F
100
AcDbEntity
  8
0
  6
Continuous
 62
     7
370
    25
100
AcDbPolyline
 90
       26
 70
   128
 43
0.0
 10
1431.8347310476
 20
484.2903795475
 10
1430.8821675473
 20
484.7385334326
 10
1430.0538535373
 20
484.9181349608
 10
1429.4018350332
 20
484.8178991076
 10
1428.9670807557
 20
484.4441240603
 10
1428.7769079148
 20
483.8202954797
 10
1428.8432657696
 20
482.9856108099
 10
1429.161984812
 20
481.9925163583
 10
1429.7130387524
 20
480.9034119018
 10
1430.461802845
 20
479.7867298788
 10
1431.3612294883
 20
478.7126355277
 10
1432.3548043983
 20
477.7486181468
 10
1433.3800976094
 20
476.9552504935
 10
1434.3726861782
 20
476.3823827753
 10
1435.2702021146
 20
476.0660103778
 10
1436.0162511914
 20
476.0260121422
 10
1436.5639564014
 20
476.2649013049
 10
1436.8789034119
 20
476.7676675811
 10
1436.9413029439
 20
477.5027203167
 10
1436.7472342053
 20
478.423873445
 10
1436.3088912488
 20
479.473247527
 10
1435.6538167743
 20
480.5849065301
 10
1434.8231715204
 20
481.6890008305
 10
1433.8691479832
 20
482.7161561228
 10
1432.8516909703
 20
483.6018324624
 10
1431.8347310476
 20
484.2903795475
  0
LWPOLYLINE
  5
489
330
1F
100
AcDbEntity
  8
0
  6
Continuous
 62
     7
370
    25
100
AcDbPolyline
 90
       23
 70
   128
 43
0.0
 10
1469.2074794677
 20
476.4380550419
 10
1468.3635519829
 20
476.8221837259
 10
1467.653231527
 20
476.9316613336
 10
1467.1340640388
 20
476.7576186404
 10
1466.8481093805
 20
476.3141555501
 10
1466.8185338981
 20
475.637198805
 10
1467.0477336211
 20
474.7815914146
 10
1467.5171401512
 20
473.8166496011
 10
1468.1887249628
 20
472.8205472115
 10
1469.0080802487
 20
471.8739825374
 10
1469.9088267165
 20
471.0536406193
 10
1470.8179912443
 20
470.4259806805
 10
1471.6619187291
 20
470.0418519966
 10
1472.372239185
 20
469.9323743889
 10
1472.8914066732
 20
470.1064170821
 10
1473.1773613314
 20
470.5498801724
 10
1473.2069368139
 20
471.2268369175
 10
1472.9777370908
 20
472.0824443079
 10
1472.5083305608
 20
473.0473861214
 10
1471.8367457491
 20
474.0434885109
 10
1471.0173904632
 20
474.990053185
 10
1470.1166439954
 20
475.8103951032
 10
1469.2074794677
 20
476.4380550419
  0
LWPOLYLINE
  5
48A
330
1F
100
AcDbEntity
  8
0
  6
Continuous
 62
     7
370
    25
100
AcDbPolyline
 90
       23
 70
   128
 43
0.0
 10
1505.9770320894
 20
455.2166846065
 10
1505.1331046046
 20
455.6008132905
 10
1504.4227841487
 20
455.7102908982
 10
1503.9036166605
 20
455.5362482049
 10
1503.6176620022
 20
455.0927851147
 10
1503.5880865198
 20
454.4158283696
 10
1503.8172862428
 20
453.5602209792
 10
1504.2866927729
 20
452.5952791657
 10
1504.9582775845
 20
451.5991767761
 10
1505.7776328704
 20
450.652612102
 10
1506.6783793382
 20
449.8322701839
 10
1507.587543866
 20
449.2046102451
 10
1508.4314713508
 20
448.8204815611
 10
1509.1417918067
 20
448.7110039534
 10
1509.6609592949
 20
448.8850466467
 10
1509.9469139531
 20
449.3285097369
 10
1509.9764894356
 20
450.005466482
 10
1509.7472897125
 20
450.8610738724
 10
1509.2778831825
 20
451.8260156859
 10
1508.6062983708
 20
452.8221180755
 10
1507.7869430849
 20
453.7686827496
 10
1506.8861966171
 20
454.5890246677
 10
1505.9770320894
 20
455.2166846065
  0
LINE
  5
48B
330
1F
100
AcDbEntity
  8
0
  6
Continuous
 62
     7
370
    25
100
AcDbLine
 10
1520.5350711966
 20
420.9550891736
 30
0.0
 11
1515.3424014311
 21
440.3394347073
 31
0.0
  0
ARC
  5
48C
330
1F
100
AcDbEntity
  8
0
  6
Continuous
 62
     7
370
    25
100
AcDbCircle
 10
1502.6239083176
 20
435.8718310394
 30
0.0
 40
13.48033937293673
100
AcDbArc
 50
19.3547593065
 51
59.0504230712
  0
LINE
  5
48D
330
1F
100
AcDbEntity
  8
0
  6
Continuous
 62
     7
370
    25
100
AcDbLine
 10
1509.5566247911
 20
447.4328427559
 30
0.0
 11
1469.2515382634
 21
470.6947295794
 31
0.0
  0
LWPOLYLINE
  5
48E
330
1F
100
AcDbEntity
  8
0
  6
Continuous
 62
     7
370
    25
100
AcDbPolyline
 90
        9
 70
   128
 43
0.0
 10
1465.844926748
 20
468.9066641396
 10
1465.7011652833
 20
469.7220385657
 10
1465.7395576518
 20
470.4041379393
 10
1465.9586284565
 20
470.926749564
 10
1466.3499589291
 20
471.2697897681
 10
1466.8985104591
 20
471.4200757089
 10
1467.5832025187
 20
471.3718319821
 10
1468.3777227761
 20
471.126912567
 10
1469.2515382634
 20
470.6947295794
  0
LINE
  5
48F
330
1F
100
AcDbEntity
  8
0
  6
Continuous
 62
     7
370
    25
100
AcDbLine
 10
1465.844926748
 20
468.9066641396
 30
0.0
 11
1475.8837022278
 21
431.4317039707
 31
0.0
  0
LINE
  5
490
330
1F
100
AcDbEntity
  8
0
  6
Continuous
 62
     7
370
    25
100
AcDbLine
 10
1498.2586319366
 20
407.1706302032
 30
0.0
 11
1501.6488059885
 21
405.2140075557
 31
0.0
  0
LWPOLYLINE
  5
491
330
1F
100
AcDbEntity
  8
0
  6
Continuous
 62
     7
370
    25
100
AcDbPolyline
 90
        9
 70
   128
 43
0.0
 10
1506.2895426684
 20
455.023793648
 10
1506.2717185829
 20
454.9574208592
 10
1506.3122451583
 20
454.3814693978
 10
1506.6218982275
 20
453.650192875
 10
1507.1535359177
 20
452.8749215123
 10
1507.8262212098
 20
452.173683347
 10
1508.537543866
 20
451.6532355329
 10
1509.1792114601
 20
451.3928115318
 10
1509.5161580176
 20
451.3844850858
  0
LINE
  5
492
330
1F
100
AcDbEntity
  8
0
  6
Continuous
 62
     7
370
    25
100
AcDbLine
 10
1476.2918967767
 20
465.2056035949
 30
0.0
 11
1475.8400992421
 21
466.8921733012
 31
0.0
  0
LWPOLYLINE
  5
493
330
1F
100
AcDbEntity
  8
0
  6
Continuous
 62
     7
370
    25
100
AcDbPolyline
 90
        9
 70
   128
 43
0.0
 10
1473.9334734199
 20
463.9677121366
 10
1474.5384226034
 20
463.6685085297
 10
1475.0884750893
 20
463.4989489347
 10
1475.5624926691
 20
463.4655494315
 10
1475.9422591129
 20
463.5695935444
 10
1476.2131802093
 20
463.8070829164
 10
1476.3648446125
 20
464.1688909643
 10
1476.3914239446
 20
464.6411136076
 10
1476.2918967767
 20
465.2056035949
  0
LINE
  5
494
330
1F
100
AcDbEntity
  8
0
  6
Continuous
 62
     7
370
    25
100
AcDbLine
 10
1472.1657064669
 20
464.9879703306
 30
0.0
 11
1473.9334734199
 21
463.9677121366
 31
0.0
  0
LINE
  5
495
330
1F
100
AcDbEntity
  8
0
  6
Continuous
 62
     7
370
    25
100
AcDbLine
 10
1482.1187098159
 20
427.8331993314
 30
0.0
 11
1472.1657064669
 21
464.9879703306
 31
0.0
  0
LINE
  5
496
330
1F
100
AcDbEntity
  8
0
  6
Continuous
 62
     7
370
    25
100
AcDbLine
 10
1505.3366522237
 20
408.3017696359
 30
0.0
 11
1501.8222170094
 21
410.3301090155
 31
0.0
  0
LINE
  5
497
330
1F
100
AcDbEntity
  8
0
  6
Continuous
 62
     7
370
    25
100
AcDbLine
 10
1515.2992201193
 20
440.0936703967
 30
0.0
 11
1520.4458601423
 21
420.8811548611
 31
0.0
  0
LINE
  5
498
330
1F
100
AcDbEntity
  8
0
  6
Continuous
 62
     7
370
    25
100
AcDbLine
 10
1513.5314531664
 20
441.1139285907
 30
0.0
 11
1515.2992201193
 21
440.0936703967
 31
0.0
  0
ARC
  5
499
330
1F
100
AcDbEntity
  8
0
  6
Continuous
 62
     7
370
    25
100
AcDbCircle
 10
1518.3310261095
 20
449.1177059329
 30
0.0
 40
9.332542642799488
100
AcDbArc
 50
199.3547593065
 51
239.0504230712
  0
LINE
  5
49A
330
1F
100
AcDbEntity
  8
0
  6
Continuous
 62
     7
370
    25
100
AcDbLine
 10
1509.0741179579
 20
447.7113192538
 30
0.0
 11
1509.5259154925
 21
446.0247495475
 31
0.0
  0
LINE
  5
49B
330
1F
100
AcDbEntity
  8
0
  6
Continuous
 62
     7
370
    25
100
AcDbLine
 10
1467.6890610431
 20
470.5416758241
 30
0.0
 11
1478.58317591
 21
429.8737157194
 31
0.0
  0
LWPOLYLINE
  5
49C
330
1F
100
AcDbEntity
  8
0
  6
Continuous
 62
     7
370
    25
100
AcDbPolyline
 90
        3
 70
   128
 43
0.0
 10
1467.5438040573
 20
471.3793925797
 10
1467.5452995784
 20
471.3570502502
 10
1467.6890610431
 20
470.5416758241
  0
LINE
  5
49D
330
1F
100
AcDbEntity
  8
0
  6
Continuous
 62
     7
370
    25
100
AcDbLine
 10
1500.1027662317
 20
408.8056418876
 30
0.0
 11
1503.5566413332
 21
406.8122544858
 31
0.0
  0
LINE
  5
49E
330
1F
100
AcDbEntity
  8
0
  6
Continuous
 62
     7
370
    25
100
AcDbLine
 10
1508.9250089434
 20
446.393303006
 30
0.0
 11
1508.4801011393
 21
448.0541532035
 31
0.0
  0
LINE
  5
49F
330
1F
100
AcDbEntity
  8
0
  6
Continuous
 62
     7
370
    25
100
AcDbLine
 10
1508.2175967355
 20
434.7522238589
 30
0.0
 11
1518.286844422
 21
428.9408059894
 31
0.0
  0
LINE
  5
4A0
330
1F
100
AcDbEntity
  8
0
  6
Continuous
 62
     7
370
    25
100
AcDbLine
 10
1507.7600649807
 20
436.4601995298
 30
0.0
 11
1508.2175967355
 21
434.7522238589
 31
0.0
  0
ARC
  5
4A1
330
1F
100
AcDbEntity
  8
0
  6
Continuous
 62
     7
370
    25
100
AcDbCircle
 10
1498.9549543637
 20
433.3672431443
 30
0.0
 40
9.3325426428002
100
AcDbArc
 50
19.3547593065
 51
59.0504230712
  0
LINE
  5
4A2
330
1F
100
AcDbEntity
  8
0
  6
Continuous
 62
     7
370
    25
100
AcDbLine
 10
1501.9867603539
 20
442.3912786805
 30
0.0
 11
1503.7545273069
 21
441.3710204865
 31
0.0
  0
LINE
  5
4A3
330
1F
100
AcDbEntity
  8
0
  6
Continuous
 62
     7
370
    25
100
AcDbLine
 10
1499.0048702714
 20
453.5227371234
 30
0.0
 11
1501.9867603539
 21
442.3912786805
 31
0.0
  0
LWPOLYLINE
  5
4A4
330
1F
100
AcDbEntity
  8
0
  6
Continuous
 62
     7
370
    25
100
AcDbPolyline
 90
       15
 70
   128
 43
0.0
 10
1470.3430976349
 20
524.8620184702
 10
1469.3283348224
 20
525.2589141817
 10
1468.1458112664
 20
525.391865692
 10
1466.9005993743
 20
525.2490596758
 10
1465.7033416871
 20
524.8431850744
 10
1464.6604198045
 20
524.2103056274
 10
1463.8645019125
 20
523.4066554509
 10
1463.3863088086
 20
522.5036423898
 10
1463.2683300487
 20
521.5815031175
 10
1463.5210485632
 20
520.7221737551
 10
1464.1220092032
 20
520.0020094874
 10
1465.0178139786
 20
519.4850000702
 10
1466.1288667037
 20
519.2170840588
 10
1467.3564454683
 20
519.2220669668
 10
1468.0894925784
 20
519.3533978991
  0
LWPOLYLINE
  5
4A5
330
1F
100
AcDbEntity
  8
0
  6
Continuous
 62
     7
370
    25
100
AcDbPolyline
 90
        9
 70
   128
 43
0.0
 10
1468.3451939123
 20
519.4218950575
 10
1468.591474512
 20
519.4995060408
 10
1469.7242160844
 20
520.0247496016
 10
1470.6540211258
 20
520.7511274538
 10
1471.2982723779
 20
521.6140977376
 10
1471.5997252898
 20
522.5369817563
 10
1471.5315944472
 20
523.4377772146
 10
1471.0999335747
 20
524.2364444832
 10
1470.3430976349
 20
524.8620184702
  0
LINE
  5
4A6
330
1F
100
AcDbEntity
  8
0
  6
Continuous
 62
     7
370
    25
100
AcDbLine
 10
1626.560567631
 20
565.7123468329
 30
0.0
 11
1631.5103150993
 21
562.8556238897
 31
0.0
  0
LINE
  5
4A7
330
1F
100
AcDbEntity
  8
0
  6
Continuous
 62
     7
370
    25
100
AcDbLine
 10
1626.560567631
 20
565.7123468329
 30
0.0
 11
1618.3645714131
 21
560.9820670382
 31
0.0
  0
LWPOLYLINE
  5
4A8
330
1F
100
AcDbEntity
  8
0
  6
Continuous
 62
     7
370
    25
100
AcDbPolyline
 90
        9
 70
   128
 43
0.0
 10
1469.5199900467
 20
476.2451640834
 10
1469.5021659612
 20
476.1787912946
 10
1469.5426925366
 20
475.6028398332
 10
1469.8523456058
 20
474.8715633104
 10
1470.383983296
 20
474.0962919478
 10
1471.0566685881
 20
473.3950537824
 10
1471.7679912443
 20
472.8746059683
 10
1472.4096588384
 20
472.6141819673
 10
1472.7466053959
 20
472.6058555212
  0
LINE
  5
4A9
330
1F
100
AcDbEntity
  8
0
  6
Continuous
 62
     7
370
    25
100
AcDbLine
 10
1487.7843167642
 20
635.1461240682
 30
0.0
 11
1494.5083762444
 21
639.0268826547
 31
0.0
  0
LINE
  5
4AA
330
1F
100
AcDbEntity
  8
0
  6
Continuous
 62
     7
370
    25
100
AcDbLine
 10
1498.0439101503
 20
636.9863662667
 30
0.0
 11
1494.5083762444
 21
639.0268826547
 31
0.0
  0
LINE
  5
4AB
330
1F
100
AcDbEntity
  8
0
  6
Continuous
 62
     7
370
    25
100
AcDbLine
 10
1622.4947036391
 20
565.1601894083
 30
0.0
 11
1498.0439101503
 21
636.9863662667
 31
0.0
  0
LINE
  5
4AC
330
1F
100
AcDbEntity
  8
0
  6
Continuous
 62
     7
370
    25
100
AcDbLine
 10
1624.0492833641
 20
564.2629711975
 30
0.0
 11
1622.4947036391
 21
565.1601894083
 31
0.0
  0
ARC
  5
4AD
330
1F
100
AcDbEntity
  8
0
  6
Continuous
 62
     7
370
    25
100
AcDbCircle
 10
1627.7875192123
 20
551.624631469
 30
0.0
 40
14.14104431635115
100
AcDbArc
 50
60.8171892784
 51
94.9775427011
  0
LWPOLYLINE
  5
4AE
330
1F
100
AcDbEntity
  8
0
  6
Continuous
 62
     7
370
    25
100
AcDbPolyline
 90
        3
 70
   128
 43
0.0
 10
1624.7892855885
 20
564.6900599219
 10
1624.0123442602
 20
564.898049602
 10
1622.4947036391
 20
565.1601894083
  0
LINE
  5
4AF
330
1F
100
AcDbEntity
  8
0
  6
Continuous
 62
     7
370
    25
100
AcDbLine
 10
1501.9867603539
 20
442.3912786805
 30
0.0
 11
1484.2071577689
 21
426.6278616406
 31
0.0
  0
LWPOLYLINE
  5
4B0
330
1F
100
AcDbEntity
  8
0
  6
Continuous
 62
     7
370
    25
100
AcDbPolyline
 90
       15
 70
   128
 43
0.0
 10
1511.3238597484
 20
561.195611458
 10
1510.309096936
 20
561.5925071695
 10
1509.12657338
 20
561.7254586797
 10
1507.8813614878
 20
561.5826526635
 10
1506.6841038006
 20
561.1767780622
 10
1505.641181918
 20
560.5438986151
 10
1504.845264026
 20
559.7402484386
 10
1504.3670709221
 20
558.8372353776
 10
1504.2490921622
 20
557.9150961053
 10
1504.5018106768
 20
557.0557667429
 10
1505.1027713168
 20
556.3356024752
 10
1505.9985760921
 20
555.8185930579
 10
1507.1096288173
 20
555.5506770466
 10
1508.3372075819
 20
555.5556599545
 10
1509.070254692
 20
555.6869908869
  0
LWPOLYLINE
  5
4B1
330
1F
100
AcDbEntity
  8
0
  6
Continuous
 62
     7
370
    25
100
AcDbPolyline
 90
        9
 70
   128
 43
0.0
 10
1509.3259560259
 20
555.7554880452
 10
1509.5722366255
 20
555.8330990285
 10
1510.7049781979
 20
556.3583425893
 10
1511.6347832393
 20
557.0847204416
 10
1512.2790344915
 20
557.9476907254
 10
1512.5804874033
 20
558.870574744
 10
1512.5123565608
 20
559.7713702024
 10
1512.0806956882
 20
560.570037471
 10
1511.3238597484
 20
561.195611458
  0
LINE
  5
4B2
330
1F
100
AcDbEntity
  8
0
  6
Continuous
 62
     7
370
    25
100
AcDbLine
 10
1508.2175967355
 20
434.7522238589
 30
0.0
 11
1493.2000556616
 21
421.4376538774
 31
0.0
  0
LINE
  5
4B3
330
1F
100
AcDbEntity
  8
0
  6
Continuous
 62
     7
370
    25
100
AcDbLine
 10
1508.7064448788
 20
446.1995238434
 30
0.0
 11
1508.9250089434
 21
446.393303006
 31
0.0
  0
LINE
  5
4B4
330
1F
100
AcDbEntity
  8
0
  6
Continuous
 62
     7
370
    25
100
AcDbLine
 10
1508.7064448788
 20
446.1995238434
 30
0.0
 11
1508.1601635177
 21
448.2388036629
 31
0.0
  0
LINE
  5
4B5
330
1F
100
AcDbEntity
  8
0
  6
Continuous
 62
     7
370
    25
100
AcDbLine
 10
1502.9788799512
 20
449.505160392
 30
0.0
 11
1508.7064448788
 21
446.1995238434
 31
0.0
  0
LINE
  5
4B6
330
1F
100
AcDbEntity
  8
0
  6
Continuous
 62
     7
370
    25
100
AcDbLine
 10
1502.4325985901
 20
451.5444402115
 30
0.0
 11
1502.9788799512
 21
449.505160392
 31
0.0
  0
LWPOLYLINE
  5
4B7
330
1F
100
AcDbEntity
  8
0
  6
Continuous
 62
     7
370
    25
100
AcDbPolyline
 90
       14
 70
   128
 43
0.0
 10
1431.212462019
 20
484.6075871703
 10
1430.9471535167
 20
484.4483980482
 10
1430.7000402764
 20
483.9573526435
 10
1430.7267433006
 20
483.2285921828
 10
1431.0248899085
 20
482.3268702313
 10
1431.5679884656
 20
481.3323087414
 10
1432.3077822816
 20
480.3332788661
 10
1433.1785374295
 20
479.4185487941
 10
1434.1028834933
 20
478.6693963063
 10
1434.9986882686
 20
478.152386889
 10
1435.78635557
 20
477.9134590978
 10
1436.3958977013
 20
477.9738427153
 10
1436.773154169
 20
478.3281723923
 10
1436.7755480182
 20
478.3329667653
  0
ARC
  5
4B8
330
1F
100
AcDbEntity
  8
0
  6
Continuous
 62
     7
370
    25
100
AcDbCircle
 10
1496.7658723939
 20
624.8846934044
 30
0.0
 40
12.16897146731331
100
AcDbArc
 50
36.0461936276
 51
83.9714331924
  0
LINE
  5
4B9
330
1F
100
AcDbEntity
  8
0
  6
Continuous
 62
     7
370
    25
100
AcDbLine
 10
1495.0387063303
 20
641.6195564674
 30
0.0
 11
1486.8427101124
 21
636.8892766727
 31
0.0
  0
ARC
  5
4BA
330
1F
100
AcDbEntity
  8
0
  6
Continuous
 62
     7
370
    25
100
AcDbCircle
 10
1496.371544935
 20
628.196140092
 30
0.0
 40
13.48942422543775
100
AcDbArc
 50
38.7749791577
 51
95.6704297075
  0
LINE
  5
4BB
330
1F
100
AcDbEntity
  8
0
  6
Continuous
 62
     7
370
    25
100
AcDbLine
 10
1507.5950810495
 20
631.473953923
 30
0.0
 11
1506.8880555408
 21
636.6440730114
 31
0.0
  0
ARC
  5
4BC
330
1F
100
AcDbEntity
  8
0
  6
Continuous
 62
     7
370
    25
100
AcDbCircle
 10
1493.2043767993
 20
626.7859071042
 30
0.0
 40
12.31023545595048
100
AcDbArc
 50
60.2282526205
 51
83.9193609107
  0
LINE
  5
4BD
330
1F
100
AcDbEntity
  8
0
  6
Continuous
 62
     7
370
    25
100
AcDbLine
 10
1490.088958862
 20
644.4762794106
 30
0.0
 11
1495.0387063303
 21
641.6195564674
 31
0.0
  0
LINE
  5
4BE
330
1F
100
AcDbEntity
  8
0
  6
Continuous
 62
     7
370
    25
100
AcDbLine
 10
1481.8929626441
 20
639.7459996159
 30
0.0
 11
1490.088958862
 21
644.4762794106
 31
0.0
  0
ARC
  5
4BF
330
1F
100
AcDbEntity
  8
0
  6
Continuous
 62
     7
370
    25
100
AcDbCircle
 10
1491.3159104433
 20
630.3885640467
 30
0.0
 40
14.14104431634996
100
AcDbArc
 50
60.8171892784
 51
94.9775427011
  0
ARC
  5
4C0
330
1F
100
AcDbEntity
  8
0
  6
Continuous
 62
     7
370
    25
100
AcDbCircle
 10
1603.946405832
 20
457.8412866103
 30
0.0
 40
2.53639332358047
100
AcDbArc
 50
300.5689475902
 51
330.8026594393
  0
ARC
  5
4C1
330
1F
100
AcDbEntity
  8
0
  6
Continuous
 62
     7
370
    25
100
AcDbCircle
 10
1595.3781415567
 20
461.0761222104
 30
0.0
 40
11.3977079609233
100
AcDbArc
 50
18.9125539912
 51
50.519360918
  0
LINE
  5
4C2
330
1F
100
AcDbEntity
  8
0
  6
Continuous
 62
     7
370
    25
100
AcDbLine
 10
1602.2714496972
 20
470.0773748081
 30
0.0
 11
1602.6250030878
 21
469.8733231693
 31
0.0
  0
LINE
  5
4C3
330
1F
100
AcDbEntity
  8
0
  6
Continuous
 62
     7
370
    25
100
AcDbLine
 10
1507.4705439869
 20
354.4655549091
 30
0.0
 11
1494.6596548545
 21
402.2888736928
 31
0.0
  0
LINE
  5
4C4
330
1F
100
AcDbEntity
  8
0
  6
Continuous
 62
     7
370
    25
100
AcDbLine
 10
1514.4000110645
 20
355.5317179323
 30
0.0
 11
1501.6313826068
 21
403.1972767252
 31
0.0
  0
LINE
  5
4C5
330
1F
100
AcDbEntity
  8
0
  6
Continuous
 62
     7
370
    25
100
AcDbLine
 10
1350.4299725051
 20
491.8396321073
 30
0.0
 11
1496.6596548545
 21
407.4438742986
 31
0.0
  0
LINE
  5
4C6
330
1F
100
AcDbEntity
  8
0
  6
Continuous
 62
     7
370
    25
100
AcDbLine
 10
1348.4299725051
 20
486.6846315014
 30
0.0
 11
1494.6596548545
 21
402.2888736928
 31
0.0
  0
LINE
  5
4C7
330
1F
100
AcDbEntity
  8
0
  6
Continuous
 62
     7
370
    25
100
AcDbLine
 10
1496.6596548545
 20
407.4438742986
 30
0.0
 11
1497.0256802582
 21
406.077493762
 31
0.0
  0
LINE
  5
4C8
330
1F
100
AcDbEntity
  8
0
  6
Continuous
 62
     7
370
    25
100
AcDbLine
 10
1595.4076104931
 20
481.6114234946
 30
0.0
 11
1596.8218240555
 21
480.7952169393
 31
0.0
  0
LINE
  5
4C9
330
1F
100
AcDbEntity
  8
0
  6
Continuous
 62
     7
370
    25
100
AcDbLine
 10
1507.4705439869
 20
354.4655549091
 30
0.0
 11
1361.2408616375
 21
438.8613127177
 31
0.0
  0
LINE
  5
4CA
330
1F
100
AcDbEntity
  8
0
  6
Continuous
 62
     7
370
    25
100
AcDbLine
 10
1361.2408616375
 20
438.8613127177
 30
0.0
 11
1348.4299725051
 21
486.6846315014
 31
0.0
  0
LINE
  5
4CB
330
1F
100
AcDbEntity
  8
0
  6
Continuous
 62
     7
370
    25
100
AcDbLine
 10
1488.2786587456
 20
400.1740171978
 30
0.0
 11
1486.9126333419
 21
398.9628974316
 31
0.0
  0
LINE
  5
4CC
330
1F
100
AcDbEntity
  8
0
  6
Continuous
 62
     7
370
    25
100
AcDbLine
 10
1488.2079480675
 20
400.2148275256
 30
0.0
 11
1486.8419226637
 21
399.0037077593
 31
0.0
  0
LINE
  5
4CD
330
1F
100
AcDbEntity
  8
0
  6
Continuous
 62
     7
370
    25
100
AcDbLine
 10
1497.4292938402
 20
366.0145037809
 30
0.0
 11
1496.0632684365
 21
364.8033840146
 31
0.0
  0
LINE
  5
4CE
330
1F
100
AcDbEntity
  8
0
  6
Continuous
 62
     7
370
    25
100
AcDbLine
 10
1497.3585831621
 20
366.0553141087
 30
0.0
 11
1495.9925577583
 21
364.8441943424
 31
0.0
  0
LINE
  5
4CF
330
1F
100
AcDbEntity
  8
0
  6
Continuous
 62
     7
370
    25
100
AcDbLine
 10
1608.0470756493
 20
491.5781007168
 30
0.0
 11
1609.4612892116
 21
490.7618941616
 31
0.0
  0
LINE
  5
4D0
330
1F
100
AcDbEntity
  8
0
  6
Continuous
 62
     7
370
    25
100
AcDbLine
 10
1606.2321876489
 20
485.4423210881
 30
0.0
 11
1607.6464012113
 21
484.6261145329
 31
0.0
  0
LINE
  5
4D1
330
1F
100
AcDbEntity
  8
0
  6
Continuous
 62
     7
370
    25
100
AcDbLine
 10
1608.6016121986
 20
492.0135801919
 30
0.0
 11
1610.0158257609
 21
491.1973736367
 31
0.0
  0
LINE
  5
4D2
330
1F
100
AcDbEntity
  8
0
  6
Continuous
 62
     7
370
    25
100
AcDbLine
 10
1612.5504962382
 20
478.6676354613
 30
0.0
 11
1613.9647098006
 21
477.851428906
 31
0.0
  0
LINE
  5
4D3
330
1F
100
AcDbEntity
  8
0
  6
Continuous
 62
     7
370
    25
100
AcDbLine
 10
1430.5058662121
 20
417.3454762273
 30
0.0
 11
1429.1398408083
 21
416.134356461
 31
0.0
  0
LINE
  5
4D4
330
1F
100
AcDbEntity
  8
0
  6
Continuous
 62
     7
370
    25
100
AcDbLine
 10
1362.5550730507
 20
472.7347799559
 30
0.0
 11
1361.1890476469
 21
471.5236601897
 31
0.0
  0
LINE
  5
4D5
330
1F
100
AcDbEntity
  8
0
  6
Continuous
 62
     7
370
    25
100
AcDbLine
 10
1362.4843623725
 20
472.7755902837
 30
0.0
 11
1361.1183369688
 21
471.5644705174
 31
0.0
  0
LINE
  5
4D6
330
1F
100
AcDbEntity
  8
0
  6
Continuous
 62
     7
370
    25
100
AcDbLine
 10
1371.7057081453
 20
438.575266539
 30
0.0
 11
1370.3396827415
 21
437.3641467727
 31
0.0
  0
LINE
  5
4D7
330
1F
100
AcDbEntity
  8
0
  6
Continuous
 62
     7
370
    25
100
AcDbLine
 10
1371.6349974672
 20
438.6160768668
 30
0.0
 11
1370.2689720634
 21
437.4049571005
 31
0.0
  0
LINE
  5
4D8
330
1F
100
AcDbEntity
  8
0
  6
Continuous
 62
     7
370
    25
100
AcDbLine
 10
1610.7397756511
 20
493.5409371898
 30
0.0
 11
1607.1745031769
 21
495.5986170494
 31
0.0
  0
LINE
  5
4D9
330
1F
100
AcDbEntity
  8
0
  6
Continuous
 62
     7
370
    25
100
AcDbLine
 10
1607.9631392691
 20
483.4463099143
 30
0.0
 11
1603.720498582
 21
485.89492958
 31
0.0
  0
LINE
  5
4DA
330
1F
100
AcDbEntity
  8
0
  6
Continuous
 62
     7
370
    25
100
AcDbLine
 10
1609.7216748182
 20
479.4602830576
 30
0.0
 11
1613.9643155053
 21
477.011663392
 31
0.0
  0
LINE
  5
4DB
330
1F
100
AcDbEntity
  8
0
  6
Continuous
 62
     7
370
    25
100
AcDbLine
 10
1477.2659841864
 20
466.0692306641
 30
0.0
 11
1476.2918967767
 21
465.2056035949
 31
0.0
  0
LINE
  5
4DC
330
1F
100
AcDbEntity
  8
0
  6
Continuous
 62
     7
370
    25
100
AcDbLine
 10
1467.6890610431
 20
470.5416758241
 30
0.0
 11
1465.844926748
 21
468.9066641396
 31
0.0
  0
LINE
  5
4DD
330
1F
100
AcDbEntity
  8
0
  6
Continuous
 62
     7
370
    25
100
AcDbLine
 10
1503.7545273069
 20
441.3710204865
 30
0.0
 11
1485.9749247219
 21
425.6076034466
 31
0.0
  0
LINE
  5
4DE
330
1F
100
AcDbEntity
  8
0
  6
Continuous
 62
     7
370
    25
100
AcDbLine
 10
1507.7600649807
 20
436.4601995298
 30
0.0
 11
1491.7560733671
 21
422.2710413131
 31
0.0
  0
OLE2FRAME
  5
4DF
330
1F
100
AcDbEntity
  8
0
100
AcDbOle2Frame
 70
     2
  3
Picture (Enhanced Metafile)
 10
26.8094712345
 20
62.2672723676
 30
0.0
 11
175.6591222624
 21
30.6786004452
 31
0.0
 71
     3
 72
     0
 73
     1
 90
     5248
310
80554E67BF8139CF3A4087E11EFB35224F4000000000000000006221928717F5
310
654087E11EFB35224F4000000000000000006221928717F56540725E3FC2B8AD
310
3E4000000000000000004E67BF8139CF3A40725E3FC2B8AD3E40000000000000
310
0000000000000100000000010000010000000100000000000100000000140000
310
D0CF11E0A1B11AE1000000000000000000000000000000003E000300FEFF0900
310
0600000000000000000000000100000001000000000000000010000002000000
310
01000000FEFFFFFF0000000000000000FFFFFFFFFFFFFFFFFFFFFFFFFFFFFFFF
310
FFFFFFFFFFFFFFFFFFFFFFFFFFFFFFFFFFFFFFFFFFFFFFFFFFFFFFFFFFFFFFFF
310
FFFFFFFFFFFFFFFFFFFFFFFFFFFFFFFFFFFFFFFFFFFFFFFFFFFFFFFFFFFFFFFF
310
FFFFFFFFFFFFFFFFFFFFFFFFFFFFFFFFFFFFFFFFFFFFFFFFFFFFFFFFFFFFFFFF
310
FFFFFFFFFFFFFFFFFFFFFFFFFFFFFFFFFFFFFFFFFFFFFFFFFFFFFFFFFFFFFFFF
310
FFFFFFFFFFFFFFFFFFFFFFFFFFFFFFFFFFFFFFFFFFFFFFFFFFFFFFFFFFFFFFFF
310
FFFFFFFFFFFFFFFFFFFFFFFFFFFFFFFFFFFFFFFFFFFFFFFFFFFFFFFFFFFFFFFF
310
FFFFFFFFFFFFFFFFFFFFFFFFFFFFFFFFFFFFFFFFFFFFFFFFFFFFFFFFFFFFFFFF
310
FFFFFFFFFFFFFFFFFFFFFFFFFFFFFFFFFFFFFFFFFFFFFFFFFFFFFFFFFFFFFFFF
310
FFFFFFFFFFFFFFFFFFFFFFFFFFFFFFFFFFFFFFFFFFFFFFFFFFFFFFFFFFFFFFFF
310
FFFFFFFFFFFFFFFFFFFFFFFFFFFFFFFFFFFFFFFFFFFFFFFFFFFFFFFFFFFFFFFF
310
FFFFFFFFFFFFFFFFFFFFFFFFFFFFFFFFFFFFFFFFFFFFFFFFFFFFFFFFFFFFFFFF
310
FFFFFFFFFFFFFFFFFFFFFFFFFFFFFFFFFFFFFFFFFFFFFFFFFFFFFFFFFFFFFFFF
310
FFFFFFFFFFFFFFFFFFFFFFFFFFFFFFFFFFFFFFFFFFFFFFFFFFFFFFFFFFFFFFFF
310
FDFFFFFFFEFFFFFFFEFFFFFF0400000005000000060000000700000008000000
310
FEFFFFFFFFFFFFFFFFFFFFFFFFFFFFFFFFFFFFFFFFFFFFFFFFFFFFFFFFFFFFFF
310
FFFFFFFFFFFFFFFFFFFFFFFFFFFFFFFFFFFFFFFFFFFFFFFFFFFFFFFFFFFFFFFF
310
FFFFFFFFFFFFFFFFFFFFFFFFFFFFFFFFFFFFFFFFFFFFFFFFFFFFFFFFFFFFFFFF
310
FFFFFFFFFFFFFFFFFFFFFFFFFFFFFFFFFFFFFFFFFFFFFFFFFFFFFFFFFFFFFFFF
310
FFFFFFFFFFFFFFFFFFFFFFFFFFFFFFFFFFFFFFFFFFFFFFFFFFFFFFFFFFFFFFFF
310
FFFFFFFFFFFFFFFFFFFFFFFFFFFFFFFFFFFFFFFFFFFFFFFFFFFFFFFFFFFFFFFF
310
FFFFFFFFFFFFFFFFFFFFFFFFFFFFFFFFFFFFFFFFFFFFFFFFFFFFFFFFFFFFFFFF
310
FFFFFFFFFFFFFFFFFFFFFFFFFFFFFFFFFFFFFFFFFFFFFFFFFFFFFFFFFFFFFFFF
310
FFFFFFFFFFFFFFFFFFFFFFFFFFFFFFFFFFFFFFFFFFFFFFFFFFFFFFFFFFFFFFFF
310
FFFFFFFFFFFFFFFFFFFFFFFFFFFFFFFFFFFFFFFFFFFFFFFFFFFFFFFFFFFFFFFF
310
FFFFFFFFFFFFFFFFFFFFFFFFFFFFFFFFFFFFFFFFFFFFFFFFFFFFFFFFFFFFFFFF
310
FFFFFFFFFFFFFFFFFFFFFFFFFFFFFFFFFFFFFFFFFFFFFFFFFFFFFFFFFFFFFFFF
310
FFFFFFFFFFFFFFFFFFFFFFFFFFFFFFFFFFFFFFFFFFFFFFFFFFFFFFFFFFFFFFFF
310
FFFFFFFFFFFFFFFFFFFFFFFFFFFFFFFFFFFFFFFFFFFFFFFFFFFFFFFFFFFFFFFF
310
FFFFFFFFFFFFFFFFFFFFFFFFFFFFFFFFFFFFFFFFFFFFFFFFFFFFFFFFFFFFFFFF
310
52006F006F007400200045006E00740072007900000000000000000000000000
310
0000000000000000000000000000000000000000000000000000000000000000
310
16000500FFFFFFFFFFFFFFFF020000001903000000000000C000000000000046
310
000000000000000000000000102A325855C3DA0103000000000C000000000000
310
01004F006C006500000000000000000000000000000000000000000000000000
310
0000000000000000000000000000000000000000000000000000000000000000
310
0A000200FFFFFFFFFFFFFFFFFFFFFFFF00000000000000000000000000000000
310
0000000000000000000000000000000000000000000000001400000000000000
310
010043006F006D0070004F0062006A0000000000000000000000000000000000
310
0000000000000000000000000000000000000000000000000000000000000000
310
120002010100000003000000FFFFFFFF00000000000000000000000000000000
310
0000000000000000000000000000000000000000010000005800000000000000
310
43004F004E00540045004E005400530000000000000000000000000000000000
310
0000000000000000000000000000000000000000000000000000000000000000
310
12000200FFFFFFFFFFFFFFFFFFFFFFFF00000000000000000000000000000000
310
000000000000000000000000000000000000000003000000040B000000000000
310
FEFFFFFF02000000FEFFFFFF0400000005000000060000000700000008000000
310
090000000A0000000B0000000C0000000D0000000E0000000F00000010000000
310
1100000012000000130000001400000015000000160000001700000018000000
310
190000001A0000001B0000001C0000001D0000001E0000001F00000020000000
310
2100000022000000230000002400000025000000260000002700000028000000
310
290000002A0000002B0000002C0000002D0000002E0000002F000000FEFFFFFF
310
FFFFFFFFFFFFFFFFFFFFFFFFFFFFFFFFFFFFFFFFFFFFFFFFFFFFFFFFFFFFFFFF
310
FFFFFFFFFFFFFFFFFFFFFFFFFFFFFFFFFFFFFFFFFFFFFFFFFFFFFFFFFFFFFFFF
310
FFFFFFFFFFFFFFFFFFFFFFFFFFFFFFFFFFFFFFFFFFFFFFFFFFFFFFFFFFFFFFFF
310
FFFFFFFFFFFFFFFFFFFFFFFFFFFFFFFFFFFFFFFFFFFFFFFFFFFFFFFFFFFFFFFF
310
FFFFFFFFFFFFFFFFFFFFFFFFFFFFFFFFFFFFFFFFFFFFFFFFFFFFFFFFFFFFFFFF
310
FFFFFFFFFFFFFFFFFFFFFFFFFFFFFFFFFFFFFFFFFFFFFFFFFFFFFFFFFFFFFFFF
310
FFFFFFFFFFFFFFFFFFFFFFFFFFFFFFFFFFFFFFFFFFFFFFFFFFFFFFFFFFFFFFFF
310
FFFFFFFFFFFFFFFFFFFFFFFFFFFFFFFFFFFFFFFFFFFFFFFFFFFFFFFFFFFFFFFF
310
FFFFFFFFFFFFFFFFFFFFFFFFFFFFFFFFFFFFFFFFFFFFFFFFFFFFFFFFFFFFFFFF
310
FFFFFFFFFFFFFFFFFFFFFFFFFFFFFFFFFFFFFFFFFFFFFFFFFFFFFFFFFFFFFFFF
310
0100000200000000000000000000000000000000000000000000000000000000
310
0000000000000000000000000000000000000000000000000000000000000000
310
0100FEFF030A0000FFFFFFFF1903000000000000C0000000000000461C000000
310
506963747572652028456E68616E636564204D65746166696C652900FFFFFFFF
310
0E00000000000000F439B2710000000000000000000000000000000000000000
310
0000000000000000000000000000000000000000000000000000000000000000
310
74000000010000006C000000FD0A000094000000870B0000B200000062570100
310
111200003B680100BB15000020454D46000001008C0A00003800000003000000
310
0D0000005800000000000000000400000003000040010000F000000041006400
310
6F0062006500200053007900730074002A000000310000000100000074000000
310
FD0A000094000000870B0000B200000062570100111200003B680100BB150000
310
20454D46000001008C0A000038000000030000000D0000005800000000000000
310
000400000003000040010000F0000000410064006F0062006500200053007900
310
7300740065006D0073000000110000000C00000008000000120000000C000000
310
010000000A0000001000000000000000000000000C0000001000000000000000
310
000000000900000010000000D7040000110100000B000000100000009D010000
310
5B000000130000000C0000000200000027000000180000000100000000000000
310
0000000000000000250000000C000000010000005F0000003400000002000000
310
2C000000000000002C0000000000000005000000000000000000000000000000
310
0000000000000000250000000C000000020000003B000000080000001B000000
310
100000003D210000F20100005800000048010000FC0A000093000000190B0000
310
B30000004B0000004921F9014921F9014921F9014921DA014921DA014921DA01
310
4921D5014621D0014221CD012821BE012821BE012821BE012321BB011D21BB01
310
1821BE01FE20CD01FE20CD01FE20CD01FA20D001F720D501F720DA01F720F801
310
F720F801F720F801F720FE01FA200302FE200602182115021821150218211502
310
1D21170223211702282115024321050243210502432105023721FE013721FE01
310
3721FE013521FD013521FD013521FD0122210902222109022221090221210902
310
1F2109021E2109020621FA010621FA010621FA010521FA010421F9010421F701
310
0421DB010421DB010421DB010421DA010521D9010621D8011E21CA011E21CA01
310
1E21CA011F21CA012121CA012221CA013A21D8013A21D8013A21D8013B21D901
310
3C21DA013C21DB013C21F2013C21F2013C21F2013D000000080000003C000000
310
080000003E000000180000009F8601009F8601006179FEFF6179FEFF13000000
310
0C000000020000003B000000080000001B000000100000002F210000E4010000
310
58000000C4000000050B00009D000000100B0000A90000002A0000002F21EF01
310
2F21EF012F21EF012F21F1012E21F2012C21F3012321F9012321F9012321F901
310
2221FA012121FA012021FA011F21FA011E21FA011D21F9011421F4011421F401
310
1421F4011221F3011121F1011121EF011121E4011121E4011121E4011121E201
310
1221E0011321DF011D21DA011D21DA011D21DA011E21D9011F21D9012021D901
310
2121D9012221D9012321DA012C21DF012C21DF012C21DF012E21E0012F21E201
310
2F21E4013D000000080000003C000000080000003E000000180000009F860100
310
9F8601006179FEFF6179FEFF130000000C000000020000005B00000038000000
310
3D0B0000A3000000430B0000A6000000010000000500000005000000B821F001
310
C821F001C821EB01B821EB01B821F001130000000C000000020000003B000000
310
080000001B0000001000000004220000E70100005800000084010000450B0000
310
9B000000590B0000AA0000005A0000000122E601FD21E501F621E501E421E501
310
E421E501E421E501D921E501D921E301D921E001D921DD01DA21DB01DC21DA01
310
DE21DA01E221D901E921D901EF21D901EF21D901EF21D9010022D9010022DB01
310
0022E0010022E1010022E1010022E1010722E1010722E1010722E1010722DF01
310
0722DF010722DF010722DB010622D8010322D6010022D401FB21D401F321D401
310
E521D401E521D401E521D401D921D401D121D601D121DF01D121E501D321E801
310
D721E901DB21EB01E221EB01EC21EB01F821EB01F821EB01F821EB010022EB01
310
0122ED010122F1010122F5010022F701F621F701E221F701E221F701E221F701
310
DA21F701D921F501D921F201D921EF01D921EF01D921EF01D121EF01D121EF01
310
D121EF01D121F201D121F201D121F201D121FC01DB21FD01E421FD01F521FD01
310
F521FD01F521FD01F921FD01FE21FD010222FB010622FA010922F6010922F201
310
0922EF010922EF010922EF010922EC010722E9010422E7013C00000008000000
310
3E000000180000009F8601009F8601006179FEFF6179FEFF130000000C000000
310
020000005B0000004C000000590B00009B0000006F0B0000AA00000001000000
310
0A0000000A0000002C22E6011722D4010C22D4012822EC012822FC013022FC01
310
3022EC014C22D4014122D4012C22E601130000000C000000020000003B000000
310
080000001B0000001000000082220000E701000058000000780100006F0B0000
310
9B000000830B0000AA000000570000007F22E6017B22E5017422E5016122E501
310
6122E5016122E5015722E5015722E3015722E0015722DB015822D9016622D901
310
6D22D9016D22D9016D22D9017E22D9017E22DB017E22E0017E22E1017E22E101
310
7E22E1018522E1018522E1018522E1018522DF018522DF018522DF018522DB01
310
8422D8018122D6017E22D4017922D4017122D4016322D4016322D4016322D401
310
5722D4014F22D6014F22DF014F22E5015122E8015522E9015922EB015F22EB01
310
6A22EB017622EB017622EB017622EB017E22EB017F22ED017F22F1017F22F501
310
7D22F7017422F7016022F7016022F7016022F7015822F7015722F5015722F201
310
5722EF015722EF015722EF014F22EF014F22EF014F22EF014F22F2014F22F201
310
4F22F2014F22FC015822FD016122FD017322FD017322FD017322FD017722FD01
310
7C22FD018022FB018422FA018622F6018622F2018622EF018622EF018622EF01
310
8622EC018522E9018222E7013C000000080000003E000000180000009F860100
310
9F8601006179FEFF6179FEFF130000000C000000020000005B00000038000000
310
300B0000A6000000340B0000AC00000001000000050000000500000093210202
310
9A2102029A21F3019321F30193210202130000000C000000020000003B000000
310
080000001B000000100000009B210000D40100005800000018010000240B0000
310
9B0000003A0B0000AA0000003F0000008021D4018021D4018021D4017421D401
310
6F21D8016F21E3016F21EE016F21EE016F21EE016F21F8017421FD018021FD01
310
8F21FD018F21FD018F21FD018F21F7018F21F7018F21F7018121F7018121F701
310
8121F7017921F7017621F5017621F0017621E1017621E1017621E1017621DC01
310
7921D9018121D9019A21D9019A21D9019A21D901A121D901A421DC01A421E101
310
A421F001A421F001A421F001A421F401A321F6019E21F7019E21F7019E21F701
310
9E21F7019E21FD019E21FD019E21FD019F21FD019F21FD019F21FD01A421FC01
310
A721FB01A921F801AB21F601AC21F201AC21EE01AC21E301AC21E301AC21E301
310
AC21D801A721D4019B21D4013C000000080000003E000000180000009F860100
310
9F8601006179FEFF6179FEFF130000000C000000020000005B0000006C000000
310
840B00009B000000870B00009F0000000100000012000000120000009222D401
310
9122D8019022D4018E22D4018E22DA018F22DA018F22D6018F22D5019022D601
310
9122DA019122DA019222D6019322D5019322D6019322DA019422DA019422D401
310
9222D401130000000C000000020000005B00000048000000830B00009B000000
310
850B00009F0000000100000009000000090000008A22D5018B22D5018B22DA01
310
8C22DA018C22D5018E22D5018E22D4018A22D4018A22D501280000000C000000
310
01000000280000000C000000020000000E000000140000000000000010000000
310
1400000000000000000000000000000000000000000000000000000000000000
310
0000000000000000000000000000000000000000000000000000000000000000
  1
OLE
  0
ENDSEC
  0
SECTION
  2
OBJECTS
  0
DICTIONARY
  5
C
330
0
100
AcDbDictionary
281
     1
  3
ACAD_GROUP
350
D
  3
ACAD_LAYOUT
350
1A
  3
ACAD_MLINESTYLE
350
17
  3
ACAD_PLOTSETTINGS
350
19
  3
ACAD_PLOTSTYLENAME
350
E
  3
ACAD_SCALELIST
350
47
  3
DWGPROPS
350
4E0
  0
DICTIONARY
  5
D
102
{ACAD_REACTORS
330
C
102
}
330
C
100
AcDbDictionary
281
     1
  0
DICTIONARY
  5
1A
102
{ACAD_REACTORS
330
C
102
}
330
C
100
AcDbDictionary
281
     1
  3
Layout1
350
1E
  3
Layout2
350
26
  3
Model
350
22
  0
DICTIONARY
  5
17
102
{ACAD_REACTORS
330
C
102
}
330
C
100
AcDbDictionary
281
     1
  3
Standard
350
18
  0
DICTIONARY
  5
19
102
{ACAD_REACTORS
330
C
102
}
330
C
100
AcDbDictionary
281
     1
  0
ACDBDICTIONARYWDFLT
  5
E
102
{ACAD_REACTORS
330
C
102
}
330
C
100
AcDbDictionary
281
     1
  3
Normal
350
F
100
AcDbDictionaryWithDefault
340
F
  0
DICTIONARY
  5
47
102
{ACAD_REACTORS
330
C
102
}
330
C
100
AcDbDictionary
281
     1
  3
A0
350
48
  3
A1
350
49
  3
A2
350
4A
  3
A3
350
4B
  3
A4
350
4C
  3
A5
350
4D
  3
A6
350
4E
  3
A7
350
4F
  3
A8
350
50
  3
A9
350
51
  3
B0
350
52
  3
B1
350
53
  3
B2
350
54
  3
B3
350
55
  3
B4
350
56
  3
B5
350
57
  3
B6
350
58
  0
XRECORD
  5
4E0
102
{ACAD_REACTORS
330
C
102
}
330
C
100
AcDbXrecord
280
     1
  1
DWGPROPS COOKIE
  2

  3

  4

  6

  7

  8
Kevin.Castro
  9

300
=
301
=
302
=
303
=
304
=
305
=
306
=
307
=
308
=
309
=
 40
0.0
 41
2460482.877635371
 42
2460482.877639155
  1

 90
        0
  0
LAYOUT
  5
1E
102
{ACAD_REACTORS
330
1A
102
}
330
1A
100
AcDbPlotSettings
  1

  2
none_device
  4

  6

 40
0.0
 41
0.0
 42
0.0
 43
0.0
 44
0.0
 45
0.0
 46
0.0
 47
0.0
 48
0.0
 49
0.0
140
0.0
141
0.0
142
1.0
143
1.0
 70
   688
 72
     1
 73
     0
 74
     5
  7

 75
    16
147
1.0
148
0.0
149
0.0
100
AcDbLayout
  1
Layout1
 70
     1
 71
     1
 10
0.0
 20
0.0
 11
420.0
 21
297.0
 12
0.0
 22
0.0
 32
0.0
 14
1.0000000000E+20
 24
1.0000000000E+20
 34
1.0000000000E+20
 15
-1.0000000000E+20
 25
-1.0000000000E+20
 35
-1.0000000000E+20
146
0.0
 13
0.0
 23
0.0
 33
0.0
 16
1.0
 26
0.0
 36
0.0
 17
0.0
 27
1.0
 37
0.0
 76
     0
330
1B
  0
LAYOUT
  5
26
102
{ACAD_REACTORS
330
1A
102
}
330
1A
100
AcDbPlotSettings
  1

  2
none_device
  4

  6

 40
0.0
 41
0.0
 42
0.0
 43
0.0
 44
0.0
 45
0.0
 46
0.0
 47
0.0
 48
0.0
 49
0.0
140
0.0
141
0.0
142
1.0
143
1.0
 70
   688
 72
     1
 73
     0
 74
     5
  7

 75
    16
147
1.0
148
0.0
149
0.0
100
AcDbLayout
  1
Layout2
 70
     1
 71
     2
 10
0.0
 20
0.0
 11
0.0
 21
0.0
 12
0.0
 22
0.0
 32
0.0
 14
0.0
 24
0.0
 34
0.0
 15
0.0
 25
0.0
 35
0.0
146
0.0
 13
0.0
 23
0.0
 33
0.0
 16
1.0
 26
0.0
 36
0.0
 17
0.0
 27
1.0
 37
0.0
 76
     0
330
23
  0
LAYOUT
  5
22
102
{ACAD_REACTORS
330
1A
102
}
330
1A
100
AcDbPlotSettings
  1

  2
none_device
  4
Letter_(8.50_x_11.00_Inches)
  6

 40
6.35
 41
6.35
 42
6.35000508
 43
6.35000508
 44
215.9
 45
279.4
 46
0.0
 47
0.0
 48
0.0
 49
0.0
140
0.0
141
0.0
142
1.0
143
1.0
 70
  1712
 72
     1
 73
     0
 74
     0
  7

 75
     0
147
1.0
148
0.0
149
0.0
100
AcDbLayout
  1
Model
 70
     1
 71
     0
 10
0.0
 20
0.0
 11
1727.2
 21
1117.6
 12
0.0
 22
0.0
 32
0.0
 14
0.0
 24
0.0
 34
0.0
 15
1727.2
 25
1117.6
 35
0.0
146
0.0
 13
0.0
 23
0.0
 33
0.0
 16
1.0
 26
0.0
 36
0.0
 17
0.0
 27
1.0
 37
0.0
 76
     0
330
1F
331
29
  0
MLINESTYLE
  5
18
102
{ACAD_REACTORS
330
17
102
}
330
17
100
AcDbMlineStyle
  2
Standard
 70
     0
  3

 62
   256
 51
90.0
 52
90.0
 71
     2
 49
0.5
 62
   256
  6
BYLAYER
 49
-0.5
 62
   256
  6
BYLAYER
  0
ACDBPLACEHOLDER
  5
F
102
{ACAD_REACTORS
330
E
102
}
330
E
  0
SCALE
  5
48
102
{ACAD_REACTORS
330
47
102
}
330
47
100
AcDbScale
 70
     0
300
1:1
140
1.0
141
1.0
290
     1
  0
SCALE
  5
49
102
{ACAD_REACTORS
330
47
102
}
330
47
100
AcDbScale
 70
     0
300
1:2
140
1.0
141
2.0
290
     0
  0
SCALE
  5
4A
102
{ACAD_REACTORS
330
47
102
}
330
47
100
AcDbScale
 70
     0
300
1:4
140
1.0
141
4.0
290
     0
  0
SCALE
  5
4B
102
{ACAD_REACTORS
330
47
102
}
330
47
100
AcDbScale
 70
     0
300
1:5
140
1.0
141
5.0
290
     0
  0
SCALE
  5
4C
102
{ACAD_REACTORS
330
47
102
}
330
47
100
AcDbScale
 70
     0
300
1:8
140
1.0
141
8.0
290
     0
  0
SCALE
  5
4D
102
{ACAD_REACTORS
330
47
102
}
330
47
100
AcDbScale
 70
     0
300
1:10
140
1.0
141
10.0
290
     0
  0
SCALE
  5
4E
102
{ACAD_REACTORS
330
47
102
}
330
47
100
AcDbScale
 70
     0
300
1:16
140
1.0
141
16.0
290
     0
  0
SCALE
  5
4F
102
{ACAD_REACTORS
330
47
102
}
330
47
100
AcDbScale
 70
     0
300
1:20
140
1.0
141
20.0
290
     0
  0
SCALE
  5
50
102
{ACAD_REACTORS
330
47
102
}
330
47
100
AcDbScale
 70
     0
300
1:30
140
1.0
141
30.0
290
     0
  0
SCALE
  5
51
102
{ACAD_REACTORS
330
47
102
}
330
47
100
AcDbScale
 70
     0
300
1:40
140
1.0
141
40.0
290
     0
  0
SCALE
  5
52
102
{ACAD_REACTORS
330
47
102
}
330
47
100
AcDbScale
 70
     0
300
1:50
140
1.0
141
50.0
290
     0
  0
SCALE
  5
53
102
{ACAD_REACTORS
330
47
102
}
330
47
100
AcDbScale
 70
     0
300
1:100
140
1.0
141
100.0
290
     0
  0
SCALE
  5
54
102
{ACAD_REACTORS
330
47
102
}
330
47
100
AcDbScale
 70
     0
300
2:1
140
2.0
141
1.0
290
     0
  0
SCALE
  5
55
102
{ACAD_REACTORS
330
47
102
}
330
47
100
AcDbScale
 70
     0
300
4:1
140
4.0
141
1.0
290
     0
  0
SCALE
  5
56
102
{ACAD_REACTORS
330
47
102
}
330
47
100
AcDbScale
 70
     0
300
8:1
140
8.0
141
1.0
290
     0
  0
SCALE
  5
57
102
{ACAD_REACTORS
330
47
102
}
330
47
100
AcDbScale
 70
     0
300
10:1
140
10.0
141
1.0
290
     0
  0
SCALE
  5
58
102
{ACAD_REACTORS
330
47
102
}
330
47
100
AcDbScale
 70
     0
300
100:1
140
100.0
141
1.0
290
     0
  0
ENDSEC
  0
EOF
