  0
SECTION
  2
HEADER
  9
$ACADVER
  1
AC1015
  9
$ACADMAINTVER
 70
     6
  9
$DWGCODEPAGE
  3
ANSI_1252
  9
$INSBASE
 10
0.0
 20
0.0
 30
0.0
  9
$EXTMIN
 10
0.0
 20
0.0
 30
0.0
  9
$EXTMAX
 10
3886.2
 20
2514.6
 30
0.0
  9
$LIMMIN
 10
0.0
 20
0.0
  9
$LIMMAX
 10
3886.2
 20
2514.6
  9
$ORTHOMODE
 70
     0
  9
$REGENMODE
 70
     1
  9
$FILLMODE
 70
     1
  9
$QTEXTMODE
 70
     0
  9
$MIRRTEXT
 70
     1
  9
$LTSCALE
 40
9.0
  9
$ATTMODE
 70
     1
  9
$TEXTSIZE
 40
28.575
  9
$TRACEWID
 40
1.0
  9
$TEXTSTYLE
  7
STANDARD
  9
$CLAYER
  8
0
  9
$CELTYPE
  6
ByLayer
  9
$CECOLOR
 62
   256
  9
$CELTSCALE
 40
1.0
  9
$DISPSILH
 70
     0
  9
$DIMSCALE
 40
1.0
  9
$DIMASZ
 40
18.0
  9
$DIMEXO
 40
6.858
  9
$DIMDLI
 40
3.75
  9
$DIMRND
 40
0.0
  9
$DIMDLE
 40
0.0
  9
$DIMEXE
 40
6.858
  9
$DIMTP
 40
0.0
  9
$DIMTM
 40
0.0
  9
$DIMTXT
 40
28.575
  9
$DIMCEN
 40
2.5
  9
$DIMTSZ
 40
0.0
  9
$DIMTOL
 70
     0
  9
$DIMLIM
 70
     0
  9
$DIMTIH
 70
     1
  9
$DIMTOH
 70
     1
  9
$DIMSE1
 70
     0
  9
$DIMSE2
 70
     0
  9
$DIMTAD
 70
     0
  9
$DIMZIN
 70
     1
  9
$DIMBLK
  1

  9
$DIMASO
 70
     1
  9
$DIMSHO
 70
     1
  9
$DIMPOST
  1

  9
$DIMAPOST
  1

  9
$DIMALT
 70
     0
  9
$DIMALTD
 70
     3
  9
$DIMALTF
 40
0.0393700787
  9
$DIMLFAC
 40
1.0
  9
$DIMTOFL
 70
     1
  9
$DIMTVP
 40
0.0
  9
$DIMTIX
 70
     0
  9
$DIMSOXD
 70
     0
  9
$DIMSAH
 70
     0
  9
$DIMBLK1
  1

  9
$DIMBLK2
  1

  9
$DIMSTYLE
  2
ISO-25
  9
$DIMCLRD
 70
     0
  9
$DIMCLRE
 70
     0
  9
$DIMCLRT
 70
     0
  9
$DIMTFAC
 40
1.0
  9
$DIMGAP
 40
13.716
  9
$DIMJUST
 70
     0
  9
$DIMSD1
 70
     0
  9
$DIMSD2
 70
     0
  9
$DIMTOLJ
 70
     0
  9
$DIMTZIN
 70
     1
  9
$DIMALTZ
 70
     0
  9
$DIMALTTZ
 70
     0
  9
$DIMUPT
 70
     0
  9
$DIMDEC
 70
     2
  9
$DIMTDEC
 70
     2
  9
$DIMALTU
 70
     2
  9
$DIMALTTD
 70
     3
  9
$DIMTXSTY
  7
STANDARD
  9
$DIMAUNIT
 70
     0
  9
$DIMADEC
 70
     0
  9
$DIMALTRND
 40
0.0
  9
$DIMAZIN
 70
     0
  9
$DIMDSEP
 70
    44
  9
$DIMATFIT
 70
     3
  9
$DIMFRAC
 70
     0
  9
$DIMLDRBLK
  1

  9
$DIMLUNIT
 70
     2
  9
$DIMLWD
 70
    -2
  9
$DIMLWE
 70
    -2
  9
$DIMTMOVE
 70
     0
  9
$LUNITS
 70
     2
  9
$LUPREC
 70
     6
  9
$SKETCHINC
 40
1.0
  9
$FILLETRAD
 40
0.0
  9
$AUNITS
 70
     0
  9
$AUPREC
 70
     0
  9
$MENU
  1
.
  9
$ELEVATION
 40
0.0
  9
$PELEVATION
 40
0.0
  9
$THICKNESS
 40
0.0
  9
$LIMCHECK
 70
     0
  9
$CHAMFERA
 40
0.0
  9
$CHAMFERB
 40
0.0
  9
$CHAMFERC
 40
0.0
  9
$CHAMFERD
 40
0.0
  9
$SKPOLY
 70
     0
  9
$TDCREATE
 40
2460461.44922985
  9
$TDUCREATE
 40
2460461.740896516
  9
$TDUPDATE
 40
2460461.449235787
  9
$TDUUPDATE
 40
2460461.740902454
  9
$TDINDWG
 40
0.0000000116
  9
$TDUSRTIMER
 40
0.0000000116
  9
$USRTIMER
 70
     1
  9
$ANGBASE
 50
0.0
  9
$ANGDIR
 70
     0
  9
$PDMODE
 70
     0
  9
$PDSIZE
 40
-1.0
  9
$PLINEWID
 40
0.0
  9
$SPLFRAME
 70
     0
  9
$SPLINETYPE
 70
     6
  9
$SPLINESEGS
 70
     8
  9
$HANDSEED
  5
5F9
  9
$SURFTAB1
 70
     6
  9
$SURFTAB2
 70
     6
  9
$SURFTYPE
 70
     6
  9
$SURFU
 70
     6
  9
$SURFV
 70
     6
  9
$UCSBASE
  2

  9
$UCSNAME
  2

  9
$UCSORG
 10
0.0
 20
0.0
 30
0.0
  9
$UCSXDIR
 10
1.0
 20
0.0
 30
0.0
  9
$UCSYDIR
 10
0.0
 20
1.0
 30
0.0
  9
$UCSORTHOREF
  2

  9
$UCSORTHOVIEW
 70
     0
  9
$UCSORGTOP
 10
0.0
 20
0.0
 30
0.0
  9
$UCSORGBOTTOM
 10
0.0
 20
0.0
 30
0.0
  9
$UCSORGLEFT
 10
0.0
 20
0.0
 30
0.0
  9
$UCSORGRIGHT
 10
0.0
 20
0.0
 30
0.0
  9
$UCSORGFRONT
 10
0.0
 20
0.0
 30
0.0
  9
$UCSORGBACK
 10
0.0
 20
0.0
 30
0.0
  9
$PUCSBASE
  2

  9
$PUCSNAME
  2

  9
$PUCSORG
 10
0.0
 20
0.0
 30
0.0
  9
$PUCSXDIR
 10
1.0
 20
0.0
 30
0.0
  9
$PUCSYDIR
 10
0.0
 20
1.0
 30
0.0
  9
$PUCSORTHOREF
  2

  9
$PUCSORTHOVIEW
 70
     0
  9
$PUCSORGTOP
 10
0.0
 20
0.0
 30
0.0
  9
$PUCSORGBOTTOM
 10
0.0
 20
0.0
 30
0.0
  9
$PUCSORGLEFT
 10
0.0
 20
0.0
 30
0.0
  9
$PUCSORGRIGHT
 10
0.0
 20
0.0
 30
0.0
  9
$PUCSORGFRONT
 10
0.0
 20
0.0
 30
0.0
  9
$PUCSORGBACK
 10
0.0
 20
0.0
 30
0.0
  9
$USERI1
 70
     0
  9
$USERI2
 70
     0
  9
$USERI3
 70
     0
  9
$USERI4
 70
     0
  9
$USERI5
 70
     0
  9
$USERR1
 40
0.0
  9
$USERR2
 40
0.0
  9
$USERR3
 40
0.0
  9
$USERR4
 40
0.0
  9
$USERR5
 40
0.0
  9
$WORLDVIEW
 70
     1
  9
$SHADEDGE
 70
     3
  9
$SHADEDIF
 70
    70
  9
$TILEMODE
 70
     1
  9
$MAXACTVP
 70
    64
  9
$PINSBASE
 10
0.0
 20
0.0
 30
0.0
  9
$PLIMCHECK
 70
     0
  9
$PEXTMIN
 10
1.0000000000E+20
 20
1.0000000000E+20
 30
1.0000000000E+20
  9
$PEXTMAX
 10
-1.0000000000E+20
 20
-1.0000000000E+20
 30
-1.0000000000E+20
  9
$PLIMMIN
 10
0.0
 20
0.0
  9
$PLIMMAX
 10
420.0
 20
297.0
  9
$UNITMODE
 70
     0
  9
$VISRETAIN
 70
     1
  9
$PLINEGEN
 70
     0
  9
$PSLTSCALE
 70
     1
  9
$TREEDEPTH
 70
  3020
  9
$CMLSTYLE
  2
Standard
  9
$CMLJUST
 70
     0
  9
$CMLSCALE
 40
20.0
  9
$PROXYGRAPHICS
 70
     1
  9
$MEASUREMENT
 70
     1
  9
$CELWEIGHT
370
    -1
  9
$ENDCAPS
280
     0
  9
$JOINSTYLE
280
     0
  9
$LWDISPLAY
290
     1
  9
$INSUNITS
 70
     4
  9
$HYPERLINKBASE
  1

  9
$STYLESHEET
  1

  9
$XEDIT
290
     1
  9
$CEPSNTYPE
380
     0
  9
$PSTYLEMODE
290
     1
  9
$FINGERPRINTGUID
  2
{55221f9b-265a-41e3-a34e-e477c24adde0}
  9
$VERSIONGUID
  2
{FAEB1C32-E019-11D5-929B-00C0DF256EC4}
  9
$EXTNAMES
290
     1
  9
$PSVPSCALE
 40
0.0
  9
$OLESTARTUP
290
     0
  0
ENDSEC
  0
SECTION
  2
CLASSES
  0
CLASS
  1
ACDBDICTIONARYWDFLT
  2
AcDbDictionaryWithDefault
  3
ObjectDBX Classes
 90
        0
280
     0
281
     0
  0
CLASS
  1
VISUALSTYLE
  2
AcDbVisualStyle
  3
ObjectDBX Classes
 90
     4095
280
     0
281
     0
  0
CLASS
  1
MATERIAL
  2
AcDbMaterial
  3
ObjectDBX Classes
 90
     1153
280
     0
281
     0
  0
CLASS
  1
SCALE
  2
AcDbScale
  3
ObjectDBX Classes
 90
     1153
280
     0
281
     0
  0
CLASS
  1
TABLESTYLE
  2
AcDbTableStyle
  3
ObjectDBX Classes
 90
     4095
280
     0
281
     0
  0
CLASS
  1
MLEADERSTYLE
  2
AcDbMLeaderStyle
  3
ACDB_MLEADERSTYLE_CLASS
 90
     4095
280
     0
281
     0
  0
CLASS
  1
SUN
  2
AcDbSun
  3
SCENEOE
 90
     1153
280
     0
281
     0
  0
CLASS
  1
ACDBPLACEHOLDER
  2
AcDbPlaceHolder
  3
ObjectDBX Classes
 90
        0
280
     0
281
     0
  0
CLASS
  1
LAYOUT
  2
AcDbLayout
  3
ObjectDBX Classes
 90
        0
280
     0
281
     0
  0
ENDSEC
  0
SECTION
  2
TABLES
  0
TABLE
  2
VPORT
  5
8
330
0
100
AcDbSymbolTable
 70
     1
  0
VPORT
  5
29
330
8
100
AcDbSymbolTableRecord
100
AcDbViewportTableRecord
  2
*Active
 70
     0
 10
0.0
 20
0.0
 11
1.0
 21
1.0
 12
1943.1
 22
1257.3
 13
0.0
 23
0.0
 14
10.0
 24
10.0
 15
10.0
 25
10.0
 16
0.0
 26
0.0
 36
1.0
 17
0.0
 27
0.0
 37
0.0
 40
2514.6
 41
1.5454545455
 42
50.0
 43
0.0
 44
0.0
 50
0.0
 51
0.0
 71
     0
 72
  2000
 73
     1
 74
     3
 75
     0
 76
     0
 77
     0
 78
     0
281
     0
 65
     1
110
0.0
120
0.0
130
0.0
111
1.0
121
0.0
131
0.0
112
0.0
122
1.0
132
0.0
 79
     0
146
0.0
  0
ENDTAB
  0
TABLE
  2
LTYPE
  5
5
330
0
100
AcDbSymbolTable
 70
     6
  0
LTYPE
  5
14
330
5
100
AcDbSymbolTableRecord
100
AcDbLinetypeTableRecord
  2
ByBlock
 70
     0
  3

 72
    65
 73
     0
 40
0.0
  0
LTYPE
  5
15
330
5
100
AcDbSymbolTableRecord
100
AcDbLinetypeTableRecord
  2
ByLayer
 70
     0
  3

 72
    65
 73
     0
 40
0.0
  0
LTYPE
  5
16
330
5
100
AcDbSymbolTableRecord
100
AcDbLinetypeTableRecord
  2
Continuous
 70
     0
  3
Solid line
 72
    65
 73
     0
 40
0.0
  0
LTYPE
  5
5E
330
5
100
AcDbSymbolTableRecord
100
AcDbLinetypeTableRecord
  2
HIDDEN
 70
     0
  3
Hidden __ __ __ __ __ __ __ __ __ __ __ __ __ __
 72
    65
 73
     2
 40
1.905
 49
1.27
 74
     0
 49
-0.635
 74
     0
  0
LTYPE
  5
5F
330
5
100
AcDbSymbolTableRecord
100
AcDbLinetypeTableRecord
  2
PHANTOM
 70
     0
  3
Phantom ______  __  __  ______  __  __  ______
 72
    65
 73
     6
 40
12.7
 49
6.35
 74
     0
 49
-1.27
 74
     0
 49
1.27
 74
     0
 49
-1.27
 74
     0
 49
1.27
 74
     0
 49
-1.27
 74
     0
  0
LTYPE
  5
60
330
5
100
AcDbSymbolTableRecord
100
AcDbLinetypeTableRecord
  2
CENTER
 70
     0
  3
Center ____ _ ____ _ ____ _ ____ _ ____ _ ____
 72
    65
 73
     4
 40
10.16
 49
6.35
 74
     0
 49
-1.27
 74
     0
 49
1.27
 74
     0
 49
-1.27
 74
     0
  0
LTYPE
  5
61
330
5
100
AcDbSymbolTableRecord
100
AcDbLinetypeTableRecord
  2
CENTERX2
 70
     0
  3
Center (2x) ________  __  ________  __  _____
 72
    65
 73
     4
 40
20.32
 49
12.7
 74
     0
 49
-2.54
 74
     0
 49
2.54
 74
     0
 49
-2.54
 74
     0
  0
LTYPE
  5
62
330
5
100
AcDbSymbolTableRecord
100
AcDbLinetypeTableRecord
  2
DOT2
 70
     0
  3
Dot (.5x) ........................................
 72
    65
 73
     2
 40
0.635
 49
0.0
 74
     0
 49
-0.635
 74
     0
  0
ENDTAB
  0
TABLE
  2
LAYER
  5
2
330
0
100
AcDbSymbolTable
 70
     6
  0
LAYER
  5
10
330
2
100
AcDbSymbolTableRecord
100
AcDbLayerTableRecord
  2
0
 70
     0
 62
     7
  6
Continuous
370
    -3
390
F
  0
LAYER
  5
63
330
2
100
AcDbSymbolTableRecord
100
AcDbLayerTableRecord
  2
SLD-0
 70
     0
 62
   179
  6
Continuous
370
    -3
390
F
  0
LAYER
  5
64
330
2
100
AcDbSymbolTableRecord
100
AcDbLayerTableRecord
  2
WIRE_BOND
 70
     0
 62
     6
  6
Continuous
370
   100
390
F
  0
LAYER
  5
65
330
2
100
AcDbSymbolTableRecord
100
AcDbLayerTableRecord
  2
HIGHLIGHT-BLUE
 70
     0
 62
     5
  6
Continuous
370
    70
390
F
  0
LAYER
  5
66
330
2
100
AcDbSymbolTableRecord
100
AcDbLayerTableRecord
  2
MANUAL_DIM
 70
     0
 62
   114
  6
Continuous
370
    -3
390
F
  0
LAYER
  5
67
330
2
100
AcDbSymbolTableRecord
100
AcDbLayerTableRecord
  2
TORQUE_9-10
 70
     0
 62
   155
  6
Continuous
370
    -3
390
F
  0
ENDTAB
  0
TABLE
  2
STYLE
  5
3
330
0
100
AcDbSymbolTable
 70
     5
  0
STYLE
  5
11
330
3
100
AcDbSymbolTableRecord
100
AcDbTextStyleTableRecord
  2
STANDARD
 70
     0
 40
0.0
 41
1.0
 50
0.0
 71
     0
 42
28.575
  3
GOTHIC.TTF
  4

1001
ACAD
1000
CENTURY GOTHIC
1071
       34
  0
STYLE
  5
82
330
3
100
AcDbSymbolTableRecord
100
AcDbTextStyleTableRecord
  2
SLDTEXTSTYLE0
 70
     0
 40
0.0
 41
0.913
 50
0.0
 71
     0
 42
28.575
  3
GOTHIC.TTF
  4

1001
ACAD
1000
Century Gothic
1071
      290
  0
STYLE
  5
C3
330
3
100
AcDbSymbolTableRecord
100
AcDbTextStyleTableRecord
  2
SLDTEXTSTYLE1
 70
     0
 40
0.0
 41
0.87
 50
0.0
 71
     0
 42
28.575
  3
ARIALN.TTF
  4

1001
ACAD
1000
Arial Narrow
1071
      290
  0
STYLE
  5
CE
330
3
100
AcDbSymbolTableRecord
100
AcDbTextStyleTableRecord
  2
SLDTEXTSTYLE2
 70
     0
 40
0.0
 41
0.8969072165
 50
0.0
 71
     0
 42
28.575
  3
ARIALN.TTF
  4

1001
ACAD
1000
Arial Narrow
1071
      290
  0
STYLE
  5
D3
330
3
100
AcDbSymbolTableRecord
100
AcDbTextStyleTableRecord
  2
SLDTEXTSTYLE3
 70
     0
 40
0.0
 41
0.8969072165
 50
0.0
 71
     0
 42
28.575
  3
ARIALN.TTF
  4
bigfont
1001
ACAD
1000
Arial Narrow
1071
      290
  0
ENDTAB
  0
TABLE
  2
VIEW
  5
6
330
0
100
AcDbSymbolTable
 70
     0
  0
ENDTAB
  0
TABLE
  2
UCS
  5
7
330
0
100
AcDbSymbolTable
 70
     0
  0
ENDTAB
  0
TABLE
  2
APPID
  5
9
330
0
100
AcDbSymbolTable
 70
     1
  0
APPID
  5
12
330
9
100
AcDbSymbolTableRecord
100
AcDbRegAppTableRecord
  2
ACAD
 70
     0
  0
ENDTAB
  0
TABLE
  2
DIMSTYLE
  5
A
330
0
100
AcDbSymbolTable
 70
     9
100
AcDbDimStyleTable
  0
DIMSTYLE
105
27
330
A
100
AcDbSymbolTableRecord
100
AcDbDimStyleTableRecord
  2
ISO-25
 70
     0
 41
2.5
 42
0.625
 43
3.75
 44
1.25
 73
     0
 74
     0
 77
     1
 78
     8
140
2.5
141
2.5
143
0.0393700787
147
0.625
171
     3
172
     1
178
     0
271
     2
272
     2
274
     3
278
    44
283
     0
284
     8
340
11
  0
DIMSTYLE
105
19E
102
{ACAD_REACTORS
330
19D
330
22A
330
268
330
27D
330
355
330
369
330
3D3
330
3E7
330
430
330
534
330
548
330
55C
102
}
330
A
100
AcDbSymbolTableRecord
100
AcDbDimStyleTableRecord
  2
SLDDIMSTYLE0
 70
     0
 41
18.0
 44
0.0
 45
0.000000001
 78
    12
 79
     3
140
21.43125
143
0.0393700787
147
5.3578125
148
0.000000001
170
     1
173
     1
178
     0
271
     1
272
     2
276
     2
284
    12
340
82
  0
DIMSTYLE
105
1B3
102
{ACAD_REACTORS
330
1B2
330
1ED
330
216
330
459
330
585
102
}
330
A
100
AcDbSymbolTableRecord
100
AcDbDimStyleTableRecord
  2
SLDDIMSTYLE1
 70
     0
 41
18.0
 44
0.0
 45
0.000000001
 78
     4
 79
     1
140
21.43125
143
0.0393700787
147
5.3578125
148
0.000000001
170
     1
173
     1
178
     0
271
     1
272
     2
276
     2
284
    12
340
82
  0
DIMSTYLE
105
202
102
{ACAD_REACTORS
330
201
330
253
330
291
330
2A5
330
444
330
50C
330
520
330
570
102
}
330
A
100
AcDbSymbolTableRecord
100
AcDbDimStyleTableRecord
  2
SLDDIMSTYLE2
 70
     0
 41
18.0
 44
0.0
 45
0.000000001
 78
    12
 79
     3
140
21.43125
143
0.0393700787
147
5.3578125
148
0.000000001
170
     1
172
     1
173
     1
178
     0
271
     1
272
     2
276
     2
284
    12
289
     0
340
82
  0
DIMSTYLE
105
23F
102
{ACAD_REACTORS
330
23E
102
}
330
A
100
AcDbSymbolTableRecord
100
AcDbDimStyleTableRecord
  2
SLDDIMSTYLE3
 70
     0
 41
18.0
 44
0.0
 45
0.000000001
 78
     4
 79
     1
140
21.43125
143
0.0393700787
147
5.3578125
148
0.000000001
170
     1
173
     1
178
     0
271
     1
272
     2
274
     1
276
     2
284
    12
340
82
  0
DIMSTYLE
105
2C3
330
A
100
AcDbSymbolTableRecord
100
AcDbDimStyleTableRecord
  2
SLDDIMSTYLE4
 70
     0
 41
18.0
 44
0.0
 45
0.000000001
146
18.0
147
0.0
173
     1
178
     0
271
     0
272
     0
276
     2
340
11
  0
DIMSTYLE
105
37E
102
{ACAD_REACTORS
330
37D
102
}
330
A
100
AcDbSymbolTableRecord
100
AcDbDimStyleTableRecord
  2
SLDDIMSTYLE5
 70
     0
 41
18.0
 44
0.0
 78
    12
 79
     3
140
21.43125
144
9.0
147
5.3578125
173
     1
178
     0
272
     2
276
     2
284
    12
340
82
  0
DIMSTYLE
105
4D7
102
{ACAD_REACTORS
330
4D6
330
4EB
102
}
330
A
100
AcDbSymbolTableRecord
100
AcDbDimStyleTableRecord
  2
SLDDIMSTYLE6
 70
     0
 41
18.0
 44
0.0
 45
0.000000001
 78
     4
 79
     1
140
21.43125
143
0.0393700787
147
5.3578125
148
0.000000001
170
     1
173
     1
178
     0
271
     2
272
     2
276
     2
284
    12
340
82
  0
DIMSTYLE
105
500
102
{ACAD_REACTORS
330
4FF
102
}
330
A
100
AcDbSymbolTableRecord
100
AcDbDimStyleTableRecord
  2
SLDDIMSTYLE7
 70
     0
 41
18.0
 44
0.0
 45
0.000000001
 78
     4
 79
     1
140
21.43125
147
5.3578125
173
     1
178
     0
271
     2
272
     2
276
     2
284
    12
340
82
  0
ENDTAB
  0
TABLE
  2
BLOCK_RECORD
  5
1
330
0
100
AcDbSymbolTable
 70
    61
  0
BLOCK_RECORD
  5
1F
330
1
100
AcDbSymbolTableRecord
100
AcDbBlockTableRecord
  2
*Model_Space
340
22
  0
BLOCK_RECORD
  5
1B
330
1
100
AcDbSymbolTableRecord
100
AcDbBlockTableRecord
  2
*Paper_Space
340
1E
  0
BLOCK_RECORD
  5
23
330
1
100
AcDbSymbolTableRecord
100
AcDbBlockTableRecord
  2
*Paper_Space0
340
26
  0
BLOCK_RECORD
  5
73
330
1
100
AcDbSymbolTableRecord
100
AcDbBlockTableRecord
  2
SW_NOTE_0
340
0
102
{BLKREFS
331
AE
102
}
  0
BLOCK_RECORD
  5
89
330
1
100
AcDbSymbolTableRecord
100
AcDbBlockTableRecord
  2
SW_SYMBOL_MOD_COM
340
0
102
{BLKREFS
331
95
331
1CD
331
389
102
}
  0
BLOCK_RECORD
  5
99
330
1
100
AcDbSymbolTableRecord
100
AcDbBlockTableRecord
  2
SW_SYMBOL_GTOL_CONC
340
0
102
{BLKREFS
331
9E
331
A3
331
A8
102
}
  0
BLOCK_RECORD
  5
19F
330
1
100
AcDbSymbolTableRecord
100
AcDbBlockTableRecord
  2
_D
340
0
  0
BLOCK_RECORD
  5
1B4
330
1
100
AcDbSymbolTableRecord
100
AcDbBlockTableRecord
  2
_D_1
340
0
  0
BLOCK_RECORD
  5
1C7
330
1
100
AcDbSymbolTableRecord
100
AcDbBlockTableRecord
  2
SW_SYMBOL_MOD_CL
340
0
102
{BLKREFS
331
1CC
102
}
  0
BLOCK_RECORD
  5
1EE
330
1
100
AcDbSymbolTableRecord
100
AcDbBlockTableRecord
  2
_D_2
340
0
  0
BLOCK_RECORD
  5
203
330
1
100
AcDbSymbolTableRecord
100
AcDbBlockTableRecord
  2
_D_3
340
0
  0
BLOCK_RECORD
  5
217
330
1
100
AcDbSymbolTableRecord
100
AcDbBlockTableRecord
  2
_D_4
340
0
  0
BLOCK_RECORD
  5
22B
330
1
100
AcDbSymbolTableRecord
100
AcDbBlockTableRecord
  2
_D_5
340
0
  0
BLOCK_RECORD
  5
240
330
1
100
AcDbSymbolTableRecord
100
AcDbBlockTableRecord
  2
_D_6
340
0
  0
BLOCK_RECORD
  5
254
330
1
100
AcDbSymbolTableRecord
100
AcDbBlockTableRecord
  2
_D_7
340
0
  0
BLOCK_RECORD
  5
269
330
1
100
AcDbSymbolTableRecord
100
AcDbBlockTableRecord
  2
_D_8
340
0
  0
BLOCK_RECORD
  5
27E
330
1
100
AcDbSymbolTableRecord
100
AcDbBlockTableRecord
  2
_D_9
340
0
  0
BLOCK_RECORD
  5
292
330
1
100
AcDbSymbolTableRecord
100
AcDbBlockTableRecord
  2
_D_10
340
0
  0
BLOCK_RECORD
  5
2A6
330
1
100
AcDbSymbolTableRecord
100
AcDbBlockTableRecord
  2
_D_11
340
0
  0
BLOCK_RECORD
  5
2BA
330
1
100
AcDbSymbolTableRecord
100
AcDbBlockTableRecord
  2
SW_NOTE_0_1
340
0
102
{BLKREFS
331
2C2
102
}
  0
BLOCK_RECORD
  5
2C5
330
1
100
AcDbSymbolTableRecord
100
AcDbBlockTableRecord
  2
SW_NOTE_0_2
340
0
102
{BLKREFS
331
2CD
102
}
  0
BLOCK_RECORD
  5
2CF
330
1
100
AcDbSymbolTableRecord
100
AcDbBlockTableRecord
  2
SW_NOTE_0_3
340
0
102
{BLKREFS
331
2D7
102
}
  0
BLOCK_RECORD
  5
2DB
330
1
100
AcDbSymbolTableRecord
100
AcDbBlockTableRecord
  2
SW_CENTERMARKSYMBOL_0
340
0
102
{BLKREFS
331
2E6
102
}
  0
BLOCK_RECORD
  5
2E7
330
1
100
AcDbSymbolTableRecord
100
AcDbBlockTableRecord
  2
SW_CENTERMARKSYMBOL_1
340
0
102
{BLKREFS
331
2F2
102
}
  0
BLOCK_RECORD
  5
2F3
330
1
100
AcDbSymbolTableRecord
100
AcDbBlockTableRecord
  2
SW_CENTERMARKSYMBOL_2
340
0
102
{BLKREFS
331
2FE
102
}
  0
BLOCK_RECORD
  5
2FF
330
1
100
AcDbSymbolTableRecord
100
AcDbBlockTableRecord
  2
SW_CENTERMARKSYMBOL_3
340
0
102
{BLKREFS
331
30A
102
}
  0
BLOCK_RECORD
  5
30B
330
1
100
AcDbSymbolTableRecord
100
AcDbBlockTableRecord
  2
SW_CENTERMARKSYMBOL_4
340
0
102
{BLKREFS
331
316
102
}
  0
BLOCK_RECORD
  5
317
330
1
100
AcDbSymbolTableRecord
100
AcDbBlockTableRecord
  2
SW_CENTERMARKSYMBOL_5
340
0
102
{BLKREFS
331
322
102
}
  0
BLOCK_RECORD
  5
323
330
1
100
AcDbSymbolTableRecord
100
AcDbBlockTableRecord
  2
SW_CENTERMARKSYMBOL_6
340
0
102
{BLKREFS
331
32E
102
}
  0
BLOCK_RECORD
  5
32F
330
1
100
AcDbSymbolTableRecord
100
AcDbBlockTableRecord
  2
SW_CENTERMARKSYMBOL_7
340
0
102
{BLKREFS
331
33A
102
}
  0
BLOCK_RECORD
  5
356
330
1
100
AcDbSymbolTableRecord
100
AcDbBlockTableRecord
  2
_D_12
340
0
  0
BLOCK_RECORD
  5
36A
330
1
100
AcDbSymbolTableRecord
100
AcDbBlockTableRecord
  2
_D_13
340
0
  0
BLOCK_RECORD
  5
37F
330
1
100
AcDbSymbolTableRecord
100
AcDbBlockTableRecord
  2
_D_14
340
0
  0
BLOCK_RECORD
  5
38A
330
1
100
AcDbSymbolTableRecord
100
AcDbBlockTableRecord
  2
SW_NOTE_0_4
340
0
102
{BLKREFS
331
392
102
}
  0
BLOCK_RECORD
  5
394
330
1
100
AcDbSymbolTableRecord
100
AcDbBlockTableRecord
  2
SW_NOTE_0_5
340
0
102
{BLKREFS
331
39C
102
}
  0
BLOCK_RECORD
  5
39E
330
1
100
AcDbSymbolTableRecord
100
AcDbBlockTableRecord
  2
SW_NOTE_0_6
340
0
102
{BLKREFS
331
3A6
102
}
  0
BLOCK_RECORD
  5
3D4
330
1
100
AcDbSymbolTableRecord
100
AcDbBlockTableRecord
  2
_D_15
340
0
  0
BLOCK_RECORD
  5
3E8
330
1
100
AcDbSymbolTableRecord
100
AcDbBlockTableRecord
  2
_D_16
340
0
  0
BLOCK_RECORD
  5
3FB
330
1
100
AcDbSymbolTableRecord
100
AcDbBlockTableRecord
  2
SW_NOTE_0_7
340
0
102
{BLKREFS
331
403
102
}
  0
BLOCK_RECORD
  5
431
330
1
100
AcDbSymbolTableRecord
100
AcDbBlockTableRecord
  2
_D_17
340
0
  0
BLOCK_RECORD
  5
445
330
1
100
AcDbSymbolTableRecord
100
AcDbBlockTableRecord
  2
_D_18
340
0
  0
BLOCK_RECORD
  5
45A
330
1
100
AcDbSymbolTableRecord
100
AcDbBlockTableRecord
  2
_D_19
340
0
  0
BLOCK_RECORD
  5
46E
330
1
100
AcDbSymbolTableRecord
100
AcDbBlockTableRecord
  2
SW_NOTE_0_8
340
0
102
{BLKREFS
331
476
102
}
  0
BLOCK_RECORD
  5
479
330
1
100
AcDbSymbolTableRecord
100
AcDbBlockTableRecord
  2
SW_CENTERMARKSYMBOL_8
340
0
102
{BLKREFS
331
484
102
}
  0
BLOCK_RECORD
  5
485
330
1
100
AcDbSymbolTableRecord
100
AcDbBlockTableRecord
  2
SW_CENTERMARKSYMBOL_9
340
0
102
{BLKREFS
331
490
102
}
  0
BLOCK_RECORD
  5
4D8
330
1
100
AcDbSymbolTableRecord
100
AcDbBlockTableRecord
  2
_D_20
340
0
  0
BLOCK_RECORD
  5
4EC
330
1
100
AcDbSymbolTableRecord
100
AcDbBlockTableRecord
  2
_D_21
340
0
  0
BLOCK_RECORD
  5
501
330
1
100
AcDbSymbolTableRecord
100
AcDbBlockTableRecord
  2
_D_22
340
0
  0
BLOCK_RECORD
  5
50D
330
1
100
AcDbSymbolTableRecord
100
AcDbBlockTableRecord
  2
_D_23
340
0
  0
BLOCK_RECORD
  5
521
330
1
100
AcDbSymbolTableRecord
100
AcDbBlockTableRecord
  2
_D_24
340
0
  0
BLOCK_RECORD
  5
535
330
1
100
AcDbSymbolTableRecord
100
AcDbBlockTableRecord
  2
_D_25
340
0
  0
BLOCK_RECORD
  5
549
330
1
100
AcDbSymbolTableRecord
100
AcDbBlockTableRecord
  2
_D_26
340
0
  0
BLOCK_RECORD
  5
55D
330
1
100
AcDbSymbolTableRecord
100
AcDbBlockTableRecord
  2
_D_27
340
0
  0
BLOCK_RECORD
  5
571
330
1
100
AcDbSymbolTableRecord
100
AcDbBlockTableRecord
  2
_D_28
340
0
  0
BLOCK_RECORD
  5
586
330
1
100
AcDbSymbolTableRecord
100
AcDbBlockTableRecord
  2
_D_29
340
0
  0
BLOCK_RECORD
  5
599
330
1
100
AcDbSymbolTableRecord
100
AcDbBlockTableRecord
  2
SW_NOTE_0_9
340
0
102
{BLKREFS
331
5A1
102
}
  0
BLOCK_RECORD
  5
5A3
330
1
100
AcDbSymbolTableRecord
100
AcDbBlockTableRecord
  2
SW_NOTE_0_10
340
0
102
{BLKREFS
331
5AB
102
}
  0
BLOCK_RECORD
  5
5AF
330
1
100
AcDbSymbolTableRecord
100
AcDbBlockTableRecord
  2
SW_CENTERMARKSYMBOL_10
340
0
102
{BLKREFS
331
5BA
102
}
  0
BLOCK_RECORD
  5
5BB
330
1
100
AcDbSymbolTableRecord
100
AcDbBlockTableRecord
  2
SW_CENTERMARKSYMBOL_11
340
0
102
{BLKREFS
331
5C6
102
}
  0
BLOCK_RECORD
  5
5C7
330
1
100
AcDbSymbolTableRecord
100
AcDbBlockTableRecord
  2
SW_CENTERMARKSYMBOL_12
340
0
102
{BLKREFS
331
5D2
102
}
  0
BLOCK_RECORD
  5
5D3
330
1
100
AcDbSymbolTableRecord
100
AcDbBlockTableRecord
  2
SW_CENTERMARKSYMBOL_13
340
0
102
{BLKREFS
331
5DE
102
}
  0
BLOCK_RECORD
  5
5DF
330
1
100
AcDbSymbolTableRecord
100
AcDbBlockTableRecord
  2
SW_CENTERMARKSYMBOL_14
340
0
102
{BLKREFS
331
5EA
102
}
  0
BLOCK_RECORD
  5
5EB
330
1
100
AcDbSymbolTableRecord
100
AcDbBlockTableRecord
  2
SW_CENTERMARKSYMBOL_15
340
0
102
{BLKREFS
331
5F6
102
}
  0
ENDTAB
  0
ENDSEC
  0
SECTION
  2
BLOCKS
  0
BLOCK
  5
20
330
1F
100
AcDbEntity
  8
0
100
AcDbBlockBegin
  2
*Model_Space
 70
     0
 10
0.0
 20
0.0
 30
0.0
  3
*Model_Space
  1

  0
ENDBLK
  5
21
330
1F
100
AcDbEntity
  8
0
100
AcDbBlockEnd
  0
BLOCK
  5
1C
330
1B
100
AcDbEntity
 67
     1
  8
0
100
AcDbBlockBegin
  2
*Paper_Space
 70
     0
 10
0.0
 20
0.0
 30
0.0
  3
*Paper_Space
  1

  0
ENDBLK
  5
1D
330
1B
100
AcDbEntity
 67
     1
  8
0
100
AcDbBlockEnd
  0
BLOCK
  5
24
330
23
100
AcDbEntity
  8
0
100
AcDbBlockBegin
  2
*Paper_Space0
 70
     0
 10
0.0
 20
0.0
 30
0.0
  3
*Paper_Space0
  1

  0
ENDBLK
  5
25
330
23
100
AcDbEntity
  8
0
100
AcDbBlockEnd
  0
BLOCK
  5
74
330
73
100
AcDbEntity
  8
0
100
AcDbBlockBegin
  2
SW_NOTE_0
 70
     0
 10
0.0
 20
0.0
 30
0.0
  3
SW_NOTE_0
  1

  0
LINE
  5
76
330
73
100
AcDbEntity
  8
0
  6
Continuous
 62
     0
370
     0
100
AcDbLine
 10
-9.4654689892
 20
-151.8370286794
 30
0.0
 11
-9.4654689892
 21
-117.0707781566
 31
0.0
  0
LINE
  5
77
330
73
100
AcDbEntity
  8
0
  6
Continuous
 62
     0
370
     0
100
AcDbLine
 10
-9.4654689892
 20
-117.0707781566
 30
0.0
 11
25.3007815336
 21
-117.0707781566
 31
0.0
  0
LINE
  5
78
330
73
100
AcDbEntity
  8
0
  6
Continuous
 62
     0
370
     0
100
AcDbLine
 10
25.3007815336
 20
-117.0707781566
 30
0.0
 11
25.3007815336
 21
-151.8370286794
 31
0.0
  0
LINE
  5
79
330
73
100
AcDbEntity
  8
0
  6
Continuous
 62
     0
370
     0
100
AcDbLine
 10
25.3007815336
 20
-151.8370286794
 30
0.0
 11
-9.4654689892
 21
-151.8370286794
 31
0.0
  0
LINE
  5
7A
330
73
100
AcDbEntity
  8
0
  6
Continuous
 62
     0
370
     0
100
AcDbLine
 10
-9.4654689892
 20
-232.8698403435
 30
0.0
 11
-9.4654689892
 21
-198.1035898207
 31
0.0
  0
LINE
  5
7B
330
73
100
AcDbEntity
  8
0
  6
Continuous
 62
     0
370
     0
100
AcDbLine
 10
-9.4654689892
 20
-198.1035898207
 30
0.0
 11
25.3007815336
 21
-198.1035898207
 31
0.0
  0
LINE
  5
7C
330
73
100
AcDbEntity
  8
0
  6
Continuous
 62
     0
370
     0
100
AcDbLine
 10
25.3007815336
 20
-198.1035898207
 30
0.0
 11
25.3007815336
 21
-232.8698403435
 31
0.0
  0
LINE
  5
7D
330
73
100
AcDbEntity
  8
0
  6
Continuous
 62
     0
370
     0
100
AcDbLine
 10
25.3007815336
 20
-232.8698403435
 30
0.0
 11
-9.4654689892
 21
-232.8698403435
 31
0.0
  0
LINE
  5
7E
330
73
100
AcDbEntity
  8
0
  6
Continuous
 62
     0
370
     0
100
AcDbLine
 10
-9.4654689892
 20
-313.9026520075
 30
0.0
 11
-9.4654689892
 21
-279.1364014847
 31
0.0
  0
LINE
  5
7F
330
73
100
AcDbEntity
  8
0
  6
Continuous
 62
     0
370
     0
100
AcDbLine
 10
-9.4654689892
 20
-279.1364014847
 30
0.0
 11
25.3007815336
 21
-279.1364014847
 31
0.0
  0
LINE
  5
80
330
73
100
AcDbEntity
  8
0
  6
Continuous
 62
     0
370
     0
100
AcDbLine
 10
25.3007815336
 20
-279.1364014847
 30
0.0
 11
25.3007815336
 21
-313.9026520075
 31
0.0
  0
LINE
  5
81
330
73
100
AcDbEntity
  8
0
  6
Continuous
 62
     0
370
     0
100
AcDbLine
 10
25.3007815336
 20
-313.9026520075
 30
0.0
 11
-9.4654689892
 21
-313.9026520075
 31
0.0
  0
MTEXT
  5
83
330
73
100
AcDbEntity
  8
0
  6
Continuous
 62
     0
370
     0
100
AcDbMText
 10
0.0
 20
27.3750732422
 30
0.0
 40
21.43125
 41
0.0
 71
     1
 72
     1
  1
NOTES: UNLESS OTHERWISE SPECIFIED
  7
SLDTEXTSTYLE0
 73
     1
 44
1.0
  0
MTEXT
  5
84
330
73
100
AcDbEntity
  8
0
  6
Continuous
 62
     0
370
     0
100
AcDbMText
 10
89.9999979883
 20
-10.1999257922
 30
0.0
 40
21.43125
 41
0.0
 71
     1
 72
     1
  1
NET WEIGHT APPROX. 20.7 KG [45.6 LBS].
  7
SLDTEXTSTYLE0
 73
     1
 44
1.0
  0
MTEXT
  5
85
330
73
100
AcDbEntity
  8
0
  6
Continuous
 62
     0
370
     0
100
AcDbMText
 10
0.0
 20
-10.1999257922
 30
0.0
 40
21.43125
 41
0.0
 71
     1
 72
     1
  1
1.
  7
SLDTEXTSTYLE0
 73
     1
 44
1.0
  0
MTEXT
  5
86
330
73
100
AcDbEntity
  8
0
  6
Continuous
 62
     0
370
     0
100
AcDbMText
 10
89.9999979883
 20
-47.7749248266
 30
0.0
 40
21.43125
 41
0.0
 71
     1
 72
     1
  1
PARTS ARE SYMMETRICAL ABOUT CENTER LINES UNLESS OTHERWISE NOTED.
  7
SLDTEXTSTYLE0
 73
     1
 44
1.0
  0
MTEXT
  5
87
330
73
100
AcDbEntity
  8
0
  6
Continuous
 62
     0
370
     0
100
AcDbMText
 10
0.0
 20
-47.7749248266
 30
0.0
 40
21.43125
 41
0.0
 71
     1
 72
     1
  1
2.
  7
SLDTEXTSTYLE0
 73
     1
 44
1.0
  0
MTEXT
  5
88
330
73
100
AcDbEntity
  8
0
  6
Continuous
 62
     0
370
     0
100
AcDbMText
 10
89.9999979883
 20
-85.349923861
 30
0.0
 40
21.43125
 41
0.0
 71
     1
 72
     1
  1
SYMBOL 
  7
SLDTEXTSTYLE0
 73
     1
 44
1.0
  0
INSERT
  5
95
330
73
100
AcDbEntity
  8
0
  6
Continuous
 62
     0
370
     0
100
AcDbBlockReference
  2
SW_SYMBOL_MOD_COM
 10
222.0623642206
 20
-109.0112184101
 30
0.0
 41
0.0023657471
 42
0.0023657471
 43
0.0023657471
  0
MTEXT
  5
96
330
73
100
AcDbEntity
  8
0
  6
Continuous
 62
     0
370
     0
100
AcDbMText
 10
264.4380312413
 20
-85.349923861
 30
0.0
 40
21.43125
 41
0.0
 71
     1
 72
     1
  1
INDICATES CENTER OF GRAVITY.
  7
SLDTEXTSTYLE0
 73
     1
 44
1.0
  0
MTEXT
  5
97
330
73
100
AcDbEntity
  8
0
  6
Continuous
 62
     0
370
     0
100
AcDbMText
 10
0.0
 20
-85.349923861
 30
0.0
 40
21.43125
 41
0.0
 71
     1
 72
     1
  1
3.
  7
SLDTEXTSTYLE0
 73
     1
 44
1.0
  0
MTEXT
  5
98
330
73
100
AcDbEntity
  8
0
  6
Continuous
 62
     0
370
     0
100
AcDbMText
 10
89.9999979883
 20
-121.3663310509
 30
0.0
 40
21.43125
 41
0.0
 71
     1
 72
     1
  1
SYMBOL 
  7
SLDTEXTSTYLE0
 73
     1
 44
1.0
  0
INSERT
  5
9E
330
73
100
AcDbEntity
  8
0
  6
Continuous
 62
     0
370
     0
100
AcDbBlockReference
  2
SW_SYMBOL_GTOL_CONC
 10
209.7768746316
 20
-144.6566923259
 30
0.0
 41
0.0020277832
 42
0.0020277832
 43
0.0020277832
  0
MTEXT
  5
9F
330
73
100
AcDbEntity
  8
0
  6
Continuous
 62
     0
370
     0
100
AcDbMText
 10
246.0988797247
 20
-121.3663310509
 30
0.0
 40
21.43125
 41
0.0
 71
     1
 72
     1
  1
INDICATES SUSPENSION POINT.
  7
SLDTEXTSTYLE0
 73
     1
 44
1.0
  0
MTEXT
  5
A0
330
73
100
AcDbEntity
  8
0
  6
Continuous
 62
     0
370
     0
100
AcDbMText
 10
0.0
 20
-121.3663310509
 30
0.0
 40
21.43125
 41
0.0
 71
     1
 72
     1
  1
4
  7
SLDTEXTSTYLE0
 73
     1
 44
1.0
  0
MTEXT
  5
A1
330
73
100
AcDbEntity
  8
0
  6
Continuous
 62
     0
370
     0
100
AcDbMText
 10
90.0
 20
-166.3827355251
 30
0.0
 40
21.43125
 41
0.0
 71
     1
 72
     1
  1
12 TOTAL: M6-1 THD
  7
SLDTEXTSTYLE0
 73
     1
 44
1.0
  0
MTEXT
  5
A2
330
73
100
AcDbEntity
  8
0
  6
Continuous
 62
     0
370
     0
100
AcDbMText
 10
89.9999979883
 20
-202.399142715
 30
0.0
 40
21.43125
 41
0.0
 71
     1
 72
     1
  1
SYMBOL 
  7
SLDTEXTSTYLE0
 73
     1
 44
1.0
  0
INSERT
  5
A3
330
73
100
AcDbEntity
  8
0
  6
Continuous
 62
     0
370
     0
100
AcDbBlockReference
  2
SW_SYMBOL_GTOL_CONC
 10
209.7768746316
 20
-225.6895039899
 30
0.0
 41
0.0020277832
 42
0.0020277832
 43
0.0020277832
  0
MTEXT
  5
A4
330
73
100
AcDbEntity
  8
0
  6
Continuous
 62
     0
370
     0
100
AcDbMText
 10
246.0988797247
 20
-202.399142715
 30
0.0
 40
21.43125
 41
0.0
 71
     1
 72
     1
  1
INDICATES SUSPENSION POINT.
  7
SLDTEXTSTYLE0
 73
     1
 44
1.0
  0
MTEXT
  5
A5
330
73
100
AcDbEntity
  8
0
  6
Continuous
 62
     0
370
     0
100
AcDbMText
 10
0.0
 20
-202.399142715
 30
0.0
 40
21.43125
 41
0.0
 71
     1
 72
     1
  1
5
  7
SLDTEXTSTYLE0
 73
     1
 44
1.0
  0
MTEXT
  5
A6
330
73
100
AcDbEntity
  8
0
  6
Continuous
 62
     0
370
     0
100
AcDbMText
 10
90.0
 20
-247.4155471891
 30
0.0
 40
21.43125
 41
0.0
 71
     1
 72
     1
  1
2 TOTAL: M8-1.25 THD
  7
SLDTEXTSTYLE0
 73
     1
 44
1.0
  0
MTEXT
  5
A7
330
73
100
AcDbEntity
  8
0
  6
Continuous
 62
     0
370
     0
100
AcDbMText
 10
89.9999979883
 20
-283.431954379
 30
0.0
 40
21.43125
 41
0.0
 71
     1
 72
     1
  1
SYMBOL 
  7
SLDTEXTSTYLE0
 73
     1
 44
1.0
  0
INSERT
  5
A8
330
73
100
AcDbEntity
  8
0
  6
Continuous
 62
     0
370
     0
100
AcDbBlockReference
  2
SW_SYMBOL_GTOL_CONC
 10
209.7768746316
 20
-306.722315654
 30
0.0
 41
0.0020277832
 42
0.0020277832
 43
0.0020277832
  0
MTEXT
  5
A9
330
73
100
AcDbEntity
  8
0
  6
Continuous
 62
     0
370
     0
100
AcDbMText
 10
246.0988797247
 20
-283.431954379
 30
0.0
 40
21.43125
 41
0.0
 71
     1
 72
     1
  1
INDICATES SUSPENSION POINT.
  7
SLDTEXTSTYLE0
 73
     1
 44
1.0
  0
MTEXT
  5
AA
330
73
100
AcDbEntity
  8
0
  6
Continuous
 62
     0
370
     0
100
AcDbMText
 10
0.0
 20
-283.431954379
 30
0.0
 40
21.43125
 41
0.0
 71
     1
 72
     1
  1
6
  7
SLDTEXTSTYLE0
 73
     1
 44
1.0
  0
MTEXT
  5
AB
330
73
100
AcDbEntity
  8
0
  6
Continuous
 62
     0
370
     0
100
AcDbMText
 10
90.0
 20
-328.4483588532
 30
0.0
 40
21.43125
 41
0.0
 71
     1
 72
     1
  1
12 TOTAL; M10-1.5 THD
  7
SLDTEXTSTYLE0
 73
     1
 44
1.0
  0
MTEXT
  5
AC
330
73
100
AcDbEntity
  8
0
  6
Continuous
 62
     0
370
     0
100
AcDbMText
 10
89.9999979883
 20
-366.0233578876
 30
0.0
 40
21.43125
 41
0.0
 71
     1
 72
     1
  1
GRILLE NOT SHOWN FOR CLARITY.
  7
SLDTEXTSTYLE0
 73
     1
 44
1.0
  0
MTEXT
  5
AD
330
73
100
AcDbEntity
  8
0
  6
Continuous
 62
     0
370
     0
100
AcDbMText
 10
0.0
 20
-366.0233578876
 30
0.0
 40
21.43125
 41
0.0
 71
     1
 72
     1
  1
7.
  7
SLDTEXTSTYLE0
 73
     1
 44
1.0
  0
ENDBLK
  5
75
330
73
100
AcDbEntity
  8
0
100
AcDbBlockEnd
  0
BLOCK
  5
8A
330
89
100
AcDbEntity
  8
0
100
AcDbBlockBegin
  2
SW_SYMBOL_MOD_COM
 70
     0
 10
0.0
 20
0.0
 30
0.0
  3
SW_SYMBOL_MOD_COM
  1

  0
CIRCLE
  5
8C
330
89
100
AcDbEntity
  8
0
  6
Continuous
 62
     0
370
     0
100
AcDbCircle
 10
4500.0
 20
4500.0
 30
0.0
 40
4500.0
  0
LINE
  5
8D
330
89
100
AcDbEntity
  8
0
  6
Continuous
 62
     0
370
     0
100
AcDbLine
 10
11250.0
 20
4500.0
 30
0.0
 11
13500.0
 21
4500.0
 31
0.0
  0
LINE
  5
8E
330
89
100
AcDbEntity
  8
0
  6
Continuous
 62
     0
370
     0
100
AcDbLine
 10
4500.0
 20
13500.0
 30
0.0
 11
4500.0
 21
11250.0
 31
0.0
  0
LINE
  5
8F
330
89
100
AcDbEntity
  8
0
  6
Continuous
 62
     0
370
     0
100
AcDbLine
 10
-4500.0
 20
4500.0
 30
0.0
 11
-2250.0
 21
4500.0
 31
0.0
  0
LINE
  5
90
330
89
100
AcDbEntity
  8
0
  6
Continuous
 62
     0
370
     0
100
AcDbLine
 10
4500.0
 20
-4500.0
 30
0.0
 11
4500.0
 21
-2250.0
 31
0.0
  0
SOLID
  5
91
330
89
100
AcDbEntity
  8
0
  6
Continuous
 62
     0
370
     0
100
AcDbTrace
 10
4500.0
 20
4500.0
 30
0.0
 11
0.0
 21
4500.0
 31
0.0
 12
4500.0
 22
9000.0
 32
0.0
 13
4500.0
 23
9000.0
 33
0.0
  0
SOLID
  5
92
330
89
100
AcDbEntity
  8
0
  6
Continuous
 62
     0
370
     0
100
AcDbTrace
 10
4500.0
 20
4500.0
 30
0.0
 11
9000.0
 21
4500.0
 31
0.0
 12
4500.0
 22
0.0
 32
0.0
 13
4500.0
 23
0.0
 33
0.0
  0
HATCH
  5
93
330
89
100
AcDbEntity
  8
0
  6
Continuous
 62
     0
100
AcDbHatch
 10
0.0
 20
0.0
 30
0.0
210
0.0
220
0.0
230
1.0
  2
SOLID
 70
     1
 71
     0
 91
        1
 92
        0
 93
        2
 72
     2
 10
4500.0
 20
4500.0
 40
4500.0
 50
90.0000000000002
 51
180.0000000000013
 73
     1
 72
     1
 10
0.0
 20
4499.999999999968
 11
4499.999999999985
 21
9000.0
 97
        0
 75
     0
 76
     1
 98
        1
 10
0.0
 20
0.0
  0
HATCH
  5
94
330
89
100
AcDbEntity
  8
0
  6
Continuous
 62
     0
100
AcDbHatch
 10
0.0
 20
0.0
 30
0.0
210
0.0
220
0.0
230
1.0
  2
SOLID
 70
     1
 71
     0
 91
        1
 92
        0
 93
        2
 72
     2
 10
4500.0
 20
4500.0
 40
4500.0
 50
270.0000000000014
 51
360.0000000000016
 73
     1
 72
     1
 10
9000.0
 20
4500.000000000063
 11
4500.000000000048
 21
0.0
 97
        0
 75
     0
 76
     1
 98
        1
 10
0.0
 20
0.0
  0
ENDBLK
  5
8B
330
89
100
AcDbEntity
  8
0
100
AcDbBlockEnd
  0
BLOCK
  5
9A
330
99
100
AcDbEntity
  8
0
100
AcDbBlockBegin
  2
SW_SYMBOL_GTOL_CONC
 70
     0
 10
0.0
 20
0.0
 30
0.0
  3
SW_SYMBOL_GTOL_CONC
  1

  0
CIRCLE
  5
9C
330
99
100
AcDbEntity
  8
0
  6
Continuous
 62
     0
370
     0
100
AcDbCircle
 10
6750.0
 20
4500.0
 30
0.0
 40
6750.0
  0
CIRCLE
  5
9D
330
99
100
AcDbEntity
  8
0
  6
Continuous
 62
     0
370
     0
100
AcDbCircle
 10
6750.0
 20
4500.0
 30
0.0
 40
4500.0
  0
ENDBLK
  5
9B
330
99
100
AcDbEntity
  8
0
100
AcDbBlockEnd
  0
BLOCK
  5
1A0
330
19F
100
AcDbEntity
  8
0
100
AcDbBlockBegin
  2
_D
 70
     0
 10
0.0
 20
0.0
 30
0.0
  3
_D
  1

  0
SOLID
  5
1A2
330
19F
100
AcDbEntity
  8
SLD-0
100
AcDbTrace
 10
1326.3397955981
 20
787.7317501907
 30
0.0
 11
1328.5897955981
 21
805.7317501907
 31
0.0
 12
1324.0897955981
 22
805.7317501907
 32
0.0
 13
1324.0897955981
 23
805.7317501907
 33
0.0
  0
SOLID
  5
1A3
330
19F
100
AcDbEntity
  8
SLD-0
100
AcDbTrace
 10
1326.3397955981
 20
1103.6017501907
 30
0.0
 11
1324.0897955981
 21
1085.6017501907
 31
0.0
 12
1328.5897955981
 22
1085.6017501907
 32
0.0
 13
1328.5897955981
 23
1085.6017501907
 33
0.0
  0
LINE
  5
1A4
330
19F
100
AcDbEntity
  8
SLD-0
100
AcDbLine
 10
1290.720265237
 20
945.6667543817
 30
0.0
 11
1284.201593133
 21
945.6667543817
 31
0.0
  0
LINE
  5
1A5
330
19F
100
AcDbEntity
  8
SLD-0
100
AcDbLine
 10
1284.201593133
 20
945.6667543817
 30
0.0
 11
1284.201593133
 21
911.6148787978
 31
0.0
  0
LINE
  5
1A6
330
19F
100
AcDbEntity
  8
SLD-0
100
AcDbLine
 10
1284.201593133
 20
911.6148787978
 30
0.0
 11
1290.720265237
 21
911.6148787978
 31
0.0
  0
LINE
  5
1A7
330
19F
100
AcDbEntity
  8
SLD-0
100
AcDbLine
 10
1361.9593259593
 20
945.6667543817
 30
0.0
 11
1368.4779980633
 21
945.6667543817
 31
0.0
  0
LINE
  5
1A8
330
19F
100
AcDbEntity
  8
SLD-0
100
AcDbLine
 10
1368.4779980633
 20
945.6667543817
 30
0.0
 11
1368.4779980633
 21
911.6148787978
 31
0.0
  0
LINE
  5
1A9
330
19F
100
AcDbEntity
  8
SLD-0
100
AcDbLine
 10
1368.4779980633
 20
911.6148787978
 30
0.0
 11
1361.9593259593
 21
911.6148787978
 31
0.0
  0
LINE
  5
1AA
330
19F
100
AcDbEntity
  8
SLD-0
100
AcDbLine
 10
1431.9365410188
 20
787.7317501907
 30
0.0
 11
1319.4817955981
 21
787.7317501907
 31
0.0
  0
LINE
  5
1AB
330
19F
100
AcDbEntity
  8
SLD-0
100
AcDbLine
 10
1618.288443728
 20
1103.6017501907
 30
0.0
 11
1319.4817955981
 21
1103.6017501907
 31
0.0
  0
LINE
  5
1AC
330
19F
100
AcDbEntity
  8
SLD-0
100
AcDbLine
 10
1326.3397955981
 20
787.7317501907
 30
0.0
 11
1326.3397955981
 21
907.2690925057
 31
0.0
  0
LINE
  5
1AD
330
19F
100
AcDbEntity
  8
SLD-0
100
AcDbLine
 10
1326.3397955981
 20
1103.6017501907
 30
0.0
 11
1326.3397955981
 21
984.0644078757
 31
0.0
  0
MTEXT
  5
1AE
330
19F
100
AcDbEntity
  8
SLD-0
100
AcDbMText
 10
1269.7851083887
 20
977.3876065818
 30
0.0
 40
21.43125
 41
0.0
 71
     1
 72
     1
  1
 
  7
SLDTEXTSTYLE0
 73
     1
 44
1.0
  0
MTEXT
  5
1AF
330
19F
100
AcDbEntity
  8
SLD-0
100
AcDbMText
 10
1290.7202631415
 20
977.3876086773
 30
0.0
 40
21.43125
 41
0.0
 71
     1
 72
     1
  1
315.9
  7
SLDTEXTSTYLE0
 73
     1
 44
1.0
  0
MTEXT
  5
1B0
330
19F
100
AcDbEntity
  8
SLD-0
100
AcDbMText
 10
1290.720265237
 20
938.9899530878
 30
0.0
 40
21.43125
 41
0.0
 71
     1
 72
     1
  1
12.44
  7
SLDTEXTSTYLE0
 73
     1
 44
1.0
  0
MTEXT
  5
1B1
330
19F
100
AcDbEntity
  8
SLD-0
100
AcDbMText
 10
1374.9966680718
 20
977.3876065818
 30
0.0
 40
21.43125
 41
0.0
 71
     1
 72
     1
  1
 
  7
SLDTEXTSTYLE0
 73
     1
 44
1.0
  0
ENDBLK
  5
1A1
330
19F
100
AcDbEntity
  8
0
100
AcDbBlockEnd
  0
BLOCK
  5
1B5
330
1B4
100
AcDbEntity
  8
0
100
AcDbBlockBegin
  2
_D_1
 70
     0
 10
0.0
 20
0.0
 30
0.0
  3
_D_1
  1

  0
SOLID
  5
1B7
330
1B4
100
AcDbEntity
  8
SLD-0
100
AcDbTrace
 10
1450.9899611112
 20
1501.3671908999
 30
0.0
 11
1468.9899611112
 21
1499.1171908999
 31
0.0
 12
1468.9899611112
 22
1503.6171908999
 32
0.0
 13
1468.9899611112
 23
1503.6171908999
 33
0.0
  0
SOLID
  5
1B8
330
1B4
100
AcDbEntity
  8
SLD-0
100
AcDbTrace
 10
1850.9899611112
 20
1501.3671908999
 30
0.0
 11
1832.9899611112
 21
1503.6171908999
 31
0.0
 12
1832.9899611112
 22
1499.1171908999
 32
0.0
 13
1832.9899611112
 23
1499.1171908999
 33
0.0
  0
LINE
  5
1B9
330
1B4
100
AcDbEntity
  8
SLD-0
100
AcDbLine
 10
1615.3704307501
 20
1501.3671950908
 30
0.0
 11
1608.8517586461
 21
1501.3671950908
 31
0.0
  0
LINE
  5
1BA
330
1B4
100
AcDbEntity
  8
SLD-0
100
AcDbLine
 10
1608.8517586461
 20
1501.3671950908
 30
0.0
 11
1608.8517586461
 21
1467.315319507
 31
0.0
  0
LINE
  5
1BB
330
1B4
100
AcDbEntity
  8
SLD-0
100
AcDbLine
 10
1608.8517586461
 20
1467.315319507
 30
0.0
 11
1615.3704307501
 21
1467.315319507
 31
0.0
  0
LINE
  5
1BC
330
1B4
100
AcDbEntity
  8
SLD-0
100
AcDbLine
 10
1686.6094914724
 20
1501.3671950908
 30
0.0
 11
1693.1281635764
 21
1501.3671950908
 31
0.0
  0
LINE
  5
1BD
330
1B4
100
AcDbEntity
  8
SLD-0
100
AcDbLine
 10
1693.1281635764
 20
1501.3671950908
 30
0.0
 11
1693.1281635764
 21
1467.315319507
 31
0.0
  0
LINE
  5
1BE
330
1B4
100
AcDbEntity
  8
SLD-0
100
AcDbLine
 10
1693.1281635764
 20
1467.315319507
 30
0.0
 11
1686.6094914724
 21
1467.315319507
 31
0.0
  0
LINE
  5
1BF
330
1B4
100
AcDbEntity
  8
SLD-0
100
AcDbLine
 10
1450.9899611112
 20
1395.808175087
 30
0.0
 11
1450.9899611112
 21
1508.2251908999
 31
0.0
  0
LINE
  5
1C0
330
1B4
100
AcDbEntity
  8
SLD-0
100
AcDbLine
 10
1850.9899611112
 20
1397.840992324
 30
0.0
 11
1850.9899611112
 21
1508.2251908999
 31
0.0
  0
LINE
  5
1C1
330
1B4
100
AcDbEntity
  8
SLD-0
100
AcDbLine
 10
1450.9899611112
 20
1501.3671908999
 30
0.0
 11
1590.0907265994
 21
1501.3671908999
 31
0.0
  0
LINE
  5
1C2
330
1B4
100
AcDbEntity
  8
SLD-0
100
AcDbLine
 10
1850.9899611112
 20
1501.3671908999
 30
0.0
 11
1711.8891956231
 21
1501.3671908999
 31
0.0
  0
MTEXT
  5
1C3
330
1B4
100
AcDbEntity
  8
SLD-0
100
AcDbMText
 10
1594.4352739018
 20
1533.0880472909
 30
0.0
 40
21.43125
 41
0.0
 71
     1
 72
     1
  1
 
  7
SLDTEXTSTYLE0
 73
     1
 44
1.0
  0
MTEXT
  5
1C4
330
1B4
100
AcDbEntity
  8
SLD-0
100
AcDbMText
 10
1615.3704286546
 20
1533.0880493864
 30
0.0
 40
21.43125
 41
0.0
 71
     1
 72
     1
  1
400.0
  7
SLDTEXTSTYLE0
 73
     1
 44
1.0
  0
MTEXT
  5
1C5
330
1B4
100
AcDbEntity
  8
SLD-0
100
AcDbMText
 10
1615.3704307501
 20
1494.6903937969
 30
0.0
 40
21.43125
 41
0.0
 71
     1
 72
     1
  1
15.75
  7
SLDTEXTSTYLE0
 73
     1
 44
1.0
  0
MTEXT
  5
1C6
330
1B4
100
AcDbEntity
  8
SLD-0
100
AcDbMText
 10
1699.6468335849
 20
1533.0880472909
 30
0.0
 40
21.43125
 41
0.0
 71
     1
 72
     1
  1
 
  7
SLDTEXTSTYLE0
 73
     1
 44
1.0
  0
ENDBLK
  5
1B6
330
1B4
100
AcDbEntity
  8
0
100
AcDbBlockEnd
  0
BLOCK
  5
1C8
330
1C7
100
AcDbEntity
  8
0
100
AcDbBlockBegin
  2
SW_SYMBOL_MOD_CL
 70
     0
 10
0.0
 20
0.0
 30
0.0
  3
SW_SYMBOL_MOD_CL
  1

  0
MTEXT
  5
1CA
330
1C7
100
AcDbEntity
  8
SLD-0
 62
     0
100
AcDbMText
 10
3600.0
 20
5400.0
 30
0.0
 40
7045.871559633
 41
0.0
 71
     5
 72
     1
  1
C
  7
SLDTEXTSTYLE0
 73
     1
 44
1.0
  0
MTEXT
  5
1CB
330
1C7
100
AcDbEntity
  8
SLD-0
 62
     0
100
AcDbMText
 10
5400.0
 20
2700.0
 30
0.0
 40
7045.871559633
 41
0.0
 71
     5
 72
     1
  1
L
  7
SLDTEXTSTYLE0
 73
     1
 44
1.0
  0
ENDBLK
  5
1C9
330
1C7
100
AcDbEntity
  8
0
100
AcDbBlockEnd
  0
BLOCK
  5
1EF
330
1EE
100
AcDbEntity
  8
0
100
AcDbBlockBegin
  2
_D_2
 70
     0
 10
0.0
 20
0.0
 30
0.0
  3
_D_2
  1

  0
SOLID
  5
1F1
330
1EE
100
AcDbEntity
  8
SLD-0
100
AcDbTrace
 10
1650.9899611112
 20
2400.6663318791
 30
0.0
 11
1632.9899611112
 21
2402.9163318791
 31
0.0
 12
1632.9899611112
 22
2398.4163318791
 32
0.0
 13
1632.9899611112
 23
2398.4163318791
 33
0.0
  0
SOLID
  5
1F2
330
1EE
100
AcDbEntity
  8
SLD-0
100
AcDbTrace
 10
1450.9899611112
 20
2400.6663318791
 30
0.0
 11
1468.9899611112
 21
2398.4163318791
 31
0.0
 12
1468.9899611112
 22
2402.9163318791
 32
0.0
 13
1468.9899611112
 23
2402.9163318791
 33
0.0
  0
LINE
  5
1F3
330
1EE
100
AcDbEntity
  8
SLD-0
100
AcDbLine
 10
1523.2880854507
 20
2400.66633607
 30
0.0
 11
1516.7694133467
 21
2400.66633607
 31
0.0
  0
LINE
  5
1F4
330
1EE
100
AcDbEntity
  8
SLD-0
100
AcDbLine
 10
1516.7694133467
 20
2400.66633607
 30
0.0
 11
1516.7694133467
 21
2366.6144604862
 31
0.0
  0
LINE
  5
1F5
330
1EE
100
AcDbEntity
  8
SLD-0
100
AcDbLine
 10
1516.7694133467
 20
2366.6144604862
 30
0.0
 11
1523.2880854507
 21
2366.6144604862
 31
0.0
  0
LINE
  5
1F6
330
1EE
100
AcDbEntity
  8
SLD-0
100
AcDbLine
 10
1578.6918367718
 20
2400.66633607
 30
0.0
 11
1585.2105088758
 21
2400.66633607
 31
0.0
  0
LINE
  5
1F7
330
1EE
100
AcDbEntity
  8
SLD-0
100
AcDbLine
 10
1585.2105088758
 20
2400.66633607
 30
0.0
 11
1585.2105088758
 21
2366.6144604862
 31
0.0
  0
LINE
  5
1F8
330
1EE
100
AcDbEntity
  8
SLD-0
100
AcDbLine
 10
1585.2105088758
 20
2366.6144604862
 30
0.0
 11
1578.6918367718
 21
2366.6144604862
 31
0.0
  0
LINE
  5
1F9
330
1EE
100
AcDbEntity
  8
SLD-0
100
AcDbLine
 10
1650.9899611112
 20
2210.0291222554
 30
0.0
 11
1650.9899611112
 21
2407.5243318791
 31
0.0
  0
LINE
  5
1FA
330
1EE
100
AcDbEntity
  8
SLD-0
100
AcDbLine
 10
1450.9899611112
 20
2073.8478994908
 30
0.0
 11
1450.9899611112
 21
2407.5243318791
 31
0.0
  0
LINE
  5
1FB
330
1EE
100
AcDbEntity
  8
SLD-0
100
AcDbLine
 10
1650.9899611112
 20
2400.6663318791
 30
0.0
 11
1603.9715409225
 21
2400.6663318791
 31
0.0
  0
LINE
  5
1FC
330
1EE
100
AcDbEntity
  8
SLD-0
100
AcDbLine
 10
1450.9899611112
 20
2400.6663318791
 30
0.0
 11
1498.0083813
 21
2400.6663318791
 31
0.0
  0
MTEXT
  5
1FD
330
1EE
100
AcDbEntity
  8
SLD-0
100
AcDbMText
 10
1502.3529286024
 20
2432.3871882702
 30
0.0
 40
21.43125
 41
0.0
 71
     1
 72
     1
  1
 
  7
SLDTEXTSTYLE0
 73
     1
 44
1.0
  0
MTEXT
  5
1FE
330
1EE
100
AcDbEntity
  8
SLD-0
100
AcDbMText
 10
1515.3704286546
 20
2432.3871903656
 30
0.0
 40
21.43125
 41
0.0
 71
     1
 72
     1
  1
200.0
  7
SLDTEXTSTYLE0
 73
     1
 44
1.0
  0
MTEXT
  5
1FF
330
1EE
100
AcDbEntity
  8
SLD-0
100
AcDbMText
 10
1523.2880854507
 20
2393.9895347761
 30
0.0
 40
21.43125
 41
0.0
 71
     1
 72
     1
  1
7.87
  7
SLDTEXTSTYLE0
 73
     1
 44
1.0
  0
MTEXT
  5
200
330
1EE
100
AcDbEntity
  8
SLD-0
100
AcDbMText
 10
1591.7291788843
 20
2432.3871882702
 30
0.0
 40
21.43125
 41
0.0
 71
     1
 72
     1
  1
 
  7
SLDTEXTSTYLE0
 73
     1
 44
1.0
  0
ENDBLK
  5
1F0
330
1EE
100
AcDbEntity
  8
0
100
AcDbBlockEnd
  0
BLOCK
  5
204
330
203
100
AcDbEntity
  8
0
100
AcDbBlockBegin
  2
_D_3
 70
     0
 10
0.0
 20
0.0
 30
0.0
  3
_D_3
  1

  0
SOLID
  5
206
330
203
100
AcDbEntity
  8
SLD-0
100
AcDbTrace
 10
1597.0399611112
 20
1815.6992793971
 30
0.0
 11
1579.0399611112
 21
1817.9492793971
 31
0.0
 12
1579.0399611112
 22
1813.4492793971
 32
0.0
 13
1579.0399611112
 23
1813.4492793971
 33
0.0
  0
SOLID
  5
207
330
203
100
AcDbEntity
  8
SLD-0
100
AcDbTrace
 10
1704.9399611112
 20
1815.6992793971
 30
0.0
 11
1722.9399611112
 21
1813.4492793971
 31
0.0
 12
1722.9399611112
 22
1817.9492793971
 32
0.0
 13
1722.9399611112
 23
1817.9492793971
 33
0.0
  0
LINE
  5
208
330
203
100
AcDbEntity
  8
SLD-0
100
AcDbLine
 10
1623.2880854507
 20
1815.699283588
 30
0.0
 11
1616.7694133467
 21
1815.699283588
 31
0.0
  0
LINE
  5
209
330
203
100
AcDbEntity
  8
SLD-0
100
AcDbLine
 10
1616.7694133467
 20
1815.699283588
 30
0.0
 11
1616.7694133467
 21
1781.6474080042
 31
0.0
  0
LINE
  5
20A
330
203
100
AcDbEntity
  8
SLD-0
100
AcDbLine
 10
1616.7694133467
 20
1781.6474080042
 30
0.0
 11
1623.2880854507
 21
1781.6474080042
 31
0.0
  0
LINE
  5
20B
330
203
100
AcDbEntity
  8
SLD-0
100
AcDbLine
 10
1678.6918367718
 20
1815.699283588
 30
0.0
 11
1685.2105088758
 21
1815.699283588
 31
0.0
  0
LINE
  5
20C
330
203
100
AcDbEntity
  8
SLD-0
100
AcDbLine
 10
1685.2105088758
 20
1815.699283588
 30
0.0
 11
1685.2105088758
 21
1781.6474080042
 31
0.0
  0
LINE
  5
20D
330
203
100
AcDbEntity
  8
SLD-0
100
AcDbLine
 10
1685.2105088758
 20
1781.6474080042
 30
0.0
 11
1678.6918367718
 21
1781.6474080042
 31
0.0
  0
LINE
  5
20E
330
203
100
AcDbEntity
  8
SLD-0
100
AcDbLine
 10
1597.0399611112
 20
2003.5631222554
 30
0.0
 11
1597.0399611112
 21
1808.8412793971
 31
0.0
  0
LINE
  5
20F
330
203
100
AcDbEntity
  8
SLD-0
100
AcDbLine
 10
1704.9399611112
 20
2003.5631222554
 30
0.0
 11
1704.9399611112
 21
1808.8412793971
 31
0.0
  0
LINE
  5
210
330
203
100
AcDbEntity
  8
SLD-0
100
AcDbLine
 10
1597.0399611112
 20
1815.6992793971
 30
0.0
 11
1561.0399611112
 21
1815.6992793971
 31
0.0
  0
LINE
  5
211
330
203
100
AcDbEntity
  8
SLD-0
100
AcDbLine
 10
1704.9399611112
 20
1815.6992793971
 30
0.0
 11
1740.9399611112
 21
1815.6992793971
 31
0.0
  0
MTEXT
  5
212
330
203
100
AcDbEntity
  8
SLD-0
100
AcDbMText
 10
1602.3529286024
 20
1847.4201357882
 30
0.0
 40
21.43125
 41
0.0
 71
     1
 72
     1
  1
 
  7
SLDTEXTSTYLE0
 73
     1
 44
1.0
  0
MTEXT
  5
213
330
203
100
AcDbEntity
  8
SLD-0
100
AcDbMText
 10
1615.3704286546
 20
1847.4201378836
 30
0.0
 40
21.43125
 41
0.0
 71
     1
 72
     1
  1
107.9
  7
SLDTEXTSTYLE0
 73
     1
 44
1.0
  0
MTEXT
  5
214
330
203
100
AcDbEntity
  8
SLD-0
100
AcDbMText
 10
1623.2880854507
 20
1809.0224822941
 30
0.0
 40
21.43125
 41
0.0
 71
     1
 72
     1
  1
4.25
  7
SLDTEXTSTYLE0
 73
     1
 44
1.0
  0
MTEXT
  5
215
330
203
100
AcDbEntity
  8
SLD-0
100
AcDbMText
 10
1691.7291788843
 20
1847.4201357882
 30
0.0
 40
21.43125
 41
0.0
 71
     1
 72
     1
  1
 
  7
SLDTEXTSTYLE0
 73
     1
 44
1.0
  0
ENDBLK
  5
205
330
203
100
AcDbEntity
  8
0
100
AcDbBlockEnd
  0
BLOCK
  5
218
330
217
100
AcDbEntity
  8
0
100
AcDbBlockBegin
  2
_D_4
 70
     0
 10
0.0
 20
0.0
 30
0.0
  3
_D_4
  1

  0
SOLID
  5
21A
330
217
100
AcDbEntity
  8
SLD-0
100
AcDbTrace
 10
2194.4104757546
 20
2230.8211222554
 30
0.0
 11
2192.1604757546
 21
2212.8211222554
 31
0.0
 12
2196.6604757546
 22
2212.8211222554
 32
0.0
 13
2196.6604757546
 23
2212.8211222554
 33
0.0
  0
SOLID
  5
21B
330
217
100
AcDbEntity
  8
SLD-0
100
AcDbTrace
 10
2194.4104757546
 20
1979.8211222554
 30
0.0
 11
2196.6604757546
 21
1997.8211222554
 31
0.0
 12
2192.1604757546
 22
1997.8211222554
 32
0.0
 13
2192.1604757546
 23
1997.8211222554
 33
0.0
  0
LINE
  5
21C
330
217
100
AcDbEntity
  8
SLD-0
100
AcDbLine
 10
2166.708600094
 20
2105.3211264464
 30
0.0
 11
2160.18992799
 21
2105.3211264464
 31
0.0
  0
LINE
  5
21D
330
217
100
AcDbEntity
  8
SLD-0
100
AcDbLine
 10
2160.18992799
 20
2105.3211264464
 30
0.0
 11
2160.18992799
 21
2071.2692508625
 31
0.0
  0
LINE
  5
21E
330
217
100
AcDbEntity
  8
SLD-0
100
AcDbLine
 10
2160.18992799
 20
2071.2692508625
 30
0.0
 11
2166.708600094
 21
2071.2692508625
 31
0.0
  0
LINE
  5
21F
330
217
100
AcDbEntity
  8
SLD-0
100
AcDbLine
 10
2222.1123514152
 20
2105.3211264464
 30
0.0
 11
2228.6310235192
 21
2105.3211264464
 31
0.0
  0
LINE
  5
220
330
217
100
AcDbEntity
  8
SLD-0
100
AcDbLine
 10
2228.6310235192
 20
2105.3211264464
 30
0.0
 11
2228.6310235192
 21
2071.2692508625
 31
0.0
  0
LINE
  5
221
330
217
100
AcDbEntity
  8
SLD-0
100
AcDbLine
 10
2228.6310235192
 20
2071.2692508625
 30
0.0
 11
2222.1123514152
 21
2071.2692508625
 31
0.0
  0
LINE
  5
222
330
217
100
AcDbEntity
  8
SLD-0
100
AcDbLine
 10
1779.158007758
 20
2230.8211222554
 30
0.0
 11
2201.2684757546
 21
2230.8211222554
 31
0.0
  0
LINE
  5
223
330
217
100
AcDbEntity
  8
SLD-0
100
AcDbLine
 10
1830.1979611112
 20
1979.8211222554
 30
0.0
 11
2201.2684757546
 21
1979.8211222554
 31
0.0
  0
LINE
  5
224
330
217
100
AcDbEntity
  8
SLD-0
100
AcDbLine
 10
2194.4104757546
 20
2230.8211222554
 30
0.0
 11
2194.4104757546
 21
2143.7187799404
 31
0.0
  0
LINE
  5
225
330
217
100
AcDbEntity
  8
SLD-0
100
AcDbLine
 10
2194.4104757546
 20
1979.8211222554
 30
0.0
 11
2194.4104757546
 21
2066.9234645704
 31
0.0
  0
MTEXT
  5
226
330
217
100
AcDbEntity
  8
SLD-0
100
AcDbMText
 10
2145.7734432458
 20
2137.0419786465
 30
0.0
 40
21.43125
 41
0.0
 71
     1
 72
     1
  1
 
  7
SLDTEXTSTYLE0
 73
     1
 44
1.0
  0
MTEXT
  5
227
330
217
100
AcDbEntity
  8
SLD-0
100
AcDbMText
 10
2158.790943298
 20
2137.041980742
 30
0.0
 40
21.43125
 41
0.0
 71
     1
 72
     1
  1
251.0
  7
SLDTEXTSTYLE0
 73
     1
 44
1.0
  0
MTEXT
  5
228
330
217
100
AcDbEntity
  8
SLD-0
100
AcDbMText
 10
2166.708600094
 20
2098.6443251525
 30
0.0
 40
21.43125
 41
0.0
 71
     1
 72
     1
  1
9.88
  7
SLDTEXTSTYLE0
 73
     1
 44
1.0
  0
MTEXT
  5
229
330
217
100
AcDbEntity
  8
SLD-0
100
AcDbMText
 10
2235.1496935277
 20
2137.0419786465
 30
0.0
 40
21.43125
 41
0.0
 71
     1
 72
     1
  1
 
  7
SLDTEXTSTYLE0
 73
     1
 44
1.0
  0
ENDBLK
  5
219
330
217
100
AcDbEntity
  8
0
100
AcDbBlockEnd
  0
BLOCK
  5
22C
330
22B
100
AcDbEntity
  8
0
100
AcDbBlockBegin
  2
_D_5
 70
     0
 10
0.0
 20
0.0
 30
0.0
  3
_D_5
  1

  0
SOLID
  5
22E
330
22B
100
AcDbEntity
  8
SLD-0
100
AcDbTrace
 10
1941.5899611112
 20
2230.8211222554
 30
0.0
 11
1939.3399611112
 21
2212.8211222554
 31
0.0
 12
1943.8399611112
 22
2212.8211222554
 32
0.0
 13
1943.8399611112
 23
2212.8211222554
 33
0.0
  0
SOLID
  5
22F
330
22B
100
AcDbEntity
  8
SLD-0
100
AcDbTrace
 10
1941.5899611112
 20
2070.2211222554
 30
0.0
 11
1943.8399611112
 21
2088.2211222554
 31
0.0
 12
1939.3399611112
 22
2088.2211222554
 32
0.0
 13
1939.3399611112
 23
2088.2211222554
 33
0.0
  0
LINE
  5
230
330
22B
100
AcDbEntity
  8
SLD-0
100
AcDbLine
 10
1913.8880854507
 20
2150.5211264464
 30
0.0
 11
1907.3694133467
 21
2150.5211264464
 31
0.0
  0
LINE
  5
231
330
22B
100
AcDbEntity
  8
SLD-0
100
AcDbLine
 10
1907.3694133467
 20
2150.5211264464
 30
0.0
 11
1907.3694133467
 21
2116.4692508625
 31
0.0
  0
LINE
  5
232
330
22B
100
AcDbEntity
  8
SLD-0
100
AcDbLine
 10
1907.3694133467
 20
2116.4692508625
 30
0.0
 11
1913.8880854507
 21
2116.4692508625
 31
0.0
  0
LINE
  5
233
330
22B
100
AcDbEntity
  8
SLD-0
100
AcDbLine
 10
1969.2918367718
 20
2150.5211264464
 30
0.0
 11
1975.8105088758
 21
2150.5211264464
 31
0.0
  0
LINE
  5
234
330
22B
100
AcDbEntity
  8
SLD-0
100
AcDbLine
 10
1975.8105088758
 20
2150.5211264464
 30
0.0
 11
1975.8105088758
 21
2116.4692508625
 31
0.0
  0
LINE
  5
235
330
22B
100
AcDbEntity
  8
SLD-0
100
AcDbLine
 10
1975.8105088758
 20
2116.4692508625
 30
0.0
 11
1969.2918367718
 21
2116.4692508625
 31
0.0
  0
LINE
  5
236
330
22B
100
AcDbEntity
  8
SLD-0
100
AcDbLine
 10
1779.1441248118
 20
2230.8211222554
 30
0.0
 11
1948.4479611112
 21
2230.8211222554
 31
0.0
  0
LINE
  5
237
330
22B
100
AcDbEntity
  8
SLD-0
100
AcDbLine
 10
1720.7979611112
 20
2070.2211222554
 30
0.0
 11
1948.4479611112
 21
2070.2211222554
 31
0.0
  0
LINE
  5
238
330
22B
100
AcDbEntity
  8
SLD-0
100
AcDbLine
 10
1941.5899611112
 20
2230.8211222554
 30
0.0
 11
1941.5899611112
 21
2188.9187799404
 31
0.0
  0
LINE
  5
239
330
22B
100
AcDbEntity
  8
SLD-0
100
AcDbLine
 10
1941.5899611112
 20
2070.2211222554
 30
0.0
 11
1941.5899611112
 21
2112.1234645704
 31
0.0
  0
MTEXT
  5
23A
330
22B
100
AcDbEntity
  8
SLD-0
100
AcDbMText
 10
1892.9529286024
 20
2182.2419786465
 30
0.0
 40
21.43125
 41
0.0
 71
     1
 72
     1
  1
 
  7
SLDTEXTSTYLE0
 73
     1
 44
1.0
  0
MTEXT
  5
23B
330
22B
100
AcDbEntity
  8
SLD-0
100
AcDbMText
 10
1905.9704286546
 20
2182.241980742
 30
0.0
 40
21.43125
 41
0.0
 71
     1
 72
     1
  1
160.6
  7
SLDTEXTSTYLE0
 73
     1
 44
1.0
  0
MTEXT
  5
23C
330
22B
100
AcDbEntity
  8
SLD-0
100
AcDbMText
 10
1913.8880854507
 20
2143.8443251525
 30
0.0
 40
21.43125
 41
0.0
 71
     1
 72
     1
  1
6.32
  7
SLDTEXTSTYLE0
 73
     1
 44
1.0
  0
MTEXT
  5
23D
330
22B
100
AcDbEntity
  8
SLD-0
100
AcDbMText
 10
1982.3291788843
 20
2182.2419786465
 30
0.0
 40
21.43125
 41
0.0
 71
     1
 72
     1
  1
 
  7
SLDTEXTSTYLE0
 73
     1
 44
1.0
  0
ENDBLK
  5
22D
330
22B
100
AcDbEntity
  8
0
100
AcDbBlockEnd
  0
BLOCK
  5
241
330
240
100
AcDbEntity
  8
0
100
AcDbBlockBegin
  2
_D_6
 70
     0
 10
0.0
 20
0.0
 30
0.0
  3
_D_6
  1

  0
SOLID
  5
243
330
240
100
AcDbEntity
  8
SLD-0
100
AcDbTrace
 10
2067.9271837363
 20
2230.8211222554
 30
0.0
 11
2065.6771837363
 21
2212.8211222554
 31
0.0
 12
2070.1771837363
 22
2212.8211222554
 32
0.0
 13
2070.1771837363
 23
2212.8211222554
 33
0.0
  0
SOLID
  5
244
330
240
100
AcDbEntity
  8
SLD-0
100
AcDbTrace
 10
2067.9271837363
 20
2044.8211222554
 30
0.0
 11
2070.1771837363
 21
2062.8211222554
 31
0.0
 12
2065.6771837363
 22
2062.8211222554
 32
0.0
 13
2065.6771837363
 23
2062.8211222554
 33
0.0
  0
LINE
  5
245
330
240
100
AcDbEntity
  8
SLD-0
100
AcDbLine
 10
2040.2253080758
 20
2137.8211264464
 30
0.0
 11
2033.7066359718
 21
2137.8211264464
 31
0.0
  0
LINE
  5
246
330
240
100
AcDbEntity
  8
SLD-0
100
AcDbLine
 10
2033.7066359718
 20
2137.8211264464
 30
0.0
 11
2033.7066359718
 21
2103.7692508625
 31
0.0
  0
LINE
  5
247
330
240
100
AcDbEntity
  8
SLD-0
100
AcDbLine
 10
2033.7066359718
 20
2103.7692508625
 30
0.0
 11
2040.2253080758
 21
2103.7692508625
 31
0.0
  0
LINE
  5
248
330
240
100
AcDbEntity
  8
SLD-0
100
AcDbLine
 10
2095.6290593969
 20
2137.8211264464
 30
0.0
 11
2102.1477315009
 21
2137.8211264464
 31
0.0
  0
LINE
  5
249
330
240
100
AcDbEntity
  8
SLD-0
100
AcDbLine
 10
2102.1477315009
 20
2137.8211264464
 30
0.0
 11
2102.1477315009
 21
2103.7692508625
 31
0.0
  0
LINE
  5
24A
330
240
100
AcDbEntity
  8
SLD-0
100
AcDbLine
 10
2102.1477315009
 20
2103.7692508625
 30
0.0
 11
2095.6290593969
 21
2103.7692508625
 31
0.0
  0
LINE
  5
24B
330
240
100
AcDbEntity
  8
SLD-0
100
AcDbLine
 10
1779.5393606941
 20
2230.8211222554
 30
0.0
 11
2074.7851837363
 21
2230.8211222554
 31
0.0
  0
LINE
  5
24C
330
240
100
AcDbEntity
  8
SLD-0
100
AcDbLine
 10
1668.8479611112
 20
2044.8211222554
 30
0.0
 11
2074.7851837363
 21
2044.8211222554
 31
0.0
  0
LINE
  5
24D
330
240
100
AcDbEntity
  8
SLD-0
100
AcDbLine
 10
2067.9271837363
 20
2230.8211222554
 30
0.0
 11
2067.9271837363
 21
2176.2187799404
 31
0.0
  0
LINE
  5
24E
330
240
100
AcDbEntity
  8
SLD-0
100
AcDbLine
 10
2067.9271837363
 20
2044.8211222554
 30
0.0
 11
2067.9271837363
 21
2099.4234645704
 31
0.0
  0
MTEXT
  5
24F
330
240
100
AcDbEntity
  8
SLD-0
100
AcDbMText
 10
2019.2901512275
 20
2169.5419786465
 30
0.0
 40
21.43125
 41
0.0
 71
     1
 72
     1
  1
 
  7
SLDTEXTSTYLE0
 73
     1
 44
1.0
  0
MTEXT
  5
250
330
240
100
AcDbEntity
  8
SLD-0
100
AcDbMText
 10
2032.3076512797
 20
2169.541980742
 30
0.0
 40
21.43125
 41
0.0
 71
     1
 72
     1
  1
186.0
  7
SLDTEXTSTYLE0
 73
     1
 44
1.0
  0
MTEXT
  5
251
330
240
100
AcDbEntity
  8
SLD-0
100
AcDbMText
 10
2040.2253080758
 20
2131.1443251525
 30
0.0
 40
21.43125
 41
0.0
 71
     1
 72
     1
  1
7.32
  7
SLDTEXTSTYLE0
 73
     1
 44
1.0
  0
MTEXT
  5
252
330
240
100
AcDbEntity
  8
SLD-0
100
AcDbMText
 10
2108.6664015094
 20
2169.5419786465
 30
0.0
 40
21.43125
 41
0.0
 71
     1
 72
     1
  1
 
  7
SLDTEXTSTYLE0
 73
     1
 44
1.0
  0
ENDBLK
  5
242
330
240
100
AcDbEntity
  8
0
100
AcDbBlockEnd
  0
BLOCK
  5
255
330
254
100
AcDbEntity
  8
0
100
AcDbBlockBegin
  2
_D_7
 70
     0
 10
0.0
 20
0.0
 30
0.0
  3
_D_7
  1

  0
SOLID
  5
257
330
254
100
AcDbEntity
  8
SLD-0
100
AcDbTrace
 10
1840.0767827551
 20
2230.8211222554
 30
0.0
 11
1842.3267827551
 21
2248.8211222554
 31
0.0
 12
1837.8267827551
 22
2248.8211222554
 32
0.0
 13
1837.8267827551
 23
2248.8211222554
 33
0.0
  0
SOLID
  5
258
330
254
100
AcDbEntity
  8
SLD-0
100
AcDbTrace
 10
1840.0767827551
 20
2190.4211222554
 30
0.0
 11
1837.8267827551
 21
2172.4211222554
 31
0.0
 12
1842.3267827551
 22
2172.4211222554
 32
0.0
 13
1842.3267827551
 23
2172.4211222554
 33
0.0
  0
LINE
  5
259
330
254
100
AcDbEntity
  8
SLD-0
100
AcDbLine
 10
1892.0455815106
 20
2340.3267220189
 30
0.0
 11
1885.5269094066
 21
2340.3267220189
 31
0.0
  0
LINE
  5
25A
330
254
100
AcDbEntity
  8
SLD-0
100
AcDbLine
 10
1885.5269094066
 20
2340.3267220189
 30
0.0
 11
1885.5269094066
 21
2306.2748464351
 31
0.0
  0
LINE
  5
25B
330
254
100
AcDbEntity
  8
SLD-0
100
AcDbLine
 10
1885.5269094066
 20
2306.2748464351
 30
0.0
 11
1892.0455815106
 21
2306.2748464351
 31
0.0
  0
LINE
  5
25C
330
254
100
AcDbEntity
  8
SLD-0
100
AcDbLine
 10
1947.4493328317
 20
2340.3267220189
 30
0.0
 11
1953.9680049357
 21
2340.3267220189
 31
0.0
  0
LINE
  5
25D
330
254
100
AcDbEntity
  8
SLD-0
100
AcDbLine
 10
1953.9680049357
 20
2340.3267220189
 30
0.0
 11
1953.9680049357
 21
2306.2748464351
 31
0.0
  0
LINE
  5
25E
330
254
100
AcDbEntity
  8
SLD-0
100
AcDbLine
 10
1953.9680049357
 20
2306.2748464351
 30
0.0
 11
1947.4493328317
 21
2306.2748464351
 31
0.0
  0
LINE
  5
25F
330
254
100
AcDbEntity
  8
SLD-0
100
AcDbLine
 10
1778.5830045972
 20
2230.8211222554
 30
0.0
 11
1846.9347827551
 21
2230.8211222554
 31
0.0
  0
LINE
  5
260
330
254
100
AcDbEntity
  8
SLD-0
100
AcDbLine
 10
1670.5979611112
 20
2190.4211222554
 30
0.0
 11
1846.9347827551
 21
2190.4211222554
 31
0.0
  0
LINE
  5
261
330
254
100
AcDbEntity
  8
SLD-0
100
AcDbLine
 10
1858.0767827551
 20
2340.326717828
 30
0.0
 11
1840.0767827551
 21
2340.326717828
 31
0.0
  0
LINE
  5
262
330
254
100
AcDbEntity
  8
SLD-0
100
AcDbLine
 10
1840.0767827551
 20
2340.326717828
 30
0.0
 11
1840.0767827551
 21
2230.8211222554
 31
0.0
  0
LINE
  5
263
330
254
100
AcDbEntity
  8
SLD-0
100
AcDbLine
 10
1840.0767827551
 20
2190.4211222554
 30
0.0
 11
1840.0767827551
 21
2154.4211222554
 31
0.0
  0
MTEXT
  5
264
330
254
100
AcDbEntity
  8
SLD-0
100
AcDbMText
 10
1871.1104246623
 20
2372.0475742191
 30
0.0
 40
21.43125
 41
0.0
 71
     1
 72
     1
  1
 
  7
SLDTEXTSTYLE0
 73
     1
 44
1.0
  0
MTEXT
  5
265
330
254
100
AcDbEntity
  8
SLD-0
100
AcDbMText
 10
1892.0455794151
 20
2372.0475763145
 30
0.0
 40
21.43125
 41
0.0
 71
     1
 72
     1
  1
40.4
  7
SLDTEXTSTYLE0
 73
     1
 44
1.0
  0
MTEXT
  5
266
330
254
100
AcDbEntity
  8
SLD-0
100
AcDbMText
 10
1892.0455815106
 20
2333.649920725
 30
0.0
 40
21.43125
 41
0.0
 71
     1
 72
     1
  1
1.59
  7
SLDTEXTSTYLE0
 73
     1
 44
1.0
  0
MTEXT
  5
267
330
254
100
AcDbEntity
  8
SLD-0
100
AcDbMText
 10
1960.4866749442
 20
2372.0475742191
 30
0.0
 40
21.43125
 41
0.0
 71
     1
 72
     1
  1
 
  7
SLDTEXTSTYLE0
 73
     1
 44
1.0
  0
ENDBLK
  5
256
330
254
100
AcDbEntity
  8
0
100
AcDbBlockEnd
  0
BLOCK
  5
26A
330
269
100
AcDbEntity
  8
0
100
AcDbBlockBegin
  2
_D_8
 70
     0
 10
0.0
 20
0.0
 30
0.0
  3
_D_8
  1

  0
SOLID
  5
26C
330
269
100
AcDbEntity
  8
SLD-0
100
AcDbTrace
 10
1360.9899611112
 20
2070.2211222554
 30
0.0
 11
1358.7399611112
 21
2052.2211222554
 31
0.0
 12
1363.2399611112
 22
2052.2211222554
 32
0.0
 13
1363.2399611112
 23
2052.2211222554
 33
0.0
  0
SOLID
  5
26D
330
269
100
AcDbEntity
  8
SLD-0
100
AcDbTrace
 10
1360.9899611112
 20
2019.4211222554
 30
0.0
 11
1363.2399611112
 21
2037.4211222554
 31
0.0
 12
1358.7399611112
 22
2037.4211222554
 32
0.0
 13
1358.7399611112
 23
2037.4211222554
 33
0.0
  0
LINE
  5
26E
330
269
100
AcDbEntity
  8
SLD-0
100
AcDbLine
 10
1253.6174110347
 20
1961.0419986525
 30
0.0
 11
1247.0987389307
 21
1961.0419986525
 31
0.0
  0
LINE
  5
26F
330
269
100
AcDbEntity
  8
SLD-0
100
AcDbLine
 10
1247.0987389307
 20
1961.0419986525
 30
0.0
 11
1247.0987389307
 21
1926.9901230686
 31
0.0
  0
LINE
  5
270
330
269
100
AcDbEntity
  8
SLD-0
100
AcDbLine
 10
1247.0987389307
 20
1926.9901230686
 30
0.0
 11
1253.6174110347
 21
1926.9901230686
 31
0.0
  0
LINE
  5
271
330
269
100
AcDbEntity
  8
SLD-0
100
AcDbLine
 10
1309.0211623558
 20
1961.0419986525
 30
0.0
 11
1315.5398344598
 21
1961.0419986525
 31
0.0
  0
LINE
  5
272
330
269
100
AcDbEntity
  8
SLD-0
100
AcDbLine
 10
1315.5398344598
 20
1961.0419986525
 30
0.0
 11
1315.5398344598
 21
1926.9901230686
 31
0.0
  0
LINE
  5
273
330
269
100
AcDbEntity
  8
SLD-0
100
AcDbLine
 10
1315.5398344598
 20
1926.9901230686
 30
0.0
 11
1309.0211623558
 21
1926.9901230686
 31
0.0
  0
LINE
  5
274
330
269
100
AcDbEntity
  8
SLD-0
100
AcDbLine
 10
1581.1819611112
 20
2070.2211222554
 30
0.0
 11
1354.1319611112
 21
2070.2211222554
 31
0.0
  0
LINE
  5
275
330
269
100
AcDbEntity
  8
SLD-0
100
AcDbLine
 10
1581.1819611112
 20
2019.4211222554
 30
0.0
 11
1354.1319611112
 21
2019.4211222554
 31
0.0
  0
LINE
  5
276
330
269
100
AcDbEntity
  8
SLD-0
100
AcDbLine
 10
1342.9899611112
 20
1961.0419944615
 30
0.0
 11
1360.9899611112
 21
1961.0419944615
 31
0.0
  0
LINE
  5
277
330
269
100
AcDbEntity
  8
SLD-0
100
AcDbLine
 10
1360.9899611112
 20
1961.0419944615
 30
0.0
 11
1360.9899611112
 21
2019.4211222554
 31
0.0
  0
LINE
  5
278
330
269
100
AcDbEntity
  8
SLD-0
100
AcDbLine
 10
1360.9899611112
 20
2070.2211222554
 30
0.0
 11
1360.9899611112
 21
2019.4211222554
 31
0.0
  0
MTEXT
  5
279
330
269
100
AcDbEntity
  8
SLD-0
100
AcDbMText
 10
1232.6822541864
 20
1992.7628508526
 30
0.0
 40
21.43125
 41
0.0
 71
     1
 72
     1
  1
 
  7
SLDTEXTSTYLE0
 73
     1
 44
1.0
  0
MTEXT
  5
27A
330
269
100
AcDbEntity
  8
SLD-0
100
AcDbMText
 10
1253.6174089392
 20
1992.7628529481
 30
0.0
 40
21.43125
 41
0.0
 71
     1
 72
     1
  1
50.8
  7
SLDTEXTSTYLE0
 73
     1
 44
1.0
  0
MTEXT
  5
27B
330
269
100
AcDbEntity
  8
SLD-0
100
AcDbMText
 10
1253.6174110347
 20
1954.3651973586
 30
0.0
 40
21.43125
 41
0.0
 71
     1
 72
     1
  1
2.00
  7
SLDTEXTSTYLE0
 73
     1
 44
1.0
  0
MTEXT
  5
27C
330
269
100
AcDbEntity
  8
SLD-0
100
AcDbMText
 10
1322.0585044683
 20
1992.7628508526
 30
0.0
 40
21.43125
 41
0.0
 71
     1
 72
     1
  1
 
  7
SLDTEXTSTYLE0
 73
     1
 44
1.0
  0
ENDBLK
  5
26B
330
269
100
AcDbEntity
  8
0
100
AcDbBlockEnd
  0
BLOCK
  5
27F
330
27E
100
AcDbEntity
  8
0
100
AcDbBlockBegin
  2
_D_9
 70
     0
 10
0.0
 20
0.0
 30
0.0
  3
_D_9
  1

  0
SOLID
  5
281
330
27E
100
AcDbEntity
  8
SLD-0
100
AcDbTrace
 10
1491.3899611112
 20
1718.6314086679
 30
0.0
 11
1509.3899611112
 21
1716.3814086679
 31
0.0
 12
1509.3899611112
 22
1720.8814086679
 32
0.0
 13
1509.3899611112
 23
1720.8814086679
 33
0.0
  0
SOLID
  5
282
330
27E
100
AcDbEntity
  8
SLD-0
100
AcDbTrace
 10
1810.5899611112
 20
1718.6314086679
 30
0.0
 11
1792.5899611112
 21
1720.8814086679
 31
0.0
 12
1792.5899611112
 22
1716.3814086679
 32
0.0
 13
1792.5899611112
 23
1716.3814086679
 33
0.0
  0
LINE
  5
283
330
27E
100
AcDbEntity
  8
SLD-0
100
AcDbLine
 10
1615.3704307501
 20
1718.6314128588
 30
0.0
 11
1608.8517586461
 21
1718.6314128588
 31
0.0
  0
LINE
  5
284
330
27E
100
AcDbEntity
  8
SLD-0
100
AcDbLine
 10
1608.8517586461
 20
1718.6314128588
 30
0.0
 11
1608.8517586461
 21
1684.579537275
 31
0.0
  0
LINE
  5
285
330
27E
100
AcDbEntity
  8
SLD-0
100
AcDbLine
 10
1608.8517586461
 20
1684.579537275
 30
0.0
 11
1615.3704307501
 21
1684.579537275
 31
0.0
  0
LINE
  5
286
330
27E
100
AcDbEntity
  8
SLD-0
100
AcDbLine
 10
1686.6094914724
 20
1718.6314128588
 30
0.0
 11
1693.1281635764
 21
1718.6314128588
 31
0.0
  0
LINE
  5
287
330
27E
100
AcDbEntity
  8
SLD-0
100
AcDbLine
 10
1693.1281635764
 20
1718.6314128588
 30
0.0
 11
1693.1281635764
 21
1684.579537275
 31
0.0
  0
LINE
  5
288
330
27E
100
AcDbEntity
  8
SLD-0
100
AcDbLine
 10
1693.1281635764
 20
1684.579537275
 30
0.0
 11
1686.6094914724
 21
1684.579537275
 31
0.0
  0
LINE
  5
289
330
27E
100
AcDbEntity
  8
SLD-0
100
AcDbLine
 10
1491.3899611112
 20
1960.2131222554
 30
0.0
 11
1491.3899611112
 21
1711.7734086679
 31
0.0
  0
LINE
  5
28A
330
27E
100
AcDbEntity
  8
SLD-0
100
AcDbLine
 10
1810.5899611112
 20
1960.2131222554
 30
0.0
 11
1810.5899611112
 21
1711.7734086679
 31
0.0
  0
LINE
  5
28B
330
27E
100
AcDbEntity
  8
SLD-0
100
AcDbLine
 10
1491.3899611112
 20
1718.6314086679
 30
0.0
 11
1590.0907265994
 21
1718.6314086679
 31
0.0
  0
LINE
  5
28C
330
27E
100
AcDbEntity
  8
SLD-0
100
AcDbLine
 10
1810.5899611112
 20
1718.6314086679
 30
0.0
 11
1711.8891956231
 21
1718.6314086679
 31
0.0
  0
MTEXT
  5
28D
330
27E
100
AcDbEntity
  8
SLD-0
100
AcDbMText
 10
1594.4352739018
 20
1750.3522650589
 30
0.0
 40
21.43125
 41
0.0
 71
     1
 72
     1
  1
 
  7
SLDTEXTSTYLE0
 73
     1
 44
1.0
  0
MTEXT
  5
28E
330
27E
100
AcDbEntity
  8
SLD-0
100
AcDbMText
 10
1615.3704286546
 20
1750.3522671544
 30
0.0
 40
21.43125
 41
0.0
 71
     1
 72
     1
  1
319.2
  7
SLDTEXTSTYLE0
 73
     1
 44
1.0
  0
MTEXT
  5
28F
330
27E
100
AcDbEntity
  8
SLD-0
100
AcDbMText
 10
1615.3704307501
 20
1711.9546115649
 30
0.0
 40
21.43125
 41
0.0
 71
     1
 72
     1
  1
12.57
  7
SLDTEXTSTYLE0
 73
     1
 44
1.0
  0
MTEXT
  5
290
330
27E
100
AcDbEntity
  8
SLD-0
100
AcDbMText
 10
1699.6468335849
 20
1750.3522650589
 30
0.0
 40
21.43125
 41
0.0
 71
     1
 72
     1
  1
 
  7
SLDTEXTSTYLE0
 73
     1
 44
1.0
  0
ENDBLK
  5
280
330
27E
100
AcDbEntity
  8
0
100
AcDbBlockEnd
  0
BLOCK
  5
293
330
292
100
AcDbEntity
  8
0
100
AcDbBlockBegin
  2
_D_10
 70
     0
 10
0.0
 20
0.0
 30
0.0
  3
_D_10
  1

  0
SOLID
  5
295
330
292
100
AcDbEntity
  8
SLD-0
100
AcDbTrace
 10
1491.3899611112
 20
2230.3010246426
 30
0.0
 11
1509.3899611112
 21
2228.0510246426
 31
0.0
 12
1509.3899611112
 22
2232.5510246426
 32
0.0
 13
1509.3899611112
 23
2232.5510246426
 33
0.0
  0
SOLID
  5
296
330
292
100
AcDbEntity
  8
SLD-0
100
AcDbTrace
 10
1450.9899611112
 20
2230.3010246426
 30
0.0
 11
1432.9899611112
 21
2232.5510246426
 31
0.0
 12
1432.9899611112
 22
2228.0510246426
 32
0.0
 13
1432.9899611112
 23
2228.0510246426
 33
0.0
  0
LINE
  5
297
330
292
100
AcDbEntity
  8
SLD-0
100
AcDbLine
 10
1314.3384667475
 20
2230.3010288335
 30
0.0
 11
1307.8197946435
 21
2230.3010288335
 31
0.0
  0
LINE
  5
298
330
292
100
AcDbEntity
  8
SLD-0
100
AcDbLine
 10
1307.8197946435
 20
2230.3010288335
 30
0.0
 11
1307.8197946435
 21
2196.2491532497
 31
0.0
  0
LINE
  5
299
330
292
100
AcDbEntity
  8
SLD-0
100
AcDbLine
 10
1307.8197946435
 20
2196.2491532497
 30
0.0
 11
1314.3384667475
 21
2196.2491532497
 31
0.0
  0
LINE
  5
29A
330
292
100
AcDbEntity
  8
SLD-0
100
AcDbLine
 10
1369.7422180687
 20
2230.3010288335
 30
0.0
 11
1376.2608901727
 21
2230.3010288335
 31
0.0
  0
LINE
  5
29B
330
292
100
AcDbEntity
  8
SLD-0
100
AcDbLine
 10
1376.2608901727
 20
2230.3010288335
 30
0.0
 11
1376.2608901727
 21
2196.2491532497
 31
0.0
  0
LINE
  5
29C
330
292
100
AcDbEntity
  8
SLD-0
100
AcDbLine
 10
1376.2608901727
 20
2196.2491532497
 30
0.0
 11
1369.7422180687
 21
2196.2491532497
 31
0.0
  0
LINE
  5
29D
330
292
100
AcDbEntity
  8
SLD-0
100
AcDbLine
 10
1491.3899611112
 20
1999.4291222554
 30
0.0
 11
1491.3899611112
 21
2237.1590246426
 31
0.0
  0
LINE
  5
29E
330
292
100
AcDbEntity
  8
SLD-0
100
AcDbLine
 10
1450.9899611112
 20
2073.7094168966
 30
0.0
 11
1450.9899611112
 21
2237.1590246426
 31
0.0
  0
LINE
  5
29F
330
292
100
AcDbEntity
  8
SLD-0
100
AcDbLine
 10
1491.3899611112
 20
2230.3010246426
 30
0.0
 11
1527.3899611112
 21
2230.3010246426
 31
0.0
  0
LINE
  5
2A0
330
292
100
AcDbEntity
  8
SLD-0
100
AcDbLine
 10
1450.9899611112
 20
2230.3010246426
 30
0.0
 11
1395.0219222193
 21
2230.3010246426
 31
0.0
  0
MTEXT
  5
2A1
330
292
100
AcDbEntity
  8
SLD-0
100
AcDbMText
 10
1293.4033098992
 20
2262.0218810336
 30
0.0
 40
21.43125
 41
0.0
 71
     1
 72
     1
  1
 
  7
SLDTEXTSTYLE0
 73
     1
 44
1.0
  0
MTEXT
  5
2A2
330
292
100
AcDbEntity
  8
SLD-0
100
AcDbMText
 10
1314.338464652
 20
2262.0218831291
 30
0.0
 40
21.43125
 41
0.0
 71
     1
 72
     1
  1
40.4
  7
SLDTEXTSTYLE0
 73
     1
 44
1.0
  0
MTEXT
  5
2A3
330
292
100
AcDbEntity
  8
SLD-0
100
AcDbMText
 10
1314.3384667475
 20
2223.6242275396
 30
0.0
 40
21.43125
 41
0.0
 71
     1
 72
     1
  1
1.59
  7
SLDTEXTSTYLE0
 73
     1
 44
1.0
  0
MTEXT
  5
2A4
330
292
100
AcDbEntity
  8
SLD-0
100
AcDbMText
 10
1382.7795601812
 20
2262.0218810336
 30
0.0
 40
21.43125
 41
0.0
 71
     1
 72
     1
  1
 
  7
SLDTEXTSTYLE0
 73
     1
 44
1.0
  0
ENDBLK
  5
294
330
292
100
AcDbEntity
  8
0
100
AcDbBlockEnd
  0
BLOCK
  5
2A7
330
2A6
100
AcDbEntity
  8
0
100
AcDbBlockBegin
  2
_D_11
 70
     0
 10
0.0
 20
0.0
 30
0.0
  3
_D_11
  1

  0
SOLID
  5
2A9
330
2A6
100
AcDbEntity
  8
SLD-0
100
AcDbTrace
 10
1450.9899611112
 20
2305.7021451191
 30
0.0
 11
1432.9899611112
 21
2307.9521451191
 31
0.0
 12
1432.9899611112
 22
2303.4521451191
 32
0.0
 13
1432.9899611112
 23
2303.4521451191
 33
0.0
  0
SOLID
  5
2AA
330
2A6
100
AcDbEntity
  8
SLD-0
100
AcDbTrace
 10
1597.0399611112
 20
2305.7021451191
 30
0.0
 11
1615.0399611112
 21
2303.4521451191
 31
0.0
 12
1615.0399611112
 22
2307.9521451191
 32
0.0
 13
1615.0399611112
 23
2307.9521451191
 33
0.0
  0
LINE
  5
2AB
330
2A6
100
AcDbEntity
  8
SLD-0
100
AcDbLine
 10
1496.3130854507
 20
2305.7021493101
 30
0.0
 11
1489.7944133467
 21
2305.7021493101
 31
0.0
  0
LINE
  5
2AC
330
2A6
100
AcDbEntity
  8
SLD-0
100
AcDbLine
 10
1489.7944133467
 20
2305.7021493101
 30
0.0
 11
1489.7944133467
 21
2271.6502737262
 31
0.0
  0
LINE
  5
2AD
330
2A6
100
AcDbEntity
  8
SLD-0
100
AcDbLine
 10
1489.7944133467
 20
2271.6502737262
 30
0.0
 11
1496.3130854507
 21
2271.6502737262
 31
0.0
  0
LINE
  5
2AE
330
2A6
100
AcDbEntity
  8
SLD-0
100
AcDbLine
 10
1551.7168367718
 20
2305.7021493101
 30
0.0
 11
1558.2355088758
 21
2305.7021493101
 31
0.0
  0
LINE
  5
2AF
330
2A6
100
AcDbEntity
  8
SLD-0
100
AcDbLine
 10
1558.2355088758
 20
2305.7021493101
 30
0.0
 11
1558.2355088758
 21
2271.6502737262
 31
0.0
  0
LINE
  5
2B0
330
2A6
100
AcDbEntity
  8
SLD-0
100
AcDbLine
 10
1558.2355088758
 20
2271.6502737262
 30
0.0
 11
1551.7168367718
 21
2271.6502737262
 31
0.0
  0
LINE
  5
2B1
330
2A6
100
AcDbEntity
  8
SLD-0
100
AcDbLine
 10
1450.9899611112
 20
2074.1248646791
 30
0.0
 11
1450.9899611112
 21
2312.5601451191
 31
0.0
  0
LINE
  5
2B2
330
2A6
100
AcDbEntity
  8
SLD-0
100
AcDbLine
 10
1597.0399611112
 20
2086.0791222554
 30
0.0
 11
1597.0399611112
 21
2312.5601451191
 31
0.0
  0
LINE
  5
2B3
330
2A6
100
AcDbEntity
  8
SLD-0
100
AcDbLine
 10
1450.9899611112
 20
2305.7021451191
 30
0.0
 11
1414.9899611112
 21
2305.7021451191
 31
0.0
  0
LINE
  5
2B4
330
2A6
100
AcDbEntity
  8
SLD-0
100
AcDbLine
 10
1597.0399611112
 20
2305.7021451191
 30
0.0
 11
1633.0399611112
 21
2305.7021451191
 31
0.0
  0
MTEXT
  5
2B5
330
2A6
100
AcDbEntity
  8
SLD-0
100
AcDbMText
 10
1475.3779286024
 20
2337.4230015102
 30
0.0
 40
21.43125
 41
0.0
 71
     1
 72
     1
  1
 
  7
SLDTEXTSTYLE0
 73
     1
 44
1.0
  0
MTEXT
  5
2B6
330
2A6
100
AcDbEntity
  8
SLD-0
100
AcDbMText
 10
1488.3954286546
 20
2337.4230036057
 30
0.0
 40
21.43125
 41
0.0
 71
     1
 72
     1
  1
146.1
  7
SLDTEXTSTYLE0
 73
     1
 44
1.0
  0
MTEXT
  5
2B7
330
2A6
100
AcDbEntity
  8
SLD-0
100
AcDbMText
 10
1496.3130854507
 20
2299.0253480162
 30
0.0
 40
21.43125
 41
0.0
 71
     1
 72
     1
  1
5.75
  7
SLDTEXTSTYLE0
 73
     1
 44
1.0
  0
MTEXT
  5
2B8
330
2A6
100
AcDbEntity
  8
SLD-0
100
AcDbMText
 10
1564.7541788843
 20
2337.4230015102
 30
0.0
 40
21.43125
 41
0.0
 71
     1
 72
     1
  1
 
  7
SLDTEXTSTYLE0
 73
     1
 44
1.0
  0
ENDBLK
  5
2A8
330
2A6
100
AcDbEntity
  8
0
100
AcDbBlockEnd
  0
BLOCK
  5
2BB
330
2BA
100
AcDbEntity
  8
0
100
AcDbBlockBegin
  2
SW_NOTE_0_1
 70
     0
 10
0.0
 20
0.0
 30
0.0
  3
SW_NOTE_0_1
  1

  0
LINE
  5
2BD
330
2BA
100
AcDbEntity
  8
SLD-0
 62
     0
100
AcDbLine
 10
0.0
 20
-27.4428858218
 30
0.0
 11
0.0
 21
24.5019071518
 31
0.0
  0
LINE
  5
2BE
330
2BA
100
AcDbEntity
  8
SLD-0
 62
     0
100
AcDbLine
 10
0.0
 20
24.5019071518
 30
0.0
 11
51.9447929737
 21
24.5019071518
 31
0.0
  0
LINE
  5
2BF
330
2BA
100
AcDbEntity
  8
SLD-0
 62
     0
100
AcDbLine
 10
51.9447929737
 20
24.5019071518
 30
0.0
 11
51.9447929737
 21
-27.4428858218
 31
0.0
  0
LINE
  5
2C0
330
2BA
100
AcDbEntity
  8
SLD-0
 62
     0
100
AcDbLine
 10
51.9447929737
 20
-27.4428858218
 30
0.0
 11
0.0
 21
-27.4428858218
 31
0.0
  0
MTEXT
  5
2C1
330
2BA
100
AcDbEntity
  8
SLD-0
 62
     0
100
AcDbMText
 10
25.7565956834
 20
8.9631842085
 30
0.0
 40
21.43125
 41
0.0
 71
     2
 72
     1
  1
5
  7
SLDTEXTSTYLE0
 73
     1
 44
1.0
  0
ENDBLK
  5
2BC
330
2BA
100
AcDbEntity
  8
0
100
AcDbBlockEnd
  0
BLOCK
  5
2C6
330
2C5
100
AcDbEntity
  8
0
100
AcDbBlockBegin
  2
SW_NOTE_0_2
 70
     0
 10
0.0
 20
0.0
 30
0.0
  3
SW_NOTE_0_2
  1

  0
LINE
  5
2C8
330
2C5
100
AcDbEntity
  8
SLD-0
 62
     0
100
AcDbLine
 10
-51.9447929737
 20
-26.313651192
 30
0.0
 11
-51.9447929737
 21
25.6311417817
 31
0.0
  0
LINE
  5
2C9
330
2C5
100
AcDbEntity
  8
SLD-0
 62
     0
100
AcDbLine
 10
-51.9447929737
 20
25.6311417817
 30
0.0
 11
0.0
 21
25.6311417817
 31
0.0
  0
LINE
  5
2CA
330
2C5
100
AcDbEntity
  8
SLD-0
 62
     0
100
AcDbLine
 10
0.0
 20
25.6311417817
 30
0.0
 11
0.0
 21
-26.313651192
 31
0.0
  0
LINE
  5
2CB
330
2C5
100
AcDbEntity
  8
SLD-0
 62
     0
100
AcDbLine
 10
0.0
 20
-26.313651192
 30
0.0
 11
-51.9447929737
 21
-26.313651192
 31
0.0
  0
MTEXT
  5
2CC
330
2C5
100
AcDbEntity
  8
SLD-0
 62
     0
100
AcDbMText
 10
-26.1881972903
 20
10.0924188384
 30
0.0
 40
21.43125
 41
0.0
 71
     2
 72
     1
  1
4
  7
SLDTEXTSTYLE0
 73
     1
 44
1.0
  0
ENDBLK
  5
2C7
330
2C5
100
AcDbEntity
  8
0
100
AcDbBlockEnd
  0
BLOCK
  5
2D0
330
2CF
100
AcDbEntity
  8
0
100
AcDbBlockBegin
  2
SW_NOTE_0_3
 70
     0
 10
0.0
 20
0.0
 30
0.0
  3
SW_NOTE_0_3
  1

  0
LINE
  5
2D2
330
2CF
100
AcDbEntity
  8
SLD-0
 62
     0
100
AcDbLine
 10
0.0
 20
-27.4428858218
 30
0.0
 11
0.0
 21
24.5019071518
 31
0.0
  0
LINE
  5
2D3
330
2CF
100
AcDbEntity
  8
SLD-0
 62
     0
100
AcDbLine
 10
0.0
 20
24.5019071518
 30
0.0
 11
51.9447929737
 21
24.5019071518
 31
0.0
  0
LINE
  5
2D4
330
2CF
100
AcDbEntity
  8
SLD-0
 62
     0
100
AcDbLine
 10
51.9447929737
 20
24.5019071518
 30
0.0
 11
51.9447929737
 21
-27.4428858218
 31
0.0
  0
LINE
  5
2D5
330
2CF
100
AcDbEntity
  8
SLD-0
 62
     0
100
AcDbLine
 10
51.9447929737
 20
-27.4428858218
 30
0.0
 11
0.0
 21
-27.4428858218
 31
0.0
  0
MTEXT
  5
2D6
330
2CF
100
AcDbEntity
  8
SLD-0
 62
     0
100
AcDbMText
 10
25.7565956834
 20
8.9631842085
 30
0.0
 40
21.43125
 41
0.0
 71
     2
 72
     1
  1
6
  7
SLDTEXTSTYLE0
 73
     1
 44
1.0
  0
ENDBLK
  5
2D1
330
2CF
100
AcDbEntity
  8
0
100
AcDbBlockEnd
  0
BLOCK
  5
2DC
330
2DB
100
AcDbEntity
  8
0
100
AcDbBlockBegin
  2
SW_CENTERMARKSYMBOL_0
 70
     0
 10
0.0
 20
0.0
 30
0.0
  3
SW_CENTERMARKSYMBOL_0
  1

  0
LINE
  5
2DE
330
2DB
100
AcDbEntity
  8
SLD-0
 62
     0
100
AcDbLine
 10
0.0
 20
0.0
 30
0.0
 11
0.0
 21
2.0
 31
0.0
  0
LINE
  5
2DF
330
2DB
100
AcDbEntity
  8
SLD-0
 62
     0
100
AcDbLine
 10
0.0
 20
0.0
 30
0.0
 11
-2.0
 21
0.0
 31
0.0
  0
LINE
  5
2E0
330
2DB
100
AcDbEntity
  8
SLD-0
 62
     0
100
AcDbLine
 10
0.0
 20
0.0
 30
0.0
 11
0.0
 21
-2.0
 31
0.0
  0
LINE
  5
2E1
330
2DB
100
AcDbEntity
  8
SLD-0
 62
     0
100
AcDbLine
 10
0.0
 20
0.0
 30
0.0
 11
2.0
 21
0.0
 31
0.0
  0
LINE
  5
2E2
330
2DB
100
AcDbEntity
  8
SLD-0
 62
     0
100
AcDbLine
 10
0.0
 20
4.0
 30
0.0
 11
0.0
 21
12.75
 31
0.0
  0
LINE
  5
2E3
330
2DB
100
AcDbEntity
  8
SLD-0
 62
     0
100
AcDbLine
 10
-4.0
 20
0.0
 30
0.0
 11
-12.75
 21
0.0
 31
0.0
  0
LINE
  5
2E4
330
2DB
100
AcDbEntity
  8
SLD-0
 62
     0
100
AcDbLine
 10
0.0
 20
-4.0
 30
0.0
 11
0.0
 21
-12.75
 31
0.0
  0
LINE
  5
2E5
330
2DB
100
AcDbEntity
  8
SLD-0
 62
     0
100
AcDbLine
 10
4.0
 20
0.0
 30
0.0
 11
12.75
 21
0.0
 31
0.0
  0
ENDBLK
  5
2DD
330
2DB
100
AcDbEntity
  8
0
100
AcDbBlockEnd
  0
BLOCK
  5
2E8
330
2E7
100
AcDbEntity
  8
0
100
AcDbBlockBegin
  2
SW_CENTERMARKSYMBOL_1
 70
     0
 10
0.0
 20
0.0
 30
0.0
  3
SW_CENTERMARKSYMBOL_1
  1

  0
LINE
  5
2EA
330
2E7
100
AcDbEntity
  8
SLD-0
 62
     0
100
AcDbLine
 10
0.0
 20
0.0
 30
0.0
 11
0.0
 21
2.0
 31
0.0
  0
LINE
  5
2EB
330
2E7
100
AcDbEntity
  8
SLD-0
 62
     0
100
AcDbLine
 10
0.0
 20
0.0
 30
0.0
 11
-2.0
 21
0.0
 31
0.0
  0
LINE
  5
2EC
330
2E7
100
AcDbEntity
  8
SLD-0
 62
     0
100
AcDbLine
 10
0.0
 20
0.0
 30
0.0
 11
0.0
 21
-2.0
 31
0.0
  0
LINE
  5
2ED
330
2E7
100
AcDbEntity
  8
SLD-0
 62
     0
100
AcDbLine
 10
0.0
 20
0.0
 30
0.0
 11
2.0
 21
0.0
 31
0.0
  0
LINE
  5
2EE
330
2E7
100
AcDbEntity
  8
SLD-0
 62
     0
100
AcDbLine
 10
0.0
 20
4.0
 30
0.0
 11
0.0
 21
12.75
 31
0.0
  0
LINE
  5
2EF
330
2E7
100
AcDbEntity
  8
SLD-0
 62
     0
100
AcDbLine
 10
-4.0
 20
0.0
 30
0.0
 11
-12.75
 21
0.0
 31
0.0
  0
LINE
  5
2F0
330
2E7
100
AcDbEntity
  8
SLD-0
 62
     0
100
AcDbLine
 10
0.0
 20
-4.0
 30
0.0
 11
0.0
 21
-12.75
 31
0.0
  0
LINE
  5
2F1
330
2E7
100
AcDbEntity
  8
SLD-0
 62
     0
100
AcDbLine
 10
4.0
 20
0.0
 30
0.0
 11
12.75
 21
0.0
 31
0.0
  0
ENDBLK
  5
2E9
330
2E7
100
AcDbEntity
  8
0
100
AcDbBlockEnd
  0
BLOCK
  5
2F4
330
2F3
100
AcDbEntity
  8
0
100
AcDbBlockBegin
  2
SW_CENTERMARKSYMBOL_2
 70
     0
 10
0.0
 20
0.0
 30
0.0
  3
SW_CENTERMARKSYMBOL_2
  1

  0
LINE
  5
2F6
330
2F3
100
AcDbEntity
  8
SLD-0
 62
     0
100
AcDbLine
 10
0.0
 20
0.0
 30
0.0
 11
0.0
 21
2.0
 31
0.0
  0
LINE
  5
2F7
330
2F3
100
AcDbEntity
  8
SLD-0
 62
     0
100
AcDbLine
 10
0.0
 20
0.0
 30
0.0
 11
-2.0
 21
0.0
 31
0.0
  0
LINE
  5
2F8
330
2F3
100
AcDbEntity
  8
SLD-0
 62
     0
100
AcDbLine
 10
0.0
 20
0.0
 30
0.0
 11
0.0
 21
-2.0
 31
0.0
  0
LINE
  5
2F9
330
2F3
100
AcDbEntity
  8
SLD-0
 62
     0
100
AcDbLine
 10
0.0
 20
0.0
 30
0.0
 11
2.0
 21
0.0
 31
0.0
  0
LINE
  5
2FA
330
2F3
100
AcDbEntity
  8
SLD-0
 62
     0
100
AcDbLine
 10
0.0
 20
4.0
 30
0.0
 11
0.0
 21
12.75
 31
0.0
  0
LINE
  5
2FB
330
2F3
100
AcDbEntity
  8
SLD-0
 62
     0
100
AcDbLine
 10
-4.0
 20
0.0
 30
0.0
 11
-12.75
 21
0.0
 31
0.0
  0
LINE
  5
2FC
330
2F3
100
AcDbEntity
  8
SLD-0
 62
     0
100
AcDbLine
 10
0.0
 20
-4.0
 30
0.0
 11
0.0
 21
-12.75
 31
0.0
  0
LINE
  5
2FD
330
2F3
100
AcDbEntity
  8
SLD-0
 62
     0
100
AcDbLine
 10
4.0
 20
0.0
 30
0.0
 11
12.75
 21
0.0
 31
0.0
  0
ENDBLK
  5
2F5
330
2F3
100
AcDbEntity
  8
0
100
AcDbBlockEnd
  0
BLOCK
  5
300
330
2FF
100
AcDbEntity
  8
0
100
AcDbBlockBegin
  2
SW_CENTERMARKSYMBOL_3
 70
     0
 10
0.0
 20
0.0
 30
0.0
  3
SW_CENTERMARKSYMBOL_3
  1

  0
LINE
  5
302
330
2FF
100
AcDbEntity
  8
SLD-0
 62
     0
100
AcDbLine
 10
0.0
 20
0.0
 30
0.0
 11
0.0
 21
2.0
 31
0.0
  0
LINE
  5
303
330
2FF
100
AcDbEntity
  8
SLD-0
 62
     0
100
AcDbLine
 10
0.0
 20
0.0
 30
0.0
 11
-2.0
 21
0.0
 31
0.0
  0
LINE
  5
304
330
2FF
100
AcDbEntity
  8
SLD-0
 62
     0
100
AcDbLine
 10
0.0
 20
0.0
 30
0.0
 11
0.0
 21
-2.0
 31
0.0
  0
LINE
  5
305
330
2FF
100
AcDbEntity
  8
SLD-0
 62
     0
100
AcDbLine
 10
0.0
 20
0.0
 30
0.0
 11
2.0
 21
0.0
 31
0.0
  0
LINE
  5
306
330
2FF
100
AcDbEntity
  8
SLD-0
 62
     0
100
AcDbLine
 10
0.0
 20
4.0
 30
0.0
 11
0.0
 21
9.0
 31
0.0
  0
LINE
  5
307
330
2FF
100
AcDbEntity
  8
SLD-0
 62
     0
100
AcDbLine
 10
-4.0
 20
0.0
 30
0.0
 11
-9.0
 21
0.0
 31
0.0
  0
LINE
  5
308
330
2FF
100
AcDbEntity
  8
SLD-0
 62
     0
100
AcDbLine
 10
0.0
 20
-4.0
 30
0.0
 11
0.0
 21
-9.0
 31
0.0
  0
LINE
  5
309
330
2FF
100
AcDbEntity
  8
SLD-0
 62
     0
100
AcDbLine
 10
4.0
 20
0.0
 30
0.0
 11
9.0
 21
0.0
 31
0.0
  0
ENDBLK
  5
301
330
2FF
100
AcDbEntity
  8
0
100
AcDbBlockEnd
  0
BLOCK
  5
30C
330
30B
100
AcDbEntity
  8
0
100
AcDbBlockBegin
  2
SW_CENTERMARKSYMBOL_4
 70
     0
 10
0.0
 20
0.0
 30
0.0
  3
SW_CENTERMARKSYMBOL_4
  1

  0
LINE
  5
30E
330
30B
100
AcDbEntity
  8
SLD-0
 62
     0
100
AcDbLine
 10
0.0
 20
0.0
 30
0.0
 11
0.0
 21
2.0
 31
0.0
  0
LINE
  5
30F
330
30B
100
AcDbEntity
  8
SLD-0
 62
     0
100
AcDbLine
 10
0.0
 20
0.0
 30
0.0
 11
-2.0
 21
0.0
 31
0.0
  0
LINE
  5
310
330
30B
100
AcDbEntity
  8
SLD-0
 62
     0
100
AcDbLine
 10
0.0
 20
0.0
 30
0.0
 11
0.0
 21
-2.0
 31
0.0
  0
LINE
  5
311
330
30B
100
AcDbEntity
  8
SLD-0
 62
     0
100
AcDbLine
 10
0.0
 20
0.0
 30
0.0
 11
2.0
 21
0.0
 31
0.0
  0
LINE
  5
312
330
30B
100
AcDbEntity
  8
SLD-0
 62
     0
100
AcDbLine
 10
0.0
 20
4.0
 30
0.0
 11
0.0
 21
9.0
 31
0.0
  0
LINE
  5
313
330
30B
100
AcDbEntity
  8
SLD-0
 62
     0
100
AcDbLine
 10
-4.0
 20
0.0
 30
0.0
 11
-9.0
 21
0.0
 31
0.0
  0
LINE
  5
314
330
30B
100
AcDbEntity
  8
SLD-0
 62
     0
100
AcDbLine
 10
0.0
 20
-4.0
 30
0.0
 11
0.0
 21
-9.0
 31
0.0
  0
LINE
  5
315
330
30B
100
AcDbEntity
  8
SLD-0
 62
     0
100
AcDbLine
 10
4.0
 20
0.0
 30
0.0
 11
9.0
 21
0.0
 31
0.0
  0
ENDBLK
  5
30D
330
30B
100
AcDbEntity
  8
0
100
AcDbBlockEnd
  0
BLOCK
  5
318
330
317
100
AcDbEntity
  8
0
100
AcDbBlockBegin
  2
SW_CENTERMARKSYMBOL_5
 70
     0
 10
0.0
 20
0.0
 30
0.0
  3
SW_CENTERMARKSYMBOL_5
  1

  0
LINE
  5
31A
330
317
100
AcDbEntity
  8
SLD-0
 62
     0
100
AcDbLine
 10
0.0
 20
0.0
 30
0.0
 11
0.0
 21
2.0
 31
0.0
  0
LINE
  5
31B
330
317
100
AcDbEntity
  8
SLD-0
 62
     0
100
AcDbLine
 10
0.0
 20
0.0
 30
0.0
 11
-2.0
 21
0.0
 31
0.0
  0
LINE
  5
31C
330
317
100
AcDbEntity
  8
SLD-0
 62
     0
100
AcDbLine
 10
0.0
 20
0.0
 30
0.0
 11
0.0
 21
-2.0
 31
0.0
  0
LINE
  5
31D
330
317
100
AcDbEntity
  8
SLD-0
 62
     0
100
AcDbLine
 10
0.0
 20
0.0
 30
0.0
 11
2.0
 21
0.0
 31
0.0
  0
LINE
  5
31E
330
317
100
AcDbEntity
  8
SLD-0
 62
     0
100
AcDbLine
 10
0.0
 20
4.0
 30
0.0
 11
0.0
 21
11.0
 31
0.0
  0
LINE
  5
31F
330
317
100
AcDbEntity
  8
SLD-0
 62
     0
100
AcDbLine
 10
-4.0
 20
0.0
 30
0.0
 11
-11.0
 21
0.0
 31
0.0
  0
LINE
  5
320
330
317
100
AcDbEntity
  8
SLD-0
 62
     0
100
AcDbLine
 10
0.0
 20
-4.0
 30
0.0
 11
0.0
 21
-11.0
 31
0.0
  0
LINE
  5
321
330
317
100
AcDbEntity
  8
SLD-0
 62
     0
100
AcDbLine
 10
4.0
 20
0.0
 30
0.0
 11
11.0
 21
0.0
 31
0.0
  0
ENDBLK
  5
319
330
317
100
AcDbEntity
  8
0
100
AcDbBlockEnd
  0
BLOCK
  5
324
330
323
100
AcDbEntity
  8
0
100
AcDbBlockBegin
  2
SW_CENTERMARKSYMBOL_6
 70
     0
 10
0.0
 20
0.0
 30
0.0
  3
SW_CENTERMARKSYMBOL_6
  1

  0
LINE
  5
326
330
323
100
AcDbEntity
  8
SLD-0
 62
     0
100
AcDbLine
 10
0.0
 20
0.0
 30
0.0
 11
0.0
 21
2.0
 31
0.0
  0
LINE
  5
327
330
323
100
AcDbEntity
  8
SLD-0
 62
     0
100
AcDbLine
 10
0.0
 20
0.0
 30
0.0
 11
-2.0
 21
0.0
 31
0.0
  0
LINE
  5
328
330
323
100
AcDbEntity
  8
SLD-0
 62
     0
100
AcDbLine
 10
0.0
 20
0.0
 30
0.0
 11
0.0
 21
-2.0
 31
0.0
  0
LINE
  5
329
330
323
100
AcDbEntity
  8
SLD-0
 62
     0
100
AcDbLine
 10
0.0
 20
0.0
 30
0.0
 11
2.0
 21
0.0
 31
0.0
  0
LINE
  5
32A
330
323
100
AcDbEntity
  8
SLD-0
 62
     0
100
AcDbLine
 10
0.0
 20
4.0
 30
0.0
 11
0.0
 21
9.0
 31
0.0
  0
LINE
  5
32B
330
323
100
AcDbEntity
  8
SLD-0
 62
     0
100
AcDbLine
 10
-4.0
 20
0.0
 30
0.0
 11
-9.0
 21
0.0
 31
0.0
  0
LINE
  5
32C
330
323
100
AcDbEntity
  8
SLD-0
 62
     0
100
AcDbLine
 10
0.0
 20
-4.0
 30
0.0
 11
0.0
 21
-9.0
 31
0.0
  0
LINE
  5
32D
330
323
100
AcDbEntity
  8
SLD-0
 62
     0
100
AcDbLine
 10
4.0
 20
0.0
 30
0.0
 11
9.0
 21
0.0
 31
0.0
  0
ENDBLK
  5
325
330
323
100
AcDbEntity
  8
0
100
AcDbBlockEnd
  0
BLOCK
  5
330
330
32F
100
AcDbEntity
  8
0
100
AcDbBlockBegin
  2
SW_CENTERMARKSYMBOL_7
 70
     0
 10
0.0
 20
0.0
 30
0.0
  3
SW_CENTERMARKSYMBOL_7
  1

  0
LINE
  5
332
330
32F
100
AcDbEntity
  8
SLD-0
 62
     0
100
AcDbLine
 10
0.0
 20
0.0
 30
0.0
 11
0.0
 21
2.0
 31
0.0
  0
LINE
  5
333
330
32F
100
AcDbEntity
  8
SLD-0
 62
     0
100
AcDbLine
 10
0.0
 20
0.0
 30
0.0
 11
-2.0
 21
0.0
 31
0.0
  0
LINE
  5
334
330
32F
100
AcDbEntity
  8
SLD-0
 62
     0
100
AcDbLine
 10
0.0
 20
0.0
 30
0.0
 11
0.0
 21
-2.0
 31
0.0
  0
LINE
  5
335
330
32F
100
AcDbEntity
  8
SLD-0
 62
     0
100
AcDbLine
 10
0.0
 20
0.0
 30
0.0
 11
2.0
 21
0.0
 31
0.0
  0
LINE
  5
336
330
32F
100
AcDbEntity
  8
SLD-0
 62
     0
100
AcDbLine
 10
0.0
 20
4.0
 30
0.0
 11
0.0
 21
9.0
 31
0.0
  0
LINE
  5
337
330
32F
100
AcDbEntity
  8
SLD-0
 62
     0
100
AcDbLine
 10
-4.0
 20
0.0
 30
0.0
 11
-9.0
 21
0.0
 31
0.0
  0
LINE
  5
338
330
32F
100
AcDbEntity
  8
SLD-0
 62
     0
100
AcDbLine
 10
0.0
 20
-4.0
 30
0.0
 11
0.0
 21
-9.0
 31
0.0
  0
LINE
  5
339
330
32F
100
AcDbEntity
  8
SLD-0
 62
     0
100
AcDbLine
 10
4.0
 20
0.0
 30
0.0
 11
9.0
 21
0.0
 31
0.0
  0
ENDBLK
  5
331
330
32F
100
AcDbEntity
  8
0
100
AcDbBlockEnd
  0
BLOCK
  5
357
330
356
100
AcDbEntity
  8
0
100
AcDbBlockBegin
  2
_D_12
 70
     0
 10
0.0
 20
0.0
 30
0.0
  3
_D_12
  1

  0
SOLID
  5
359
330
356
100
AcDbEntity
  8
SLD-0
100
AcDbTrace
 10
1450.9899611112
 20
677.5626646218
 30
0.0
 11
1468.9899611112
 21
675.3126646218
 31
0.0
 12
1468.9899611112
 22
679.8126646218
 32
0.0
 13
1468.9899611112
 23
679.8126646218
 33
0.0
  0
SOLID
  5
35A
330
356
100
AcDbEntity
  8
SLD-0
100
AcDbTrace
 10
1639.0499611112
 20
677.5626646218
 30
0.0
 11
1621.0499611112
 21
679.8126646218
 31
0.0
 12
1621.0499611112
 22
675.3126646218
 32
0.0
 13
1621.0499611112
 23
675.3126646218
 33
0.0
  0
LINE
  5
35B
330
356
100
AcDbEntity
  8
SLD-0
100
AcDbLine
 10
1517.3180854507
 20
677.5626688128
 30
0.0
 11
1510.7994133467
 21
677.5626688128
 31
0.0
  0
LINE
  5
35C
330
356
100
AcDbEntity
  8
SLD-0
100
AcDbLine
 10
1510.7994133467
 20
677.5626688128
 30
0.0
 11
1510.7994133467
 21
643.5107932289
 31
0.0
  0
LINE
  5
35D
330
356
100
AcDbEntity
  8
SLD-0
100
AcDbLine
 10
1510.7994133467
 20
643.5107932289
 30
0.0
 11
1517.3180854507
 21
643.5107932289
 31
0.0
  0
LINE
  5
35E
330
356
100
AcDbEntity
  8
SLD-0
100
AcDbLine
 10
1572.7218367718
 20
677.5626688128
 30
0.0
 11
1579.2405088758
 21
677.5626688128
 31
0.0
  0
LINE
  5
35F
330
356
100
AcDbEntity
  8
SLD-0
100
AcDbLine
 10
1579.2405088758
 20
677.5626688128
 30
0.0
 11
1579.2405088758
 21
643.5107932289
 31
0.0
  0
LINE
  5
360
330
356
100
AcDbEntity
  8
SLD-0
100
AcDbLine
 10
1579.2405088758
 20
643.5107932289
 30
0.0
 11
1572.7218367718
 21
643.5107932289
 31
0.0
  0
LINE
  5
361
330
356
100
AcDbEntity
  8
SLD-0
100
AcDbLine
 10
1450.9899611112
 20
577.2217743141
 30
0.0
 11
1450.9899611112
 21
684.4206646218
 31
0.0
  0
LINE
  5
362
330
356
100
AcDbEntity
  8
SLD-0
100
AcDbLine
 10
1639.0499611112
 20
473.8077894509
 30
0.0
 11
1639.0499611112
 21
684.4206646218
 31
0.0
  0
LINE
  5
363
330
356
100
AcDbEntity
  8
SLD-0
100
AcDbLine
 10
1450.9899611112
 20
677.5626646218
 30
0.0
 11
1492.0383813
 21
677.5626646218
 31
0.0
  0
LINE
  5
364
330
356
100
AcDbEntity
  8
SLD-0
100
AcDbLine
 10
1639.0499611112
 20
677.5626646218
 30
0.0
 11
1598.0015409225
 21
677.5626646218
 31
0.0
  0
MTEXT
  5
365
330
356
100
AcDbEntity
  8
SLD-0
100
AcDbMText
 10
1496.3829286024
 20
709.2835210129
 30
0.0
 40
21.43125
 41
0.0
 71
     1
 72
     1
  1
 
  7
SLDTEXTSTYLE0
 73
     1
 44
1.0
  0
MTEXT
  5
366
330
356
100
AcDbEntity
  8
SLD-0
100
AcDbMText
 10
1509.4004286546
 20
709.2835231084
 30
0.0
 40
21.43125
 41
0.0
 71
     1
 72
     1
  1
188.1
  7
SLDTEXTSTYLE0
 73
     1
 44
1.0
  0
MTEXT
  5
367
330
356
100
AcDbEntity
  8
SLD-0
100
AcDbMText
 10
1517.3180854507
 20
670.8858675189
 30
0.0
 40
21.43125
 41
0.0
 71
     1
 72
     1
  1
7.40
  7
SLDTEXTSTYLE0
 73
     1
 44
1.0
  0
MTEXT
  5
368
330
356
100
AcDbEntity
  8
SLD-0
100
AcDbMText
 10
1585.7591788843
 20
709.2835210129
 30
0.0
 40
21.43125
 41
0.0
 71
     1
 72
     1
  1
 
  7
SLDTEXTSTYLE0
 73
     1
 44
1.0
  0
ENDBLK
  5
358
330
356
100
AcDbEntity
  8
0
100
AcDbBlockEnd
  0
BLOCK
  5
36B
330
36A
100
AcDbEntity
  8
0
100
AcDbBlockBegin
  2
_D_13
 70
     0
 10
0.0
 20
0.0
 30
0.0
  3
_D_13
  1

  0
SOLID
  5
36D
330
36A
100
AcDbEntity
  8
SLD-0
100
AcDbTrace
 10
1360.9899611112
 20
451.7861790339
 30
0.0
 11
1358.7399611112
 21
433.7861790339
 31
0.0
 12
1363.2399611112
 22
433.7861790339
 32
0.0
 13
1363.2399611112
 23
433.7861790339
 33
0.0
  0
SOLID
  5
36E
330
36A
100
AcDbEntity
  8
SLD-0
100
AcDbTrace
 10
1360.9899611112
 20
256.1861790339
 30
0.0
 11
1363.2399611112
 21
274.1861790339
 31
0.0
 12
1358.7399611112
 22
274.1861790339
 32
0.0
 13
1358.7399611112
 23
274.1861790339
 33
0.0
  0
LINE
  5
36F
330
36A
100
AcDbEntity
  8
SLD-0
100
AcDbLine
 10
1333.2880854507
 20
353.9861832249
 30
0.0
 11
1326.7694133467
 21
353.9861832249
 31
0.0
  0
LINE
  5
370
330
36A
100
AcDbEntity
  8
SLD-0
100
AcDbLine
 10
1326.7694133467
 20
353.9861832249
 30
0.0
 11
1326.7694133467
 21
319.934307641
 31
0.0
  0
LINE
  5
371
330
36A
100
AcDbEntity
  8
SLD-0
100
AcDbLine
 10
1326.7694133467
 20
319.934307641
 30
0.0
 11
1333.2880854507
 21
319.934307641
 31
0.0
  0
LINE
  5
372
330
36A
100
AcDbEntity
  8
SLD-0
100
AcDbLine
 10
1388.6918367718
 20
353.9861832249
 30
0.0
 11
1395.2105088758
 21
353.9861832249
 31
0.0
  0
LINE
  5
373
330
36A
100
AcDbEntity
  8
SLD-0
100
AcDbLine
 10
1395.2105088758
 20
353.9861832249
 30
0.0
 11
1395.2105088758
 21
319.934307641
 31
0.0
  0
LINE
  5
374
330
36A
100
AcDbEntity
  8
SLD-0
100
AcDbLine
 10
1395.2105088758
 20
319.934307641
 30
0.0
 11
1388.6918367718
 21
319.934307641
 31
0.0
  0
LINE
  5
375
330
36A
100
AcDbEntity
  8
SLD-0
100
AcDbLine
 10
1616.9805411829
 20
451.7861790339
 30
0.0
 11
1354.1319611112
 21
451.7861790339
 31
0.0
  0
LINE
  5
376
330
36A
100
AcDbEntity
  8
SLD-0
100
AcDbLine
 10
1517.8562162527
 20
256.1861790339
 30
0.0
 11
1354.1319611112
 21
256.1861790339
 31
0.0
  0
LINE
  5
377
330
36A
100
AcDbEntity
  8
SLD-0
100
AcDbLine
 10
1360.9899611112
 20
451.7861790339
 30
0.0
 11
1360.9899611112
 21
392.3838367189
 31
0.0
  0
LINE
  5
378
330
36A
100
AcDbEntity
  8
SLD-0
100
AcDbLine
 10
1360.9899611112
 20
256.1861790339
 30
0.0
 11
1360.9899611112
 21
315.5885213489
 31
0.0
  0
MTEXT
  5
379
330
36A
100
AcDbEntity
  8
SLD-0
100
AcDbMText
 10
1312.3529286024
 20
385.707035425
 30
0.0
 40
21.43125
 41
0.0
 71
     1
 72
     1
  1
 
  7
SLDTEXTSTYLE0
 73
     1
 44
1.0
  0
MTEXT
  5
37A
330
36A
100
AcDbEntity
  8
SLD-0
100
AcDbMText
 10
1325.3704286546
 20
385.7070375205
 30
0.0
 40
21.43125
 41
0.0
 71
     1
 72
     1
  1
195.6
  7
SLDTEXTSTYLE0
 73
     1
 44
1.0
  0
MTEXT
  5
37B
330
36A
100
AcDbEntity
  8
SLD-0
100
AcDbMText
 10
1333.2880854507
 20
347.309381931
 30
0.0
 40
21.43125
 41
0.0
 71
     1
 72
     1
  1
7.70
  7
SLDTEXTSTYLE0
 73
     1
 44
1.0
  0
MTEXT
  5
37C
330
36A
100
AcDbEntity
  8
SLD-0
100
AcDbMText
 10
1401.7291788843
 20
385.707035425
 30
0.0
 40
21.43125
 41
0.0
 71
     1
 72
     1
  1
 
  7
SLDTEXTSTYLE0
 73
     1
 44
1.0
  0
ENDBLK
  5
36C
330
36A
100
AcDbEntity
  8
0
100
AcDbBlockEnd
  0
BLOCK
  5
380
330
37F
100
AcDbEntity
  8
0
100
AcDbBlockBegin
  2
_D_14
 70
     0
 10
0.0
 20
0.0
 30
0.0
  3
_D_14
  1

  0
ARC
  5
382
330
37F
100
AcDbEntity
  8
SLD-0
100
AcDbCircle
 10
1650.9899611112
 20
29.491195038
 30
0.0
 40
193.32741169097
100
AcDbArc
 50
63.4
 51
83.5999066685
  0
ARC
  5
383
330
37F
100
AcDbEntity
  8
SLD-0
100
AcDbCircle
 10
1650.9899611112
 20
29.491195038
 30
0.0
 40
193.3274116909699
100
AcDbArc
 50
96.4000933315
 51
116.6
  0
SOLID
  5
384
330
37F
100
AcDbEntity
  8
SLD-0
100
AcDbTrace
 10
1737.5540666242
 20
202.3557192987
 30
0.0
 11
1722.0156552649
 21
211.7162893897
 31
0.0
 12
1720.1896198997
 22
207.6034321292
 32
0.0
 13
1720.1896198997
 23
207.6034321292
 33
0.0
  0
SOLID
  5
385
330
37F
100
AcDbEntity
  8
SLD-0
100
AcDbTrace
 10
1564.4258555983
 20
202.3557192987
 30
0.0
 11
1581.7903023228
 21
207.6034321292
 31
0.0
 12
1579.9642669576
 22
211.7162893897
 32
0.0
 13
1579.9642669576
 23
211.7162893897
 33
0.0
  0
LINE
  5
386
330
37F
100
AcDbEntity
  8
SLD-0
100
AcDbLine
 10
1761.4396210377
 20
250.0540692777
 30
0.0
 11
1734.4833347998
 21
196.2236095424
 31
0.0
  0
LINE
  5
387
330
37F
100
AcDbEntity
  8
SLD-0
100
AcDbLine
 10
1540.5403011848
 20
250.0540692777
 30
0.0
 11
1567.4965874227
 21
196.2236095424
 31
0.0
  0
MTEXT
  5
388
330
37F
100
AcDbEntity
  8
SLD-0
100
AcDbMText
 10
1629.4396480073
 20
233.167743227
 30
0.0
 40
21.43125
 41
0.0
 71
     1
 72
     1
  1
53°
  7
SLDTEXTSTYLE0
 73
     1
 44
1.0
  0
ENDBLK
  5
381
330
37F
100
AcDbEntity
  8
0
100
AcDbBlockEnd
  0
BLOCK
  5
38B
330
38A
100
AcDbEntity
  8
0
100
AcDbBlockBegin
  2
SW_NOTE_0_4
 70
     0
 10
0.0
 20
0.0
 30
0.0
  3
SW_NOTE_0_4
  1

  0
LINE
  5
38D
330
38A
100
AcDbEntity
  8
SLD-0
 62
     0
100
AcDbLine
 10
0.0
 20
-27.4428858218
 30
0.0
 11
0.0
 21
24.5019071518
 31
0.0
  0
LINE
  5
38E
330
38A
100
AcDbEntity
  8
SLD-0
 62
     0
100
AcDbLine
 10
0.0
 20
24.5019071518
 30
0.0
 11
51.9447929737
 21
24.5019071518
 31
0.0
  0
LINE
  5
38F
330
38A
100
AcDbEntity
  8
SLD-0
 62
     0
100
AcDbLine
 10
51.9447929737
 20
24.5019071518
 30
0.0
 11
51.9447929737
 21
-27.4428858218
 31
0.0
  0
LINE
  5
390
330
38A
100
AcDbEntity
  8
SLD-0
 62
     0
100
AcDbLine
 10
51.9447929737
 20
-27.4428858218
 30
0.0
 11
0.0
 21
-27.4428858218
 31
0.0
  0
MTEXT
  5
391
330
38A
100
AcDbEntity
  8
SLD-0
 62
     0
100
AcDbMText
 10
25.7565956834
 20
8.9631842085
 30
0.0
 40
21.43125
 41
0.0
 71
     2
 72
     1
  1
5
  7
SLDTEXTSTYLE0
 73
     1
 44
1.0
  0
ENDBLK
  5
38C
330
38A
100
AcDbEntity
  8
0
100
AcDbBlockEnd
  0
BLOCK
  5
395
330
394
100
AcDbEntity
  8
0
100
AcDbBlockBegin
  2
SW_NOTE_0_5
 70
     0
 10
0.0
 20
0.0
 30
0.0
  3
SW_NOTE_0_5
  1

  0
LINE
  5
397
330
394
100
AcDbEntity
  8
SLD-0
 62
     0
100
AcDbLine
 10
0.0
 20
-27.4428858218
 30
0.0
 11
0.0
 21
24.5019071518
 31
0.0
  0
LINE
  5
398
330
394
100
AcDbEntity
  8
SLD-0
 62
     0
100
AcDbLine
 10
0.0
 20
24.5019071518
 30
0.0
 11
51.9447929737
 21
24.5019071518
 31
0.0
  0
LINE
  5
399
330
394
100
AcDbEntity
  8
SLD-0
 62
     0
100
AcDbLine
 10
51.9447929737
 20
24.5019071518
 30
0.0
 11
51.9447929737
 21
-27.4428858218
 31
0.0
  0
LINE
  5
39A
330
394
100
AcDbEntity
  8
SLD-0
 62
     0
100
AcDbLine
 10
51.9447929737
 20
-27.4428858218
 30
0.0
 11
0.0
 21
-27.4428858218
 31
0.0
  0
MTEXT
  5
39B
330
394
100
AcDbEntity
  8
SLD-0
 62
     0
100
AcDbMText
 10
25.7565956834
 20
8.9631842085
 30
0.0
 40
21.43125
 41
0.0
 71
     2
 72
     1
  1
4
  7
SLDTEXTSTYLE0
 73
     1
 44
1.0
  0
ENDBLK
  5
396
330
394
100
AcDbEntity
  8
0
100
AcDbBlockEnd
  0
BLOCK
  5
39F
330
39E
100
AcDbEntity
  8
0
100
AcDbBlockBegin
  2
SW_NOTE_0_6
 70
     0
 10
0.0
 20
0.0
 30
0.0
  3
SW_NOTE_0_6
  1

  0
LINE
  5
3A1
330
39E
100
AcDbEntity
  8
SLD-0
 62
     0
100
AcDbLine
 10
-51.9447929737
 20
-26.313651192
 30
0.0
 11
-51.9447929737
 21
25.6311417817
 31
0.0
  0
LINE
  5
3A2
330
39E
100
AcDbEntity
  8
SLD-0
 62
     0
100
AcDbLine
 10
-51.9447929737
 20
25.6311417817
 30
0.0
 11
0.0
 21
25.6311417817
 31
0.0
  0
LINE
  5
3A3
330
39E
100
AcDbEntity
  8
SLD-0
 62
     0
100
AcDbLine
 10
0.0
 20
25.6311417817
 30
0.0
 11
0.0
 21
-26.313651192
 31
0.0
  0
LINE
  5
3A4
330
39E
100
AcDbEntity
  8
SLD-0
 62
     0
100
AcDbLine
 10
0.0
 20
-26.313651192
 30
0.0
 11
-51.9447929737
 21
-26.313651192
 31
0.0
  0
MTEXT
  5
3A5
330
39E
100
AcDbEntity
  8
SLD-0
 62
     0
100
AcDbMText
 10
-26.1881972903
 20
10.0924188384
 30
0.0
 40
21.43125
 41
0.0
 71
     2
 72
     1
  1
6
  7
SLDTEXTSTYLE0
 73
     1
 44
1.0
  0
ENDBLK
  5
3A0
330
39E
100
AcDbEntity
  8
0
100
AcDbBlockEnd
  0
BLOCK
  5
3D5
330
3D4
100
AcDbEntity
  8
0
100
AcDbBlockBegin
  2
_D_15
 70
     0
 10
0.0
 20
0.0
 30
0.0
  3
_D_15
  1

  0
SOLID
  5
3D7
330
3D4
100
AcDbEntity
  8
SLD-0
100
AcDbTrace
 10
2645.0385715457
 20
1384.9317501907
 30
0.0
 11
2642.7885715457
 21
1366.9317501907
 31
0.0
 12
2647.2885715457
 22
1366.9317501907
 32
0.0
 13
2647.2885715457
 23
1366.9317501907
 33
0.0
  0
SOLID
  5
3D8
330
3D4
100
AcDbEntity
  8
SLD-0
100
AcDbTrace
 10
2645.0385715457
 20
787.7317501907
 30
0.0
 11
2647.2885715457
 21
805.7317501907
 31
0.0
 12
2642.7885715457
 22
805.7317501907
 32
0.0
 13
2642.7885715457
 23
805.7317501907
 33
0.0
  0
LINE
  5
3D9
330
3D4
100
AcDbEntity
  8
SLD-0
100
AcDbLine
 10
2609.4190411846
 20
1086.3317543817
 30
0.0
 11
2602.9003690806
 21
1086.3317543817
 31
0.0
  0
LINE
  5
3DA
330
3D4
100
AcDbEntity
  8
SLD-0
100
AcDbLine
 10
2602.9003690806
 20
1086.3317543817
 30
0.0
 11
2602.9003690806
 21
1052.2798787979
 31
0.0
  0
LINE
  5
3DB
330
3D4
100
AcDbEntity
  8
SLD-0
100
AcDbLine
 10
2602.9003690806
 20
1052.2798787979
 30
0.0
 11
2609.4190411846
 21
1052.2798787979
 31
0.0
  0
LINE
  5
3DC
330
3D4
100
AcDbEntity
  8
SLD-0
100
AcDbLine
 10
2680.6581019069
 20
1086.3317543817
 30
0.0
 11
2687.1767740109
 21
1086.3317543817
 31
0.0
  0
LINE
  5
3DD
330
3D4
100
AcDbEntity
  8
SLD-0
100
AcDbLine
 10
2687.1767740109
 20
1086.3317543817
 30
0.0
 11
2687.1767740109
 21
1052.2798787979
 31
0.0
  0
LINE
  5
3DE
330
3D4
100
AcDbEntity
  8
SLD-0
100
AcDbLine
 10
2687.1767740109
 20
1052.2798787979
 30
0.0
 11
2680.6581019069
 21
1052.2798787979
 31
0.0
  0
LINE
  5
3DF
330
3D4
100
AcDbEntity
  8
SLD-0
100
AcDbLine
 10
2538.6263518766
 20
1384.9317501907
 30
0.0
 11
2651.8965715457
 21
1384.9317501907
 31
0.0
  0
LINE
  5
3E0
330
3D4
100
AcDbEntity
  8
SLD-0
100
AcDbLine
 10
2537.9308963857
 20
787.7317501907
 30
0.0
 11
2651.8965715457
 21
787.7317501907
 31
0.0
  0
LINE
  5
3E1
330
3D4
100
AcDbEntity
  8
SLD-0
100
AcDbLine
 10
2645.0385715457
 20
1384.9317501907
 30
0.0
 11
2645.0385715457
 21
1124.7294078757
 31
0.0
  0
LINE
  5
3E2
330
3D4
100
AcDbEntity
  8
SLD-0
100
AcDbLine
 10
2645.0385715457
 20
787.7317501907
 30
0.0
 11
2645.0385715457
 21
1047.9340925058
 31
0.0
  0
MTEXT
  5
3E3
330
3D4
100
AcDbEntity
  8
SLD-0
100
AcDbMText
 10
2588.4838843363
 20
1118.0526065818
 30
0.0
 40
21.43125
 41
0.0
 71
     1
 72
     1
  1
 
  7
SLDTEXTSTYLE0
 73
     1
 44
1.0
  0
MTEXT
  5
3E4
330
3D4
100
AcDbEntity
  8
SLD-0
100
AcDbMText
 10
2609.4190390891
 20
1118.0526086773
 30
0.0
 40
21.43125
 41
0.0
 71
     1
 72
     1
  1
597.2
  7
SLDTEXTSTYLE0
 73
     1
 44
1.0
  0
MTEXT
  5
3E5
330
3D4
100
AcDbEntity
  8
SLD-0
100
AcDbMText
 10
2609.4190411846
 20
1079.6549530878
 30
0.0
 40
21.43125
 41
0.0
 71
     1
 72
     1
  1
23.51
  7
SLDTEXTSTYLE0
 73
     1
 44
1.0
  0
MTEXT
  5
3E6
330
3D4
100
AcDbEntity
  8
SLD-0
100
AcDbMText
 10
2693.6954440194
 20
1118.0526065818
 30
0.0
 40
21.43125
 41
0.0
 71
     1
 72
     1
  1
 
  7
SLDTEXTSTYLE0
 73
     1
 44
1.0
  0
ENDBLK
  5
3D6
330
3D4
100
AcDbEntity
  8
0
100
AcDbBlockEnd
  0
BLOCK
  5
3E9
330
3E8
100
AcDbEntity
  8
0
100
AcDbBlockBegin
  2
_D_16
 70
     0
 10
0.0
 20
0.0
 30
0.0
  3
_D_16
  1

  0
SOLID
  5
3EB
330
3E8
100
AcDbEntity
  8
SLD-0
100
AcDbTrace
 10
2174.3246845991
 20
704.2622230011
 30
0.0
 11
2192.3246845991
 21
702.0122230011
 31
0.0
 12
2192.3246845991
 22
706.5122230011
 32
0.0
 13
2192.3246845991
 23
706.5122230011
 33
0.0
  0
SOLID
  5
3EC
330
3E8
100
AcDbEntity
  8
SLD-0
100
AcDbTrace
 10
2524.7246845991
 20
704.2622230011
 30
0.0
 11
2506.7246845991
 21
706.5122230011
 31
0.0
 12
2506.7246845991
 22
702.0122230011
 32
0.0
 13
2506.7246845991
 23
702.0122230011
 33
0.0
  0
LINE
  5
3ED
330
3E8
100
AcDbEntity
  8
SLD-0
100
AcDbLine
 10
2313.905154238
 20
704.262227192
 30
0.0
 11
2307.386482134
 21
704.262227192
 31
0.0
  0
LINE
  5
3EE
330
3E8
100
AcDbEntity
  8
SLD-0
100
AcDbLine
 10
2307.386482134
 20
704.262227192
 30
0.0
 11
2307.386482134
 21
670.2103516082
 31
0.0
  0
LINE
  5
3EF
330
3E8
100
AcDbEntity
  8
SLD-0
100
AcDbLine
 10
2307.386482134
 20
670.2103516082
 30
0.0
 11
2313.905154238
 21
670.2103516082
 31
0.0
  0
LINE
  5
3F0
330
3E8
100
AcDbEntity
  8
SLD-0
100
AcDbLine
 10
2385.1442149603
 20
704.262227192
 30
0.0
 11
2391.6628870643
 21
704.262227192
 31
0.0
  0
LINE
  5
3F1
330
3E8
100
AcDbEntity
  8
SLD-0
100
AcDbLine
 10
2391.6628870643
 20
704.262227192
 30
0.0
 11
2391.6628870643
 21
670.2103516082
 31
0.0
  0
LINE
  5
3F2
330
3E8
100
AcDbEntity
  8
SLD-0
100
AcDbLine
 10
2391.6628870643
 20
670.2103516082
 30
0.0
 11
2385.1442149603
 21
670.2103516082
 31
0.0
  0
LINE
  5
3F3
330
3E8
100
AcDbEntity
  8
SLD-0
100
AcDbLine
 10
2174.3246845991
 20
771.48026212
 30
0.0
 11
2174.3246845991
 21
697.4042230011
 31
0.0
  0
LINE
  5
3F4
330
3E8
100
AcDbEntity
  8
SLD-0
100
AcDbLine
 10
2524.7246845991
 20
770.6495335911
 30
0.0
 11
2524.7246845991
 21
697.4042230011
 31
0.0
  0
LINE
  5
3F5
330
3E8
100
AcDbEntity
  8
SLD-0
100
AcDbLine
 10
2174.3246845991
 20
704.2622230011
 30
0.0
 11
2288.6254500873
 21
704.2622230011
 31
0.0
  0
LINE
  5
3F6
330
3E8
100
AcDbEntity
  8
SLD-0
100
AcDbLine
 10
2524.7246845991
 20
704.2622230011
 30
0.0
 11
2410.4239191109
 21
704.2622230011
 31
0.0
  0
MTEXT
  5
3F7
330
3E8
100
AcDbEntity
  8
SLD-0
100
AcDbMText
 10
2292.9699973897
 20
735.9830793922
 30
0.0
 40
21.43125
 41
0.0
 71
     1
 72
     1
  1
 
  7
SLDTEXTSTYLE0
 73
     1
 44
1.0
  0
MTEXT
  5
3F8
330
3E8
100
AcDbEntity
  8
SLD-0
100
AcDbMText
 10
2313.9051521425
 20
735.9830814877
 30
0.0
 40
21.43125
 41
0.0
 71
     1
 72
     1
  1
350.4
  7
SLDTEXTSTYLE0
 73
     1
 44
1.0
  0
MTEXT
  5
3F9
330
3E8
100
AcDbEntity
  8
SLD-0
100
AcDbMText
 10
2313.905154238
 20
697.5854258981
 30
0.0
 40
21.43125
 41
0.0
 71
     1
 72
     1
  1
13.80
  7
SLDTEXTSTYLE0
 73
     1
 44
1.0
  0
MTEXT
  5
3FA
330
3E8
100
AcDbEntity
  8
SLD-0
100
AcDbMText
 10
2398.1815570728
 20
735.9830793922
 30
0.0
 40
21.43125
 41
0.0
 71
     1
 72
     1
  1
 
  7
SLDTEXTSTYLE0
 73
     1
 44
1.0
  0
ENDBLK
  5
3EA
330
3E8
100
AcDbEntity
  8
0
100
AcDbBlockEnd
  0
BLOCK
  5
3FC
330
3FB
100
AcDbEntity
  8
0
100
AcDbBlockBegin
  2
SW_NOTE_0_7
 70
     0
 10
0.0
 20
0.0
 30
0.0
  3
SW_NOTE_0_7
  1

  0
LINE
  5
3FE
330
3FB
100
AcDbEntity
  8
SLD-0
 62
     0
100
AcDbLine
 10
0.0
 20
-27.4428858218
 30
0.0
 11
0.0
 21
24.5019071518
 31
0.0
  0
LINE
  5
3FF
330
3FB
100
AcDbEntity
  8
SLD-0
 62
     0
100
AcDbLine
 10
0.0
 20
24.5019071518
 30
0.0
 11
51.9447929737
 21
24.5019071518
 31
0.0
  0
LINE
  5
400
330
3FB
100
AcDbEntity
  8
SLD-0
 62
     0
100
AcDbLine
 10
51.9447929737
 20
24.5019071518
 30
0.0
 11
51.9447929737
 21
-27.4428858218
 31
0.0
  0
LINE
  5
401
330
3FB
100
AcDbEntity
  8
SLD-0
 62
     0
100
AcDbLine
 10
51.9447929737
 20
-27.4428858218
 30
0.0
 11
0.0
 21
-27.4428858218
 31
0.0
  0
MTEXT
  5
402
330
3FB
100
AcDbEntity
  8
SLD-0
 62
     0
100
AcDbMText
 10
25.7565956834
 20
8.9631842085
 30
0.0
 40
21.43125
 41
0.0
 71
     2
 72
     1
  1
6
  7
SLDTEXTSTYLE0
 73
     1
 44
1.0
  0
ENDBLK
  5
3FD
330
3FB
100
AcDbEntity
  8
0
100
AcDbBlockEnd
  0
BLOCK
  5
432
330
431
100
AcDbEntity
  8
0
100
AcDbBlockBegin
  2
_D_17
 70
     0
 10
0.0
 20
0.0
 30
0.0
  3
_D_17
  1

  0
SOLID
  5
434
330
431
100
AcDbEntity
  8
SLD-0
100
AcDbTrace
 10
976.0473605562
 20
1344.5317501907
 30
0.0
 11
973.7973605562
 21
1326.5317501907
 31
0.0
 12
978.2973605562
 22
1326.5317501907
 32
0.0
 13
978.2973605562
 23
1326.5317501907
 33
0.0
  0
SOLID
  5
435
330
431
100
AcDbEntity
  8
SLD-0
100
AcDbTrace
 10
976.0473605562
 20
828.1317501907
 30
0.0
 11
978.2973605562
 21
846.1317501907
 31
0.0
 12
973.7973605562
 22
846.1317501907
 32
0.0
 13
973.7973605562
 23
846.1317501907
 33
0.0
  0
LINE
  5
436
330
431
100
AcDbEntity
  8
SLD-0
100
AcDbLine
 10
940.427830195
 20
1086.3317543817
 30
0.0
 11
933.909158091
 21
1086.3317543817
 31
0.0
  0
LINE
  5
437
330
431
100
AcDbEntity
  8
SLD-0
100
AcDbLine
 10
933.909158091
 20
1086.3317543817
 30
0.0
 11
933.909158091
 21
1052.2798787979
 31
0.0
  0
LINE
  5
438
330
431
100
AcDbEntity
  8
SLD-0
100
AcDbLine
 10
933.909158091
 20
1052.2798787979
 30
0.0
 11
940.427830195
 21
1052.2798787979
 31
0.0
  0
LINE
  5
439
330
431
100
AcDbEntity
  8
SLD-0
100
AcDbLine
 10
1011.6668909173
 20
1086.3317543817
 30
0.0
 11
1018.1855630213
 21
1086.3317543817
 31
0.0
  0
LINE
  5
43A
330
431
100
AcDbEntity
  8
SLD-0
100
AcDbLine
 10
1018.1855630213
 20
1086.3317543817
 30
0.0
 11
1018.1855630213
 21
1052.2798787979
 31
0.0
  0
LINE
  5
43B
330
431
100
AcDbEntity
  8
SLD-0
100
AcDbLine
 10
1018.1855630213
 20
1052.2798787979
 30
0.0
 11
1011.6668909173
 21
1052.2798787979
 31
0.0
  0
LINE
  5
43C
330
431
100
AcDbEntity
  8
SLD-0
100
AcDbLine
 10
802.6584101998
 20
1344.5317501907
 30
0.0
 11
982.9053605562
 21
1344.5317501907
 31
0.0
  0
LINE
  5
43D
330
431
100
AcDbEntity
  8
SLD-0
100
AcDbLine
 10
802.6584101998
 20
828.1317501907
 30
0.0
 11
982.9053605562
 21
828.1317501907
 31
0.0
  0
LINE
  5
43E
330
431
100
AcDbEntity
  8
SLD-0
100
AcDbLine
 10
976.0473605562
 20
1344.5317501907
 30
0.0
 11
976.0473605562
 21
1124.7294078757
 31
0.0
  0
LINE
  5
43F
330
431
100
AcDbEntity
  8
SLD-0
100
AcDbLine
 10
976.0473605562
 20
828.1317501907
 30
0.0
 11
976.0473605562
 21
1047.9340925058
 31
0.0
  0
MTEXT
  5
440
330
431
100
AcDbEntity
  8
SLD-0
100
AcDbMText
 10
919.4926733468
 20
1118.0526065818
 30
0.0
 40
21.43125
 41
0.0
 71
     1
 72
     1
  1
 
  7
SLDTEXTSTYLE0
 73
     1
 44
1.0
  0
MTEXT
  5
441
330
431
100
AcDbEntity
  8
SLD-0
100
AcDbMText
 10
940.4278280996
 20
1118.0526086773
 30
0.0
 40
21.43125
 41
0.0
 71
     1
 72
     1
  1
516.4
  7
SLDTEXTSTYLE0
 73
     1
 44
1.0
  0
MTEXT
  5
442
330
431
100
AcDbEntity
  8
SLD-0
100
AcDbMText
 10
940.427830195
 20
1079.6549530878
 30
0.0
 40
21.43125
 41
0.0
 71
     1
 72
     1
  1
20.33
  7
SLDTEXTSTYLE0
 73
     1
 44
1.0
  0
MTEXT
  5
443
330
431
100
AcDbEntity
  8
SLD-0
100
AcDbMText
 10
1024.7042330298
 20
1118.0526065818
 30
0.0
 40
21.43125
 41
0.0
 71
     1
 72
     1
  1
 
  7
SLDTEXTSTYLE0
 73
     1
 44
1.0
  0
ENDBLK
  5
433
330
431
100
AcDbEntity
  8
0
100
AcDbBlockEnd
  0
BLOCK
  5
446
330
445
100
AcDbEntity
  8
0
100
AcDbBlockBegin
  2
_D_18
 70
     0
 10
0.0
 20
0.0
 30
0.0
  3
_D_18
  1

  0
SOLID
  5
448
330
445
100
AcDbEntity
  8
SLD-0
100
AcDbTrace
 10
976.0473605562
 20
1344.5317501907
 30
0.0
 11
973.7973605562
 21
1326.5317501907
 31
0.0
 12
978.2973605562
 22
1326.5317501907
 32
0.0
 13
978.2973605562
 23
1326.5317501907
 33
0.0
  0
SOLID
  5
449
330
445
100
AcDbEntity
  8
SLD-0
100
AcDbTrace
 10
976.0473605562
 20
1384.9317501907
 30
0.0
 11
978.2973605562
 21
1402.9317501907
 31
0.0
 12
973.7973605562
 22
1402.9317501907
 32
0.0
 13
973.7973605562
 23
1402.9317501907
 33
0.0
  0
LINE
  5
44A
330
445
100
AcDbEntity
  8
SLD-0
100
AcDbLine
 10
1028.0161593116
 20
1463.4360158017
 30
0.0
 11
1021.4974872076
 21
1463.4360158017
 31
0.0
  0
LINE
  5
44B
330
445
100
AcDbEntity
  8
SLD-0
100
AcDbLine
 10
1021.4974872076
 20
1463.4360158017
 30
0.0
 11
1021.4974872076
 21
1429.3841402179
 31
0.0
  0
LINE
  5
44C
330
445
100
AcDbEntity
  8
SLD-0
100
AcDbLine
 10
1021.4974872076
 20
1429.3841402179
 30
0.0
 11
1028.0161593116
 21
1429.3841402179
 31
0.0
  0
LINE
  5
44D
330
445
100
AcDbEntity
  8
SLD-0
100
AcDbLine
 10
1083.4199106328
 20
1463.4360158017
 30
0.0
 11
1089.9385827368
 21
1463.4360158017
 31
0.0
  0
LINE
  5
44E
330
445
100
AcDbEntity
  8
SLD-0
100
AcDbLine
 10
1089.9385827368
 20
1463.4360158017
 30
0.0
 11
1089.9385827368
 21
1429.3841402179
 31
0.0
  0
LINE
  5
44F
330
445
100
AcDbEntity
  8
SLD-0
100
AcDbLine
 10
1089.9385827368
 20
1429.3841402179
 30
0.0
 11
1083.4199106328
 21
1429.3841402179
 31
0.0
  0
LINE
  5
450
330
445
100
AcDbEntity
  8
SLD-0
100
AcDbLine
 10
802.6584101998
 20
1344.5317501907
 30
0.0
 11
982.9053605562
 21
1344.5317501907
 31
0.0
  0
LINE
  5
451
330
445
100
AcDbEntity
  8
SLD-0
100
AcDbLine
 10
895.5083354405
 20
1384.9317501907
 30
0.0
 11
982.9053605562
 21
1384.9317501907
 31
0.0
  0
LINE
  5
452
330
445
100
AcDbEntity
  8
SLD-0
100
AcDbLine
 10
994.0473605562
 20
1463.4360116107
 30
0.0
 11
976.0473605562
 21
1463.4360116107
 31
0.0
  0
LINE
  5
453
330
445
100
AcDbEntity
  8
SLD-0
100
AcDbLine
 10
976.0473605562
 20
1463.4360116107
 30
0.0
 11
976.0473605562
 21
1384.9317501907
 31
0.0
  0
LINE
  5
454
330
445
100
AcDbEntity
  8
SLD-0
100
AcDbLine
 10
976.0473605562
 20
1344.5317501907
 30
0.0
 11
976.0473605562
 21
1308.5317501907
 31
0.0
  0
MTEXT
  5
455
330
445
100
AcDbEntity
  8
SLD-0
100
AcDbMText
 10
1007.0810024633
 20
1495.1568680018
 30
0.0
 40
21.43125
 41
0.0
 71
     1
 72
     1
  1
 
  7
SLDTEXTSTYLE0
 73
     1
 44
1.0
  0
MTEXT
  5
456
330
445
100
AcDbEntity
  8
SLD-0
100
AcDbMText
 10
1028.0161572161
 20
1495.1568700973
 30
0.0
 40
21.43125
 41
0.0
 71
     1
 72
     1
  1
40.4
  7
SLDTEXTSTYLE0
 73
     1
 44
1.0
  0
MTEXT
  5
457
330
445
100
AcDbEntity
  8
SLD-0
100
AcDbMText
 10
1028.0161593116
 20
1456.7592145078
 30
0.0
 40
21.43125
 41
0.0
 71
     1
 72
     1
  1
1.59
  7
SLDTEXTSTYLE0
 73
     1
 44
1.0
  0
MTEXT
  5
458
330
445
100
AcDbEntity
  8
SLD-0
100
AcDbMText
 10
1096.4572527453
 20
1495.1568680018
 30
0.0
 40
21.43125
 41
0.0
 71
     1
 72
     1
  1
 
  7
SLDTEXTSTYLE0
 73
     1
 44
1.0
  0
ENDBLK
  5
447
330
445
100
AcDbEntity
  8
0
100
AcDbBlockEnd
  0
BLOCK
  5
45B
330
45A
100
AcDbEntity
  8
0
100
AcDbBlockBegin
  2
_D_19
 70
     0
 10
0.0
 20
0.0
 30
0.0
  3
_D_19
  1

  0
SOLID
  5
45D
330
45A
100
AcDbEntity
  8
SLD-0
100
AcDbTrace
 10
783.0504101998
 20
1463.4360116107
 30
0.0
 11
765.0504101998
 21
1465.6860116107
 31
0.0
 12
765.0504101998
 22
1461.1860116107
 32
0.0
 13
765.0504101998
 23
1461.1860116107
 33
0.0
  0
SOLID
  5
45E
330
45A
100
AcDbEntity
  8
SLD-0
100
AcDbTrace
 10
532.0504101998
 20
1463.4360116107
 30
0.0
 11
550.0504101998
 21
1461.1860116107
 31
0.0
 12
550.0504101998
 22
1465.6860116107
 32
0.0
 13
550.0504101998
 23
1465.6860116107
 33
0.0
  0
LINE
  5
45F
330
45A
100
AcDbEntity
  8
SLD-0
100
AcDbLine
 10
629.8485345392
 20
1463.4360158017
 30
0.0
 11
623.3298624352
 21
1463.4360158017
 31
0.0
  0
LINE
  5
460
330
45A
100
AcDbEntity
  8
SLD-0
100
AcDbLine
 10
623.3298624352
 20
1463.4360158017
 30
0.0
 11
623.3298624352
 21
1429.3841402179
 31
0.0
  0
LINE
  5
461
330
45A
100
AcDbEntity
  8
SLD-0
100
AcDbLine
 10
623.3298624352
 20
1429.3841402179
 30
0.0
 11
629.8485345392
 21
1429.3841402179
 31
0.0
  0
LINE
  5
462
330
45A
100
AcDbEntity
  8
SLD-0
100
AcDbLine
 10
685.2522858604
 20
1463.4360158017
 30
0.0
 11
691.7709579644
 21
1463.4360158017
 31
0.0
  0
LINE
  5
463
330
45A
100
AcDbEntity
  8
SLD-0
100
AcDbLine
 10
691.7709579644
 20
1463.4360158017
 30
0.0
 11
691.7709579644
 21
1429.3841402179
 31
0.0
  0
LINE
  5
464
330
45A
100
AcDbEntity
  8
SLD-0
100
AcDbLine
 10
691.7709579644
 20
1429.3841402179
 30
0.0
 11
685.2522858604
 21
1429.3841402179
 31
0.0
  0
LINE
  5
465
330
45A
100
AcDbEntity
  8
SLD-0
100
AcDbLine
 10
783.0504101998
 20
1364.1397501907
 30
0.0
 11
783.0504101998
 21
1470.2940116107
 31
0.0
  0
LINE
  5
466
330
45A
100
AcDbEntity
  8
SLD-0
100
AcDbLine
 10
532.0504101998
 20
1402.4784484391
 30
0.0
 11
532.0504101998
 21
1470.2940116107
 31
0.0
  0
LINE
  5
467
330
45A
100
AcDbEntity
  8
SLD-0
100
AcDbLine
 10
783.0504101998
 20
1463.4360116107
 30
0.0
 11
710.531990011
 21
1463.4360116107
 31
0.0
  0
LINE
  5
468
330
45A
100
AcDbEntity
  8
SLD-0
100
AcDbLine
 10
532.0504101998
 20
1463.4360116107
 30
0.0
 11
604.5688303886
 21
1463.4360116107
 31
0.0
  0
MTEXT
  5
469
330
45A
100
AcDbEntity
  8
SLD-0
100
AcDbMText
 10
608.9133776909
 20
1495.1568680018
 30
0.0
 40
21.43125
 41
0.0
 71
     1
 72
     1
  1
 
  7
SLDTEXTSTYLE0
 73
     1
 44
1.0
  0
MTEXT
  5
46A
330
45A
100
AcDbEntity
  8
SLD-0
100
AcDbMText
 10
621.9308777432
 20
1495.1568700973
 30
0.0
 40
21.43125
 41
0.0
 71
     1
 72
     1
  1
251.0
  7
SLDTEXTSTYLE0
 73
     1
 44
1.0
  0
MTEXT
  5
46B
330
45A
100
AcDbEntity
  8
SLD-0
100
AcDbMText
 10
629.8485345392
 20
1456.7592145078
 30
0.0
 40
21.43125
 41
0.0
 71
     1
 72
     1
  1
9.88
  7
SLDTEXTSTYLE0
 73
     1
 44
1.0
  0
MTEXT
  5
46C
330
45A
100
AcDbEntity
  8
SLD-0
100
AcDbMText
 10
698.2896279729
 20
1495.1568680018
 30
0.0
 40
21.43125
 41
0.0
 71
     1
 72
     1
  1
 
  7
SLDTEXTSTYLE0
 73
     1
 44
1.0
  0
ENDBLK
  5
45C
330
45A
100
AcDbEntity
  8
0
100
AcDbBlockEnd
  0
BLOCK
  5
46F
330
46E
100
AcDbEntity
  8
0
100
AcDbBlockBegin
  2
SW_NOTE_0_8
 70
     0
 10
0.0
 20
0.0
 30
0.0
  3
SW_NOTE_0_8
  1

  0
LINE
  5
471
330
46E
100
AcDbEntity
  8
SLD-0
 62
     0
100
AcDbLine
 10
0.0
 20
-27.4428858218
 30
0.0
 11
0.0
 21
24.5019071518
 31
0.0
  0
LINE
  5
472
330
46E
100
AcDbEntity
  8
SLD-0
 62
     0
100
AcDbLine
 10
0.0
 20
24.5019071518
 30
0.0
 11
51.9447929737
 21
24.5019071518
 31
0.0
  0
LINE
  5
473
330
46E
100
AcDbEntity
  8
SLD-0
 62
     0
100
AcDbLine
 10
51.9447929737
 20
24.5019071518
 30
0.0
 11
51.9447929737
 21
-27.4428858218
 31
0.0
  0
LINE
  5
474
330
46E
100
AcDbEntity
  8
SLD-0
 62
     0
100
AcDbLine
 10
51.9447929737
 20
-27.4428858218
 30
0.0
 11
0.0
 21
-27.4428858218
 31
0.0
  0
MTEXT
  5
475
330
46E
100
AcDbEntity
  8
SLD-0
 62
     0
100
AcDbMText
 10
25.7565956834
 20
8.9631842085
 30
0.0
 40
21.43125
 41
0.0
 71
     2
 72
     1
  1
6
  7
SLDTEXTSTYLE0
 73
     1
 44
1.0
  0
ENDBLK
  5
470
330
46E
100
AcDbEntity
  8
0
100
AcDbBlockEnd
  0
BLOCK
  5
47A
330
479
100
AcDbEntity
  8
0
100
AcDbBlockBegin
  2
SW_CENTERMARKSYMBOL_8
 70
     0
 10
0.0
 20
0.0
 30
0.0
  3
SW_CENTERMARKSYMBOL_8
  1

  0
LINE
  5
47C
330
479
100
AcDbEntity
  8
SLD-0
 62
     0
100
AcDbLine
 10
0.0
 20
0.0
 30
0.0
 11
0.0
 21
2.0
 31
0.0
  0
LINE
  5
47D
330
479
100
AcDbEntity
  8
SLD-0
 62
     0
100
AcDbLine
 10
0.0
 20
0.0
 30
0.0
 11
-2.0
 21
0.0
 31
0.0
  0
LINE
  5
47E
330
479
100
AcDbEntity
  8
SLD-0
 62
     0
100
AcDbLine
 10
0.0
 20
0.0
 30
0.0
 11
0.0
 21
-2.0
 31
0.0
  0
LINE
  5
47F
330
479
100
AcDbEntity
  8
SLD-0
 62
     0
100
AcDbLine
 10
0.0
 20
0.0
 30
0.0
 11
2.0
 21
0.0
 31
0.0
  0
LINE
  5
480
330
479
100
AcDbEntity
  8
SLD-0
 62
     0
100
AcDbLine
 10
0.0
 20
4.0
 30
0.0
 11
0.0
 21
12.75
 31
0.0
  0
LINE
  5
481
330
479
100
AcDbEntity
  8
SLD-0
 62
     0
100
AcDbLine
 10
-4.0
 20
0.0
 30
0.0
 11
-12.75
 21
0.0
 31
0.0
  0
LINE
  5
482
330
479
100
AcDbEntity
  8
SLD-0
 62
     0
100
AcDbLine
 10
0.0
 20
-4.0
 30
0.0
 11
0.0
 21
-12.75
 31
0.0
  0
LINE
  5
483
330
479
100
AcDbEntity
  8
SLD-0
 62
     0
100
AcDbLine
 10
4.0
 20
0.0
 30
0.0
 11
12.75
 21
0.0
 31
0.0
  0
ENDBLK
  5
47B
330
479
100
AcDbEntity
  8
0
100
AcDbBlockEnd
  0
BLOCK
  5
486
330
485
100
AcDbEntity
  8
0
100
AcDbBlockBegin
  2
SW_CENTERMARKSYMBOL_9
 70
     0
 10
0.0
 20
0.0
 30
0.0
  3
SW_CENTERMARKSYMBOL_9
  1

  0
LINE
  5
488
330
485
100
AcDbEntity
  8
SLD-0
 62
     0
100
AcDbLine
 10
0.0
 20
0.0
 30
0.0
 11
0.0
 21
2.0
 31
0.0
  0
LINE
  5
489
330
485
100
AcDbEntity
  8
SLD-0
 62
     0
100
AcDbLine
 10
0.0
 20
0.0
 30
0.0
 11
-2.0
 21
0.0
 31
0.0
  0
LINE
  5
48A
330
485
100
AcDbEntity
  8
SLD-0
 62
     0
100
AcDbLine
 10
0.0
 20
0.0
 30
0.0
 11
0.0
 21
-2.0
 31
0.0
  0
LINE
  5
48B
330
485
100
AcDbEntity
  8
SLD-0
 62
     0
100
AcDbLine
 10
0.0
 20
0.0
 30
0.0
 11
2.0
 21
0.0
 31
0.0
  0
LINE
  5
48C
330
485
100
AcDbEntity
  8
SLD-0
 62
     0
100
AcDbLine
 10
0.0
 20
4.0
 30
0.0
 11
0.0
 21
12.75
 31
0.0
  0
LINE
  5
48D
330
485
100
AcDbEntity
  8
SLD-0
 62
     0
100
AcDbLine
 10
-4.0
 20
0.0
 30
0.0
 11
-12.75
 21
0.0
 31
0.0
  0
LINE
  5
48E
330
485
100
AcDbEntity
  8
SLD-0
 62
     0
100
AcDbLine
 10
0.0
 20
-4.0
 30
0.0
 11
0.0
 21
-12.75
 31
0.0
  0
LINE
  5
48F
330
485
100
AcDbEntity
  8
SLD-0
 62
     0
100
AcDbLine
 10
4.0
 20
0.0
 30
0.0
 11
12.75
 21
0.0
 31
0.0
  0
ENDBLK
  5
487
330
485
100
AcDbEntity
  8
0
100
AcDbBlockEnd
  0
BLOCK
  5
4D9
330
4D8
100
AcDbEntity
  8
0
100
AcDbBlockBegin
  2
_D_20
 70
     0
 10
0.0
 20
0.0
 30
0.0
  3
_D_20
  1

  0
SOLID
  5
4DB
330
4D8
100
AcDbEntity
  8
SLD-0
100
AcDbTrace
 10
3252.8122390131
 20
608.6102024917
 30
0.0
 11
3270.8122390131
 21
606.3602024917
 31
0.0
 12
3270.8122390131
 22
610.8602024917
 32
0.0
 13
3270.8122390131
 23
610.8602024917
 33
0.0
  0
SOLID
  5
4DC
330
4D8
100
AcDbEntity
  8
SLD-0
100
AcDbTrace
 10
3373.8122390131
 20
608.6102024917
 30
0.0
 11
3355.8122390131
 21
610.8602024917
 31
0.0
 12
3355.8122390131
 22
606.3602024917
 32
0.0
 13
3355.8122390131
 23
606.3602024917
 33
0.0
  0
LINE
  5
4DD
330
4D8
100
AcDbEntity
  8
SLD-0
100
AcDbLine
 10
3142.4684044588
 20
608.6102066826
 30
0.0
 11
3135.9497323548
 21
608.6102066826
 31
0.0
  0
LINE
  5
4DE
330
4D8
100
AcDbEntity
  8
SLD-0
100
AcDbLine
 10
3135.9497323548
 20
608.6102066826
 30
0.0
 11
3135.9497323548
 21
574.5583310988
 31
0.0
  0
LINE
  5
4DF
330
4D8
100
AcDbEntity
  8
SLD-0
100
AcDbLine
 10
3135.9497323548
 20
574.5583310988
 30
0.0
 11
3142.4684044588
 21
574.5583310988
 31
0.0
  0
LINE
  5
4E0
330
4D8
100
AcDbEntity
  8
SLD-0
100
AcDbLine
 10
3197.8721557799
 20
608.6102066826
 30
0.0
 11
3204.3908278839
 21
608.6102066826
 31
0.0
  0
LINE
  5
4E1
330
4D8
100
AcDbEntity
  8
SLD-0
100
AcDbLine
 10
3204.3908278839
 20
608.6102066826
 30
0.0
 11
3204.3908278839
 21
574.5583310988
 31
0.0
  0
LINE
  5
4E2
330
4D8
100
AcDbEntity
  8
SLD-0
100
AcDbLine
 10
3204.3908278839
 20
574.5583310988
 30
0.0
 11
3197.8721557799
 21
574.5583310988
 31
0.0
  0
LINE
  5
4E3
330
4D8
100
AcDbEntity
  8
SLD-0
100
AcDbLine
 10
3252.8122390131
 20
846.2608253992
 30
0.0
 11
3252.8122390131
 21
601.7522024917
 31
0.0
  0
LINE
  5
4E4
330
4D8
100
AcDbEntity
  8
SLD-0
100
AcDbLine
 10
3373.8122390131
 20
846.1435791261
 30
0.0
 11
3373.8122390131
 21
601.7522024917
 31
0.0
  0
LINE
  5
4E5
330
4D8
100
AcDbEntity
  8
SLD-0
100
AcDbLine
 10
3252.8122390131
 20
608.6102024917
 30
0.0
 11
3225.9498272192
 21
608.6102024917
 31
0.0
  0
LINE
  5
4E6
330
4D8
100
AcDbEntity
  8
SLD-0
100
AcDbLine
 10
3373.8122390131
 20
608.6102024917
 30
0.0
 11
3252.8122390131
 21
608.6102024917
 31
0.0
  0
MTEXT
  5
4E7
330
4D8
100
AcDbEntity
  8
SLD-0
100
AcDbMText
 10
3118.7352803219
 20
640.3310588827
 30
0.0
 40
21.43125
 41
0.0
 71
     1
 72
     1
  1
 
  7
SLDTEXTSTYLE0
 73
     1
 44
1.0
  0
MTEXT
  5
4E8
330
4D8
100
AcDbEntity
  8
SLD-0
100
AcDbMText
 10
3126.6330929622
 20
640.3310609782
 30
0.0
 40
21.43125
 41
0.0
 71
     1
 72
     1
  1
121.00
  7
SLDTEXTSTYLE0
 73
     1
 44
1.0
  0
MTEXT
  5
4E9
330
4D8
100
AcDbEntity
  8
SLD-0
100
AcDbMText
 10
3142.4684044588
 20
601.9334053887
 30
0.0
 40
21.43125
 41
0.0
 71
     1
 72
     1
  1
4.76
  7
SLDTEXTSTYLE0
 73
     1
 44
1.0
  0
MTEXT
  5
4EA
330
4D8
100
AcDbEntity
  8
SLD-0
100
AcDbMText
 10
3213.7074651811
 20
640.3310588827
 30
0.0
 40
21.43125
 41
0.0
 71
     1
 72
     1
  1
 
  7
SLDTEXTSTYLE0
 73
     1
 44
1.0
  0
ENDBLK
  5
4DA
330
4D8
100
AcDbEntity
  8
0
100
AcDbBlockEnd
  0
BLOCK
  5
4ED
330
4EC
100
AcDbEntity
  8
0
100
AcDbBlockBegin
  2
_D_21
 70
     0
 10
0.0
 20
0.0
 30
0.0
  3
_D_21
  1

  0
SOLID
  5
4EF
330
4EC
100
AcDbEntity
  8
SLD-0
100
AcDbTrace
 10
3022.7122390131
 20
1002.4317501907
 30
0.0
 11
3020.4622390131
 21
984.4317501907
 31
0.0
 12
3024.9622390131
 22
984.4317501907
 32
0.0
 13
3024.9622390131
 23
984.4317501907
 33
0.0
  0
SOLID
  5
4F0
330
4EC
100
AcDbEntity
  8
SLD-0
100
AcDbTrace
 10
3022.7122390131
 20
847.4317501907
 30
0.0
 11
3024.9622390131
 21
865.4317501907
 31
0.0
 12
3020.4622390131
 22
865.4317501907
 32
0.0
 13
3020.4622390131
 23
865.4317501907
 33
0.0
  0
LINE
  5
4F1
330
4EC
100
AcDbEntity
  8
SLD-0
100
AcDbLine
 10
2995.0103633525
 20
924.9317543817
 30
0.0
 11
2988.4916912485
 21
924.9317543817
 31
0.0
  0
LINE
  5
4F2
330
4EC
100
AcDbEntity
  8
SLD-0
100
AcDbLine
 10
2988.4916912485
 20
924.9317543817
 30
0.0
 11
2988.4916912485
 21
890.8798787979
 31
0.0
  0
LINE
  5
4F3
330
4EC
100
AcDbEntity
  8
SLD-0
100
AcDbLine
 10
2988.4916912485
 20
890.8798787979
 30
0.0
 11
2995.0103633525
 21
890.8798787979
 31
0.0
  0
LINE
  5
4F4
330
4EC
100
AcDbEntity
  8
SLD-0
100
AcDbLine
 10
3050.4141146737
 20
924.9317543817
 30
0.0
 11
3056.9327867777
 21
924.9317543817
 31
0.0
  0
LINE
  5
4F5
330
4EC
100
AcDbEntity
  8
SLD-0
100
AcDbLine
 10
3056.9327867777
 20
924.9317543817
 30
0.0
 11
3056.9327867777
 21
890.8798787979
 31
0.0
  0
LINE
  5
4F6
330
4EC
100
AcDbEntity
  8
SLD-0
100
AcDbLine
 10
3056.9327867777
 20
890.8798787979
 30
0.0
 11
3050.4141146737
 21
890.8798787979
 31
0.0
  0
LINE
  5
4F7
330
4EC
100
AcDbEntity
  8
SLD-0
100
AcDbLine
 10
3251.5620009484
 20
1002.4317501907
 30
0.0
 11
3015.8542390131
 21
1002.4317501907
 31
0.0
  0
LINE
  5
4F8
330
4EC
100
AcDbEntity
  8
SLD-0
100
AcDbLine
 10
3251.3401358369
 20
847.4317501907
 30
0.0
 11
3015.8542390131
 21
847.4317501907
 31
0.0
  0
LINE
  5
4F9
330
4EC
100
AcDbEntity
  8
SLD-0
100
AcDbLine
 10
3022.7122390131
 20
1002.4317501907
 30
0.0
 11
3022.7122390131
 21
963.3294078757
 31
0.0
  0
LINE
  5
4FA
330
4EC
100
AcDbEntity
  8
SLD-0
100
AcDbLine
 10
3022.7122390131
 20
847.4317501907
 30
0.0
 11
3022.7122390131
 21
886.5340925058
 31
0.0
  0
MTEXT
  5
4FB
330
4EC
100
AcDbEntity
  8
SLD-0
100
AcDbMText
 10
2971.2772392156
 20
956.6526065818
 30
0.0
 40
21.43125
 41
0.0
 71
     1
 72
     1
  1
 
  7
SLDTEXTSTYLE0
 73
     1
 44
1.0
  0
MTEXT
  5
4FC
330
4EC
100
AcDbEntity
  8
SLD-0
100
AcDbMText
 10
2979.1750518559
 20
956.6526086773
 30
0.0
 40
21.43125
 41
0.0
 71
     1
 72
     1
  1
155.00
  7
SLDTEXTSTYLE0
 73
     1
 44
1.0
  0
MTEXT
  5
4FD
330
4EC
100
AcDbEntity
  8
SLD-0
100
AcDbMText
 10
2995.0103633525
 20
918.2549530878
 30
0.0
 40
21.43125
 41
0.0
 71
     1
 72
     1
  1
6.10
  7
SLDTEXTSTYLE0
 73
     1
 44
1.0
  0
MTEXT
  5
4FE
330
4EC
100
AcDbEntity
  8
SLD-0
100
AcDbMText
 10
3066.2494240748
 20
956.6526065818
 30
0.0
 40
21.43125
 41
0.0
 71
     1
 72
     1
  1
 
  7
SLDTEXTSTYLE0
 73
     1
 44
1.0
  0
ENDBLK
  5
4EE
330
4EC
100
AcDbEntity
  8
0
100
AcDbBlockEnd
  0
BLOCK
  5
502
330
501
100
AcDbEntity
  8
0
100
AcDbBlockBegin
  2
_D_22
 70
     0
 10
0.0
 20
0.0
 30
0.0
  3
_D_22
  1

  0
SOLID
  5
504
330
501
100
AcDbEntity
  8
SLD-0
100
AcDbTrace
 10
3022.7122390131
 20
847.4317501907
 30
0.0
 11
3020.4622390131
 21
829.4317501907
 31
0.0
 12
3024.9622390131
 22
829.4317501907
 32
0.0
 13
3024.9622390131
 23
829.4317501907
 33
0.0
  0
SOLID
  5
505
330
501
100
AcDbEntity
  8
SLD-0
100
AcDbTrace
 10
3022.7122390131
 20
787.7317501907
 30
0.0
 11
3024.9622390131
 21
805.7317501907
 31
0.0
 12
3020.4622390131
 22
805.7317501907
 32
0.0
 13
3020.4622390131
 23
805.7317501907
 33
0.0
  0
LINE
  5
506
330
501
100
AcDbEntity
  8
SLD-0
100
AcDbLine
 10
3251.7519237285
 20
847.4317501907
 30
0.0
 11
3015.8542390131
 21
847.4317501907
 31
0.0
  0
LINE
  5
507
330
501
100
AcDbEntity
  8
SLD-0
100
AcDbLine
 10
3099.9450857483
 20
787.7317501907
 30
0.0
 11
3015.8542390131
 21
787.7317501907
 31
0.0
  0
LINE
  5
508
330
501
100
AcDbEntity
  8
SLD-0
100
AcDbLine
 10
3004.7122390131
 20
753.9729694397
 30
0.0
 11
3022.7122390131
 21
753.9729694397
 31
0.0
  0
LINE
  5
509
330
501
100
AcDbEntity
  8
SLD-0
100
AcDbLine
 10
3022.7122390131
 20
753.9729694397
 30
0.0
 11
3022.7122390131
 21
787.7317501907
 31
0.0
  0
LINE
  5
50A
330
501
100
AcDbEntity
  8
SLD-0
100
AcDbLine
 10
3022.7122390131
 20
847.4317501907
 30
0.0
 11
3022.7122390131
 21
787.7317501907
 31
0.0
  0
MTEXT
  5
50B
330
501
100
AcDbEntity
  8
SLD-0
100
AcDbMText
 10
2933.4731782908
 20
764.3221059377
 30
0.0
 40
21.43125
 41
0.0
 71
     1
 72
     1
  1
59.70
  7
SLDTEXTSTYLE0
 73
     1
 44
1.0
  0
ENDBLK
  5
503
330
501
100
AcDbEntity
  8
0
100
AcDbBlockEnd
  0
BLOCK
  5
50E
330
50D
100
AcDbEntity
  8
0
100
AcDbBlockBegin
  2
_D_23
 70
     0
 10
0.0
 20
0.0
 30
0.0
  3
_D_23
  1

  0
SOLID
  5
510
330
50D
100
AcDbEntity
  8
SLD-0
100
AcDbTrace
 10
3373.8122390131
 20
608.6102024917
 30
0.0
 11
3355.8122390131
 21
610.8602024917
 31
0.0
 12
3355.8122390131
 22
606.3602024917
 32
0.0
 13
3355.8122390131
 23
606.3602024917
 33
0.0
  0
SOLID
  5
511
330
50D
100
AcDbEntity
  8
SLD-0
100
AcDbTrace
 10
3513.3122390131
 20
608.6102024917
 30
0.0
 11
3531.3122390131
 21
606.3602024917
 31
0.0
 12
3531.3122390131
 22
610.8602024917
 32
0.0
 13
3531.3122390131
 23
610.8602024917
 33
0.0
  0
LINE
  5
512
330
50D
100
AcDbEntity
  8
SLD-0
100
AcDbLine
 10
3415.8603633525
 20
608.6102066826
 30
0.0
 11
3409.3416912485
 21
608.6102066826
 31
0.0
  0
LINE
  5
513
330
50D
100
AcDbEntity
  8
SLD-0
100
AcDbLine
 10
3409.3416912485
 20
608.6102066826
 30
0.0
 11
3409.3416912485
 21
574.5583310988
 31
0.0
  0
LINE
  5
514
330
50D
100
AcDbEntity
  8
SLD-0
100
AcDbLine
 10
3409.3416912485
 20
574.5583310988
 30
0.0
 11
3415.8603633525
 21
574.5583310988
 31
0.0
  0
LINE
  5
515
330
50D
100
AcDbEntity
  8
SLD-0
100
AcDbLine
 10
3471.2641146737
 20
608.6102066826
 30
0.0
 11
3477.7827867777
 21
608.6102066826
 31
0.0
  0
LINE
  5
516
330
50D
100
AcDbEntity
  8
SLD-0
100
AcDbLine
 10
3477.7827867777
 20
608.6102066826
 30
0.0
 11
3477.7827867777
 21
574.5583310988
 31
0.0
  0
LINE
  5
517
330
50D
100
AcDbEntity
  8
SLD-0
100
AcDbLine
 10
3477.7827867777
 20
574.5583310988
 30
0.0
 11
3471.2641146737
 21
574.5583310988
 31
0.0
  0
LINE
  5
518
330
50D
100
AcDbEntity
  8
SLD-0
100
AcDbLine
 10
3373.8122390131
 20
846.1498367145
 30
0.0
 11
3373.8122390131
 21
601.7522024917
 31
0.0
  0
LINE
  5
519
330
50D
100
AcDbEntity
  8
SLD-0
100
AcDbLine
 10
3513.3122390131
 20
776.2548456168
 30
0.0
 11
3513.3122390131
 21
601.7522024917
 31
0.0
  0
LINE
  5
51A
330
50D
100
AcDbEntity
  8
SLD-0
100
AcDbLine
 10
3373.8122390131
 20
608.6102024917
 30
0.0
 11
3337.8122390131
 21
608.6102024917
 31
0.0
  0
LINE
  5
51B
330
50D
100
AcDbEntity
  8
SLD-0
100
AcDbLine
 10
3513.3122390131
 20
608.6102024917
 30
0.0
 11
3549.3122390131
 21
608.6102024917
 31
0.0
  0
MTEXT
  5
51C
330
50D
100
AcDbEntity
  8
SLD-0
100
AcDbMText
 10
3394.9252065043
 20
640.3310588827
 30
0.0
 40
21.43125
 41
0.0
 71
     1
 72
     1
  1
 
  7
SLDTEXTSTYLE0
 73
     1
 44
1.0
  0
MTEXT
  5
51D
330
50D
100
AcDbEntity
  8
SLD-0
100
AcDbMText
 10
3407.9427065565
 20
640.3310609782
 30
0.0
 40
21.43125
 41
0.0
 71
     1
 72
     1
  1
139.5
  7
SLDTEXTSTYLE0
 73
     1
 44
1.0
  0
MTEXT
  5
51E
330
50D
100
AcDbEntity
  8
SLD-0
100
AcDbMText
 10
3415.8603633525
 20
601.9334053887
 30
0.0
 40
21.43125
 41
0.0
 71
     1
 72
     1
  1
5.49
  7
SLDTEXTSTYLE0
 73
     1
 44
1.0
  0
MTEXT
  5
51F
330
50D
100
AcDbEntity
  8
SLD-0
100
AcDbMText
 10
3484.3014567862
 20
640.3310588827
 30
0.0
 40
21.43125
 41
0.0
 71
     1
 72
     1
  1
 
  7
SLDTEXTSTYLE0
 73
     1
 44
1.0
  0
ENDBLK
  5
50F
330
50D
100
AcDbEntity
  8
0
100
AcDbBlockEnd
  0
BLOCK
  5
522
330
521
100
AcDbEntity
  8
0
100
AcDbBlockBegin
  2
_D_24
 70
     0
 10
0.0
 20
0.0
 30
0.0
  3
_D_24
  1

  0
SOLID
  5
524
330
521
100
AcDbEntity
  8
SLD-0
100
AcDbTrace
 10
3594.0953187452
 20
1170.2817501907
 30
0.0
 11
3596.3453187452
 21
1188.2817501907
 31
0.0
 12
3591.8453187452
 22
1188.2817501907
 32
0.0
 13
3591.8453187452
 23
1188.2817501907
 33
0.0
  0
SOLID
  5
525
330
521
100
AcDbEntity
  8
SLD-0
100
AcDbTrace
 10
3594.0953187452
 20
1062.3817501907
 30
0.0
 11
3591.8453187452
 21
1044.3817501907
 31
0.0
 12
3596.3453187452
 22
1044.3817501907
 32
0.0
 13
3596.3453187452
 23
1044.3817501907
 33
0.0
  0
LINE
  5
526
330
521
100
AcDbEntity
  8
SLD-0
100
AcDbLine
 10
3566.3934430846
 20
1116.3317543817
 30
0.0
 11
3559.8747709806
 21
1116.3317543817
 31
0.0
  0
LINE
  5
527
330
521
100
AcDbEntity
  8
SLD-0
100
AcDbLine
 10
3559.8747709806
 20
1116.3317543817
 30
0.0
 11
3559.8747709806
 21
1082.2798787979
 31
0.0
  0
LINE
  5
528
330
521
100
AcDbEntity
  8
SLD-0
100
AcDbLine
 10
3559.8747709806
 20
1082.2798787979
 30
0.0
 11
3566.3934430846
 21
1082.2798787979
 31
0.0
  0
LINE
  5
529
330
521
100
AcDbEntity
  8
SLD-0
100
AcDbLine
 10
3621.7971944057
 20
1116.3317543817
 30
0.0
 11
3628.3158665097
 21
1116.3317543817
 31
0.0
  0
LINE
  5
52A
330
521
100
AcDbEntity
  8
SLD-0
100
AcDbLine
 10
3628.3158665097
 20
1116.3317543817
 30
0.0
 11
3628.3158665097
 21
1082.2798787979
 31
0.0
  0
LINE
  5
52B
330
521
100
AcDbEntity
  8
SLD-0
100
AcDbLine
 10
3628.3158665097
 20
1082.2798787979
 30
0.0
 11
3621.7971944057
 21
1082.2798787979
 31
0.0
  0
LINE
  5
52C
330
521
100
AcDbEntity
  8
SLD-0
100
AcDbLine
 10
3354.5702390131
 20
1170.2817501907
 30
0.0
 11
3600.9533187452
 21
1170.2817501907
 31
0.0
  0
LINE
  5
52D
330
521
100
AcDbEntity
  8
SLD-0
100
AcDbLine
 10
3354.5702390131
 20
1062.3817501907
 30
0.0
 11
3600.9533187452
 21
1062.3817501907
 31
0.0
  0
LINE
  5
52E
330
521
100
AcDbEntity
  8
SLD-0
100
AcDbLine
 10
3594.0953187452
 20
1170.2817501907
 30
0.0
 11
3594.0953187452
 21
1206.2817501907
 31
0.0
  0
LINE
  5
52F
330
521
100
AcDbEntity
  8
SLD-0
100
AcDbLine
 10
3594.0953187452
 20
1062.3817501907
 30
0.0
 11
3594.0953187452
 21
1026.3817501907
 31
0.0
  0
MTEXT
  5
530
330
521
100
AcDbEntity
  8
SLD-0
100
AcDbMText
 10
3545.4582862363
 20
1148.0526065818
 30
0.0
 40
21.43125
 41
0.0
 71
     1
 72
     1
  1
 
  7
SLDTEXTSTYLE0
 73
     1
 44
1.0
  0
MTEXT
  5
531
330
521
100
AcDbEntity
  8
SLD-0
100
AcDbMText
 10
3558.4757862885
 20
1148.0526086773
 30
0.0
 40
21.43125
 41
0.0
 71
     1
 72
     1
  1
107.9
  7
SLDTEXTSTYLE0
 73
     1
 44
1.0
  0
MTEXT
  5
532
330
521
100
AcDbEntity
  8
SLD-0
100
AcDbMText
 10
3566.3934430846
 20
1109.6549530878
 30
0.0
 40
21.43125
 41
0.0
 71
     1
 72
     1
  1
4.25
  7
SLDTEXTSTYLE0
 73
     1
 44
1.0
  0
MTEXT
  5
533
330
521
100
AcDbEntity
  8
SLD-0
100
AcDbMText
 10
3634.8345365182
 20
1148.0526065818
 30
0.0
 40
21.43125
 41
0.0
 71
     1
 72
     1
  1
 
  7
SLDTEXTSTYLE0
 73
     1
 44
1.0
  0
ENDBLK
  5
523
330
521
100
AcDbEntity
  8
0
100
AcDbBlockEnd
  0
BLOCK
  5
536
330
535
100
AcDbEntity
  8
0
100
AcDbBlockBegin
  2
_D_25
 70
     0
 10
0.0
 20
0.0
 30
0.0
  3
_D_25
  1

  0
SOLID
  5
538
330
535
100
AcDbEntity
  8
SLD-0
100
AcDbTrace
 10
3594.0953187452
 20
1384.9317501907
 30
0.0
 11
3591.8453187452
 21
1366.9317501907
 31
0.0
 12
3596.3453187452
 22
1366.9317501907
 32
0.0
 13
3596.3453187452
 23
1366.9317501907
 33
0.0
  0
SOLID
  5
539
330
535
100
AcDbEntity
  8
SLD-0
100
AcDbTrace
 10
3594.0953187452
 20
1170.2817501907
 30
0.0
 11
3596.3453187452
 21
1188.2817501907
 31
0.0
 12
3591.8453187452
 22
1188.2817501907
 32
0.0
 13
3591.8453187452
 23
1188.2817501907
 33
0.0
  0
LINE
  5
53A
330
535
100
AcDbEntity
  8
SLD-0
100
AcDbLine
 10
3566.3934430846
 20
1277.6067543817
 30
0.0
 11
3559.8747709806
 21
1277.6067543817
 31
0.0
  0
LINE
  5
53B
330
535
100
AcDbEntity
  8
SLD-0
100
AcDbLine
 10
3559.8747709806
 20
1277.6067543817
 30
0.0
 11
3559.8747709806
 21
1243.5548787979
 31
0.0
  0
LINE
  5
53C
330
535
100
AcDbEntity
  8
SLD-0
100
AcDbLine
 10
3559.8747709806
 20
1243.5548787979
 30
0.0
 11
3566.3934430846
 21
1243.5548787979
 31
0.0
  0
LINE
  5
53D
330
535
100
AcDbEntity
  8
SLD-0
100
AcDbLine
 10
3621.7971944057
 20
1277.6067543817
 30
0.0
 11
3628.3158665097
 21
1277.6067543817
 31
0.0
  0
LINE
  5
53E
330
535
100
AcDbEntity
  8
SLD-0
100
AcDbLine
 10
3628.3158665097
 20
1277.6067543817
 30
0.0
 11
3628.3158665097
 21
1243.5548787979
 31
0.0
  0
LINE
  5
53F
330
535
100
AcDbEntity
  8
SLD-0
100
AcDbLine
 10
3628.3158665097
 20
1243.5548787979
 30
0.0
 11
3621.7971944057
 21
1243.5548787979
 31
0.0
  0
LINE
  5
540
330
535
100
AcDbEntity
  8
SLD-0
100
AcDbLine
 10
3527.6289050426
 20
1384.9317501907
 30
0.0
 11
3600.9533187452
 21
1384.9317501907
 31
0.0
  0
LINE
  5
541
330
535
100
AcDbEntity
  8
SLD-0
100
AcDbLine
 10
3354.5702390131
 20
1170.2817501907
 30
0.0
 11
3600.9533187452
 21
1170.2817501907
 31
0.0
  0
LINE
  5
542
330
535
100
AcDbEntity
  8
SLD-0
100
AcDbLine
 10
3594.0953187452
 20
1384.9317501907
 30
0.0
 11
3594.0953187452
 21
1316.0044078757
 31
0.0
  0
LINE
  5
543
330
535
100
AcDbEntity
  8
SLD-0
100
AcDbLine
 10
3594.0953187452
 20
1170.2817501907
 30
0.0
 11
3594.0953187452
 21
1239.2090925058
 31
0.0
  0
MTEXT
  5
544
330
535
100
AcDbEntity
  8
SLD-0
100
AcDbMText
 10
3545.4582862363
 20
1309.3276065818
 30
0.0
 40
21.43125
 41
0.0
 71
     1
 72
     1
  1
 
  7
SLDTEXTSTYLE0
 73
     1
 44
1.0
  0
MTEXT
  5
545
330
535
100
AcDbEntity
  8
SLD-0
100
AcDbMText
 10
3558.4757862885
 20
1309.3276086773
 30
0.0
 40
21.43125
 41
0.0
 71
     1
 72
     1
  1
214.7
  7
SLDTEXTSTYLE0
 73
     1
 44
1.0
  0
MTEXT
  5
546
330
535
100
AcDbEntity
  8
SLD-0
100
AcDbMText
 10
3566.3934430846
 20
1270.9299530878
 30
0.0
 40
21.43125
 41
0.0
 71
     1
 72
     1
  1
8.45
  7
SLDTEXTSTYLE0
 73
     1
 44
1.0
  0
MTEXT
  5
547
330
535
100
AcDbEntity
  8
SLD-0
100
AcDbMText
 10
3634.8345365182
 20
1309.3276065818
 30
0.0
 40
21.43125
 41
0.0
 71
     1
 72
     1
  1
 
  7
SLDTEXTSTYLE0
 73
     1
 44
1.0
  0
ENDBLK
  5
537
330
535
100
AcDbEntity
  8
0
100
AcDbBlockEnd
  0
BLOCK
  5
54A
330
549
100
AcDbEntity
  8
0
100
AcDbBlockBegin
  2
_D_26
 70
     0
 10
0.0
 20
0.0
 30
0.0
  3
_D_26
  1

  0
SOLID
  5
54C
330
549
100
AcDbEntity
  8
SLD-0
100
AcDbTrace
 10
3338.7122390131
 20
1474.9317501907
 30
0.0
 11
3320.7122390131
 21
1477.1817501907
 31
0.0
 12
3320.7122390131
 22
1472.6817501907
 32
0.0
 13
3320.7122390131
 23
1472.6817501907
 33
0.0
  0
SOLID
  5
54D
330
549
100
AcDbEntity
  8
SLD-0
100
AcDbTrace
 10
3287.9122390131
 20
1474.9317501907
 30
0.0
 11
3305.9122390131
 21
1472.6817501907
 31
0.0
 12
3305.9122390131
 22
1477.1817501907
 32
0.0
 13
3305.9122390131
 23
1477.1817501907
 33
0.0
  0
LINE
  5
54E
330
549
100
AcDbEntity
  8
SLD-0
100
AcDbLine
 10
3184.6947654755
 20
1474.9317543817
 30
0.0
 11
3178.1760933715
 21
1474.9317543817
 31
0.0
  0
LINE
  5
54F
330
549
100
AcDbEntity
  8
SLD-0
100
AcDbLine
 10
3178.1760933715
 20
1474.9317543817
 30
0.0
 11
3178.1760933715
 21
1440.8798787979
 31
0.0
  0
LINE
  5
550
330
549
100
AcDbEntity
  8
SLD-0
100
AcDbLine
 10
3178.1760933715
 20
1440.8798787979
 30
0.0
 11
3184.6947654755
 21
1440.8798787979
 31
0.0
  0
LINE
  5
551
330
549
100
AcDbEntity
  8
SLD-0
100
AcDbLine
 10
3240.0985167966
 20
1474.9317543817
 30
0.0
 11
3246.6171889006
 21
1474.9317543817
 31
0.0
  0
LINE
  5
552
330
549
100
AcDbEntity
  8
SLD-0
100
AcDbLine
 10
3246.6171889006
 20
1474.9317543817
 30
0.0
 11
3246.6171889006
 21
1440.8798787979
 31
0.0
  0
LINE
  5
553
330
549
100
AcDbEntity
  8
SLD-0
100
AcDbLine
 10
3246.6171889006
 20
1440.8798787979
 30
0.0
 11
3240.0985167966
 21
1440.8798787979
 31
0.0
  0
LINE
  5
554
330
549
100
AcDbEntity
  8
SLD-0
100
AcDbLine
 10
3338.7122390131
 20
1186.1397501907
 30
0.0
 11
3338.7122390131
 21
1481.7897501907
 31
0.0
  0
LINE
  5
555
330
549
100
AcDbEntity
  8
SLD-0
100
AcDbLine
 10
3287.9122390131
 20
1186.1397501907
 30
0.0
 11
3287.9122390131
 21
1481.7897501907
 31
0.0
  0
LINE
  5
556
330
549
100
AcDbEntity
  8
SLD-0
100
AcDbLine
 10
3338.7122390131
 20
1474.9317501907
 30
0.0
 11
3287.9122390131
 21
1474.9317501907
 31
0.0
  0
LINE
  5
557
330
549
100
AcDbEntity
  8
SLD-0
100
AcDbLine
 10
3287.9122390131
 20
1474.9317501907
 30
0.0
 11
3265.3782209473
 21
1474.9317501907
 31
0.0
  0
MTEXT
  5
558
330
549
100
AcDbEntity
  8
SLD-0
100
AcDbMText
 10
3163.7596086272
 20
1506.6526065818
 30
0.0
 40
21.43125
 41
0.0
 71
     1
 72
     1
  1
 
  7
SLDTEXTSTYLE0
 73
     1
 44
1.0
  0
MTEXT
  5
559
330
549
100
AcDbEntity
  8
SLD-0
100
AcDbMText
 10
3184.69476338
 20
1506.6526086773
 30
0.0
 40
21.43125
 41
0.0
 71
     1
 72
     1
  1
50.8
  7
SLDTEXTSTYLE0
 73
     1
 44
1.0
  0
MTEXT
  5
55A
330
549
100
AcDbEntity
  8
SLD-0
100
AcDbMText
 10
3184.6947654755
 20
1468.2549530878
 30
0.0
 40
21.43125
 41
0.0
 71
     1
 72
     1
  1
2.00
  7
SLDTEXTSTYLE0
 73
     1
 44
1.0
  0
MTEXT
  5
55B
330
549
100
AcDbEntity
  8
SLD-0
100
AcDbMText
 10
3253.1358589091
 20
1506.6526065818
 30
0.0
 40
21.43125
 41
0.0
 71
     1
 72
     1
  1
 
  7
SLDTEXTSTYLE0
 73
     1
 44
1.0
  0
ENDBLK
  5
54B
330
549
100
AcDbEntity
  8
0
100
AcDbBlockEnd
  0
BLOCK
  5
55E
330
55D
100
AcDbEntity
  8
0
100
AcDbBlockBegin
  2
_D_27
 70
     0
 10
0.0
 20
0.0
 30
0.0
  3
_D_27
  1

  0
SOLID
  5
560
330
55D
100
AcDbEntity
  8
SLD-0
100
AcDbTrace
 10
3338.7122390131
 20
1474.9317501907
 30
0.0
 11
3356.7122390131
 21
1472.6817501907
 31
0.0
 12
3356.7122390131
 22
1477.1817501907
 32
0.0
 13
3356.7122390131
 23
1477.1817501907
 33
0.0
  0
SOLID
  5
561
330
55D
100
AcDbEntity
  8
SLD-0
100
AcDbTrace
 10
3513.3122390131
 20
1474.9317501907
 30
0.0
 11
3495.3122390131
 21
1477.1817501907
 31
0.0
 12
3495.3122390131
 22
1472.6817501907
 32
0.0
 13
3495.3122390131
 23
1472.6817501907
 33
0.0
  0
LINE
  5
562
330
55D
100
AcDbEntity
  8
SLD-0
100
AcDbLine
 10
3398.3103633525
 20
1474.9317543817
 30
0.0
 11
3391.7916912485
 21
1474.9317543817
 31
0.0
  0
LINE
  5
563
330
55D
100
AcDbEntity
  8
SLD-0
100
AcDbLine
 10
3391.7916912485
 20
1474.9317543817
 30
0.0
 11
3391.7916912485
 21
1440.8798787979
 31
0.0
  0
LINE
  5
564
330
55D
100
AcDbEntity
  8
SLD-0
100
AcDbLine
 10
3391.7916912485
 20
1440.8798787979
 30
0.0
 11
3398.3103633525
 21
1440.8798787979
 31
0.0
  0
LINE
  5
565
330
55D
100
AcDbEntity
  8
SLD-0
100
AcDbLine
 10
3453.7141146737
 20
1474.9317543817
 30
0.0
 11
3460.2327867777
 21
1474.9317543817
 31
0.0
  0
LINE
  5
566
330
55D
100
AcDbEntity
  8
SLD-0
100
AcDbLine
 10
3460.2327867777
 20
1474.9317543817
 30
0.0
 11
3460.2327867777
 21
1440.8798787979
 31
0.0
  0
LINE
  5
567
330
55D
100
AcDbEntity
  8
SLD-0
100
AcDbLine
 10
3460.2327867777
 20
1440.8798787979
 30
0.0
 11
3453.7141146737
 21
1440.8798787979
 31
0.0
  0
LINE
  5
568
330
55D
100
AcDbEntity
  8
SLD-0
100
AcDbLine
 10
3338.7122390131
 20
1186.1397501907
 30
0.0
 11
3338.7122390131
 21
1481.7897501907
 31
0.0
  0
LINE
  5
569
330
55D
100
AcDbEntity
  8
SLD-0
100
AcDbLine
 10
3513.3122390131
 20
1397.4351338731
 30
0.0
 11
3513.3122390131
 21
1481.7897501907
 31
0.0
  0
LINE
  5
56A
330
55D
100
AcDbEntity
  8
SLD-0
100
AcDbLine
 10
3338.7122390131
 20
1474.9317501907
 30
0.0
 11
3373.0306592019
 21
1474.9317501907
 31
0.0
  0
LINE
  5
56B
330
55D
100
AcDbEntity
  8
SLD-0
100
AcDbLine
 10
3513.3122390131
 20
1474.9317501907
 30
0.0
 11
3478.9938188243
 21
1474.9317501907
 31
0.0
  0
MTEXT
  5
56C
330
55D
100
AcDbEntity
  8
SLD-0
100
AcDbMText
 10
3377.3752065043
 20
1506.6526065818
 30
0.0
 40
21.43125
 41
0.0
 71
     1
 72
     1
  1
 
  7
SLDTEXTSTYLE0
 73
     1
 44
1.0
  0
MTEXT
  5
56D
330
55D
100
AcDbEntity
  8
SLD-0
100
AcDbMText
 10
3390.3927065565
 20
1506.6526086773
 30
0.0
 40
21.43125
 41
0.0
 71
     1
 72
     1
  1
174.6
  7
SLDTEXTSTYLE0
 73
     1
 44
1.0
  0
MTEXT
  5
56E
330
55D
100
AcDbEntity
  8
SLD-0
100
AcDbMText
 10
3398.3103633525
 20
1468.2549530878
 30
0.0
 40
21.43125
 41
0.0
 71
     1
 72
     1
  1
6.87
  7
SLDTEXTSTYLE0
 73
     1
 44
1.0
  0
MTEXT
  5
56F
330
55D
100
AcDbEntity
  8
SLD-0
100
AcDbMText
 10
3466.7514567862
 20
1506.6526065818
 30
0.0
 40
21.43125
 41
0.0
 71
     1
 72
     1
  1
 
  7
SLDTEXTSTYLE0
 73
     1
 44
1.0
  0
ENDBLK
  5
55F
330
55D
100
AcDbEntity
  8
0
100
AcDbBlockEnd
  0
BLOCK
  5
572
330
571
100
AcDbEntity
  8
0
100
AcDbBlockBegin
  2
_D_28
 70
     0
 10
0.0
 20
0.0
 30
0.0
  3
_D_28
  1

  0
SOLID
  5
574
330
571
100
AcDbEntity
  8
SLD-0
100
AcDbTrace
 10
3594.0953187452
 20
828.1317501907
 30
0.0
 11
3596.3453187452
 21
846.1317501907
 31
0.0
 12
3591.8453187452
 22
846.1317501907
 32
0.0
 13
3591.8453187452
 23
846.1317501907
 33
0.0
  0
SOLID
  5
575
330
571
100
AcDbEntity
  8
SLD-0
100
AcDbTrace
 10
3594.0953187452
 20
787.7317501907
 30
0.0
 11
3591.8453187452
 21
769.7317501907
 31
0.0
 12
3596.3453187452
 22
769.7317501907
 32
0.0
 13
3596.3453187452
 23
769.7317501907
 33
0.0
  0
LINE
  5
576
330
571
100
AcDbEntity
  8
SLD-0
100
AcDbLine
 10
3646.0641175006
 20
886.2902152
 30
0.0
 11
3639.5454453966
 21
886.2902152
 31
0.0
  0
LINE
  5
577
330
571
100
AcDbEntity
  8
SLD-0
100
AcDbLine
 10
3639.5454453966
 20
886.2902152
 30
0.0
 11
3639.5454453966
 21
852.2383396162
 31
0.0
  0
LINE
  5
578
330
571
100
AcDbEntity
  8
SLD-0
100
AcDbLine
 10
3639.5454453966
 20
852.2383396162
 30
0.0
 11
3646.0641175006
 21
852.2383396162
 31
0.0
  0
LINE
  5
579
330
571
100
AcDbEntity
  8
SLD-0
100
AcDbLine
 10
3701.4678688217
 20
886.2902152
 30
0.0
 11
3707.9865409257
 21
886.2902152
 31
0.0
  0
LINE
  5
57A
330
571
100
AcDbEntity
  8
SLD-0
100
AcDbLine
 10
3707.9865409257
 20
886.2902152
 30
0.0
 11
3707.9865409257
 21
852.2383396162
 31
0.0
  0
LINE
  5
57B
330
571
100
AcDbEntity
  8
SLD-0
100
AcDbLine
 10
3707.9865409257
 20
852.2383396162
 30
0.0
 11
3701.4678688217
 21
852.2383396162
 31
0.0
  0
LINE
  5
57C
330
571
100
AcDbEntity
  8
SLD-0
100
AcDbLine
 10
3332.9202390131
 20
828.1317501907
 30
0.0
 11
3600.9533187452
 21
828.1317501907
 31
0.0
  0
LINE
  5
57D
330
571
100
AcDbEntity
  8
SLD-0
100
AcDbLine
 10
3524.7358173757
 20
787.7317501907
 30
0.0
 11
3600.9533187452
 21
787.7317501907
 31
0.0
  0
LINE
  5
57E
330
571
100
AcDbEntity
  8
SLD-0
100
AcDbLine
 10
3612.0953187452
 20
886.2902110091
 30
0.0
 11
3594.0953187452
 21
886.2902110091
 31
0.0
  0
LINE
  5
57F
330
571
100
AcDbEntity
  8
SLD-0
100
AcDbLine
 10
3594.0953187452
 20
886.2902110091
 30
0.0
 11
3594.0953187452
 21
828.1317501907
 31
0.0
  0
LINE
  5
580
330
571
100
AcDbEntity
  8
SLD-0
100
AcDbLine
 10
3594.0953187452
 20
787.7317501907
 30
0.0
 11
3594.0953187452
 21
751.7317501907
 31
0.0
  0
MTEXT
  5
581
330
571
100
AcDbEntity
  8
SLD-0
100
AcDbMText
 10
3625.1289606523
 20
918.0110674001
 30
0.0
 40
21.43125
 41
0.0
 71
     1
 72
     1
  1
 
  7
SLDTEXTSTYLE0
 73
     1
 44
1.0
  0
MTEXT
  5
582
330
571
100
AcDbEntity
  8
SLD-0
100
AcDbMText
 10
3646.0641154051
 20
918.0110694956
 30
0.0
 40
21.43125
 41
0.0
 71
     1
 72
     1
  1
40.4
  7
SLDTEXTSTYLE0
 73
     1
 44
1.0
  0
MTEXT
  5
583
330
571
100
AcDbEntity
  8
SLD-0
100
AcDbMText
 10
3646.0641175006
 20
879.6134139061
 30
0.0
 40
21.43125
 41
0.0
 71
     1
 72
     1
  1
1.59
  7
SLDTEXTSTYLE0
 73
     1
 44
1.0
  0
MTEXT
  5
584
330
571
100
AcDbEntity
  8
SLD-0
100
AcDbMText
 10
3714.5052109342
 20
918.0110674001
 30
0.0
 40
21.43125
 41
0.0
 71
     1
 72
     1
  1
 
  7
SLDTEXTSTYLE0
 73
     1
 44
1.0
  0
ENDBLK
  5
573
330
571
100
AcDbEntity
  8
0
100
AcDbBlockEnd
  0
BLOCK
  5
587
330
586
100
AcDbEntity
  8
0
100
AcDbBlockBegin
  2
_D_29
 70
     0
 10
0.0
 20
0.0
 30
0.0
  3
_D_29
  1

  0
SOLID
  5
589
330
586
100
AcDbEntity
  8
SLD-0
100
AcDbTrace
 10
3313.3122390131
 20
697.7317501907
 30
0.0
 11
3331.3122390131
 21
695.4817501907
 31
0.0
 12
3331.3122390131
 22
699.9817501907
 32
0.0
 13
3331.3122390131
 23
699.9817501907
 33
0.0
  0
SOLID
  5
58A
330
586
100
AcDbEntity
  8
SLD-0
100
AcDbTrace
 10
3513.3122390131
 20
697.7317501907
 30
0.0
 11
3495.3122390131
 21
699.9817501907
 31
0.0
 12
3495.3122390131
 22
695.4817501907
 32
0.0
 13
3495.3122390131
 23
695.4817501907
 33
0.0
  0
LINE
  5
58B
330
586
100
AcDbEntity
  8
SLD-0
100
AcDbLine
 10
3612.3313826104
 20
697.7317543817
 30
0.0
 11
3605.8127105064
 21
697.7317543817
 31
0.0
  0
LINE
  5
58C
330
586
100
AcDbEntity
  8
SLD-0
100
AcDbLine
 10
3605.8127105064
 20
697.7317543817
 30
0.0
 11
3605.8127105064
 21
663.6798787979
 31
0.0
  0
LINE
  5
58D
330
586
100
AcDbEntity
  8
SLD-0
100
AcDbLine
 10
3605.8127105064
 20
663.6798787979
 30
0.0
 11
3612.3313826104
 21
663.6798787979
 31
0.0
  0
LINE
  5
58E
330
586
100
AcDbEntity
  8
SLD-0
100
AcDbLine
 10
3667.7351339315
 20
697.7317543817
 30
0.0
 11
3674.2538060355
 21
697.7317543817
 31
0.0
  0
LINE
  5
58F
330
586
100
AcDbEntity
  8
SLD-0
100
AcDbLine
 10
3674.2538060355
 20
697.7317543817
 30
0.0
 11
3674.2538060355
 21
663.6798787979
 31
0.0
  0
LINE
  5
590
330
586
100
AcDbEntity
  8
SLD-0
100
AcDbLine
 10
3674.2538060355
 20
663.6798787979
 30
0.0
 11
3667.7351339315
 21
663.6798787979
 31
0.0
  0
LINE
  5
591
330
586
100
AcDbEntity
  8
SLD-0
100
AcDbLine
 10
3313.3122390131
 20
808.5237501907
 30
0.0
 11
3313.3122390131
 21
690.8737501907
 31
0.0
  0
LINE
  5
592
330
586
100
AcDbEntity
  8
SLD-0
100
AcDbLine
 10
3513.3122390131
 20
778.0806127882
 30
0.0
 11
3513.3122390131
 21
690.8737501907
 31
0.0
  0
LINE
  5
593
330
586
100
AcDbEntity
  8
SLD-0
100
AcDbLine
 10
3313.3122390131
 20
697.7317501907
 30
0.0
 11
3513.3122390131
 21
697.7317501907
 31
0.0
  0
LINE
  5
594
330
586
100
AcDbEntity
  8
SLD-0
100
AcDbLine
 10
3513.3122390131
 20
697.7317501907
 30
0.0
 11
3587.0516784597
 21
697.7317501907
 31
0.0
  0
MTEXT
  5
595
330
586
100
AcDbEntity
  8
SLD-0
100
AcDbMText
 10
3591.3962257621
 20
729.4526065818
 30
0.0
 40
21.43125
 41
0.0
 71
     1
 72
     1
  1
 
  7
SLDTEXTSTYLE0
 73
     1
 44
1.0
  0
MTEXT
  5
596
330
586
100
AcDbEntity
  8
SLD-0
100
AcDbMText
 10
3604.4137258143
 20
729.4526086773
 30
0.0
 40
21.43125
 41
0.0
 71
     1
 72
     1
  1
200.0
  7
SLDTEXTSTYLE0
 73
     1
 44
1.0
  0
MTEXT
  5
597
330
586
100
AcDbEntity
  8
SLD-0
100
AcDbMText
 10
3612.3313826104
 20
691.0549530878
 30
0.0
 40
21.43125
 41
0.0
 71
     1
 72
     1
  1
7.87
  7
SLDTEXTSTYLE0
 73
     1
 44
1.0
  0
MTEXT
  5
598
330
586
100
AcDbEntity
  8
SLD-0
100
AcDbMText
 10
3680.772476044
 20
729.4526065818
 30
0.0
 40
21.43125
 41
0.0
 71
     1
 72
     1
  1
 
  7
SLDTEXTSTYLE0
 73
     1
 44
1.0
  0
ENDBLK
  5
588
330
586
100
AcDbEntity
  8
0
100
AcDbBlockEnd
  0
BLOCK
  5
59A
330
599
100
AcDbEntity
  8
0
100
AcDbBlockBegin
  2
SW_NOTE_0_9
 70
     0
 10
0.0
 20
0.0
 30
0.0
  3
SW_NOTE_0_9
  1

  0
LINE
  5
59C
330
599
100
AcDbEntity
  8
SLD-0
 62
     0
100
AcDbLine
 10
-51.9447929737
 20
-26.313651192
 30
0.0
 11
-51.9447929737
 21
25.6311417817
 31
0.0
  0
LINE
  5
59D
330
599
100
AcDbEntity
  8
SLD-0
 62
     0
100
AcDbLine
 10
-51.9447929737
 20
25.6311417817
 30
0.0
 11
0.0
 21
25.6311417817
 31
0.0
  0
LINE
  5
59E
330
599
100
AcDbEntity
  8
SLD-0
 62
     0
100
AcDbLine
 10
0.0
 20
25.6311417817
 30
0.0
 11
0.0
 21
-26.313651192
 31
0.0
  0
LINE
  5
59F
330
599
100
AcDbEntity
  8
SLD-0
 62
     0
100
AcDbLine
 10
0.0
 20
-26.313651192
 30
0.0
 11
-51.9447929737
 21
-26.313651192
 31
0.0
  0
MTEXT
  5
5A0
330
599
100
AcDbEntity
  8
SLD-0
 62
     0
100
AcDbMText
 10
-26.1881972903
 20
10.0924188384
 30
0.0
 40
21.43125
 41
0.0
 71
     2
 72
     1
  1
6
  7
SLDTEXTSTYLE0
 73
     1
 44
1.0
  0
ENDBLK
  5
59B
330
599
100
AcDbEntity
  8
0
100
AcDbBlockEnd
  0
BLOCK
  5
5A4
330
5A3
100
AcDbEntity
  8
0
100
AcDbBlockBegin
  2
SW_NOTE_0_10
 70
     0
 10
0.0
 20
0.0
 30
0.0
  3
SW_NOTE_0_10
  1

  0
LINE
  5
5A6
330
5A3
100
AcDbEntity
  8
SLD-0
 62
     0
100
AcDbLine
 10
-51.9447929737
 20
-26.313651192
 30
0.0
 11
-51.9447929737
 21
25.6311417817
 31
0.0
  0
LINE
  5
5A7
330
5A3
100
AcDbEntity
  8
SLD-0
 62
     0
100
AcDbLine
 10
-51.9447929737
 20
25.6311417817
 30
0.0
 11
0.0
 21
25.6311417817
 31
0.0
  0
LINE
  5
5A8
330
5A3
100
AcDbEntity
  8
SLD-0
 62
     0
100
AcDbLine
 10
0.0
 20
25.6311417817
 30
0.0
 11
0.0
 21
-26.313651192
 31
0.0
  0
LINE
  5
5A9
330
5A3
100
AcDbEntity
  8
SLD-0
 62
     0
100
AcDbLine
 10
0.0
 20
-26.313651192
 30
0.0
 11
-51.9447929737
 21
-26.313651192
 31
0.0
  0
MTEXT
  5
5AA
330
5A3
100
AcDbEntity
  8
SLD-0
 62
     0
100
AcDbMText
 10
-26.1881972903
 20
10.0924188384
 30
0.0
 40
21.43125
 41
0.0
 71
     2
 72
     1
  1
4
  7
SLDTEXTSTYLE0
 73
     1
 44
1.0
  0
ENDBLK
  5
5A5
330
5A3
100
AcDbEntity
  8
0
100
AcDbBlockEnd
  0
BLOCK
  5
5B0
330
5AF
100
AcDbEntity
  8
0
100
AcDbBlockBegin
  2
SW_CENTERMARKSYMBOL_10
 70
     0
 10
0.0
 20
0.0
 30
0.0
  3
SW_CENTERMARKSYMBOL_10
  1

  0
LINE
  5
5B2
330
5AF
100
AcDbEntity
  8
SLD-0
 62
     0
100
AcDbLine
 10
0.0
 20
0.0
 30
0.0
 11
0.0
 21
2.0
 31
0.0
  0
LINE
  5
5B3
330
5AF
100
AcDbEntity
  8
SLD-0
 62
     0
100
AcDbLine
 10
0.0
 20
0.0
 30
0.0
 11
-2.0
 21
0.0
 31
0.0
  0
LINE
  5
5B4
330
5AF
100
AcDbEntity
  8
SLD-0
 62
     0
100
AcDbLine
 10
0.0
 20
0.0
 30
0.0
 11
0.0
 21
-2.0
 31
0.0
  0
LINE
  5
5B5
330
5AF
100
AcDbEntity
  8
SLD-0
 62
     0
100
AcDbLine
 10
0.0
 20
0.0
 30
0.0
 11
2.0
 21
0.0
 31
0.0
  0
LINE
  5
5B6
330
5AF
100
AcDbEntity
  8
SLD-0
 62
     0
100
AcDbLine
 10
0.0
 20
4.0
 30
0.0
 11
0.0
 21
12.75
 31
0.0
  0
LINE
  5
5B7
330
5AF
100
AcDbEntity
  8
SLD-0
 62
     0
100
AcDbLine
 10
-4.0
 20
0.0
 30
0.0
 11
-12.75
 21
0.0
 31
0.0
  0
LINE
  5
5B8
330
5AF
100
AcDbEntity
  8
SLD-0
 62
     0
100
AcDbLine
 10
0.0
 20
-4.0
 30
0.0
 11
0.0
 21
-12.75
 31
0.0
  0
LINE
  5
5B9
330
5AF
100
AcDbEntity
  8
SLD-0
 62
     0
100
AcDbLine
 10
4.0
 20
0.0
 30
0.0
 11
12.75
 21
0.0
 31
0.0
  0
ENDBLK
  5
5B1
330
5AF
100
AcDbEntity
  8
0
100
AcDbBlockEnd
  0
BLOCK
  5
5BC
330
5BB
100
AcDbEntity
  8
0
100
AcDbBlockBegin
  2
SW_CENTERMARKSYMBOL_11
 70
     0
 10
0.0
 20
0.0
 30
0.0
  3
SW_CENTERMARKSYMBOL_11
  1

  0
LINE
  5
5BE
330
5BB
100
AcDbEntity
  8
SLD-0
 62
     0
100
AcDbLine
 10
0.0
 20
0.0
 30
0.0
 11
0.0
 21
2.0
 31
0.0
  0
LINE
  5
5BF
330
5BB
100
AcDbEntity
  8
SLD-0
 62
     0
100
AcDbLine
 10
0.0
 20
0.0
 30
0.0
 11
-2.0
 21
0.0
 31
0.0
  0
LINE
  5
5C0
330
5BB
100
AcDbEntity
  8
SLD-0
 62
     0
100
AcDbLine
 10
0.0
 20
0.0
 30
0.0
 11
0.0
 21
-2.0
 31
0.0
  0
LINE
  5
5C1
330
5BB
100
AcDbEntity
  8
SLD-0
 62
     0
100
AcDbLine
 10
0.0
 20
0.0
 30
0.0
 11
2.0
 21
0.0
 31
0.0
  0
LINE
  5
5C2
330
5BB
100
AcDbEntity
  8
SLD-0
 62
     0
100
AcDbLine
 10
0.0
 20
4.0
 30
0.0
 11
0.0
 21
12.75
 31
0.0
  0
LINE
  5
5C3
330
5BB
100
AcDbEntity
  8
SLD-0
 62
     0
100
AcDbLine
 10
-4.0
 20
0.0
 30
0.0
 11
-12.75
 21
0.0
 31
0.0
  0
LINE
  5
5C4
330
5BB
100
AcDbEntity
  8
SLD-0
 62
     0
100
AcDbLine
 10
0.0
 20
-4.0
 30
0.0
 11
0.0
 21
-12.75
 31
0.0
  0
LINE
  5
5C5
330
5BB
100
AcDbEntity
  8
SLD-0
 62
     0
100
AcDbLine
 10
4.0
 20
0.0
 30
0.0
 11
12.75
 21
0.0
 31
0.0
  0
ENDBLK
  5
5BD
330
5BB
100
AcDbEntity
  8
0
100
AcDbBlockEnd
  0
BLOCK
  5
5C8
330
5C7
100
AcDbEntity
  8
0
100
AcDbBlockBegin
  2
SW_CENTERMARKSYMBOL_12
 70
     0
 10
0.0
 20
0.0
 30
0.0
  3
SW_CENTERMARKSYMBOL_12
  1

  0
LINE
  5
5CA
330
5C7
100
AcDbEntity
  8
SLD-0
 62
     0
100
AcDbLine
 10
0.0
 20
0.0
 30
0.0
 11
0.0
 21
2.0
 31
0.0
  0
LINE
  5
5CB
330
5C7
100
AcDbEntity
  8
SLD-0
 62
     0
100
AcDbLine
 10
0.0
 20
0.0
 30
0.0
 11
-2.0
 21
0.0
 31
0.0
  0
LINE
  5
5CC
330
5C7
100
AcDbEntity
  8
SLD-0
 62
     0
100
AcDbLine
 10
0.0
 20
0.0
 30
0.0
 11
0.0
 21
-2.0
 31
0.0
  0
LINE
  5
5CD
330
5C7
100
AcDbEntity
  8
SLD-0
 62
     0
100
AcDbLine
 10
0.0
 20
0.0
 30
0.0
 11
2.0
 21
0.0
 31
0.0
  0
LINE
  5
5CE
330
5C7
100
AcDbEntity
  8
SLD-0
 62
     0
100
AcDbLine
 10
0.0
 20
4.0
 30
0.0
 11
0.0
 21
9.0
 31
0.0
  0
LINE
  5
5CF
330
5C7
100
AcDbEntity
  8
SLD-0
 62
     0
100
AcDbLine
 10
-4.0
 20
0.0
 30
0.0
 11
-9.0
 21
0.0
 31
0.0
  0
LINE
  5
5D0
330
5C7
100
AcDbEntity
  8
SLD-0
 62
     0
100
AcDbLine
 10
0.0
 20
-4.0
 30
0.0
 11
0.0
 21
-9.0
 31
0.0
  0
LINE
  5
5D1
330
5C7
100
AcDbEntity
  8
SLD-0
 62
     0
100
AcDbLine
 10
4.0
 20
0.0
 30
0.0
 11
9.0
 21
0.0
 31
0.0
  0
ENDBLK
  5
5C9
330
5C7
100
AcDbEntity
  8
0
100
AcDbBlockEnd
  0
BLOCK
  5
5D4
330
5D3
100
AcDbEntity
  8
0
100
AcDbBlockBegin
  2
SW_CENTERMARKSYMBOL_13
 70
     0
 10
0.0
 20
0.0
 30
0.0
  3
SW_CENTERMARKSYMBOL_13
  1

  0
LINE
  5
5D6
330
5D3
100
AcDbEntity
  8
SLD-0
 62
     0
100
AcDbLine
 10
0.0
 20
0.0
 30
0.0
 11
0.0
 21
2.0
 31
0.0
  0
LINE
  5
5D7
330
5D3
100
AcDbEntity
  8
SLD-0
 62
     0
100
AcDbLine
 10
0.0
 20
0.0
 30
0.0
 11
-2.0
 21
0.0
 31
0.0
  0
LINE
  5
5D8
330
5D3
100
AcDbEntity
  8
SLD-0
 62
     0
100
AcDbLine
 10
0.0
 20
0.0
 30
0.0
 11
0.0
 21
-2.0
 31
0.0
  0
LINE
  5
5D9
330
5D3
100
AcDbEntity
  8
SLD-0
 62
     0
100
AcDbLine
 10
0.0
 20
0.0
 30
0.0
 11
2.0
 21
0.0
 31
0.0
  0
LINE
  5
5DA
330
5D3
100
AcDbEntity
  8
SLD-0
 62
     0
100
AcDbLine
 10
0.0
 20
4.0
 30
0.0
 11
0.0
 21
9.0
 31
0.0
  0
LINE
  5
5DB
330
5D3
100
AcDbEntity
  8
SLD-0
 62
     0
100
AcDbLine
 10
-4.0
 20
0.0
 30
0.0
 11
-9.0
 21
0.0
 31
0.0
  0
LINE
  5
5DC
330
5D3
100
AcDbEntity
  8
SLD-0
 62
     0
100
AcDbLine
 10
0.0
 20
-4.0
 30
0.0
 11
0.0
 21
-9.0
 31
0.0
  0
LINE
  5
5DD
330
5D3
100
AcDbEntity
  8
SLD-0
 62
     0
100
AcDbLine
 10
4.0
 20
0.0
 30
0.0
 11
9.0
 21
0.0
 31
0.0
  0
ENDBLK
  5
5D5
330
5D3
100
AcDbEntity
  8
0
100
AcDbBlockEnd
  0
BLOCK
  5
5E0
330
5DF
100
AcDbEntity
  8
0
100
AcDbBlockBegin
  2
SW_CENTERMARKSYMBOL_14
 70
     0
 10
0.0
 20
0.0
 30
0.0
  3
SW_CENTERMARKSYMBOL_14
  1

  0
LINE
  5
5E2
330
5DF
100
AcDbEntity
  8
SLD-0
 62
     0
100
AcDbLine
 10
0.0
 20
0.0
 30
0.0
 11
0.0
 21
2.0
 31
0.0
  0
LINE
  5
5E3
330
5DF
100
AcDbEntity
  8
SLD-0
 62
     0
100
AcDbLine
 10
0.0
 20
0.0
 30
0.0
 11
-2.0
 21
0.0
 31
0.0
  0
LINE
  5
5E4
330
5DF
100
AcDbEntity
  8
SLD-0
 62
     0
100
AcDbLine
 10
0.0
 20
0.0
 30
0.0
 11
0.0
 21
-2.0
 31
0.0
  0
LINE
  5
5E5
330
5DF
100
AcDbEntity
  8
SLD-0
 62
     0
100
AcDbLine
 10
0.0
 20
0.0
 30
0.0
 11
2.0
 21
0.0
 31
0.0
  0
LINE
  5
5E6
330
5DF
100
AcDbEntity
  8
SLD-0
 62
     0
100
AcDbLine
 10
0.0
 20
4.0
 30
0.0
 11
0.0
 21
9.0
 31
0.0
  0
LINE
  5
5E7
330
5DF
100
AcDbEntity
  8
SLD-0
 62
     0
100
AcDbLine
 10
-4.0
 20
0.0
 30
0.0
 11
-9.0
 21
0.0
 31
0.0
  0
LINE
  5
5E8
330
5DF
100
AcDbEntity
  8
SLD-0
 62
     0
100
AcDbLine
 10
0.0
 20
-4.0
 30
0.0
 11
0.0
 21
-9.0
 31
0.0
  0
LINE
  5
5E9
330
5DF
100
AcDbEntity
  8
SLD-0
 62
     0
100
AcDbLine
 10
4.0
 20
0.0
 30
0.0
 11
9.0
 21
0.0
 31
0.0
  0
ENDBLK
  5
5E1
330
5DF
100
AcDbEntity
  8
0
100
AcDbBlockEnd
  0
BLOCK
  5
5EC
330
5EB
100
AcDbEntity
  8
0
100
AcDbBlockBegin
  2
SW_CENTERMARKSYMBOL_15
 70
     0
 10
0.0
 20
0.0
 30
0.0
  3
SW_CENTERMARKSYMBOL_15
  1

  0
LINE
  5
5EE
330
5EB
100
AcDbEntity
  8
SLD-0
 62
     0
100
AcDbLine
 10
0.0
 20
0.0
 30
0.0
 11
0.0
 21
2.0
 31
0.0
  0
LINE
  5
5EF
330
5EB
100
AcDbEntity
  8
SLD-0
 62
     0
100
AcDbLine
 10
0.0
 20
0.0
 30
0.0
 11
-2.0
 21
0.0
 31
0.0
  0
LINE
  5
5F0
330
5EB
100
AcDbEntity
  8
SLD-0
 62
     0
100
AcDbLine
 10
0.0
 20
0.0
 30
0.0
 11
0.0
 21
-2.0
 31
0.0
  0
LINE
  5
5F1
330
5EB
100
AcDbEntity
  8
SLD-0
 62
     0
100
AcDbLine
 10
0.0
 20
0.0
 30
0.0
 11
2.0
 21
0.0
 31
0.0
  0
LINE
  5
5F2
330
5EB
100
AcDbEntity
  8
SLD-0
 62
     0
100
AcDbLine
 10
0.0
 20
4.0
 30
0.0
 11
0.0
 21
9.0
 31
0.0
  0
LINE
  5
5F3
330
5EB
100
AcDbEntity
  8
SLD-0
 62
     0
100
AcDbLine
 10
-4.0
 20
0.0
 30
0.0
 11
-9.0
 21
0.0
 31
0.0
  0
LINE
  5
5F4
330
5EB
100
AcDbEntity
  8
SLD-0
 62
     0
100
AcDbLine
 10
0.0
 20
-4.0
 30
0.0
 11
0.0
 21
-9.0
 31
0.0
  0
LINE
  5
5F5
330
5EB
100
AcDbEntity
  8
SLD-0
 62
     0
100
AcDbLine
 10
4.0
 20
0.0
 30
0.0
 11
9.0
 21
0.0
 31
0.0
  0
ENDBLK
  5
5ED
330
5EB
100
AcDbEntity
  8
0
100
AcDbBlockEnd
  0
ENDSEC
  0
SECTION
  2
ENTITIES
  0
LINE
  5
68
330
1F
100
AcDbEntity
  8
SLD-0
 62
     7
100
AcDbLine
 10
58.5
 20
2456.1
 30
0.0
 11
3827.7
 21
2456.1
 31
0.0
  0
LINE
  5
69
330
1F
100
AcDbEntity
  8
0
  6
Continuous
 62
     7
370
    18
100
AcDbLine
 10
58.5
 20
162.0
 30
0.0
 11
3827.7
 21
162.0
 31
0.0
  0
LINE
  5
6A
330
1F
100
AcDbEntity
  8
0
  6
CENTER
 62
     7
370
    18
100
AcDbLine
 10
1651.0961323174
 20
80.3409271012
 30
0.0
 11
1693.1397673119
 21
80.3409271012
 31
0.0
  0
LINE
  5
6B
330
1F
100
AcDbEntity
  8
0
  6
Continuous
 62
     7
370
    18
100
AcDbLine
 10
1655.3521107442
 20
74.6259271012
 30
0.0
 11
1689.6421107442
 21
68.9109271012
 31
0.0
  0
LINE
  5
6C
330
1F
100
AcDbEntity
  8
0
  6
Continuous
 62
     7
370
    18
100
AcDbLine
 10
1655.3521107442
 20
86.0559271012
 30
0.0
 11
1689.6421107442
 21
91.7709271012
 31
0.0
  0
LINE
  5
6D
330
1F
100
AcDbEntity
  8
0
  6
CENTER
 62
     7
370
    18
100
AcDbLine
 10
1617.6788307442
 20
80.3409271012
 30
0.0
 11
1647.0399556705
 21
80.3409271012
 31
0.0
  0
LINE
  5
6E
330
1F
100
AcDbEntity
  8
0
  6
CENTER
 62
     7
370
    18
100
AcDbLine
 10
1632.3593932074
 20
65.5100794809
 30
0.0
 11
1632.3593932074
 21
95.1717747215
 31
0.0
  0
LINE
  5
6F
330
1F
100
AcDbEntity
  8
0
  6
Continuous
 62
     7
370
    18
100
AcDbLine
 10
1655.3521107442
 20
86.0559271012
 30
0.0
 11
1655.3521107442
 21
74.6259271012
 31
0.0
  0
LINE
  5
70
330
1F
100
AcDbEntity
  8
0
  6
Continuous
 62
     7
370
    18
100
AcDbLine
 10
1689.6421107442
 20
91.7709271012
 30
0.0
 11
1689.6421107442
 21
68.9109271012
 31
0.0
  0
CIRCLE
  5
71
330
1F
100
AcDbEntity
  8
0
  6
Continuous
 62
     7
370
    18
100
AcDbCircle
 10
1632.3593932074
 20
80.3409271012
 30
0.0
 40
11.42999999999887
  0
CIRCLE
  5
72
330
1F
100
AcDbEntity
  8
0
  6
Continuous
 62
     7
370
    18
100
AcDbCircle
 10
1632.3593932074
 20
80.3409271012
 30
0.0
 40
5.714999999999452
  0
INSERT
  5
AE
330
1F
100
AcDbEntity
  8
0
  6
Continuous
 62
     7
370
     0
100
AcDbBlockReference
  2
SW_NOTE_0
 10
73.2679429949
 20
2393.1349692819
 30
0.0
  0
MTEXT
  5
AF
330
1F
100
AcDbEntity
  8
0
  6
Continuous
 62
     7
370
     0
100
AcDbMText
 10
1329.769358556
 20
130.4188054905
 30
0.0
 40
16.66875
 41
0.0
 71
     2
 72
     1
  1
00PW4
  7
SLDTEXTSTYLE0
 73
     1
 44
1.0
  0
MTEXT
  5
B0
330
1F
100
AcDbEntity
  8
0
  6
Continuous
 62
     7
370
     0
100
AcDbMText
 10
2040.3052676444
 20
80.0479183393
 30
0.0
 40
16.66875
 41
0.0
 71
     1
 72
     1
  1
B.HAWKINS
  7
SLDTEXTSTYLE0
 73
     1
 44
1.0
  0
MTEXT
  5
B1
330
1F
100
AcDbEntity
  8
0
  6
Continuous
 62
     7
370
     0
100
AcDbMText
 10
1454.0798401257
 20
148.8498498697
 30
0.0
 40
14.2875
 41
0.0
 71
     1
 72
     1
  1
UNLESS  OTHERWISE  SPECIFIED
  7
SLDTEXTSTYLE0
 73
     1
 44
1.0
  0
MTEXT
  5
B2
330
1F
100
AcDbEntity
  8
0
  6
Continuous
 62
     7
370
     0
100
AcDbMText
 10
1454.0798401257
 20
129.7998500999
 30
0.0
 40
14.2875
 41
0.0
 71
     1
 72
     1
  1
DIMENSIONS  ARE  IN  MM [IN]
  7
SLDTEXTSTYLE0
 73
     1
 44
1.0
  0
MTEXT
  5
B3
330
1F
100
AcDbEntity
  8
0
  6
Continuous
 62
     7
370
     0
100
AcDbMText
 10
3536.4578802673
 20
80.9321604094
 30
0.0
 40
16.66875
 41
0.0
 71
     2
 72
     1
  1
1:9
  7
SLDTEXTSTYLE0
 73
     1
 44
1.0
  0
MTEXT
  5
B4
330
1F
100
AcDbEntity
  8
0
  6
Continuous
 62
     7
370
     0
100
AcDbMText
 10
1475.8223786466
 20
88.6134237134
 30
0.0
 40
14.2875
 41
0.0
 71
     1
 72
     1
  1
PROJECTION
  7
SLDTEXTSTYLE0
 73
     1
 44
1.0
  0
MTEXT
  5
B5
330
1F
100
AcDbEntity
  8
0
  6
Continuous
 62
     7
370
     0
100
AcDbMText
 10
1914.8182947618
 20
98.1394775801
 30
0.0
 40
14.2875
 41
0.0
 71
     1
 72
     1
  1
%%p
  7
SLDTEXTSTYLE0
 73
     1
 44
1.0
  0
MTEXT
  5
B6
330
1F
100
AcDbEntity
  8
0
  6
Continuous
 62
     7
370
     0
100
AcDbMText
 10
1928.4390445762
 20
98.1394775801
 30
0.0
 40
14.2875
 41
0.0
 71
     1
 72
     1
  1
1
  7
SLDTEXTSTYLE0
 73
     1
 44
1.0
  0
MTEXT
  5
B7
330
1F
100
AcDbEntity
  8
0
  6
Continuous
 62
     7
370
     0
100
AcDbMText
 10
1938.9959196058
 20
98.1394775801
 30
0.0
 40
14.2875
 41
0.0
 71
     1
 72
     1
  1
%%d
  7
SLDTEXTSTYLE0
 73
     1
 44
1.0
  0
MTEXT
  5
B8
330
1F
100
AcDbEntity
  8
0
  6
Continuous
 62
     7
370
     0
100
AcDbMText
 10
1773.3318977123
 20
98.1394775801
 30
0.0
 40
14.2875
 41
0.0
 71
     1
 72
     1
  1
.X 
  7
SLDTEXTSTYLE0
 73
     1
 44
1.0
  0
MTEXT
  5
B9
330
1F
100
AcDbEntity
  8
0
  6
Continuous
 62
     7
370
     0
100
AcDbMText
 10
1795.4510654387
 20
98.1394775801
 30
0.0
 40
14.2875
 41
0.0
 71
     1
 72
     1
  1
%%p
  7
SLDTEXTSTYLE0
 73
     1
 44
1.0
  0
MTEXT
  5
BA
330
1F
100
AcDbEntity
  8
0
  6
Continuous
 62
     7
370
     0
100
AcDbMText
 10
1809.0718131577
 20
98.1394775801
 30
0.0
 40
14.2875
 41
0.0
 71
     1
 72
     1
  1
 3
  7
SLDTEXTSTYLE0
 73
     1
 44
1.0
  0
MTEXT
  5
BB
330
1F
100
AcDbEntity
  8
0
  6
Continuous
 62
     7
370
     0
100
AcDbMText
 10
1773.3318977123
 20
79.0894778104
 30
0.0
 40
14.2875
 41
0.0
 71
     1
 72
     1
  1
.XX 
  7
SLDTEXTSTYLE0
 73
     1
 44
1.0
  0
MTEXT
  5
BC
330
1F
100
AcDbEntity
  8
0
  6
Continuous
 62
     7
370
     0
100
AcDbMText
 10
1807.0398135175
 20
79.0894778104
 30
0.0
 40
14.2875
 41
0.0
 71
     1
 72
     1
  1
%%p
  7
SLDTEXTSTYLE0
 73
     1
 44
1.0
  0
MTEXT
  5
BD
330
1F
100
AcDbEntity
  8
0
  6
Continuous
 62
     7
370
     0
100
AcDbMText
 10
3076.7307233544
 20
140.9030358096
 30
0.0
 40
28.575
 41
0.0
 71
     2
 72
     1
  1
LOUDSPEAKER,PL-CA12-BK,BK,12" 
  7
SLDTEXTSTYLE0
 73
     1
 44
1.0
  0
MTEXT
  5
BE
330
1F
100
AcDbEntity
  8
0
  6
Continuous
 62
     7
370
     0
100
AcDbMText
 10
3069.2066507475
 20
102.8030362701
 30
0.0
 40
28.575
 41
0.0
 71
     2
 72
     1
  1
COAXIAL
  7
SLDTEXTSTYLE0
 73
     1
 44
1.0
  0
MTEXT
  5
BF
330
1F
100
AcDbEntity
  8
0
  6
Continuous
 62
     7
370
     0
100
AcDbMText
 10
1773.5813378293
 20
148.8498498697
 30
0.0
 40
14.2875
 41
0.0
 71
     1
 72
     1
  1
TOLERANCES  ARE:
  7
SLDTEXTSTYLE0
 73
     1
 44
1.0
  0
MTEXT
  5
C0
330
1F
100
AcDbEntity
  8
0
  6
Continuous
 62
     7
370
     0
100
AcDbMText
 10
1773.5813378293
 20
129.7998500999
 30
0.0
 40
14.2875
 41
0.0
 71
     1
 72
     1
  1
DECIMALS          ANGLES
  7
SLDTEXTSTYLE0
 73
     1
 44
1.0
  0
MTEXT
  5
C1
330
1F
100
AcDbEntity
  8
0
  6
Continuous
 62
     7
370
     0
100
AcDbMText
 10
2282.56599264
 20
98.1280814603
 30
0.0
 40
11.90625
 41
0.0
 71
     1
 72
     1
  1
MFG ENGINEER
  7
SLDTEXTSTYLE0
 73
     1
 44
1.0
  0
MTEXT
  5
C2
330
1F
100
AcDbEntity
  8
0
  6
Continuous
 62
     7
370
     0
100
AcDbMText
 10
2040.3052676444
 20
98.1280814603
 30
0.0
 40
11.90625
 41
0.0
 71
     1
 72
     1
  1
MECH ENGINEER
  7
SLDTEXTSTYLE0
 73
     1
 44
1.0
  0
MTEXT
  5
C4
330
1F
100
AcDbEntity
  8
0
  6
Continuous
 62
     7
370
     0
100
AcDbMText
 10
3469.4144771884
 20
79.0188856273
 30
0.0
 40
11.90625
 41
0.0
 71
     1
 72
     1
  1
SCALE:  
  7
SLDTEXTSTYLE1
 73
     1
 44
1.0
  0
MTEXT
  5
C5
330
1F
100
AcDbEntity
  8
SLD-0
 62
     7
100
AcDbMText
 10
3468.7216538936
 20
124.9891180954
 30
0.0
 40
28.575
 41
0.0
 71
     1
 72
     1
  1
FG-901570-2D
  7
SLDTEXTSTYLE0
 73
     1
 44
1.0
  0
MTEXT
  5
C6
330
1F
100
AcDbEntity
  8
0
  6
Continuous
 62
     7
370
     0
100
AcDbMText
 10
3796.9615108062
 20
125.3355297428
 30
0.0
 40
28.575
 41
0.0
 71
     2
 72
     1
  1
A
  7
SLDTEXTSTYLE0
 73
     1
 44
1.0
  0
MTEXT
  5
C7
330
1F
100
AcDbEntity
  8
0
  6
Continuous
 62
     7
370
     0
100
AcDbMText
 10
3787.1868540085
 20
80.9321604094
 30
0.0
 40
16.66875
 41
0.0
 71
     2
 72
     1
  1
1  OF  1
  7
SLDTEXTSTYLE0
 73
     1
 44
1.0
  0
MTEXT
  5
C8
330
1F
100
AcDbEntity
  8
0
  6
Continuous
 62
     7
370
     0
100
AcDbMText
 10
3469.4144771884
 20
147.8333739534
 30
0.0
 40
11.90625
 41
0.0
 71
     1
 72
     1
  1
DRAWING NUMBER
  7
SLDTEXTSTYLE0
 73
     1
 44
1.0
  0
MTEXT
  5
C9
330
1F
100
AcDbEntity
  8
SLD-0
 62
     7
100
AcDbMText
 10
2282.56599264
 20
147.6828507649
 30
0.0
 40
11.90625
 41
0.0
 71
     1
 72
     1
  1
TECH DIRECTOR
  7
SLDTEXTSTYLE0
 73
     1
 44
1.0
  0
MTEXT
  5
CA
330
1F
100
AcDbEntity
  8
SLD-0
 62
     7
100
AcDbMText
 10
2040.3052676444
 20
147.6828507649
 30
0.0
 40
11.90625
 41
0.0
 71
     1
 72
     1
  1
DRAWN BY
  7
SLDTEXTSTYLE0
 73
     1
 44
1.0
  0
MTEXT
  5
CB
330
1F
100
AcDbEntity
  8
SLD-0
 62
     7
100
AcDbMText
 10
2040.3052676444
 20
130.6590421794
 30
0.0
 40
16.66875
 41
0.0
 71
     1
 72
     1
  1
K.CASTRO
  7
SLDTEXTSTYLE0
 73
     1
 44
1.0
  0
MTEXT
  5
CC
330
1F
100
AcDbEntity
  8
SLD-0
 62
     7
100
AcDbMText
 10
2282.56599264
 20
80.0479183393
 30
0.0
 40
16.66875
 41
0.0
 71
     1
 72
     1
  1
A.TRAN
  7
SLDTEXTSTYLE0
 73
     1
 44
1.0
  0
MTEXT
  5
CD
330
1F
100
AcDbEntity
  8
SLD-0
 62
     7
100
AcDbMText
 10
2282.56599264
 20
130.6590421794
 30
0.0
 40
16.66875
 41
0.0
 71
     1
 72
     1
  1
R.VAUCHER
  7
SLDTEXTSTYLE0
 73
     1
 44
1.0
  0
MTEXT
  5
CF
330
1F
100
AcDbEntity
  8
0
  6
Continuous
 62
     7
370
     0
100
AcDbMText
 10
986.6429422656
 20
134.8360786332
 30
0.0
 40
9.525
 41
0.0
 71
     2
 72
     1
  1
THIS DOCUMENT CONTAINS CONFIDENTIAL OR PROPRIETARY INFORMATION WHICH 
  7
SLDTEXTSTYLE2
 73
     1
 44
1.0
  0
MTEXT
  5
D0
330
1F
100
AcDbEntity
  8
0
  6
Continuous
 62
     7
370
     0
100
AcDbMText
 10
987.4658908563
 20
122.1360787867
 30
0.0
 40
9.525
 41
0.0
 71
     2
 72
     1
  1
IS THE PROPERTY OF QSC, LLC THAT MAY NOT BE DISCLOSED, REPRODUCED OR 
  7
SLDTEXTSTYLE2
 73
     1
 44
1.0
  0
MTEXT
  5
D1
330
1F
100
AcDbEntity
  8
0
  6
Continuous
 62
     7
370
     0
100
AcDbMText
 10
987.281011369
 20
109.4360789402
 30
0.0
 40
9.525
 41
0.0
 71
     2
 72
     1
  1
USED WITHOUT EXPRESS WRITTEN CONSENT FROM QSC, LLC. NO PORTION OF THIS 
  7
SLDTEXTSTYLE2
 73
     1
 44
1.0
  0
MTEXT
  5
D2
330
1F
100
AcDbEntity
  8
0
  6
Continuous
 62
     7
370
     0
100
AcDbMText
 10
986.9635048769
 20
96.7360790937
 30
0.0
 40
9.525
 41
0.0
 71
     2
 72
     1
  1
DOCUMENT MAY BE REPRODUCED, REDISTRIBUTED, OR OTHERWISE DISCLOSED TO 
  7
SLDTEXTSTYLE2
 73
     1
 44
1.0
  0
MTEXT
  5
D4
330
1F
100
AcDbEntity
  8
0
  6
Continuous
 62
     7
370
     0
100
AcDbMText
 10
985.3939956602
 20
84.0360792472
 30
0.0
 40
9.525
 41
0.0
 71
     2
 72
     1
  1
ANY THIRD PARTY WITHOUT QSC\U+2019S WRITTEN PERMISSION.
  7
SLDTEXTSTYLE3
 73
     1
 44
1.0
  0
MTEXT
  5
D5
330
1F
100
AcDbEntity
  8
0
  6
Continuous
 62
     7
370
     0
100
AcDbMText
 10
3691.2998199415
 20
78.7249567
 30
0.0
 40
11.90625
 41
0.0
 71
     1
 72
     1
  1
SHEET:
  7
SLDTEXTSTYLE0
 73
     1
 44
1.0
  0
MTEXT
  5
D6
330
1F
100
AcDbEntity
  8
SLD-0
100
AcDbMText
 10
440.2382417275
 20
137.6691674957
 30
0.0
 40
19.05
 41
0.0
 71
     1
 72
     1
  1
QSC, LLC
  7
SLDTEXTSTYLE0
 73
     1
 44
1.0
  0
MTEXT
  5
D7
330
1F
100
AcDbEntity
  8
0
  6
Continuous
 62
     7
370
     0
100
AcDbMText
 10
3798.0082676355
 20
148.072910867
 30
0.0
 40
11.90625
 41
0.0
 71
     2
 72
     1
  1
REV
  7
SLDTEXTSTYLE0
 73
     1
 44
1.0
  0
MTEXT
  5
D8
330
1F
100
AcDbEntity
  8
SLD-0
 62
     7
100
AcDbMText
 10
2522.4576909613
 20
147.6828507649
 30
0.0
 40
11.90625
 41
0.0
 71
     1
 72
     1
  1
REV BY
  7
SLDTEXTSTYLE0
 73
     1
 44
1.0
  0
MTEXT
  5
D9
330
1F
100
AcDbEntity
  8
SLD-0
 62
     7
100
AcDbMText
 10
2522.4576909613
 20
130.6590421794
 30
0.0
 40
16.66875
 41
0.0
 71
     1
 72
     1
  1
KC
  7
SLDTEXTSTYLE0
 73
     1
 44
1.0
  0
MTEXT
  5
DA
330
1F
100
AcDbEntity
  8
SLD-0
 62
     7
100
AcDbMText
 10
2522.4576909613
 20
80.0479183393
 30
0.0
 40
16.66875
 41
0.0
 71
     1
 72
     1
  1
11-MAR-2024
  7
SLDTEXTSTYLE0
 73
     1
 44
1.0
  0
MTEXT
  5
DB
330
1F
100
AcDbEntity
  8
0
  6
Continuous
 62
     7
370
     0
100
AcDbMText
 10
2522.4576909613
 20
98.1280814603
 30
0.0
 40
11.90625
 41
0.0
 71
     1
 72
     1
  1
REV DATE
  7
SLDTEXTSTYLE0
 73
     1
 44
1.0
  0
MTEXT
  5
DC
330
1F
100
AcDbEntity
  8
SLD-0
100
AcDbMText
 10
1329.9622548448
 20
100.1830821096
 30
0.0
 40
11.90625
 41
0.0
 71
     2
 72
     1
  1
FORM
  7
SLDTEXTSTYLE0
 73
     1
 44
1.0
  0
MTEXT
  5
DD
330
1F
100
AcDbEntity
  8
0
  6
Continuous
 62
     7
370
     0
100
AcDbMText
 10
1331.8261472265
 20
82.263900596
 30
0.0
 40
16.66875
 41
0.0
 71
     2
 72
     1
  1
QOS40169 B
  7
SLDTEXTSTYLE0
 73
     1
 44
1.0
  0
MTEXT
  5
DE
330
1F
100
AcDbEntity
  8
SLD-0
100
AcDbMText
 10
442.9922613187
 20
83.0704323189
 30
0.0
 40
14.2875
 41
0.0
 71
     1
 72
     1
  1
COSTA MESA, CA 92626 USA
  7
SLDTEXTSTYLE0
 73
     1
 44
1.0
  0
MTEXT
  5
DF
330
1F
100
AcDbEntity
  8
SLD-0
100
AcDbMText
 10
442.3441558458
 20
107.4478351775
 30
0.0
 40
14.2875
 41
0.0
 71
     1
 72
     1
  1
1675 MACARTHUR BLVD
  7
SLDTEXTSTYLE0
 73
     1
 44
1.0
  0
MTEXT
  5
E0
330
1F
100
AcDbEntity
  8
SLD-0
 62
     7
100
AcDbMText
 10
1330.5706195443
 20
149.1478875481
 30
0.0
 40
11.90625
 41
0.0
 71
     2
 72
     1
  1
CAGE CODE
  7
SLDTEXTSTYLE0
 73
     1
 44
1.0
  0
LINE
  5
E1
330
1F
100
AcDbEntity
  8
0
  6
Continuous
 62
     7
370
    25
100
AcDbLine
 10
3200.9517955556
 20
2092.7699717108
 30
0.0
 11
3198.4769218215
 21
2091.3412575151
 31
0.0
  0
LINE
  5
E2
330
1F
100
AcDbEntity
  8
0
  6
Continuous
 62
     7
370
    25
100
AcDbLine
 10
3355.4641628453
 20
1819.4019147276
 30
0.0
 11
3357.9390365795
 21
1820.8306289233
 31
0.0
  0
LINE
  5
E3
330
1F
100
AcDbEntity
  8
0
  6
Continuous
 62
     7
370
    25
100
AcDbLine
 10
3130.8055258735
 20
2263.4385345248
 30
0.0
 11
3130.8055258735
 21
2251.1904223465
 31
0.0
  0
LINE
  5
E4
330
1F
100
AcDbEntity
  8
0
  6
Continuous
 62
     7
370
    25
100
AcDbLine
 10
3134.7147720002
 20
1803.1931168146
 30
0.0
 11
3134.7147720002
 21
1790.9450046363
 31
0.0
  0
LINE
  5
E5
330
1F
100
AcDbEntity
  8
0
  6
Continuous
 62
     7
370
    25
100
AcDbLine
 10
3130.8055258735
 20
1788.048473845
 30
0.0
 11
3130.8055258735
 21
1775.8003616667
 31
0.0
  0
ARC
  5
E6
330
1F
100
AcDbEntity
  8
0
  6
Continuous
 62
     7
370
    25
100
AcDbCircle
 10
3388.2327214962
 20
2297.2815806816
 30
0.0
 40
182.4744176903165
100
AcDbArc
 50
263.6784592848
 51
279.3330593695
  0
LWPOLYLINE
  5
E7
330
1F
100
AcDbEntity
  8
0
  6
Continuous
 62
     7
370
    25
100
AcDbPolyline
 90
       17
 70
   128
 43
0.0
 10
3132.7201177678
 20
2251.8221594797
 10
3145.3881805731
 20
2242.2413419674
 10
3158.3494904559
 20
2232.7921430141
 10
3171.5999449197
 20
2223.4775534675
 10
3185.1353499487
 20
2214.3005215689
 10
3198.9514213346
 20
2205.2639520201
 10
3213.0437860331
 20
2196.370705064
 10
3227.407983548
 20
2187.623595579
 10
3242.0394673428
 20
2179.0253921884
 10
3256.93360628
 20
2170.5788163841
 10
3272.0856860868
 20
2162.2865416648
 10
3287.4909108473
 20
2154.1511926901
 10
3303.1444045206
 20
2146.1753444497
 10
3319.0412124838
 20
2138.3615214484
 10
3335.1763031009
 20
2130.7121969069
 10
3351.5445693146
 20
2123.229791979
 10
3368.1408302633
 20
2115.9166749856
  0
ARC
  5
E8
330
1F
100
AcDbEntity
  8
0
  6
Continuous
 62
     7
370
    25
100
AcDbCircle
 10
3167.7266950455
 20
2263.4912653228
 30
0.0
 40
36.90025045818518
100
AcDbArc
 50
152.5447675698
 51
198.4353122964
  0
LINE
  5
E9
330
1F
100
AcDbEntity
  8
0
  6
Continuous
 62
     7
370
    25
100
AcDbLine
 10
3134.9824701385
 20
2280.5043255742
 30
0.0
 11
3226.2739650756
 21
2333.2057838192
 31
0.0
  0
LINE
  5
EA
330
1F
100
AcDbEntity
  8
0
  6
Continuous
 62
     7
370
    25
100
AcDbLine
 10
3226.2739650756
 20
2333.2057838192
 30
0.0
 11
3409.5386446606
 21
2368.3995777211
 31
0.0
  0
LINE
  5
EB
330
1F
100
AcDbEntity
  8
0
  6
Continuous
 62
     7
370
    25
100
AcDbLine
 10
3409.5386446606
 20
2368.3995777211
 30
0.0
 11
3570.0807222805
 21
2275.7206090384
 31
0.0
  0
LINE
  5
EC
330
1F
100
AcDbEntity
  8
0
  6
Continuous
 62
     7
370
    25
100
AcDbLine
 10
3570.0807222805
 20
2275.7206090384
 30
0.0
 11
3509.1166775502
 21
2169.9241614547
 31
0.0
  0
LINE
  5
ED
330
1F
100
AcDbEntity
  8
0
  6
Continuous
 62
     7
370
    25
100
AcDbLine
 10
3509.1166775502
 20
2169.9241614547
 30
0.0
 11
3417.8251826131
 21
2117.2227032096
 31
0.0
  0
LWPOLYLINE
  5
EE
330
1F
100
AcDbEntity
  8
0
  6
Continuous
 62
     7
370
    25
100
AcDbPolyline
 90
       29
 70
   128
 43
0.0
 10
3409.4469977887
 20
2231.6224847926
 10
3410.6725207214
 20
2231.0582888538
 10
3412.0847918233
 20
2230.6656674464
 10
3413.6129939243
 20
2230.4643082471
 10
3415.1804965897
 20
2230.4643082471
 10
3416.7086986907
 20
2230.6656674464
 10
3418.1209697926
 20
2231.0582888538
 10
3419.3464927253
 20
2231.6224847926
 10
3420.3238146516
 20
2232.3299641225
 10
3421.0039285692
 20
2233.1452508758
 10
3421.3527307263
 20
2234.0274631703
 10
3421.3527307263
 20
2234.9323631977
 10
3421.0039285692
 20
2235.8145754922
 10
3420.3238146516
 20
2236.6298622454
 10
3419.3464927253
 20
2237.3373415754
 10
3418.1209697926
 20
2237.9015375142
 10
3416.7086986907
 20
2238.2941589216
 10
3415.1804965897
 20
2238.4955181208
 10
3413.6129939243
 20
2238.4955181208
 10
3412.0847918233
 20
2238.2941589216
 10
3410.6725207214
 20
2237.9015375142
 10
3409.4469977887
 20
2237.3373415754
 10
3408.4696758624
 20
2236.6298622454
 10
3407.7895619449
 20
2235.8145754922
 10
3407.4407597878
 20
2234.9323631977
 10
3407.4407597878
 20
2234.0274631703
 10
3407.7895619449
 20
2233.1452508758
 10
3408.4696758624
 20
2232.3299641225
 10
3409.4469977887
 20
2231.6224847926
  0
LWPOLYLINE
  5
EF
330
1F
100
AcDbEntity
  8
0
  6
Continuous
 62
     7
370
    25
100
AcDbPolyline
 90
       29
 70
   128
 43
0.0
 10
3373.5259733044
 20
2210.8857187523
 10
3374.7514962371
 20
2210.3215228135
 10
3376.1637673391
 20
2209.9289014061
 10
3377.69196944
 20
2209.7275422068
 10
3379.2594721055
 20
2209.7275422068
 10
3380.7876742064
 20
2209.9289014061
 10
3382.1999453083
 20
2210.3215228135
 10
3383.425468241
 20
2210.8857187523
 10
3384.4027901673
 20
2211.5931980822
 10
3385.0829040849
 20
2212.4084848355
 10
3385.431706242
 20
2213.29069713
 10
3385.431706242
 20
2214.1955971574
 10
3385.0829040849
 20
2215.0778094519
 10
3384.4027901673
 20
2215.8930962051
 10
3383.425468241
 20
2216.6005755351
 10
3382.1999453083
 20
2217.1647714739
 10
3380.7876742064
 20
2217.5573928813
 10
3379.2594721055
 20
2217.7587520805
 10
3377.69196944
 20
2217.7587520805
 10
3376.1637673391
 20
2217.5573928813
 10
3374.7514962371
 20
2217.1647714739
 10
3373.5259733044
 20
2216.6005755351
 10
3372.5486513781
 20
2215.8930962051
 10
3371.8685374606
 20
2215.0778094519
 10
3371.5197353035
 20
2214.1955971574
 10
3371.5197353035
 20
2213.29069713
 10
3371.8685374606
 20
2212.4084848355
 10
3372.5486513781
 20
2211.5931980822
 10
3373.5259733044
 20
2210.8857187523
  0
LWPOLYLINE
  5
F0
330
1F
100
AcDbEntity
  8
0
  6
Continuous
 62
     7
370
    25
100
AcDbPolyline
 90
       29
 70
   128
 43
0.0
 10
3297.2291516144
 20
2254.9309363851
 10
3298.4546745471
 20
2254.3667404463
 10
3299.866945649
 20
2253.9741190389
 10
3301.39514775
 20
2253.7727598397
 10
3302.9626504154
 20
2253.7727598397
 10
3304.4908525164
 20
2253.9741190389
 10
3305.9031236183
 20
2254.3667404463
 10
3307.128646551
 20
2254.9309363851
 10
3308.1059684773
 20
2255.6384157151
 10
3308.7860823949
 20
2256.4537024683
 10
3309.134884552
 20
2257.3359147628
 10
3309.134884552
 20
2258.2408147902
 10
3308.7860823949
 20
2259.1230270847
 10
3308.1059684773
 20
2259.938313838
 10
3307.128646551
 20
2260.6457931679
 10
3305.9031236183
 20
2261.2099891067
 10
3304.4908525164
 20
2261.6026105141
 10
3302.9626504154
 20
2261.8039697134
 10
3301.39514775
 20
2261.8039697134
 10
3299.866945649
 20
2261.6026105141
 10
3298.4546745471
 20
2261.2099891067
 10
3297.2291516144
 20
2260.6457931679
 10
3296.2518296881
 20
2259.938313838
 10
3295.5717157706
 20
2259.1230270847
 10
3295.2229136135
 20
2258.2408147902
 10
3295.2229136135
 20
2257.3359147628
 10
3295.5717157706
 20
2256.4537024683
 10
3296.2518296881
 20
2255.6384157151
 10
3297.2291516144
 20
2254.9309363851
  0
LWPOLYLINE
  5
F1
330
1F
100
AcDbEntity
  8
0
  6
Continuous
 62
     7
370
    25
100
AcDbPolyline
 90
       29
 70
   128
 43
0.0
 10
3333.1501760987
 20
2275.6677024254
 10
3334.3756990314
 20
2275.1035064866
 10
3335.7879701333
 20
2274.7108850792
 10
3337.3161722343
 20
2274.50952588
 10
3338.8836748997
 20
2274.50952588
 10
3340.4118770007
 20
2274.7108850792
 10
3341.8241481026
 20
2275.1035064866
 10
3343.0496710353
 20
2275.6677024254
 10
3344.0269929616
 20
2276.3751817554
 10
3344.7071068791
 20
2277.1904685086
 10
3345.0559090362
 20
2278.0726808031
 10
3345.0559090362
 20
2278.9775808305
 10
3344.7071068791
 20
2279.859793125
 10
3344.0269929616
 20
2280.6750798783
 10
3343.0496710353
 20
2281.3825592082
 10
3341.8241481026
 20
2281.946755147
 10
3340.4118770007
 20
2282.3393765544
 10
3338.8836748997
 20
2282.5407357537
 10
3337.3161722343
 20
2282.5407357537
 10
3335.7879701333
 20
2282.3393765544
 10
3334.3756990314
 20
2281.946755147
 10
3333.1501760987
 20
2281.3825592082
 10
3332.1728541724
 20
2280.6750798783
 10
3331.4927402548
 20
2279.859793125
 10
3331.1439380977
 20
2278.9775808305
 10
3331.1439380977
 20
2278.0726808031
 10
3331.4927402548
 20
2277.1904685086
 10
3332.1728541724
 20
2276.3751817554
 10
3333.1501760987
 20
2275.6677024254
  0
LWPOLYLINE
  5
F2
330
1F
100
AcDbEntity
  8
0
  6
Continuous
 62
     7
370
    25
100
AcDbPolyline
 90
       32
 70
   128
 43
0.0
 10
3351.9238611392
 20
2242.4603024771
 10
3353.3351877327
 20
2241.795968275
 10
3354.949275762
 20
2241.3092392913
 10
3356.7000442735
 20
2241.0200422677
 10
3358.5158165987
 20
2240.9402169645
 10
3360.3222548051
 20
2241.0730314388
 10
3362.0454031004
 20
2241.4130482506
 10
3363.6147155909
 20
2241.9463470715
 10
3364.9659444389
 20
2242.6510945852
 10
3366.0437701766
 20
2243.4984383457
 10
3366.8040664915
 20
2244.4536879998
 10
3367.2157067633
 20
2245.4777355146
 10
3367.2618383909
 20
2246.5286562643
 10
3366.94057274
 20
2247.5634254301
 10
3366.2650624641
 20
2248.5396794407
 10
3365.2629630332
 20
2249.4174503422
 10
3363.9753005159
 20
2250.1608020907
 10
3362.4547919668
 20
2250.7393017785
 10
3360.7636871847
 20
2251.1292655601
 10
3358.9712201979
 20
2251.3147282727
 10
3357.1507748156
 20
2251.288097051
 10
3355.3768802855
 20
2251.0504621803
 10
3353.7221600582
 20
2250.6115524601
 10
3352.2543585743
 20
2249.989336906
 10
3351.0335677988
 20
2249.2092890958
 10
3350.1097670496
 20
2248.3033442786
 10
3349.5207768379
 20
2247.3085919417
 10
3349.2907104922
 20
2246.2657573624
 10
3349.4289869557
 20
2245.2175343112
 10
3349.9299451737
 20
2244.2068371628
 10
3350.773075858
 20
2243.2750439772
 10
3351.9238611392
 20
2242.4603024771
  0
LWPOLYLINE
  5
F3
330
1F
100
AcDbEntity
  8
0
  6
Continuous
 62
     7
370
    25
100
AcDbPolyline
 90
       35
 70
   128
 43
0.0
 10
3417.5787257724
 20
2150.0633144215
 10
3419.1049072151
 20
2149.3317032983
 10
3420.8379728677
 20
2148.7744409843
 10
3422.7189052581
 20
2148.4105043795
 10
3424.6836514897
 20
2148.2522869084
 10
3426.6653044858
 20
2148.3051764772
 10
3428.5963814306
 20
2148.567371995
 10
3430.4111218147
 20
2149.029944708
 10
3432.0477268309
 20
2149.6771422572
 10
3433.4504638582
 20
2150.4869251064
 10
3434.5715643696
 20
2151.4317170718
 10
3435.3728506317
 20
2152.4793443961
 10
3435.827035802
 20
2153.5941313874
 10
3435.9186531492
 20
2154.7381153117
 10
3435.6445827545
 20
2155.8723391686
 10
3435.0141577564
 20
2156.9581783248
 10
3434.048846522
 20
2157.9586558303
 10
3432.7815215679
 20
2158.8397016236
 10
3431.2553401252
 20
2159.5713127469
 10
3429.5222744725
 20
2160.1285750608
 10
3427.6413420821
 20
2160.4925116656
 10
3425.6765958506
 20
2160.6507291367
 10
3423.6949428544
 20
2160.597839568
 10
3421.7638659096
 20
2160.3356440501
 10
3419.9491255255
 20
2159.8730713371
 10
3418.3125205094
 20
2159.2258737879
 10
3416.909783482
 20
2158.4160909388
 10
3415.7886829707
 20
2157.4712989734
 10
3414.9873967085
 20
2156.423671649
 10
3414.5332115382
 20
2155.3088846577
 10
3414.441594191
 20
2154.1649007334
 10
3414.7156645857
 20
2153.0306768766
 10
3415.3460895839
 20
2151.9448377203
 10
3416.3114008182
 20
2150.9443602148
 10
3417.5787257724
 20
2150.0633144215
  0
LWPOLYLINE
  5
F4
330
1F
100
AcDbEntity
  8
0
  6
Continuous
 62
     7
370
    25
100
AcDbPolyline
 90
       35
 70
   128
 43
0.0
 10
3191.8702412176
 20
2280.3620490684
 10
3193.3964226603
 20
2279.6304379452
 10
3195.129488313
 20
2279.0731756313
 10
3197.0104207034
 20
2278.7092390264
 10
3198.9751669349
 20
2278.5510215553
 10
3200.9568199311
 20
2278.6039111241
 10
3202.8878968759
 20
2278.8661066419
 10
3204.70263726
 20
2279.3286793549
 10
3206.3392422761
 20
2279.9758769041
 10
3207.7419793034
 20
2280.7856597533
 10
3208.8630798148
 20
2281.7304517187
 10
3209.664366077
 20
2282.778079043
 10
3210.1185512473
 20
2283.8928660343
 10
3210.2101685945
 20
2285.0368499586
 10
3209.9360981997
 20
2286.1710738155
 10
3209.3056732016
 20
2287.2569129717
 10
3208.3403619673
 20
2288.2573904772
 10
3207.0730370131
 20
2289.1384362705
 10
3205.5468555704
 20
2289.8700473938
 10
3203.8137899177
 20
2290.4273097077
 10
3201.9328575273
 20
2290.7912463125
 10
3199.9681112958
 20
2290.9494637836
 10
3197.9864582996
 20
2290.8965742149
 10
3196.0553813549
 20
2290.634378697
 10
3194.2406409708
 20
2290.171805984
 10
3192.6040359546
 20
2289.5246084348
 10
3191.2012989273
 20
2288.7148255857
 10
3190.0801984159
 20
2287.7700336203
 10
3189.2789121538
 20
2286.7224062959
 10
3188.8247269835
 20
2285.6076193046
 10
3188.7331096362
 20
2284.4636353803
 10
3189.007180031
 20
2283.3294115235
 10
3189.6376050291
 20
2282.2435723672
 10
3190.6029162634
 20
2281.2430948617
 10
3191.8702412176
 20
2280.3620490684
  0
LWPOLYLINE
  5
F5
330
1F
100
AcDbEntity
  8
0
  6
Continuous
 62
     7
370
    25
100
AcDbPolyline
 90
       35
 70
   128
 43
0.0
 10
3453.6411716129
 20
2301.1804559199
 10
3455.1673530556
 20
2300.4488447966
 10
3456.9004187083
 20
2299.8915824827
 10
3458.7813510987
 20
2299.5276458779
 10
3460.7460973302
 20
2299.3694284068
 10
3462.7277503264
 20
2299.4223179755
 10
3464.6588272711
 20
2299.6845134934
 10
3466.4735676552
 20
2300.1470862064
 10
3468.1101726714
 20
2300.7942837556
 10
3469.5129096987
 20
2301.6040666048
 10
3470.6340102101
 20
2302.5488585701
 10
3471.4352964722
 20
2303.5964858945
 10
3471.8894816425
 20
2304.7112728858
 10
3471.9810989898
 20
2305.8552568101
 10
3471.707028595
 20
2306.9894806669
 10
3471.0766035969
 20
2308.0753198232
 10
3470.1112923626
 20
2309.0757973287
 10
3468.8439674084
 20
2309.956843122
 10
3467.3177859657
 20
2310.6884542453
 10
3465.584720313
 20
2311.2457165592
 10
3463.7037879226
 20
2311.609653164
 10
3461.7390416911
 20
2311.7678706351
 10
3459.7573886949
 20
2311.7149810664
 10
3457.8263117501
 20
2311.4527855485
 10
3456.011571366
 20
2310.9902128355
 10
3454.3749663499
 20
2310.3430152863
 10
3452.9722293226
 20
2309.5332324371
 10
3451.8511288112
 20
2308.5884404718
 10
3451.049842549
 20
2307.5408131474
 10
3450.5956573787
 20
2306.4260261561
 10
3450.5040400315
 20
2305.2820422318
 10
3450.7781104263
 20
2304.147818375
 10
3451.4085354244
 20
2303.0619792187
 10
3452.3738466587
 20
2302.0615017132
 10
3453.6411716129
 20
2301.1804559199
  0
LINE
  5
F6
330
1F
100
AcDbEntity
  8
0
  6
Continuous
 62
     7
370
    25
100
AcDbLine
 10
3417.8251826131
 20
2104.9745910313
 30
0.0
 11
3417.8251826131
 21
2117.2227032096
 31
0.0
  0
ARC
  5
F7
330
1F
100
AcDbEntity
  8
0
  6
Continuous
 62
     7
370
    25
100
AcDbCircle
 10
3388.2327214962
 20
2285.0334685033
 30
0.0
 40
182.4744176903597
100
AcDbArc
 50
263.6784592848
 51
279.3330593695
  0
LINE
  5
F8
330
1F
100
AcDbEntity
  8
0
  6
Continuous
 62
     7
370
    25
100
AcDbLine
 10
3368.1408302633
 20
2115.9166749856
 30
0.0
 11
3368.1408302633
 21
2103.6685628073
 31
0.0
  0
LINE
  5
F9
330
1F
100
AcDbEntity
  8
0
  6
Continuous
 62
     7
370
    25
100
AcDbLine
 10
3132.7201177678
 20
2251.8221594797
 30
0.0
 11
3132.7201177678
 21
2239.5740473014
 31
0.0
  0
LWPOLYLINE
  5
FA
330
1F
100
AcDbEntity
  8
0
  6
Continuous
 62
     7
370
    25
100
AcDbPolyline
 90
       17
 70
   128
 43
0.0
 10
3132.7201177678
 20
2239.5740473014
 10
3145.3881805731
 20
2229.9932297891
 10
3158.3494904559
 20
2220.5440308358
 10
3171.5999449197
 20
2211.2294412892
 10
3185.1353499487
 20
2202.0524093906
 10
3198.9514213346
 20
2193.0158398419
 10
3213.0437860331
 20
2184.1225928857
 10
3227.407983548
 20
2175.3754834007
 10
3242.0394673428
 20
2166.7772800101
 10
3256.93360628
 20
2158.3307042058
 10
3272.0856860868
 20
2150.0384294865
 10
3287.4909108473
 20
2141.9030805118
 10
3303.1444045206
 20
2133.9272322714
 10
3319.0412124838
 20
2126.1134092701
 10
3335.1763031009
 20
2118.4640847286
 10
3351.5445693146
 20
2110.9816798008
 10
3368.1408302633
 20
2103.6685628073
  0
LINE
  5
FB
330
1F
100
AcDbEntity
  8
0
  6
Continuous
 62
     7
370
    25
100
AcDbLine
 10
3416.9069743302
 20
2094.1557879626
 30
0.0
 11
3416.9069743302
 21
2104.8243123168
 31
0.0
  0
ARC
  5
FC
330
1F
100
AcDbEntity
  8
0
  6
Continuous
 62
     7
370
    25
100
AcDbCircle
 10
3393.2756882038
 20
2269.4169072454
 30
0.0
 40
176.8471023688217
100
AcDbArc
 50
262.7803708413
 51
277.6791479189
  0
LINE
  5
FD
330
1F
100
AcDbEntity
  8
0
  6
Continuous
 62
     7
370
    25
100
AcDbLine
 10
3371.0507614046
 20
2093.9719009185
 30
0.0
 11
3371.0507614046
 21
2103.3700335142
 31
0.0
  0
ARC
  5
FE
330
1F
100
AcDbEntity
  8
0
  6
Continuous
 62
     7
370
    25
100
AcDbCircle
 10
3430.4032596245
 20
1654.4118009947
 30
0.0
 40
4.610414422714755
100
AcDbArc
 50
302.60547834
 51
357.3945215144
  0
LINE
  5
FF
330
1F
100
AcDbEntity
  8
0
  6
Continuous
 62
     7
370
    25
100
AcDbLine
 10
3435.0089079286
 20
1654.2022184379
 30
0.0
 11
3435.0089079286
 21
2112.4449220682
 31
0.0
  0
ARC
  5
100
330
1F
100
AcDbEntity
  8
0
  6
Continuous
 62
     7
370
    25
100
AcDbCircle
 10
3433.7156848263
 20
2112.6547036589
 30
0.0
 40
1.310127592285283
100
AcDbArc
 50
350.7859630095
 51
129.2032852357
  0
LINE
  5
101
330
1F
100
AcDbEntity
  8
0
  6
Continuous
 62
     7
370
    25
100
AcDbLine
 10
3509.1166775502
 20
1682.2859885965
 30
0.0
 11
3509.1166775502
 21
2169.9241614547
 31
0.0
  0
LINE
  5
102
330
1F
100
AcDbEntity
  8
0
  6
Continuous
 62
     7
370
    25
100
AcDbLine
 10
3509.1166775502
 20
1682.2859885965
 30
0.0
 11
3417.8251826131
 21
1629.5845303514
 31
0.0
  0
LINE
  5
103
330
1F
100
AcDbEntity
  8
0
  6
Continuous
 62
     7
370
    25
100
AcDbLine
 10
3417.8251826131
 20
1629.5845303514
 30
0.0
 11
3417.8251826131
 21
1641.8326425297
 31
0.0
  0
LINE
  5
104
330
1F
100
AcDbEntity
  8
0
  6
Continuous
 62
     7
370
    25
100
AcDbLine
 10
3417.8251826131
 20
1641.8326425297
 30
0.0
 11
3432.887587585
 21
1650.5279838345
 31
0.0
  0
LWPOLYLINE
  5
105
330
1F
100
AcDbEntity
  8
0
  6
Continuous
 62
     7
370
    25
100
AcDbPolyline
 90
       35
 70
   128
 43
0.0
 10
3446.1458397323
 20
1678.9219465047
 10
3446.2752679766
 20
1680.6095828797
 10
3446.6591451857
 20
1682.389183492
 10
3447.2843988819
 20
1684.2001461773
 10
3448.1297368003
 20
1685.9808007732
 10
3449.166371972
 20
1687.6705092233
 10
3450.3590030295
 20
1689.2117305327
 10
3451.6670163526
 20
1690.5519802583
 10
3453.0458691164
 20
1691.6456178031
 10
3454.4486061437
 20
1692.4554006522
 10
3455.8274589075
 20
1692.953752622
 10
3457.1354722306
 20
1693.1237029338
 10
3458.3281032881
 20
1692.9594641335
 10
3459.3647384598
 20
1692.4666291766
 10
3460.2100763782
 20
1691.6619809663
 10
3460.8353300744
 20
1690.5729208325
 10
3461.2192072835
 20
1689.2365354118
 10
3461.3486355278
 20
1687.6983337068
 10
3461.2192072835
 20
1686.0106973318
 10
3460.8353300744
 20
1684.2310967195
 10
3460.2100763782
 20
1682.4201340342
 10
3459.3647384598
 20
1680.6394794383
 10
3458.3281032881
 20
1678.9497709883
 10
3457.1354722306
 20
1677.4085496789
 10
3455.8274589075
 20
1676.0682999533
 10
3454.4486061437
 20
1674.9746624084
 10
3453.0458691164
 20
1674.1648795593
 10
3451.6670163526
 20
1673.6665275895
 10
3450.3590030295
 20
1673.4965772778
 10
3449.166371972
 20
1673.660816078
 10
3448.1297368003
 20
1674.153651035
 10
3447.2843988819
 20
1674.9582992452
 10
3446.6591451857
 20
1676.047359379
 10
3446.2752679766
 20
1677.3837447998
 10
3446.1458397323
 20
1678.9219465047
  0
LWPOLYLINE
  5
106
330
1F
100
AcDbEntity
  8
0
  6
Continuous
 62
     7
370
    25
100
AcDbPolyline
 90
       35
 70
   128
 43
0.0
 10
3446.1458397323
 20
2100.5836217625
 10
3446.2752679766
 20
2102.2712581375
 10
3446.6591451857
 20
2104.0508587498
 10
3447.2843988819
 20
2105.8618214351
 10
3448.1297368003
 20
2107.642476031
 10
3449.166371972
 20
2109.3321844811
 10
3450.3590030295
 20
2110.8734057905
 10
3451.6670163526
 20
2112.2136555161
 10
3453.0458691164
 20
2113.3072930609
 10
3454.4486061437
 20
2114.11707591
 10
3455.8274589075
 20
2114.6154278798
 10
3457.1354722306
 20
2114.7853781916
 10
3458.3281032881
 20
2114.6211393913
 10
3459.3647384598
 20
2114.1283044344
 10
3460.2100763782
 20
2113.3236562241
 10
3460.8353300744
 20
2112.2345960903
 10
3461.2192072835
 20
2110.8982106696
 10
3461.3486355278
 20
2109.3600089646
 10
3461.2192072835
 20
2107.6723725896
 10
3460.8353300744
 20
2105.8927719773
 10
3460.2100763782
 20
2104.081809292
 10
3459.3647384598
 20
2102.3011546961
 10
3458.3281032881
 20
2100.6114462461
 10
3457.1354722306
 20
2099.0702249367
 10
3455.8274589075
 20
2097.7299752111
 10
3454.4486061437
 20
2096.6363376662
 10
3453.0458691164
 20
2095.8265548171
 10
3451.6670163526
 20
2095.3282028473
 10
3450.3590030295
 20
2095.1582525356
 10
3449.166371972
 20
2095.3224913358
 10
3448.1297368003
 20
2095.8153262928
 10
3447.2843988819
 20
2096.619974503
 10
3446.6591451857
 20
2097.7090346368
 10
3446.2752679766
 20
2099.0454200576
 10
3446.1458397323
 20
2100.5836217625
  0
LINE
  5
107
330
1F
100
AcDbEntity
  8
0
  6
Continuous
 62
     7
370
    25
100
AcDbLine
 10
3417.8251826131
 20
2104.9745910313
 30
0.0
 11
3432.887587585
 21
2113.6699323361
 31
0.0
  0
LINE
  5
108
330
1F
100
AcDbEntity
  8
0
  6
Continuous
 62
     7
370
    25
100
AcDbLine
 10
3137.1398381881
 20
2229.005802614
 30
0.0
 11
3137.1398381881
 21
2236.1911429788
 31
0.0
  0
LWPOLYLINE
  5
109
330
1F
100
AcDbEntity
  8
0
  6
Continuous
 62
     7
370
    25
100
AcDbPolyline
 90
       17
 70
   128
 43
0.0
 10
3137.1398381881
 20
2229.005802614
 10
3149.7518710648
 20
2219.4987598101
 10
3162.6514407512
 20
2210.1211685529
 10
3175.8345610751
 20
2200.8759266669
 10
3189.2971582429
 20
2191.7658910789
 10
3203.0350720981
 20
2182.7938769348
 10
3217.0440574069
 20
2173.9626567294
 10
3231.3197851702
 20
2165.2749594502
 10
3245.8578439612
 20
2156.7334697338
 10
3260.6537412887
 20
2148.3408270361
 10
3275.7029049853
 20
2140.0996248173
 10
3291.0006846201
 20
2132.0124097398
 10
3306.5423529361
 20
2124.0816808815
 10
3322.3231073108
 20
2116.3098889638
 10
3338.3380712403
 20
2108.6994355938
 10
3354.5822958461
 20
2101.2526725227
 10
3371.0507614046
 20
2093.9719009185
  0
ARC
  5
10A
330
1F
100
AcDbEntity
  8
0
  6
Continuous
 62
     7
370
    25
100
AcDbCircle
 10
3428.7062033497
 20
1655.3914907288
 30
0.0
 40
4.610414422712537
100
AcDbArc
 50
302.60547834
 51
357.3945215144
  0
LINE
  5
10B
330
1F
100
AcDbEntity
  8
0
  6
Continuous
 62
     7
370
    25
100
AcDbLine
 10
3431.1905313102
 20
1651.5076735687
 30
0.0
 11
3416.9069743302
 21
1643.2619516393
 31
0.0
  0
LINE
  5
10C
330
1F
100
AcDbEntity
  8
0
  6
Continuous
 62
     7
370
    25
100
AcDbLine
 10
3416.9069743302
 20
1643.2619516393
 30
0.0
 11
3416.9069743302
 21
1655.5100638175
 31
0.0
  0
LINE
  5
10D
330
1F
100
AcDbEntity
  8
0
  6
Continuous
 62
     7
370
    25
100
AcDbLine
 10
3416.9069743302
 20
1655.5100638175
 30
0.0
 11
3416.9069743302
 21
2094.1557879626
 31
0.0
  0
LINE
  5
10E
330
1F
100
AcDbEntity
  8
0
  6
Continuous
 62
     7
370
    25
100
AcDbLine
 10
3433.3118516538
 20
2113.4246118023
 30
0.0
 11
3433.2759379033
 21
2113.8527232473
 31
0.0
  0
LINE
  5
10F
330
1F
100
AcDbEntity
  8
0
  6
Continuous
 62
     7
370
    25
100
AcDbLine
 10
3433.3118516538
 20
1655.1819081721
 30
0.0
 11
3433.3118516538
 21
2113.4246118023
 31
0.0
  0
ARC
  5
110
330
1F
100
AcDbEntity
  8
0
  6
Continuous
 62
     7
370
    25
100
AcDbCircle
 10
3444.9323429918
 20
1817.9146363618
 30
0.0
 40
164.8049346102723
100
AcDbArc
 50
259.9945805045
 51
260.2091716804
  0
LINE
  5
111
330
1F
100
AcDbEntity
  8
0
  6
Continuous
 62
     7
370
    25
100
AcDbLine
 10
3416.2989148039
 20
2094.0742688792
 30
0.0
 11
3416.2989148039
 21
1655.6161666768
 31
0.0
  0
LINE
  5
112
330
1F
100
AcDbEntity
  8
0
  6
Continuous
 62
     7
370
    25
100
AcDbLine
 10
3137.6421698629
 20
1816.481281421
 30
0.0
 11
3137.6421698629
 21
2228.6204503104
 31
0.0
  0
LINE
  5
113
330
1F
100
AcDbEntity
  8
0
  6
Continuous
 62
     7
370
    25
100
AcDbLine
 10
3137.6421698629
 20
1816.481281421
 30
0.0
 11
3416.2989148039
 21
1655.6161666768
 31
0.0
  0
LWPOLYLINE
  5
114
330
1F
100
AcDbEntity
  8
0
  6
Continuous
 62
     7
370
    25
100
AcDbPolyline
 90
       41
 70
   128
 43
0.0
 10
3314.1643590238
 20
2108.9664028487
 10
3314.2892376886
 20
2105.7751994505
 10
3314.6628082622
 20
2102.4670404372
 10
3315.2818835722
 20
2099.070149855
 10
3316.1411818864
 20
2095.6135087766
 10
3317.2333719745
 20
2092.126608045
 10
3318.5491356557
 20
2088.6391966678
 10
3320.0772472983
 20
2085.1810280092
 10
3321.8046695926
 20
2081.7816059448
 10
3323.7166647805
 20
2078.4699331452
 10
3325.7969203933
 20
2075.274263635
 10
3328.0276884236
 20
2072.2218617397
 10
3330.3899367452
 20
2069.338769476
 10
3332.8635114881
 20
2066.6495843706
 10
3335.4273089849
 20
2064.1772496026
 10
3338.0594558193
 20
2061.9428582605
 10
3340.7374954426
 20
2059.9654733834
 10
3343.4385797649
 20
2058.2619653219
 10
3346.1396640873
 20
2056.8468678062
 10
3348.8177037106
 20
2055.7322539493
 10
3351.449850545
 20
2054.9276332435
 10
3354.0136480418
 20
2054.4398704292
 10
3356.4872227847
 20
2054.2731269266
 10
3358.8494711062
 20
2054.4288253325
 10
3361.0802391366
 20
2054.905637283
 10
3363.1604947494
 20
2055.6994947866
 10
3365.0724899373
 20
2056.8036249311
 10
3366.7999122316
 20
2058.2086076673
 10
3368.3280238742
 20
2059.902456178
 10
3369.6437875554
 20
2061.8707191449
 10
3370.7359776435
 20
2064.0966040422
 10
3371.5952759577
 20
2066.561120405
 10
3372.2143512677
 20
2069.2432418486
 10
3372.5879218413
 20
2072.1200854584
 10
3372.7128005061
 20
2075.1671070193
 10
3372.5879218413
 20
2078.3583104175
 10
3372.2143512677
 20
2081.6664694308
 10
3371.5952759577
 20
2085.063360013
 10
3370.7359776435
 20
2088.5200010914
 10
3369.6437875554
 20
2092.006901823
 10
3368.4941031209
 20
2095.0849034636
  0
ARC
  5
115
330
1F
100
AcDbEntity
  8
0
  6
Continuous
 62
     7
370
    25
100
AcDbCircle
 10
3343.4696102407
 20
2109.4820564738
 30
0.0
 40
29.30978757251991
100
AcDbArc
 50
160.1416074893
 51
181.0080694263
  0
LWPOLYLINE
  5
116
330
1F
100
AcDbEntity
  8
0
  6
Continuous
 62
     7
370
    25
100
AcDbPolyline
 90
      135
 70
   128
 43
0.0
 10
3390.8147341044
 20
1889.6507331196
 10
3390.689606984
 20
1895.8849390243
 10
3390.3145006791
 20
1902.2499094896
 10
3389.6902397549
 20
1908.7316529291
 10
3388.8181964724
 20
1915.3159210639
 10
3387.7002877719
 20
1921.9882402438
 10
3386.3389710595
 20
1928.733943263
 10
3384.7372388046
 20
1935.5382016024
 10
3382.8986119625
 20
1942.3860580253
 10
3380.8271322339
 20
1949.2624594573
 10
3378.5273531808
 20
1956.1522900754
 10
3376.0043302168
 20
1963.0404045369
 10
3373.2636094938
 20
1969.9116612711
 10
3370.3112157109
 20
1976.7509557646
 10
3367.1536388702
 20
1983.5432537636
 10
3363.7978200111
 20
1990.2736243231
 10
3360.2511359517
 20
1996.9272726279
 10
3356.5213830732
 20
2003.489572515
 10
3352.616760182
 20
2009.946098625
 10
3348.5458504865
 20
2016.2826581123
 10
3344.3176027298
 20
2022.4853218439
 10
3339.9413115182
 20
2028.5404550188
 10
3335.4265968894
 20
2034.4347471402
 10
3330.7833831661
 20
2040.1552412746
 10
3326.0218771397
 20
2045.6893625345
 10
3321.1525456338
 20
2051.0249457204
 10
3316.1860924959
 20
2056.1502620623
 10
3311.1334350679
 20
2061.0540450027
 10
3306.0056801874
 20
2065.7255149623
 10
3300.8140997723
 20
2070.1544030364
 10
3295.5701060433
 20
2074.3309735677
 10
3290.2852264366
 20
2078.2460455479
 10
3284.9710782646
 20
2081.891012799
 10
3279.6393431783
 20
2085.2578628919
 10
3274.3017414885
 20
2088.3391947594
 10
3268.9700064022
 20
2091.1282349654
 10
3263.6558582302
 20
2093.6188525941
 10
3258.3709786235
 20
2095.8055727275
 10
3253.1269848945
 20
2097.6835884802
 10
3247.9354044795
 20
2099.2487715659
 10
3242.8076495989
 20
2100.4976813726
 10
3237.7549921709
 20
2101.4275725253
 10
3232.788539033
 20
2102.0364009217
 10
3227.9192075272
 20
2102.3228282246
 10
3223.1577015008
 20
2102.2862248048
 10
3218.5144877774
 20
2101.9266711245
 10
3213.9997731486
 20
2101.2449575607
 10
3209.623481937
 20
2100.2425826678
 10
3205.3952341803
 20
2098.9217498833
 10
3201.3243244849
 20
2097.2853626844
 10
3197.4197015936
 20
2095.3370182053
 10
3193.6899487151
 20
2093.08099933
 10
3190.1432646557
 20
2090.5222652775
 10
3186.7874457966
 20
2087.6664407007
 10
3183.629868956
 20
2084.5198033218
 10
3180.677475173
 20
2081.0892701326
 10
3177.9367544501
 20
2077.3823821896
 10
3175.413731486
 20
2073.407288037
 10
3173.113952433
 20
2069.1727257945
 10
3171.0424727043
 20
2064.6880039489
 10
3169.2038458622
 20
2059.9629808922
 10
3167.6021136073
 20
2055.0080432504
 10
3166.2407968949
 20
2049.8340830518
 10
3165.1228881944
 20
2044.452473784
 10
3164.2508449119
 20
2038.875045392
 10
3163.6265839877
 20
2033.1140582739
 10
3163.2514776829
 20
2027.1821763296
 10
3163.1263505624
 20
2021.0924391231
 10
3163.2514776829
 20
2014.8582332184
 10
3163.6265839877
 20
2008.4932627531
 10
3164.2508449119
 20
2002.0115193136
 10
3165.1228881944
 20
1995.4272511788
 10
3166.2407968949
 20
1988.7549319989
 10
3167.6021136073
 20
1982.0092289797
 10
3169.2038458622
 20
1975.2049706404
 10
3171.0424727043
 20
1968.3571142174
 10
3173.113952433
 20
1961.4807127855
 10
3175.413731486
 20
1954.5908821673
 10
3177.9367544501
 20
1947.7027677058
 10
3180.677475173
 20
1940.8315109716
 10
3183.629868956
 20
1933.9922164781
 10
3186.7874457966
 20
1927.1999184791
 10
3190.1432646557
 20
1920.4695479196
 10
3193.6899487151
 20
1913.8158996148
 10
3197.4197015936
 20
1907.2535997277
 10
3201.3243244849
 20
1900.7970736177
 10
3205.3952341803
 20
1894.4605141304
 10
3209.623481937
 20
1888.2578503988
 10
3213.9997731487
 20
1882.2027172239
 10
3218.5144877774
 20
1876.3084251026
 10
3223.1577015008
 20
1870.5879309681
 10
3227.9192075272
 20
1865.0538097082
 10
3232.788539033
 20
1859.7182265223
 10
3237.7549921709
 20
1854.5929101804
 10
3242.8076495989
 20
1849.6891272401
 10
3247.9354044795
 20
1845.0176572804
 10
3253.1269848945
 20
1840.5887692063
 10
3258.3709786235
 20
1836.412198675
 10
3263.6558582302
 20
1832.4971266948
 10
3268.9700064022
 20
1828.8521594438
 10
3274.3017414885
 20
1825.4853093509
 10
3279.6393431783
 20
1822.4039774833
 10
3284.9710782646
 20
1819.6149372774
 10
3290.2852264366
 20
1817.1243196486
 10
3295.5701060433
 20
1814.9375995152
 10
3300.8140997723
 20
1813.0595837625
 10
3306.0056801874
 20
1811.4944006768
 10
3311.1334350679
 20
1810.2454908702
 10
3316.1860924959
 20
1809.3155997174
 10
3321.1525456338
 20
1808.7067713211
 10
3326.0218771397
 20
1808.4203440181
 10
3330.7833831661
 20
1808.4569474379
 10
3335.4265968894
 20
1808.8165011182
 10
3339.9413115182
 20
1809.498214682
 10
3344.3176027298
 20
1810.5005895749
 10
3348.5458504865
 20
1811.8214223594
 10
3352.616760182
 20
1813.4578095583
 10
3356.5213830732
 20
1815.4061540374
 10
3360.2511359517
 20
1817.6621729128
 10
3363.7978200111
 20
1820.2209069652
 10
3367.1536388702
 20
1823.076731542
 10
3370.3112157109
 20
1826.223368921
 10
3373.2636094938
 20
1829.6539021102
 10
3376.0043302168
 20
1833.3607900531
 10
3378.5273531808
 20
1837.3358842057
 10
3380.8271322339
 20
1841.5704464482
 10
3382.8986119625
 20
1846.0551682938
 10
3384.7372388046
 20
1850.7801913506
 10
3386.3389710595
 20
1855.7351289924
 10
3387.7002877719
 20
1860.9090891909
 10
3388.8181964724
 20
1866.2906984587
 10
3389.6902397549
 20
1871.8681268508
 10
3390.3145006791
 20
1877.6291139689
 10
3390.689606984
 20
1883.5609959131
 10
3390.8147341044
 20
1889.6507331196
  0
LWPOLYLINE
  5
117
330
1F
100
AcDbEntity
  8
0
  6
Continuous
 62
     7
370
    25
100
AcDbPolyline
 90
       69
 70
   128
 43
0.0
 10
3180.5211773796
 20
1835.820961117
 10
3180.6460560443
 20
1832.6297577188
 10
3181.019626618
 20
1829.3215987055
 10
3181.638701928
 20
1825.9247081232
 10
3182.4980002421
 20
1822.4680670449
 10
3183.5901903302
 20
1818.9811663133
 10
3184.9059540115
 20
1815.4937549361
 10
3186.4340656541
 20
1812.0355862774
 10
3188.1614879483
 20
1808.6361642131
 10
3190.0734831362
 20
1805.3244914135
 10
3192.1537387491
 20
1802.1288219033
 10
3194.3845067794
 20
1799.076420008
 10
3196.7467551009
 20
1796.1933277443
 10
3199.2203298438
 20
1793.5041426388
 10
3201.7841273406
 20
1791.0318078708
 10
3204.4162741751
 20
1788.7974165287
 10
3207.0943137983
 20
1786.8200316517
 10
3209.7953981207
 20
1785.1165235902
 10
3212.496482443
 20
1783.7014260745
 10
3215.1745220663
 20
1782.5868122175
 10
3217.8066689007
 20
1781.7821915118
 10
3220.3704663975
 20
1781.2944286975
 10
3222.8440411405
 20
1781.1276851948
 10
3225.206289462
 20
1781.2833836007
 10
3227.4370574923
 20
1781.7601955512
 10
3229.5173131051
 20
1782.5540530549
 10
3231.4293082931
 20
1783.6581831993
 10
3233.1567305873
 20
1785.0631659356
 10
3234.6848422299
 20
1786.7570144463
 10
3236.0006059112
 20
1788.7252774131
 10
3237.0927959992
 20
1790.9511623105
 10
3237.9520943134
 20
1793.4156786733
 10
3238.5711696234
 20
1796.0978001168
 10
3238.944740197
 20
1798.9746437267
 10
3239.0696188618
 20
1802.0216652875
 10
3238.944740197
 20
1805.2128686857
 10
3238.5711696234
 20
1808.5210276991
 10
3237.9520943134
 20
1811.9179182813
 10
3237.0927959992
 20
1815.3745593596
 10
3236.0006059112
 20
1818.8614600912
 10
3234.6848422299
 20
1822.3488714685
 10
3233.1567305873
 20
1825.8070401271
 10
3231.4293082931
 20
1829.2064621914
 10
3229.5173131051
 20
1832.518134991
 10
3227.4370574923
 20
1835.7138045012
 10
3225.206289462
 20
1838.7662063966
 10
3222.8440411405
 20
1841.6492986603
 10
3220.3704663975
 20
1844.3384837657
 10
3217.8066689007
 20
1846.8108185337
 10
3215.1745220663
 20
1849.0452098758
 10
3212.496482443
 20
1851.0225947529
 10
3209.7953981207
 20
1852.7261028143
 10
3207.0943137983
 20
1854.1412003301
 10
3204.4162741751
 20
1855.255814187
 10
3201.7841273406
 20
1856.0604348927
 10
3199.2203298438
 20
1856.5481977071
 10
3196.7467551009
 20
1856.7149412097
 10
3194.3845067794
 20
1856.5592428038
 10
3192.1537387491
 20
1856.0824308533
 10
3190.0734831362
 20
1855.2885733497
 10
3188.1614879483
 20
1854.1844432052
 10
3186.4340656541
 20
1852.7794604689
 10
3184.9059540115
 20
1851.0856119583
 10
3183.5901903302
 20
1849.1173489914
 10
3182.4980002421
 20
1846.891464094
 10
3181.638701928
 20
1844.4269477312
 10
3181.019626618
 20
1841.7448262877
 10
3180.6460560443
 20
1838.8679826778
 10
3180.5211773796
 20
1835.820961117
  0
LINE
  5
118
330
1F
100
AcDbEntity
  8
0
  6
Continuous
 62
     7
370
    25
100
AcDbLine
 10
3435.0089079286
 20
2112.4449220682
 30
0.0
 11
3433.3118516538
 21
2113.4246118023
 31
0.0
  0
LINE
  5
119
330
1F
100
AcDbEntity
  8
0
  6
Continuous
 62
     7
370
    25
100
AcDbLine
 10
3433.3118516538
 20
1655.1819081721
 30
0.0
 11
3435.0089079286
 21
1654.2022184379
 31
0.0
  0
LWPOLYLINE
  5
11A
330
1F
100
AcDbEntity
  8
0
  6
Continuous
 62
     7
370
    25
100
AcDbPolyline
 90
       12
 70
   128
 43
0.0
 10
3453.9240143253
 20
2109.3600089646
 10
3453.7914968892
 20
2108.1211585544
 10
3453.4029754251
 20
2106.8137323773
 10
3452.7849270288
 20
2105.5268293667
 10
3451.9794706771
 20
2104.3481498361
 10
3451.0414968892
 20
2103.3580188476
 10
3450.0349270288
 20
2102.6239121917
 10
3449.0283571684
 20
2102.195858024
 10
3448.0903833806
 20
2102.1030275286
 10
3447.2849270288
 20
2102.3517469503
 10
3446.6668786325
 20
2102.9250664715
 10
3446.4631057949
 20
2103.2762735442
  0
ARC
  5
11B
330
1F
100
AcDbEntity
  8
0
  6
Continuous
 62
     7
370
    25
100
AcDbCircle
 10
3451.5990899883
 20
2109.7674199674
 30
0.0
 40
2.360351011607106
100
AcDbArc
 50
350.0606215851
 51
90.6361804376
  0
LWPOLYLINE
  5
11C
330
1F
100
AcDbEntity
  8
0
  6
Continuous
 62
     7
370
    25
100
AcDbPolyline
 90
       17
 70
   128
 43
0.0
 10
3430.2912326244
 20
2148.9919694435
 10
3430.4927157147
 20
2149.342896961
 10
3430.6801236701
 20
2150.1646687602
 10
3430.4927157147
 20
2150.9864405593
 10
3429.9432633909
 20
2151.7522099684
 10
3429.0692109666
 20
2152.4097910677
 10
3427.9301236701
 20
2152.9143707919
 10
3426.6036284182
 20
2153.2315628668
 10
3425.1801236701
 20
2153.3397511766
 10
3423.756618922
 20
2153.2315628668
 10
3422.4301236701
 20
2152.9143707919
 10
3421.2910363736
 20
2152.4097910677
 10
3420.4169839493
 20
2151.7522099684
 10
3419.8675316255
 20
2150.9864405593
 10
3419.6801236701
 20
2150.1646687602
 10
3419.8675316255
 20
2149.342896961
 10
3420.0690147158
 20
2148.9919694435
  0
LWPOLYLINE
  5
11D
330
1F
100
AcDbEntity
  8
0
  6
Continuous
 62
     7
370
    25
100
AcDbPolyline
 90
       24
 70
   128
 43
0.0
 10
3325.3883615249
 20
2114.8320596141
 10
3325.5084995283
 20
2112.2519414493
 10
3325.8820701019
 20
2108.9437824359
 10
3326.5011454119
 20
2105.5468918537
 10
3327.3604437261
 20
2102.0902507754
 10
3328.4526338142
 20
2098.6033500438
 10
3329.7683974954
 20
2095.1159386665
 10
3331.296509138
 20
2091.6577700079
 10
3333.0239314323
 20
2088.2583479436
 10
3334.9359266202
 20
2084.946675144
 10
3337.016182233
 20
2081.7510056338
 10
3339.2469502634
 20
2078.6986037384
 10
3341.6091985849
 20
2075.8155114747
 10
3344.0827733278
 20
2073.1263263693
 10
3346.6465708246
 20
2070.6539916013
 10
3349.278717659
 20
2068.4196002592
 10
3351.9567572823
 20
2066.4422153821
 10
3354.6578416046
 20
2064.7387073207
 10
3357.358925927
 20
2063.3236098049
 10
3360.0369655503
 20
2062.208995948
 10
3362.6691123847
 20
2061.4043752423
 10
3365.2329098815
 20
2060.9166124279
 10
3367.7064846244
 20
2060.7498689253
 10
3368.9721316458
 20
2060.7921429893
  0
LINE
  5
11E
330
1F
100
AcDbEntity
  8
0
  6
Continuous
 62
     7
370
    25
100
AcDbLine
 10
3570.0807222805
 20
1788.0824361803
 30
0.0
 11
3570.0807222805
 21
2275.7206090384
 31
0.0
  0
LINE
  5
11F
330
1F
100
AcDbEntity
  8
0
  6
Continuous
 62
     7
370
    25
100
AcDbLine
 10
3570.0807222805
 20
1788.0824361803
 30
0.0
 11
3509.1166775502
 21
1682.2859885965
 31
0.0
  0
LWPOLYLINE
  5
120
330
1F
100
AcDbEntity
  8
0
  6
Continuous
 62
     7
370
    25
100
AcDbPolyline
 90
       22
 70
   128
 43
0.0
 10
3197.7240303362
 20
2095.503338011
 10
3196.1648224493
 20
2094.5097135257
 10
3192.6181383898
 20
2091.9509794732
 10
3189.2623195307
 20
2089.0951548964
 10
3186.1047426901
 20
2085.9485175175
 10
3183.1523489072
 20
2082.5179843283
 10
3180.4116281842
 20
2078.8110963853
 10
3177.8886052202
 20
2074.8360022327
 10
3175.5888261671
 20
2070.6014399902
 10
3173.5173464385
 20
2066.1167181446
 10
3171.6787195963
 20
2061.3916950879
 10
3170.0769873415
 20
2056.4367574461
 10
3168.715670629
 20
2051.2627972475
 10
3167.5977619286
 20
2045.8811879797
 10
3166.7257186461
 20
2040.3037595877
 10
3166.1014577219
 20
2034.5427724695
 10
3165.726351417
 20
2028.6108905253
 10
3165.6012242965
 20
2022.5211533188
 10
3165.726351417
 20
2016.2869474141
 10
3166.1014577219
 20
2009.9219769488
 10
3166.7257186461
 20
2003.4402335093
 10
3167.1417750512
 20
2000.0778502047
  0
LWPOLYLINE
  5
121
330
1F
100
AcDbEntity
  8
0
  6
Continuous
 62
     7
370
    25
100
AcDbPolyline
 90
       22
 70
   128
 43
0.0
 10
3260.7618962266
 20
1837.9054720126
 10
3260.8458523577
 20
1837.8409128707
 10
3266.1307319643
 20
1833.9258408905
 10
3271.4448801363
 20
1830.2808736395
 10
3276.7766152227
 20
1826.9140235466
 10
3282.1142169125
 20
1823.832691679
 10
3287.4459519988
 20
1821.0436514731
 10
3292.7601001708
 20
1818.5530338443
 10
3298.0449797775
 20
1816.3663137109
 10
3303.2889735065
 20
1814.4882979582
 10
3308.4805539215
 20
1812.9231148725
 10
3313.6083088021
 20
1811.6742050659
 10
3318.6609662301
 20
1810.7443139131
 10
3323.627419368
 20
1810.1354855168
 10
3328.4967508738
 20
1809.8490582138
 10
3333.2582569002
 20
1809.8856616336
 10
3337.9014706235
 20
1810.2452153139
 10
3342.4161852523
 20
1810.9269288777
 10
3346.792476464
 20
1811.9293037706
 10
3351.0207242207
 20
1813.2501365551
 10
3355.0916339161
 20
1814.886523754
 10
3358.6919280649
 20
1816.6685484275
  0
ARC
  5
122
330
1F
100
AcDbEntity
  8
0
  6
Continuous
 62
     7
370
    25
100
AcDbCircle
 10
3224.4663422946
 20
1892.2734802539
 30
0.0
 40
165.9954183482358
100
AcDbArc
 50
0.1514527322
 51
6.857720559
  0
LWPOLYLINE
  5
123
330
1F
100
AcDbEntity
  8
0
  6
Continuous
 62
     7
370
    25
100
AcDbPolyline
 90
       21
 70
   128
 43
0.0
 10
3295.6540621852
 20
2074.2664144176
 10
3291.223571407
 20
2077.4742875114
 10
3285.9973642477
 20
2080.9913896222
 10
3280.7565371299
 20
2084.2313728513
 10
3275.5127843884
 20
2087.1870075291
 10
3270.277806886
 20
2089.8516984789
 10
3265.0632859043
 20
2092.2194997333
 10
3259.8808570788
 20
2094.2851278017
 10
3254.7420844346
 20
2096.0439734604
 10
3249.6584345828
 20
2097.4921120368
 10
3244.6412511341
 20
2098.6263121676
 10
3239.7017293866
 20
2099.4440430087
 10
3234.8508913448
 20
2099.9434798829
 10
3230.0995611251
 20
2100.1235083512
 10
3225.4583408031
 20
2099.9837266998
 10
3220.9375867563
 20
2099.5244468361
 10
3216.5473865545
 20
2098.7466935932
 10
3212.2975364511
 20
2097.6522024425
 10
3208.1975195235
 20
2096.2434156219
 10
3204.2564845127
 20
2094.5234766857
 10
3200.9517955556
 20
2092.7699717108
  0
LWPOLYLINE
  5
124
330
1F
100
AcDbEntity
  8
0
  6
Continuous
 62
     7
370
    25
100
AcDbPolyline
 90
       18
 70
   128
 43
0.0
 10
3357.9390365795
 20
1820.8306289233
 10
3360.2286740395
 20
1822.2318594869
 10
3363.7346046549
 20
1824.7113907573
 10
3367.0524531316
 20
1827.4856640346
 10
3370.1748160522
 20
1830.5484888305
 10
3373.0947262041
 20
1833.8930307852
 10
3375.8056681262
 20
1837.5118269177
 10
3378.3015926468
 20
1841.3968022789
 10
3380.5769303825
 20
1845.5392879696
 10
3382.626604165
 20
1849.9300404844
 10
3384.4460403706
 20
1854.5592623377
 10
3386.0311791258
 20
1859.4166239253
 10
3387.3784833661
 20
1864.4912865741
 10
3388.484946729
 20
1869.7719267275
 10
3389.3481002621
 20
1875.2467612125
 10
3389.9660179322
 20
1880.9035735326
 10
3390.3373209235
 20
1886.7297411274
 10
3390.4611807139
 20
1892.712263539
  0
LWPOLYLINE
  5
125
330
1F
100
AcDbEntity
  8
0
  6
Continuous
 62
     7
370
    25
100
AcDbPolyline
 90
      134
 70
   128
 43
0.0
 10
3387.9863069797
 20
1891.2835493433
 10
3387.8624471894
 20
1897.4090772248
 10
3387.4911441981
 20
1903.6639421283
 10
3386.8732265279
 20
1910.0341870045
 10
3386.0100729949
 20
1916.505597346
 10
3384.903609632
 20
1923.063732906
 10
3383.5563053916
 20
1929.6939599196
 10
3381.9711666365
 20
1936.3814837578
 10
3380.1517304308
 20
1943.11138194
 10
3378.1020566483
 20
1949.8686374317
 10
3375.8267189126
 20
1956.6381721537
 10
3373.330794392
 20
1963.404880627
 10
3370.61985247
 20
1970.153663679
 10
3367.699942318
 20
1976.8694621359
 10
3364.5775793974
 20
1983.5372904253
 10
3361.2597309208
 20
1990.1422700149
 10
3357.7538003054
 20
1996.6696626126
 10
3354.0676106534
 20
2003.1049030531
 10
3350.2093872952
 20
2009.4336317988
 10
3346.1877394359
 20
2015.6417269811
 10
3342.0116409444
 20
2021.7153359121
 10
3337.6904103293
 20
2027.6409059954
 10
3333.2336899458
 20
2033.4052149671
 10
3328.6514244798
 20
2038.9954004
 10
3323.9538387574
 20
2044.3989884043
 10
3319.1514149291
 20
2049.6039214625
 10
3314.2548690803
 20
2054.5985853334
 10
3309.2751273196
 20
2059.3718349691
 10
3304.2233013979
 20
2063.9130193832
 10
3299.1106639143
 20
2068.2120054175
 10
3293.9486231622
 20
2072.2592003531
 10
3288.7486976729
 20
2076.0455733157
 10
3283.5224905135
 20
2079.5626754265
 10
3278.2816633958
 20
2082.8026586556
 10
3273.0379106543
 20
2085.7582933334
 10
3267.8029331518
 20
2088.4229842832
 10
3262.5884121702
 20
2090.7907855376
 10
3257.4059833447
 20
2092.8564136061
 10
3252.2672107004
 20
2094.6152592647
 10
3247.1835608487
 20
2096.0633978411
 10
3242.1663774
 20
2097.1975979719
 10
3237.2268556525
 20
2098.015328813
 10
3232.3760176106
 20
2098.5147656872
 10
3227.624687391
 20
2098.6947941555
 10
3222.983467069
 20
2098.5550125041
 10
3218.4627130221
 20
2098.0957326404
 10
3214.0725128203
 20
2097.3179793975
 10
3209.822662717
 20
2096.2234882468
 10
3205.7226457894
 20
2094.8147014262
 10
3201.7816107785
 20
2093.09476249
 10
3198.0083516746
 20
2091.0675092943
 10
3194.411288094
 20
2088.7374654338
 10
3190.9984464922
 20
2086.1098301475
 10
3187.7774422532
 20
2083.1904667171
 10
3184.7554626971
 20
2079.9858893841
 10
3181.9392510419
 20
2076.5032488134
 10
3179.3350913569
 20
2072.7503161379
 10
3176.9487945407
 20
2068.7354656181
 10
3174.7856853547
 20
2064.4676559552
 10
3172.8505905412
 20
2059.9564103015
 10
3171.1478280534
 20
2055.21179501
 10
3169.6811974202
 20
2050.2443971726
 10
3168.4539712682
 20
2045.0653009964
 10
3167.4688880186
 20
2039.68606307
 10
3166.7281457775
 20
2034.1186865766
 10
3166.2333974304
 20
2028.3755945102
 10
3165.9857469543
 20
2022.4696019548
 10
3165.9857469543
 20
2016.4138874893
 10
3166.2333974304
 20
2010.2219637804
 10
3166.7281457775
 20
2003.9076474313
 10
3167.4688880186
 20
1997.4850281507
 10
3168.4539712682
 20
1990.9684373136
 10
3169.6811974202
 20
1984.3724159823
 10
3171.1478280534
 20
1977.7116824596
 10
3172.8505905412
 20
1971.0010994464
 10
3174.7856853547
 20
1964.2556408776
 10
3176.9487945407
 20
1957.4903585087
 10
3179.3350913569
 20
1950.7203483302
 10
3181.9392510419
 20
1943.9607168818
 10
3184.7554626971
 20
1937.2265475447
 10
3187.7774422532
 20
1930.5328668838
 10
3190.9984464922
 20
1923.894611118
 10
3194.411288094
 20
1917.3265927916
 10
3198.0083516746
 20
1910.8434677218
 10
3201.7816107785
 20
1904.4597022957
 10
3205.7226457894
 20
1898.1895411901
 10
3209.822662717
 20
1892.0469755862
 10
3214.0725128203
 20
1886.0457119498
 10
3218.4627130221
 20
1880.1991414467
 10
3222.983467069
 20
1874.5203100618
 10
3227.624687391
 20
1869.0218894885
 10
3232.3760176106
 20
1863.716148853
 10
3237.2268556525
 20
1858.6149273375
 10
3242.1663774
 20
1853.7296077618
 10
3247.1835608487
 20
1849.0710911841
 10
3252.2672107004
 20
1844.6497725766
 10
3257.4059833447
 20
1840.4755176298
 10
3262.5884121702
 20
1836.5576407389
 10
3267.8029331518
 20
1832.904884219
 10
3273.0379106543
 20
1829.5253987984
 10
3278.2816633958
 20
1826.4267254304
 10
3283.5224905135
 20
1823.615778467
 10
3288.7486976729
 20
1821.09883023
 10
3293.9486231622
 20
1818.8814970151
 10
3299.1106639143
 20
1816.9687265598
 10
3304.2233013979
 20
1815.3647870028
 10
3309.2751273196
 20
1814.0732573605
 10
3314.2548690803
 20
1813.0970195405
 10
3319.1514149291
 20
1812.4382519112
 10
3323.9538387574
 20
1812.0984244407
 10
3328.6514244798
 20
1812.078295417
 10
3333.2336899458
 20
1812.3779097558
 10
3337.6904103293
 20
1812.9965989004
 10
3342.0116409444
 20
1813.9329823133
 10
3346.1877394359
 20
1815.1849705571
 10
3350.2093872952
 20
1816.7497699563
 10
3354.0676106534
 20
1818.6238888317
 10
3357.7538003054
 20
1820.8031452912
 10
3361.2597309208
 20
1823.2826765616
 10
3364.5775793974
 20
1826.0569498389
 10
3367.699942318
 20
1829.1197746348
 10
3370.61985247
 20
1832.4643165895
 10
3373.330794392
 20
1836.083112722
 10
3375.8267189126
 20
1839.9680880832
 10
3378.1020566483
 20
1844.1105737739
 10
3380.1517304308
 20
1848.5013262887
 10
3381.9711666365
 20
1853.130548142
 10
3383.5563053916
 20
1857.9879097296
 10
3384.903609632
 20
1863.0625723784
 10
3386.0100729949
 20
1868.3432125318
 10
3386.8732265279
 20
1873.8180470168
 10
3387.4911441981
 20
1879.4748593369
 10
3387.8624471894
 20
1885.3010269317
 10
3387.9863069797
 20
1891.2835493433
  0
LWPOLYLINE
  5
126
330
1F
100
AcDbEntity
  8
0
  6
Continuous
 62
     7
370
    25
100
AcDbPolyline
 90
       22
 70
   128
 43
0.0
 10
3205.5489694582
 20
2082.3435419823
 10
3205.423310377
 20
2083.3788019434
 10
3205.0574984942
 20
2084.4671574009
 10
3204.484037801
 20
2085.511903196
 10
3203.7538827965
 20
2086.4202090801
 10
3202.9319109571
 20
2087.1113680894
 10
3202.091158088
 20
2087.5239677128
 10
3201.306328771
 20
2087.621346663
 10
3200.6471585353
 20
2087.3948523931
 10
3200.1722175489
 20
2086.8646099128
 10
3199.9237064027
 20
2086.0777335935
 10
3199.9237064027
 20
2085.1041408493
 10
3200.1722175489
 20
2084.030339668
 10
3200.6471585353
 20
2082.9517419969
 10
3201.306328771
 20
2081.9641859725
 10
3202.091158088
 20
2081.1554202812
 10
3202.9319109571
 20
2080.597307304
 10
3203.7538827965
 20
2080.3394378282
 10
3204.484037801
 20
2080.4047246884
 10
3205.0574984942
 20
2080.7873668604
 10
3205.423310377
 20
2081.4533649081
 10
3205.5489694582
 20
2082.3435419823
  0
LWPOLYLINE
  5
127
330
1F
100
AcDbEntity
  8
0
  6
Continuous
 62
     7
370
    25
100
AcDbPolyline
 90
       22
 70
   128
 43
0.0
 10
3174.793612452
 20
2014.3570722006
 10
3174.6679533708
 20
2015.3923321617
 10
3174.302141488
 20
2016.4806876191
 10
3173.7286807948
 20
2017.5254334143
 10
3172.9985257903
 20
2018.4337392984
 10
3172.1765539509
 20
2019.1248983077
 10
3171.3358010818
 20
2019.537497931
 10
3170.5509717648
 20
2019.6348768813
 10
3169.8918015291
 20
2019.4083826114
 10
3169.4168605427
 20
2018.8781401311
 10
3169.1683493965
 20
2018.0912638118
 10
3169.1683493965
 20
2017.1176710676
 10
3169.4168605427
 20
2016.0438698863
 10
3169.8918015291
 20
2014.9652722152
 10
3170.5509717648
 20
2013.9777161907
 10
3171.3358010818
 20
2013.1689504995
 10
3172.1765539509
 20
2012.6108375223
 10
3172.9985257903
 20
2012.3529680465
 10
3173.7286807948
 20
2012.4182549066
 10
3174.302141488
 20
2012.8008970786
 10
3174.6679533708
 20
2013.4668951264
 10
3174.793612452
 20
2014.3570722006
  0
LWPOLYLINE
  5
128
330
1F
100
AcDbEntity
  8
0
  6
Continuous
 62
     7
370
    25
100
AcDbPolyline
 90
       22
 70
   128
 43
0.0
 10
3205.5489694582
 20
1910.8612230579
 10
3205.423310377
 20
1911.896483019
 10
3205.0574984942
 20
1912.9848384765
 10
3204.484037801
 20
1914.0295842716
 10
3203.7538827965
 20
1914.9378901557
 10
3202.9319109571
 20
1915.629049165
 10
3202.091158088
 20
1916.0416487884
 10
3201.306328771
 20
1916.1390277386
 10
3200.6471585353
 20
1915.9125334687
 10
3200.1722175489
 20
1915.3822909884
 10
3199.9237064027
 20
1914.5954146691
 10
3199.9237064027
 20
1913.6218219249
 10
3200.1722175489
 20
1912.5480207436
 10
3200.6471585353
 20
1911.4694230725
 10
3201.306328771
 20
1910.4818670481
 10
3202.091158088
 20
1909.6731013568
 10
3202.9319109571
 20
1909.1149883797
 10
3203.7538827965
 20
1908.8571189038
 10
3204.484037801
 20
1908.922405764
 10
3205.0574984942
 20
1909.305047936
 10
3205.423310377
 20
1909.9710459837
 10
3205.5489694582
 20
1910.8612230579
  0
LWPOLYLINE
  5
129
330
1F
100
AcDbEntity
  8
0
  6
Continuous
 62
     7
370
    25
100
AcDbPolyline
 90
       22
 70
   128
 43
0.0
 10
3279.7989694582
 20
1832.4824593327
 10
3279.673310377
 20
1833.5177192939
 10
3279.3074984942
 20
1834.6060747513
 10
3278.734037801
 20
1835.6508205464
 10
3278.0038827965
 20
1836.5591264305
 10
3277.1819109571
 20
1837.2502854398
 10
3276.341158088
 20
1837.6628850632
 10
3275.556328771
 20
1837.7602640134
 10
3274.8971585353
 20
1837.5337697435
 10
3274.4222175489
 20
1837.0035272633
 10
3274.1737064027
 20
1836.216650944
 10
3274.1737064027
 20
1835.2430581997
 10
3274.4222175489
 20
1834.1692570184
 10
3274.8971585353
 20
1833.0906593473
 10
3275.556328771
 20
1832.1031033229
 10
3276.341158088
 20
1831.2943376316
 10
3277.1819109571
 20
1830.7362246545
 10
3278.0038827965
 20
1830.4783551787
 10
3278.734037801
 20
1830.5436420388
 10
3279.3074984942
 20
1830.9262842108
 10
3279.673310377
 20
1831.5922822585
 10
3279.7989694582
 20
1832.4824593327
  0
LWPOLYLINE
  5
12A
330
1F
100
AcDbEntity
  8
0
  6
Continuous
 62
     7
370
    25
100
AcDbPolyline
 90
       22
 70
   128
 43
0.0
 10
3354.0489694582
 20
1825.1339978132
 10
3353.923310377
 20
1826.1692577743
 10
3353.5574984942
 20
1827.2576132318
 10
3352.984037801
 20
1828.3023590269
 10
3352.2538827965
 20
1829.210664911
 10
3351.4319109571
 20
1829.9018239203
 10
3350.591158088
 20
1830.3144235437
 10
3349.806328771
 20
1830.4118024939
 10
3349.1471585353
 20
1830.185308224
 10
3348.6722175489
 20
1829.6550657437
 10
3348.4237064027
 20
1828.8681894244
 10
3348.4237064027
 20
1827.8945966802
 10
3348.6722175489
 20
1826.8207954989
 10
3349.1471585353
 20
1825.7421978278
 10
3349.806328771
 20
1824.7546418034
 10
3350.591158088
 20
1823.9458761121
 10
3351.4319109571
 20
1823.387763135
 10
3352.2538827965
 20
1823.1298936591
 10
3352.984037801
 20
1823.1951805193
 10
3353.5574984942
 20
1823.5778226913
 10
3353.923310377
 20
1824.243820739
 10
3354.0489694582
 20
1825.1339978132
  0
LWPOLYLINE
  5
12B
330
1F
100
AcDbEntity
  8
0
  6
Continuous
 62
     7
370
    25
100
AcDbPolyline
 90
       22
 70
   128
 43
0.0
 10
3384.8043264644
 20
1893.1204675949
 10
3384.6786673832
 20
1894.1557275561
 10
3384.3128555004
 20
1895.2440830135
 10
3383.7393948072
 20
1896.2888288086
 10
3383.0092398027
 20
1897.1971346927
 10
3382.1872679633
 20
1897.888293702
 10
3381.3465150942
 20
1898.3008933254
 10
3380.5616857772
 20
1898.3982722756
 10
3379.9025155415
 20
1898.1717780057
 10
3379.4275745551
 20
1897.6415355255
 10
3379.1790634089
 20
1896.8546592061
 10
3379.1790634089
 20
1895.8810664619
 10
3379.4275745551
 20
1894.8072652806
 10
3379.9025155415
 20
1893.7286676095
 10
3380.5616857772
 20
1892.7411115851
 10
3381.3465150942
 20
1891.9323458938
 10
3382.1872679633
 20
1891.3742329167
 10
3383.0092398027
 20
1891.1163634409
 10
3383.7393948072
 20
1891.181650301
 10
3384.3128555004
 20
1891.564292473
 10
3384.6786673832
 20
1892.2302905207
 10
3384.8043264644
 20
1893.1204675949
  0
LWPOLYLINE
  5
12C
330
1F
100
AcDbEntity
  8
0
  6
Continuous
 62
     7
370
    25
100
AcDbPolyline
 90
       22
 70
   128
 43
0.0
 10
3354.0489694582
 20
1996.6163167376
 10
3353.923310377
 20
1997.6515766987
 10
3353.5574984942
 20
1998.7399321562
 10
3352.984037801
 20
1999.7846779513
 10
3352.2538827965
 20
2000.6929838354
 10
3351.4319109571
 20
2001.3841428447
 10
3350.591158088
 20
2001.796742468
 10
3349.806328771
 20
2001.8941214183
 10
3349.1471585353
 20
2001.6676271484
 10
3348.6722175489
 20
2001.1373846681
 10
3348.4237064027
 20
2000.3505083488
 10
3348.4237064027
 20
1999.3769156046
 10
3348.6722175489
 20
1998.3031144233
 10
3349.1471585353
 20
1997.2245167522
 10
3349.806328771
 20
1996.2369607278
 10
3350.591158088
 20
1995.4281950365
 10
3351.4319109571
 20
1994.8700820593
 10
3352.2538827965
 20
1994.6122125835
 10
3352.984037801
 20
1994.6774994437
 10
3353.5574984942
 20
1995.0601416157
 10
3353.923310377
 20
1995.7261396634
 10
3354.0489694582
 20
1996.6163167376
  0
LWPOLYLINE
  5
12D
330
1F
100
AcDbEntity
  8
0
  6
Continuous
 62
     7
370
    25
100
AcDbPolyline
 90
       22
 70
   128
 43
0.0
 10
3279.7989694582
 20
2074.9950804628
 10
3279.673310377
 20
2076.0303404239
 10
3279.3074984942
 20
2077.1186958813
 10
3278.734037801
 20
2078.1634416765
 10
3278.0038827965
 20
2079.0717475606
 10
3277.1819109571
 20
2079.7629065699
 10
3276.341158088
 20
2080.1755061932
 10
3275.556328771
 20
2080.2728851435
 10
3274.8971585353
 20
2080.0463908736
 10
3274.4222175489
 20
2079.5161483933
 10
3274.1737064027
 20
2078.729272074
 10
3274.1737064027
 20
2077.7556793298
 10
3274.4222175489
 20
2076.6818781485
 10
3274.8971585353
 20
2075.6032804774
 10
3275.556328771
 20
2074.6157244529
 10
3276.341158088
 20
2073.8069587617
 10
3277.1819109571
 20
2073.2488457845
 10
3278.0038827965
 20
2072.9909763087
 10
3278.734037801
 20
2073.0562631688
 10
3279.3074984942
 20
2073.4389053408
 10
3279.673310377
 20
2074.1049033886
 10
3279.7989694582
 20
2074.9950804628
  0
LWPOLYLINE
  5
12E
330
1F
100
AcDbEntity
  8
0
  6
Continuous
 62
     7
370
    25
100
AcDbPolyline
 90
      117
 70
   128
 43
0.0
 10
3362.7072395523
 20
1905.8768443421
 10
3362.5814992997
 20
1911.3094863348
 10
3362.2046473597
 20
1916.871370058
 10
3361.5777891041
 20
1922.5461815484
 10
3360.7027632161
 20
1928.3172756062
 10
3359.5821362973
 20
1934.1677246181
 10
3358.2191953396
 20
1940.0803682091
 10
3356.6179380837
 20
1946.037863577
 10
3354.783061293
 20
1952.0227363612
 10
3352.7199469773
 20
1958.0174318988
 10
3350.4346466063
 20
1964.0043667149
 10
3347.9338633598
 20
1969.965980098
 10
3345.2249324659
 20
1975.8847856091
 10
3342.3157996856
 20
1981.7434223716
 10
3339.2149980067
 20
1987.5247059947
 10
3335.9316226147
 20
1993.2116789772
 10
3332.4753042154
 20
1998.7876604477
 10
3328.8561807861
 20
2004.2362950916
 10
3325.0848678395
 20
2009.5416011249
 10
3321.1724272862
 20
2014.6880171707
 10
3317.1303349885
 20
2019.6604479042
 10
3312.9704470994
 20
2024.4443083293
 10
3308.7049652869
 20
2029.0255665591
 10
3304.3464009442
 20
2033.3907849738
 10
3299.9075384914
 20
2037.5271596358
 10
3295.4013978768
 20
2041.4225578454
 10
3290.8411963873
 20
2045.0655537286
 10
3286.2403098796
 20
2048.4454617507
 10
3281.6122335466
 20
2051.5523680592
 10
3276.9705423334
 20
2054.3771595625
 10
3272.3288511203
 20
2056.9115506605
 10
3267.7007747872
 20
2059.1481075474
 10
3263.0998882795
 20
2061.0802700164
 10
3258.53968679
 20
2062.7023707023
 10
3254.0335461755
 20
2064.0096517041
 10
3249.5946837226
 20
2064.9982785414
 10
3245.2361193799
 20
2065.6653514015
 10
3240.9706375674
 20
2066.0089136446
 10
3236.8107496784
 20
2066.0279575436
 10
3232.7686573806
 20
2065.7224272393
 10
3228.8562168273
 20
2065.0932189048
 10
3225.0849038807
 20
2064.1421781166
 10
3221.4657804514
 20
2062.8720944411
 10
3218.0094620521
 20
2061.2866932526
 10
3214.7260866601
 20
2059.390624806
 10
3211.6252849812
 20
2057.1894505966
 10
3208.716152201
 20
2054.6896270478
 10
3206.007221307
 20
2051.8984865726
 10
3203.5064380605
 20
2048.8242160671
 10
3201.2211376895
 20
2045.4758328962
 10
3199.1580233738
 20
2041.8631584448
 10
3197.3231465831
 20
2037.9967893095
 10
3195.7218893272
 20
2033.8880662171
 10
3194.3589483695
 20
2029.5490407603
 10
3193.2383214508
 20
2024.9924400485
 10
3192.3632955627
 20
2020.2316293766
 10
3191.7364373071
 20
2015.2805730226
 10
3191.3595853671
 20
2010.1537932879
 10
3191.2338451145
 20
2004.8663279006
 10
3191.3595853671
 20
1999.4336859079
 10
3191.7364373071
 20
1993.8718021847
 10
3192.3632955627
 20
1988.1969906943
 10
3193.2383214508
 20
1982.4258966366
 10
3194.3589483695
 20
1976.5754476247
 10
3195.7218893272
 20
1970.6628040336
 10
3197.3231465831
 20
1964.7053086658
 10
3199.1580233738
 20
1958.7204358815
 10
3201.2211376895
 20
1952.7257403439
 10
3203.5064380605
 20
1946.7388055279
 10
3206.007221307
 20
1940.7771921447
 10
3208.716152201
 20
1934.8583866337
 10
3211.6252849812
 20
1928.9997498711
 10
3214.7260866601
 20
1923.2184662481
 10
3218.0094620521
 20
1917.5314932655
 10
3221.4657804514
 20
1911.9555117951
 10
3225.0849038807
 20
1906.5068771511
 10
3228.8562168273
 20
1901.2015711179
 10
3232.7686573806
 20
1896.055155072
 10
3236.8107496784
 20
1891.0827243385
 10
3240.9706375674
 20
1886.2988639134
 10
3245.2361193799
 20
1881.7176056836
 10
3249.5946837226
 20
1877.3523872689
 10
3254.0335461755
 20
1873.2160126069
 10
3258.53968679
 20
1869.3206143973
 10
3263.0998882795
 20
1865.6776185141
 10
3267.7007747872
 20
1862.297710492
 10
3272.3288511203
 20
1859.1908041835
 10
3276.9705423334
 20
1856.3660126802
 10
3281.6122335466
 20
1853.8316215822
 10
3286.2403098796
 20
1851.5950646954
 10
3290.8411963873
 20
1849.6629022263
 10
3295.4013978768
 20
1848.0408015405
 10
3299.9075384914
 20
1846.7335205387
 10
3304.3464009442
 20
1845.7448937013
 10
3308.7049652869
 20
1845.0778208412
 10
3312.9704470994
 20
1844.7342585981
 10
3317.1303349885
 20
1844.7152146992
 10
3321.1724272862
 20
1845.0207450035
 10
3325.0848678395
 20
1845.6499533379
 10
3328.8561807861
 20
1846.6009941262
 10
3332.4753042154
 20
1847.8710778017
 10
3335.9316226147
 20
1849.4564789901
 10
3339.2149980067
 20
1851.3525474368
 10
3342.3157996856
 20
1853.5537216461
 10
3345.2249324659
 20
1856.053545195
 10
3347.9338633598
 20
1858.8446856701
 10
3350.4346466063
 20
1861.9189561756
 10
3352.7199469773
 20
1865.2673393465
 10
3354.783061293
 20
1868.8800137979
 10
3356.6179380837
 20
1872.7463829332
 10
3358.2191953396
 20
1876.8551060256
 10
3359.5821362973
 20
1881.1941314824
 10
3360.7027632161
 20
1885.7507321942
 10
3361.5777891041
 20
1890.5115428661
 10
3362.2046473597
 20
1895.4625992201
 10
3362.5814992997
 20
1900.5893789549
 10
3362.7072395523
 20
1905.8768443421
  0
LWPOLYLINE
  5
12F
330
1F
100
AcDbEntity
  8
0
  6
Continuous
 62
     7
370
    25
100
AcDbPolyline
 90
       13
 70
   128
 43
0.0
 10
3381.7500508814
 20
2210.1714777105
 10
3381.9727309271
 20
2210.8017569027
 10
3381.8302169613
 20
2211.4617781383
 10
3381.3241912832
 20
2212.0593240707
 10
3380.5094896266
 20
2212.529641326
 10
3379.4743975576
 20
2212.821763732
 10
3378.3310833629
 20
2212.9040352932
 10
3377.2034428758
 20
2212.7675406095
 10
3376.2136734402
 20
2212.4270709976
 10
3375.4690319324
 20
2211.919521623
 10
3375.0502118141
 20
2211.2998933359
 10
3375.0025987437
 20
2210.6353324757
 10
3375.2013906641
 20
2210.1714777105
  0
LWPOLYLINE
  5
130
330
1F
100
AcDbEntity
  8
0
  6
Continuous
 62
     7
370
    25
100
AcDbPolyline
 90
       58
 70
   128
 43
0.0
 10
3339.3326100606
 20
1851.4283156272
 10
3336.0108381213
 20
1849.9120980812
 10
3332.3917146921
 20
1848.6420144057
 10
3328.6204017455
 20
1847.6909736175
 10
3324.7079611922
 20
1847.061765283
 10
3320.6658688944
 20
1846.7562349787
 10
3316.5059810053
 20
1846.7752788777
 10
3312.2404991929
 20
1847.1188411208
 10
3307.8819348501
 20
1847.7859139808
 10
3303.4430723973
 20
1848.7745408182
 10
3298.9369317827
 20
1850.08182182
 10
3294.3767302933
 20
1851.7039225059
 10
3289.7758437856
 20
1853.6360849749
 10
3285.1477674525
 20
1855.8726418618
 10
3280.5060762393
 20
1858.4070329598
 10
3275.8643850262
 20
1861.2318244631
 10
3271.2363086931
 20
1864.3387307716
 10
3266.6354221854
 20
1867.7186387937
 10
3262.075220696
 20
1871.3616346769
 10
3257.5690800814
 20
1875.2570328865
 10
3253.1302176286
 20
1879.3934075485
 10
3248.7716532858
 20
1883.7586259632
 10
3244.5061714734
 20
1888.339884193
 10
3240.3462835843
 20
1893.123744618
 10
3236.3041912865
 20
1898.0961753516
 10
3232.3917507332
 20
1903.2425913974
 10
3228.6204377866
 20
1908.5478974307
 10
3225.0013143574
 20
1913.9965320746
 10
3221.544995958
 20
1919.5725135451
 10
3218.2616205661
 20
1925.2594865276
 10
3215.1608188872
 20
1931.0407701507
 10
3212.2516861069
 20
1936.8994069132
 10
3209.542755213
 20
1942.8182124243
 10
3207.0419719664
 20
1948.7798258074
 10
3204.7566715955
 20
1954.7667606235
 10
3202.6935572797
 20
1960.7614561611
 10
3200.858680489
 20
1966.7463289453
 10
3199.2574232331
 20
1972.7038243132
 10
3197.8944822755
 20
1978.6164679042
 10
3196.7738553567
 20
1984.4669169161
 10
3195.8988294687
 20
1990.2380109739
 10
3195.271971213
 20
1995.9128224643
 10
3194.8951192731
 20
2001.4747061875
 10
3194.7693790205
 20
2006.9073481802
 10
3194.8951192731
 20
2012.1948135674
 10
3195.271971213
 20
2017.3215933022
 10
3195.8988294687
 20
2022.2726496562
 10
3196.7738553567
 20
2027.0334603281
 10
3197.8944822755
 20
2031.5900610399
 10
3199.2574232331
 20
2035.9290864967
 10
3200.858680489
 20
2040.0378095891
 10
3202.6935572797
 20
2043.9041787244
 10
3204.7566715955
 20
2047.5168531758
 10
3207.0419719664
 20
2050.8652363466
 10
3209.542755213
 20
2053.9395068522
 10
3212.2516861069
 20
2056.7306473273
 10
3215.1608188872
 20
2059.2304708762
 10
3218.1440085123
 20
2061.3558768951
  0
LWPOLYLINE
  5
131
330
1F
100
AcDbEntity
  8
0
  6
Continuous
 62
     7
370
    25
100
AcDbPolyline
 90
        3
 70
   128
 43
0.0
 10
3354.7384118193
 20
1945.5826994805
 10
3354.6120626968
 20
1949.6479143832
 10
3354.2611958666
 20
1953.6025394729
  0
LWPOLYLINE
  5
132
330
1F
100
AcDbEntity
  8
0
  6
Continuous
 62
     7
370
    25
100
AcDbPolyline
 90
       69
 70
   128
 43
0.0
 10
3314.0901937232
 20
2023.1882959379
 10
3312.5562034893
 20
2024.2980804839
 10
3309.1059001298
 20
2026.5815101434
 10
3305.6463677191
 20
2028.5786556936
 10
3302.1960643595
 20
2030.2788614991
 10
3298.7733989124
 20
2031.673056226
 10
3295.3966327787
 20
2032.7538012425
 10
3292.0837824668
 20
2033.5153303062
 10
3288.8525234666
 20
2033.95358033
 10
3285.7200959428
 20
2034.0662130604
 10
3282.7032127516
 20
2033.8526275532
 10
3279.8179702702
 20
2033.3139633793
 10
3277.0797625155
 20
2032.4530945453
 10
3274.5031990107
 20
2031.2746141589
 10
3272.102026837
 20
2029.7848099227
 10
3269.8890572866
 20
2027.991630587
 10
3267.8760975098
 20
2025.9046435394
 10
3266.0738875179
 20
2023.5349837588
 10
3264.4920428809
 20
2020.8952944054
 10
3263.1390034244
 20
2017.9996593641
 10
3262.0219881993
 20
2014.8635281005
 10
3261.1469569652
 20
2011.5036332321
 10
3260.5185783922
 20
2007.9379012515
 10
3260.140205152
 20
2004.1853568817
 10
3260.0138560296
 20
2000.2660215706
 10
3260.140205152
 20
1996.2008066679
 10
3260.5185783922
 20
1992.0114018538
 10
3261.1469569652
 20
1987.7201594159
 10
3262.0219881993
 20
1983.3499749891
 10
3263.1390034244
 20
1978.9241653983
 10
3264.4920428809
 20
1974.4663442525
 10
3266.0738875179
 20
1970.0002959564
 10
3267.8760975098
 20
1965.5498488099
 10
3269.8890572866
 20
1961.1387478741
 10
3272.102026837
 20
1956.7905282812
 10
3274.5031990107
 20
1952.528389664
 10
3277.0797625155
 20
1948.3750723761
 10
3279.8179702702
 20
1944.3527361623
 10
3282.7032127516
 20
1940.4828419266
 10
3285.7200959428
 20
1936.7860372292
 10
3288.8525234666
 20
1933.2820461227
 10
3292.0837824668
 20
1929.9895639157
 10
3295.3966327787
 20
1926.9261574253
 10
3298.7733989124
 20
1924.1081712506
 10
3302.1960643595
 20
1921.5506405672
 10
3305.6463677191
 20
1919.2672109077
 10
3309.1059001298
 20
1917.2700653575
 10
3312.5562034893
 20
1915.5698595521
 10
3315.9788689365
 20
1914.1756648251
 10
3319.3556350702
 20
1913.0949198086
 10
3322.668485382
 20
1912.333390745
 10
3325.8997443823
 20
1911.8951407211
 10
3329.0321719061
 20
1911.7825079907
 10
3332.0490550973
 20
1911.9960934979
 10
3334.9342975787
 20
1912.5347576718
 10
3337.6725053334
 20
1913.3956265058
 10
3340.2490688381
 20
1914.5741068922
 10
3342.6502410119
 20
1916.0639111284
 10
3344.8632105622
 20
1917.8570904641
 10
3346.876170339
 20
1919.9440775117
 10
3348.678380331
 20
1922.3137372923
 10
3350.260224968
 20
1924.9534266457
 10
3351.6132644245
 20
1927.849061687
 10
3352.7302796496
 20
1930.9851929506
 10
3353.6053108837
 20
1934.345087819
 10
3354.2336894566
 20
1937.9108197996
 10
3354.6120626968
 20
1941.6633641694
 10
3354.7384118193
 20
1945.5826994805
 10
3354.7384118193
 20
1945.5826994805
  0
LWPOLYLINE
  5
133
330
1F
100
AcDbEntity
  8
0
  6
Continuous
 62
     7
370
    25
100
AcDbPolyline
 90
       13
 70
   128
 43
0.0
 10
3417.6710753657
 20
2230.9082437507
 10
3417.8937554114
 20
2231.538522943
 10
3417.7512414456
 20
2232.1985441786
 10
3417.2452157675
 20
2232.796090111
 10
3416.4305141109
 20
2233.2664073663
 10
3415.3954220419
 20
2233.5585297723
 10
3414.2521078471
 20
2233.6408013335
 10
3413.12446736
 20
2233.5043066498
 10
3412.1346979245
 20
2233.1638370379
 10
3411.3900564167
 20
2232.6562876633
 10
3410.9712362984
 20
2232.0366593762
 10
3410.9236232279
 20
2231.372098516
 10
3411.1224151484
 20
2230.9082437507
  0
LWPOLYLINE
  5
134
330
1F
100
AcDbEntity
  8
0
  6
Continuous
 62
     7
370
    25
100
AcDbPolyline
 90
       11
 70
   128
 43
0.0
 10
3349.6057485715
 20
2001.8628817066
 10
3349.3793243301
 20
2001.545588724
 10
3349.1308131839
 20
2000.7587124047
 10
3349.1308131839
 20
1999.7851196605
 10
3349.3793243301
 20
1998.7113184792
 10
3349.8542653165
 20
1997.6327208081
 10
3350.5134355522
 20
1996.6451647837
 10
3351.2982648692
 20
1995.8363990924
 10
3352.1390177383
 20
1995.2782861153
 10
3352.9609895777
 20
1995.0204166395
 10
3353.5424428765
 20
1995.0435882717
  0
LWPOLYLINE
  5
135
330
1F
100
AcDbEntity
  8
0
  6
Continuous
 62
     7
370
    25
100
AcDbPolyline
 90
       16
 70
   128
 43
0.0
 10
3362.4976751666
 20
2241.541992566
 10
3362.5040959324
 20
2241.5518691316
 10
3362.7763566856
 20
2242.2743807744
 10
3362.6849830667
 20
2243.0119063103
 10
3362.2373776229
 20
2243.7046958066
 10
3361.4698026852
 20
2244.2966235784
 10
3360.4444426101
 20
2244.739735158
 10
3359.2443659729
 20
2244.9981322806
 10
3357.9667958455
 20
2245.050881148
 10
3356.7152333617
 20
2244.8937083607
 10
3355.5910726706
 20
2244.5393471231
 10
3354.6853865857
 20
2244.0165056753
 10
3354.0715484074
 20
2243.3675415219
 10
3353.7992876541
 20
2242.6450298791
 10
3353.890661273
 20
2241.9075043432
 10
3354.0779691731
 20
2241.541992566
  0
ARC
  5
136
330
1F
100
AcDbEntity
  8
0
  6
Continuous
 62
     7
370
    25
100
AcDbCircle
 10
3167.3762598685
 20
2251.2519833083
 30
0.0
 40
36.57078580898819
100
AcDbArc
 50
180.0964481587
 51
198.622058784
  0
LWPOLYLINE
  5
137
330
1F
100
AcDbEntity
  8
0
  6
Continuous
 62
     7
370
    25
100
AcDbPolyline
 90
       13
 70
   128
 43
0.0
 10
3305.4532291909
 20
2254.2166953426
 10
3305.6759092371
 20
2254.8469745355
 10
3305.5333952713
 20
2255.5069957712
 10
3305.0273695932
 20
2256.1045417035
 10
3304.2126679366
 20
2256.5748589588
 10
3303.1775758676
 20
2256.8669813648
 10
3302.0342616728
 20
2256.9492529261
 10
3300.9066211857
 20
2256.8127582423
 10
3299.9168517502
 20
2256.4722886304
 10
3299.1722102424
 20
2255.9647392559
 10
3298.7533901241
 20
2255.3451109688
 10
3298.7057770536
 20
2254.6805501086
 10
3298.9045689745
 20
2254.2166953426
  0
LWPOLYLINE
  5
138
330
1F
100
AcDbEntity
  8
0
  6
Continuous
 62
     7
370
    25
100
AcDbPolyline
 90
       11
 70
   128
 43
0.0
 10
3380.3611055777
 20
1898.3670325639
 10
3380.1346813363
 20
1898.0497395814
 10
3379.8861701901
 20
1897.2628632621
 10
3379.8861701901
 20
1896.2892705178
 10
3380.1346813363
 20
1895.2154693365
 10
3380.6096223227
 20
1894.1368716655
 10
3381.2687925584
 20
1893.149315641
 10
3382.0536218754
 20
1892.3405499497
 10
3382.8943747445
 20
1891.7824369726
 10
3383.7163465839
 20
1891.5245674968
 10
3384.2977998827
 20
1891.547739129
  0
LWPOLYLINE
  5
139
330
1F
100
AcDbEntity
  8
0
  6
Continuous
 62
     7
370
    25
100
AcDbPolyline
 90
       11
 70
   128
 43
0.0
 10
3275.3557485715
 20
2080.2416454318
 10
3275.1293243301
 20
2079.9243524492
 10
3274.8808131839
 20
2079.1374761299
 10
3274.8808131839
 20
2078.1638833857
 10
3275.1293243301
 20
2077.0900822044
 10
3275.6042653165
 20
2076.0114845333
 10
3276.2634355522
 20
2075.0239285089
 10
3277.0482648692
 20
2074.2151628176
 10
3277.8890177383
 20
2073.6570498404
 10
3278.7109895777
 20
2073.3991803646
 10
3279.2924428766
 20
2073.4223519969
  0
ARC
  5
13A
330
1F
100
AcDbEntity
  8
0
  6
Continuous
 62
     7
370
    25
100
AcDbCircle
 10
3171.1567199391
 20
2242.135557292
 30
0.0
 40
36.4628400150741
100
AcDbArc
 50
186.7247007228
 51
201.1054717225
  0
LWPOLYLINE
  5
13B
330
1F
100
AcDbEntity
  8
0
  6
Continuous
 62
     7
370
    25
100
AcDbPolyline
 90
       13
 70
   128
 43
0.0
 10
3341.3742536757
 20
2274.9534613837
 10
3341.5969337213
 20
2275.5837405758
 10
3341.4544197556
 20
2276.2437618115
 10
3340.9483940774
 20
2276.8413077438
 10
3340.1336924209
 20
2277.3116249991
 10
3339.0986003519
 20
2277.6037474051
 10
3337.9552861571
 20
2277.6860189664
 10
3336.82764567
 20
2277.5495242826
 10
3335.8378762345
 20
2277.2090546707
 10
3335.0932347267
 20
2276.7015052962
 10
3334.6744146083
 20
2276.0818770091
 10
3334.6268015379
 20
2275.4173161488
 10
3334.8255934582
 20
2274.9534613838
  0
LWPOLYLINE
  5
13C
330
1F
100
AcDbEntity
  8
0
  6
Continuous
 62
     7
370
    25
100
AcDbPolyline
 90
       17
 70
   128
 43
0.0
 10
3204.582748069
 20
2279.2907040895
 10
3204.78423116
 20
2279.6416316079
 10
3204.9716391154
 20
2280.4634034071
 10
3204.78423116
 20
2281.2851752062
 10
3204.2347788362
 20
2282.0509446153
 10
3203.3607264119
 20
2282.7085257146
 10
3202.2216391154
 20
2283.2131054388
 10
3200.8951438634
 20
2283.5302975137
 10
3199.4716391154
 20
2283.6384858235
 10
3198.0481343673
 20
2283.5302975137
 10
3196.7216391154
 20
2283.2131054388
 10
3195.5825518188
 20
2282.7085257146
 10
3194.7084993946
 20
2282.0509446153
 10
3194.1590470708
 20
2281.2851752062
 10
3193.9716391154
 20
2280.4634034071
 10
3194.1590470708
 20
2279.6416316079
 10
3194.3605301617
 20
2279.2907040894
  0
LWPOLYLINE
  5
13D
330
1F
100
AcDbEntity
  8
0
  6
Continuous
 62
     7
370
    25
100
AcDbPolyline
 90
       81
 70
   128
 43
0.0
 10
3347.6812204521
 20
1949.6567293386
 10
3347.5569733214
 20
1953.3801637427
 10
3347.1849979545
 20
1957.2240946191
 10
3346.5675877029
 20
1961.1648228557
 10
3345.7085491064
 20
1965.1780525524
 10
3344.6131784234
 20
1969.2390408138
 10
3343.2882289785
 20
1973.3227502966
 10
3341.7418695257
 20
1977.404003574
 10
3339.983633885
 20
1981.4576383624
 10
3338.0243621641
 20
1985.4586626553
 10
3335.8761339244
 20
1989.3824088075
 10
3333.5521937076
 20
1993.2046856192
 10
3331.0668693777
 20
1996.9019274828
 10
3328.4354837859
 20
2000.4513396728
 10
3325.6742602992
 20
2003.8310388826
 10
3322.8002227786
 20
2007.0201881429
 10
3319.8310906212
 20
2009.9991252879
 10
3316.7851695141
 20
2012.7494841796
 10
3313.6812385738
 20
2015.2543079407
 10
3310.5384345666
 20
2017.4981534999
 10
3307.3761339244
 20
2019.467186803
 10
3304.2138332822
 20
2021.1492681052
 10
3301.0710292751
 20
2022.5340268157
 10
3297.9670983347
 20
2023.6129254366
 10
3294.9211772276
 20
2024.3793121992
 10
3291.9520450703
 20
2024.8284620742
 10
3289.0780075497
 20
2024.9576059033
 10
3286.316784063
 20
2024.7659474718
 10
3283.6853984711
 20
2024.2546684178
 10
3281.2000741413
 20
2023.4269209465
 10
3278.8761339244
 20
2022.2878083964
 10
3276.7279056848
 20
2020.8443537752
 10
3274.7686339638
 20
2019.1054564606
 10
3273.0103983232
 20
2017.0818373327
 10
3271.4640388703
 20
2014.7859726765
 10
3270.1390894255
 20
2012.232017261
 10
3269.0437187425
 20
2009.4357170706
 10
3268.1846801459
 20
2006.4143122259
 10
3267.5672698944
 20
2003.1864306924
 10
3267.1952945274
 20
1999.7719734331
 10
3267.0710473968
 20
1996.1919917125
 10
3267.1952945274
 20
1992.4685573084
 10
3267.5672698944
 20
1988.624626432
 10
3268.1846801459
 20
1984.6838981954
 10
3269.0437187425
 20
1980.6706684987
 10
3270.1390894255
 20
1976.6096802374
 10
3271.4640388703
 20
1972.5259707545
 10
3273.0103983232
 20
1968.4447174771
 10
3274.7686339638
 20
1964.3910826887
 10
3276.7279056848
 20
1960.3900583958
 10
3278.8761339244
 20
1956.4663122436
 10
3281.2000741413
 20
1952.6440354319
 10
3283.6853984711
 20
1948.9467935683
 10
3286.316784063
 20
1945.3973813783
 10
3289.0780075497
 20
1942.0176821685
 10
3291.9520450703
 20
1938.8285329082
 10
3294.9211772276
 20
1935.8495957632
 10
3297.9670983347
 20
1933.0992368715
 10
3301.0710292751
 20
1930.5944131104
 10
3304.2138332822
 20
1928.3505675513
 10
3307.3761339244
 20
1926.3815342481
 10
3310.5384345666
 20
1924.6994529459
 10
3313.6812385738
 20
1923.3146942355
 10
3316.7851695141
 20
1922.2357956145
 10
3319.8310906212
 20
1921.4694088519
 10
3322.8002227786
 20
1921.0202589769
 10
3325.6742602992
 20
1920.8911151478
 10
3328.4354837859
 20
1921.0827735793
 10
3331.0668693777
 20
1921.5940526334
 10
3333.5521937076
 20
1922.4218001046
 10
3335.8761339244
 20
1923.5609126547
 10
3338.0243621641
 20
1925.0043672759
 10
3339.983633885
 20
1926.7432645905
 10
3341.7418695257
 20
1928.7668837184
 10
3343.2882289785
 20
1931.0627483746
 10
3344.6131784234
 20
1933.6167037901
 10
3345.7085491064
 20
1936.4130039805
 10
3346.5675877029
 20
1939.4344088252
 10
3347.1849979545
 20
1942.6622903588
 10
3347.5569733214
 20
1946.076747618
 10
3347.6812204521
 20
1949.6567293386
  0
LWPOLYLINE
  5
13E
330
1F
100
AcDbEntity
  8
0
  6
Continuous
 62
     7
370
    25
100
AcDbPolyline
 90
       28
 70
   128
 43
0.0
 10
3302.6546503885
 20
1964.6285054441
 10
3302.5246064985
 20
1965.9883636545
 10
3302.1414855281
 20
1967.4250570364
 10
3301.5259416281
 20
1968.8611330775
 10
3300.7111589294
 20
1970.2191725469
 10
3299.7410625783
 20
1971.4259631852
 10
3298.6679507201
 20
1972.4164465967
 10
3297.5496750928
 20
1973.1372255643
 10
3296.446522225
 20
1973.5494427074
 10
3295.4179633734
 20
1973.630875293
 10
3294.5194484117
 20
1973.3771332694
 10
3293.7994165143
 20
1972.8018959347
 10
3293.296684787
 20
1971.9361744826
 10
3293.0383556275
 20
1970.8266401806
 10
3293.0383556275
 20
1969.5331083102
 10
3293.296684787
 20
1968.1253135092
 10
3293.7994165143
 20
1966.6791503598
 10
3294.5194484117
 20
1965.2725818918
 10
3295.4179633734
 20
1963.9814365752
 10
3296.446522225
 20
1962.8753203884
 10
3297.5496750928
 20
1962.0138643412
 10
3298.6679507201
 20
1961.4435097521
 10
3299.7410625783
 20
1961.1950045848
 10
3300.7111589294
 20
1961.2817458169
 10
3301.5259416281
 20
1961.6990572064
 10
3302.1414855281
 20
1962.4244413881
 10
3302.5246064985
 20
1963.4187927131
 10
3302.6546503885
 20
1964.6285054441
  0
ARC
  5
13F
330
1F
100
AcDbEntity
  8
0
  6
Continuous
 62
     7
370
    25
100
AcDbCircle
 10
3176.1715766649
 20
1836.8787566598
 30
0.0
 40
43.59555234925145
100
AcDbArc
 50
207.3760007795
 51
207.8967529801
  0
LINE
  5
140
330
1F
100
AcDbEntity
  8
0
  6
Continuous
 62
     7
370
    25
100
AcDbLine
 10
3137.4583744053
 20
1816.8323067137
 30
0.0
 11
3137.4583744053
 21
2228.7613789441
 31
0.0
  0
LWPOLYLINE
  5
141
330
1F
100
AcDbEntity
  8
0
  6
Continuous
 62
     7
370
    25
100
AcDbPolyline
 90
       17
 70
   128
 43
0.0
 10
3466.3536784649
 20
2300.1091109419
 10
3466.5551615552
 20
2300.4600384594
 10
3466.7425695106
 20
2301.2818102586
 10
3466.5551615552
 20
2302.1035820577
 10
3466.0057092314
 20
2302.8693514668
 10
3465.1316568072
 20
2303.5269325661
 10
3463.9925695106
 20
2304.0315122903
 10
3462.6660742587
 20
2304.3487043652
 10
3461.2425695106
 20
2304.456892675
 10
3459.8190647626
 20
2304.3487043652
 10
3458.4925695106
 20
2304.0315122903
 10
3457.3534822141
 20
2303.5269325661
 10
3456.4794297898
 20
2302.8693514668
 10
3455.929977466
 20
2302.1035820577
 10
3455.7425695106
 20
2301.2818102586
 10
3455.929977466
 20
2300.4600384594
 10
3456.1314605563
 20
2300.1091109419
  0
LWPOLYLINE
  5
142
330
1F
100
AcDbEntity
  8
0
  6
Continuous
 62
     7
370
    25
100
AcDbPolyline
 90
       11
 70
   128
 43
0.0
 10
3349.6057485714
 20
1830.3805627822
 10
3349.3793243301
 20
1830.0632697997
 10
3349.1308131839
 20
1829.2763934803
 10
3349.1308131839
 20
1828.3028007361
 10
3349.3793243301
 20
1827.2289995548
 10
3349.8542653165
 20
1826.1504018837
 10
3350.5134355522
 20
1825.1628458593
 10
3351.2982648692
 20
1824.354080168
 10
3352.1390177383
 20
1823.7959671909
 10
3352.9609895777
 20
1823.5380977151
 10
3353.5424428765
 20
1823.5612693473
  0
LWPOLYLINE
  5
143
330
1F
100
AcDbEntity
  8
0
  6
Continuous
 62
     7
370
    25
100
AcDbPolyline
 90
       11
 70
   128
 43
0.0
 10
3201.1057485715
 20
2087.5901069513
 10
3200.8793243301
 20
2087.2728139688
 10
3200.6308131839
 20
2086.4859376494
 10
3200.6308131839
 20
2085.5123449052
 10
3200.8793243301
 20
2084.4385437239
 10
3201.3542653165
 20
2083.3599460528
 10
3202.0134355522
 20
2082.3723900284
 10
3202.7982648692
 20
2081.5636243371
 10
3203.6390177383
 20
2081.00551136
 10
3204.4609895777
 20
2080.7476418842
 10
3205.0424428766
 20
2080.7708135164
  0
ARC
  5
144
330
1F
100
AcDbEntity
  8
0
  6
Continuous
 62
     7
370
    25
100
AcDbCircle
 10
3393.2756882038
 20
1830.7711831003
 30
0.0
 40
176.847102368777
100
AcDbArc
 50
262.7803708413
 51
277.6791479189
  0
LWPOLYLINE
  5
145
330
1F
100
AcDbEntity
  8
0
  6
Continuous
 62
     7
370
    25
100
AcDbPolyline
 90
       17
 70
   128
 43
0.0
 10
3137.1398381881
 20
1790.360078469
 10
3149.7518710648
 20
1780.8530356651
 10
3162.6514407512
 20
1771.4754444078
 10
3175.8345610751
 20
1762.2302025219
 10
3189.2971582429
 20
1753.1201669339
 10
3203.0350720981
 20
1744.1481527898
 10
3217.0440574069
 20
1735.3169325844
 10
3231.3197851702
 20
1726.6292353052
 10
3245.8578439612
 20
1718.0877455888
 10
3260.6537412887
 20
1709.6951028911
 10
3275.7029049853
 20
1701.4539006723
 10
3291.0006846201
 20
1693.3666855947
 10
3306.5423529361
 20
1685.4359567365
 10
3322.3231073108
 20
1677.6641648187
 10
3338.3380712403
 20
1670.0537114488
 10
3354.5822958461
 20
1662.6069483777
 10
3371.0507614046
 20
1655.3261767735
  0
ARC
  5
146
330
1F
100
AcDbEntity
  8
0
  6
Continuous
 62
     7
370
    25
100
AcDbCircle
 10
3170.0835651398
 20
1803.2017022823
 30
0.0
 40
35.35811713918836
100
AcDbArc
 50
157.3251273304
 51
201.296076753
  0
ARC
  5
147
330
1F
100
AcDbEntity
  8
0
  6
Continuous
 62
     7
370
    25
100
AcDbCircle
 10
3388.2327214962
 20
1821.8915200017
 30
0.0
 40
182.4744176903464
100
AcDbArc
 50
263.6784592848
 51
279.3330593695
  0
LWPOLYLINE
  5
148
330
1F
100
AcDbEntity
  8
0
  6
Continuous
 62
     7
370
    25
100
AcDbPolyline
 90
       17
 70
   128
 43
0.0
 10
3132.7201177678
 20
1776.4320987998
 10
3145.3881805731
 20
1766.8512812875
 10
3158.3494904559
 20
1757.4020823342
 10
3171.5999449197
 20
1748.0874927876
 10
3185.1353499487
 20
1738.910460889
 10
3198.9514213346
 20
1729.8738913403
 10
3213.0437860331
 20
1720.9806443841
 10
3227.407983548
 20
1712.2335348991
 10
3242.0394673428
 20
1703.6353315085
 10
3256.93360628
 20
1695.1887557042
 10
3272.0856860868
 20
1686.8964809849
 10
3287.4909108473
 20
1678.7611320102
 10
3303.1444045206
 20
1670.7852837698
 10
3319.0412124838
 20
1662.9714607685
 10
3335.1763031009
 20
1655.322136227
 10
3351.5445693146
 20
1647.8397312992
 10
3368.1408302633
 20
1640.5266143057
  0
ARC
  5
149
330
1F
100
AcDbEntity
  8
0
  6
Continuous
 62
     7
370
    25
100
AcDbCircle
 10
3167.6680327852
 20
1788.0949998991
 30
0.0
 40
36.84263869637957
100
AcDbArc
 50
153.3311763014
 51
198.4550077321
  0
ARC
  5
14A
330
1F
100
AcDbEntity
  8
0
  6
Continuous
 62
     7
370
    25
100
AcDbCircle
 10
3170.4941883665
 20
1791.0606080668
 30
0.0
 40
35.77960312341938
100
AcDbArc
 50
180.1851222375
 51
201.2169333129
  0
LWPOLYLINE
  5
14B
330
1F
100
AcDbEntity
  8
0
  6
Continuous
 62
     7
370
    25
100
AcDbPolyline
 90
       17
 70
   128
 43
0.0
 10
3371.0507614046
 20
1643.0780645952
 10
3354.5822958461
 20
1650.3588361994
 10
3338.3380712403
 20
1657.8055992705
 10
3322.3231073108
 20
1665.4160526405
 10
3306.5423529361
 20
1673.1878445582
 10
3291.0006846201
 20
1681.1185734165
 10
3275.7029049853
 20
1689.205788494
 10
3260.6537412887
 20
1697.4469907128
 10
3245.8578439612
 20
1705.8396334105
 10
3231.3197851702
 20
1714.3811231269
 10
3217.0440574069
 20
1723.0688204061
 10
3203.0350720981
 20
1731.9000406115
 10
3189.2971582429
 20
1740.8720547556
 10
3175.8345610751
 20
1749.9820903436
 10
3162.6514407512
 20
1759.2273322295
 10
3149.7518710648
 20
1768.6049234868
 10
3137.1398381881
 20
1778.1119662907
  0
ARC
  5
14C
330
1F
100
AcDbEntity
  8
0
  6
Continuous
 62
     7
370
    25
100
AcDbCircle
 10
3393.2756882038
 20
1818.523070922
 30
0.0
 40
176.8471023687939
100
AcDbArc
 50
262.7803708413
 51
277.6791479189
  0
LINE
  5
14D
330
1F
100
AcDbEntity
  8
0
  6
Continuous
 62
     7
370
    25
100
AcDbLine
 10
3432.887587585
 20
1650.5279838345
 30
0.0
 11
3431.1905313102
 21
1651.5076735687
 31
0.0
  0
LINE
  5
14E
330
1F
100
AcDbEntity
  8
0
  6
Continuous
 62
     7
370
    25
100
AcDbLine
 10
3371.0507614046
 20
1643.0780645952
 30
0.0
 11
3371.0507614046
 21
1655.3261767735
 31
0.0
  0
ARC
  5
14F
330
1F
100
AcDbEntity
  8
0
  6
Continuous
 62
     7
370
    25
100
AcDbCircle
 10
3388.2327214962
 20
1809.6434078234
 30
0.0
 40
182.4744176903461
100
AcDbArc
 50
263.6784592848
 51
279.3330593695
  0
LINE
  5
150
330
1F
100
AcDbEntity
  8
0
  6
Continuous
 62
     7
370
    25
100
AcDbLine
 10
3368.1408302633
 20
1640.5266143057
 30
0.0
 11
3368.1408302633
 21
1628.2785021274
 31
0.0
  0
LINE
  5
151
330
1F
100
AcDbEntity
  8
0
  6
Continuous
 62
     7
370
    25
100
AcDbLine
 10
3137.1398381881
 20
1778.1119662907
 30
0.0
 11
3137.1398381881
 21
1790.360078469
 31
0.0
  0
LINE
  5
152
330
1F
100
AcDbEntity
  8
0
  6
Continuous
 62
     7
370
    25
100
AcDbLine
 10
3132.7201177678
 20
1776.4320987998
 30
0.0
 11
3132.7201177678
 21
1764.1839866215
 31
0.0
  0
LWPOLYLINE
  5
153
330
1F
100
AcDbEntity
  8
0
  6
Continuous
 62
     7
370
    25
100
AcDbPolyline
 90
       17
 70
   128
 43
0.0
 10
3132.7201177678
 20
1764.1839866215
 10
3145.3881805731
 20
1754.6031691092
 10
3158.3494904559
 20
1745.1539701559
 10
3171.5999449197
 20
1735.8393806093
 10
3185.1353499487
 20
1726.6623487108
 10
3198.9514213346
 20
1717.625779162
 10
3213.0437860331
 20
1708.7325322058
 10
3227.407983548
 20
1699.9854227208
 10
3242.0394673428
 20
1691.3872193303
 10
3256.93360628
 20
1682.9406435259
 10
3272.0856860868
 20
1674.6483688066
 10
3287.4909108473
 20
1666.5130198319
 10
3303.1444045206
 20
1658.5371715916
 10
3319.0412124838
 20
1650.7233485902
 10
3335.1763031009
 20
1643.0740240487
 10
3351.5445693146
 20
1635.5916191209
 10
3368.1408302633
 20
1628.2785021274
  0
LWPOLYLINE
  5
154
330
1F
100
AcDbEntity
  8
0
  6
Continuous
 62
     7
370
    25
100
AcDbPolyline
 90
       12
 70
   128
 43
0.0
 10
3453.9240143253
 20
1687.6983337068
 10
3453.7914968892
 20
1686.4594832966
 10
3453.4029754251
 20
1685.1520571195
 10
3452.7849270288
 20
1683.8651541089
 10
3451.9794706771
 20
1682.6864745783
 10
3451.0414968892
 20
1681.6963435898
 10
3450.0349270288
 20
1680.9622369339
 10
3449.0283571684
 20
1680.5341827662
 10
3448.0903833806
 20
1680.4413522708
 10
3447.2849270288
 20
1680.6900716925
 10
3446.6668786325
 20
1681.2633912137
 10
3446.4631057949
 20
1681.6145982865
  0
ARC
  5
155
330
1F
100
AcDbEntity
  8
0
  6
Continuous
 62
     7
370
    25
100
AcDbCircle
 10
3451.5990899883
 20
1688.1057447096
 30
0.0
 40
2.36035101160621
100
AcDbArc
 50
350.0606215851
 51
90.6361804378
  0
LWPOLYLINE
  5
156
330
1F
100
AcDbEntity
  8
0
  6
Continuous
 62
     7
370
    25
100
AcDbPolyline
 90
       11
 70
   128
 43
0.0
 10
3275.3557485715
 20
1837.7290243018
 10
3275.1293243301
 20
1837.4117313192
 10
3274.8808131839
 20
1836.6248549999
 10
3274.8808131839
 20
1835.6512622556
 10
3275.1293243301
 20
1834.5774610743
 10
3275.6042653165
 20
1833.4988634033
 10
3276.2634355522
 20
1832.5113073788
 10
3277.0482648692
 20
1831.7025416875
 10
3277.8890177383
 20
1831.1444287104
 10
3278.7109895777
 20
1830.8865592346
 10
3279.2924428766
 20
1830.9097308668
  0
LWPOLYLINE
  5
157
330
1F
100
AcDbEntity
  8
0
  6
Continuous
 62
     7
370
    25
100
AcDbPolyline
 90
       11
 70
   128
 43
0.0
 10
3170.3503915653
 20
2019.6036371696
 10
3170.1239673239
 20
2019.286344187
 10
3169.8754561777
 20
2018.4994678677
 10
3169.8754561777
 20
2017.5258751235
 10
3170.1239673239
 20
2016.4520739422
 10
3170.5989083103
 20
2015.3734762711
 10
3171.258078546
 20
2014.3859202467
 10
3172.042907863
 20
2013.5771545554
 10
3172.8836607321
 20
2013.0190415782
 10
3173.7056325715
 20
2012.7611721024
 10
3174.2870858704
 20
2012.7843437347
  0
LWPOLYLINE
  5
158
330
1F
100
AcDbEntity
  8
0
  6
Continuous
 62
     7
370
    25
100
AcDbPolyline
 90
       11
 70
   128
 43
0.0
 10
3201.1057485714
 20
1916.1077880269
 10
3200.8793243301
 20
1915.7904950444
 10
3200.6308131839
 20
1915.0036187251
 10
3200.6308131839
 20
1914.0300259808
 10
3200.8793243301
 20
1912.9562247995
 10
3201.3542653165
 20
1911.8776271284
 10
3202.0134355522
 20
1910.890071104
 10
3202.7982648692
 20
1910.0813054127
 10
3203.6390177383
 20
1909.5231924356
 10
3204.4609895777
 20
1909.2653229598
 10
3205.0424428765
 20
1909.288494592
  0
LWPOLYLINE
  5
159
330
1F
100
AcDbEntity
  8
0
  6
Continuous
 62
     7
370
    25
100
AcDbPolyline
 90
       30
 70
   128
 43
0.0
 10
3195.4811080795
 20
1856.6726671457
 10
3194.8094521699
 20
1855.5940909901
 10
3193.7172620818
 20
1853.3682060928
 10
3192.8579637677
 20
1850.90368973
 10
3192.2388884577
 20
1848.2215682864
 10
3191.8653178841
 20
1845.3447246766
 10
3191.7404392193
 20
1842.2977031157
 10
3191.8653178841
 20
1839.1064997175
 10
3192.2388884577
 20
1835.7983407042
 10
3192.8579637677
 20
1832.401450122
 10
3193.7172620818
 20
1828.9448090436
 10
3194.8094521699
 20
1825.457908312
 10
3196.1252158512
 20
1821.9704969348
 10
3197.6533274938
 20
1818.5123282762
 10
3199.380749788
 20
1815.1129062118
 10
3201.292744976
 20
1811.8012334122
 10
3203.3730005888
 20
1808.605563902
 10
3205.6037686191
 20
1805.5531620067
 10
3207.9660169406
 20
1802.670069743
 10
3210.4395916835
 20
1799.9808846376
 10
3213.0033891803
 20
1797.5085498696
 10
3215.6355360148
 20
1795.2741585275
 10
3218.313575638
 20
1793.2967736504
 10
3221.0146599604
 20
1791.5932655889
 10
3223.7157442827
 20
1790.1781680732
 10
3226.393783906
 20
1789.0635542163
 10
3229.0259307404
 20
1788.2589335105
 10
3231.5897282372
 20
1787.7711706962
 10
3234.0633029802
 20
1787.6044271936
 10
3235.3289500016
 20
1787.6467012575
  0
ARC
  5
15A
330
1F
100
AcDbEntity
  8
0
  6
Continuous
 62
     7
370
    25
100
AcDbCircle
 10
3167.3762598685
 20
1775.8619226284
 30
0.0
 40
36.57078580898812
100
AcDbArc
 50
180.0964481587
 51
198.622058784
  0
LINE
  5
15B
330
1F
100
AcDbEntity
  8
0
  6
Continuous
 62
     7
370
    25
100
AcDbLine
 10
1484.5223788739
 20
1384.9317501907
 30
0.0
 11
1817.4575433486
 21
1384.9317501907
 31
0.0
  0
LINE
  5
15C
330
1F
100
AcDbEntity
  8
0
  6
Continuous
 62
     7
370
    25
100
AcDbLine
 10
1817.4575433486
 20
1384.9317501907
 30
0.0
 11
1817.4575433486
 21
1369.9317501907
 31
0.0
  0
LINE
  5
15D
330
1F
100
AcDbEntity
  8
0
  6
Continuous
 62
     7
370
    25
100
AcDbLine
 10
1484.5223788739
 20
1369.9317501907
 30
0.0
 11
1817.4575433486
 21
1369.9317501907
 31
0.0
  0
LINE
  5
15E
330
1F
100
AcDbEntity
  8
0
  6
Continuous
 62
     7
370
    25
100
AcDbLine
 10
1484.5223788739
 20
1384.9317501907
 30
0.0
 11
1484.5223788739
 21
1369.9317501907
 31
0.0
  0
LINE
  5
15F
330
1F
100
AcDbEntity
  8
0
  6
Continuous
 62
     7
370
    25
100
AcDbLine
 10
1817.4575433486
 20
802.7317501907
 30
0.0
 11
1817.4575433486
 21
787.7317501907
 31
0.0
  0
LINE
  5
160
330
1F
100
AcDbEntity
  8
0
  6
Continuous
 62
     7
370
    25
100
AcDbLine
 10
1484.5223788739
 20
802.7317501907
 30
0.0
 11
1484.5223788739
 21
787.7317501907
 31
0.0
  0
LINE
  5
161
330
1F
100
AcDbEntity
  8
0
  6
Continuous
 62
     7
370
    25
100
AcDbLine
 10
1484.5223788739
 20
787.7317501907
 30
0.0
 11
1817.4575433486
 21
787.7317501907
 31
0.0
  0
LINE
  5
162
330
1F
100
AcDbEntity
  8
0
  6
Continuous
 62
     7
370
    25
100
AcDbLine
 10
1484.5223788739
 20
802.7317501907
 30
0.0
 11
1817.4575433486
 21
802.7317501907
 31
0.0
  0
LINE
  5
163
330
1F
100
AcDbEntity
  8
0
  6
Continuous
 62
     7
370
    25
100
AcDbLine
 10
1816.3899611112
 20
802.7317501907
 30
0.0
 11
1816.3899611112
 21
817.7317501907
 31
0.0
  0
LINE
  5
164
330
1F
100
AcDbEntity
  8
0
  6
Continuous
 62
     7
370
    25
100
AcDbLine
 10
1485.5899611112
 20
802.7317501907
 30
0.0
 11
1485.5899611112
 21
817.7317501907
 31
0.0
  0
LINE
  5
165
330
1F
100
AcDbEntity
  8
0
  6
Continuous
 62
     7
370
    25
100
AcDbLine
 10
1485.5899611112
 20
817.7317501907
 30
0.0
 11
1816.3899611112
 21
817.7317501907
 31
0.0
  0
LINE
  5
166
330
1F
100
AcDbEntity
  8
0
  6
Continuous
 62
     7
370
    25
100
AcDbLine
 10
1816.3899611112
 20
1354.9317501907
 30
0.0
 11
1816.3899611112
 21
1369.9317501907
 31
0.0
  0
LINE
  5
167
330
1F
100
AcDbEntity
  8
0
  6
Continuous
 62
     7
370
    25
100
AcDbLine
 10
1485.5899611112
 20
1354.9317501907
 30
0.0
 11
1485.5899611112
 21
1369.9317501907
 31
0.0
  0
LINE
  5
168
330
1F
100
AcDbEntity
  8
0
  6
Continuous
 62
     7
370
    25
100
AcDbLine
 10
1485.5899611112
 20
1354.9317501907
 30
0.0
 11
1816.3899611112
 21
1354.9317501907
 31
0.0
  0
LINE
  5
169
330
1F
100
AcDbEntity
  8
0
  6
Continuous
 62
     7
370
    25
100
AcDbLine
 10
1850.9899611112
 20
1369.9317501907
 30
0.0
 11
1850.9899611112
 21
1384.9317501907
 31
0.0
  0
LINE
  5
16A
330
1F
100
AcDbEntity
  8
0
  6
Continuous
 62
     7
370
    25
100
AcDbLine
 10
1817.4575433486
 20
1369.9317501907
 30
0.0
 11
1850.9899611112
 21
1369.9317501907
 31
0.0
  0
LINE
  5
16B
330
1F
100
AcDbEntity
  8
0
  6
Continuous
 62
     7
370
    25
100
AcDbLine
 10
1817.4575433486
 20
1384.9317501907
 30
0.0
 11
1850.9899611112
 21
1384.9317501907
 31
0.0
  0
LINE
  5
16C
330
1F
100
AcDbEntity
  8
0
  6
Continuous
 62
     7
370
    25
100
AcDbLine
 10
1850.9899611112
 20
787.7317501907
 30
0.0
 11
1850.9899611112
 21
802.7317501907
 31
0.0
  0
LINE
  5
16D
330
1F
100
AcDbEntity
  8
0
  6
Continuous
 62
     7
370
    25
100
AcDbLine
 10
1817.4575433486
 20
787.7317501907
 30
0.0
 11
1850.9899611112
 21
787.7317501907
 31
0.0
  0
LINE
  5
16E
330
1F
100
AcDbEntity
  8
0
  6
Continuous
 62
     7
370
    25
100
AcDbLine
 10
1817.4575433486
 20
802.7317501907
 30
0.0
 11
1850.9899611112
 21
802.7317501907
 31
0.0
  0
LINE
  5
16F
330
1F
100
AcDbEntity
  8
0
  6
Continuous
 62
     7
370
    25
100
AcDbLine
 10
1450.9899611112
 20
1369.9317501907
 30
0.0
 11
1450.9899611112
 21
1384.9317501907
 31
0.0
  0
LINE
  5
170
330
1F
100
AcDbEntity
  8
0
  6
Continuous
 62
     7
370
    25
100
AcDbLine
 10
1450.9899611112
 20
1369.9317501907
 30
0.0
 11
1484.5223788739
 21
1369.9317501907
 31
0.0
  0
LINE
  5
171
330
1F
100
AcDbEntity
  8
0
  6
Continuous
 62
     7
370
    25
100
AcDbLine
 10
1450.9899611112
 20
1384.9317501907
 30
0.0
 11
1484.5223788739
 21
1384.9317501907
 31
0.0
  0
LINE
  5
172
330
1F
100
AcDbEntity
  8
0
  6
Continuous
 62
     7
370
    25
100
AcDbLine
 10
1450.9899611112
 20
787.7317501907
 30
0.0
 11
1450.9899611112
 21
802.7317501907
 31
0.0
  0
LINE
  5
173
330
1F
100
AcDbEntity
  8
0
  6
Continuous
 62
     7
370
    25
100
AcDbLine
 10
1450.9899611112
 20
787.7317501907
 30
0.0
 11
1484.5223788739
 21
787.7317501907
 31
0.0
  0
LINE
  5
174
330
1F
100
AcDbEntity
  8
0
  6
Continuous
 62
     7
370
    25
100
AcDbLine
 10
1450.9899611112
 20
802.7317501907
 30
0.0
 11
1484.5223788739
 21
802.7317501907
 31
0.0
  0
LINE
  5
175
330
1F
100
AcDbEntity
  8
0
  6
Continuous
 62
     7
370
    25
100
AcDbLine
 10
1453.3899611112
 20
802.7317501907
 30
0.0
 11
1453.3899611112
 21
817.7317501907
 31
0.0
  0
LINE
  5
176
330
1F
100
AcDbEntity
  8
0
  6
Continuous
 62
     7
370
    25
100
AcDbLine
 10
1453.3899611112
 20
817.7317501907
 30
0.0
 11
1485.5899611112
 21
817.7317501907
 31
0.0
  0
LINE
  5
177
330
1F
100
AcDbEntity
  8
0
  6
Continuous
 62
     7
370
    25
100
AcDbLine
 10
1848.5899611112
 20
1354.9317501907
 30
0.0
 11
1848.5899611112
 21
1369.9317501907
 31
0.0
  0
LINE
  5
178
330
1F
100
AcDbEntity
  8
0
  6
Continuous
 62
     7
370
    25
100
AcDbLine
 10
1816.3899611112
 20
1354.9317501907
 30
0.0
 11
1848.5899611112
 21
1354.9317501907
 31
0.0
  0
LINE
  5
179
330
1F
100
AcDbEntity
  8
0
  6
Continuous
 62
     7
370
    25
100
AcDbLine
 10
1848.5899611112
 20
802.7317501907
 30
0.0
 11
1848.5899611112
 21
817.7317501907
 31
0.0
  0
LINE
  5
17A
330
1F
100
AcDbEntity
  8
0
  6
Continuous
 62
     7
370
    25
100
AcDbLine
 10
1816.3899611112
 20
817.7317501907
 30
0.0
 11
1848.5899611112
 21
817.7317501907
 31
0.0
  0
LINE
  5
17B
330
1F
100
AcDbEntity
  8
0
  6
Continuous
 62
     7
370
    25
100
AcDbLine
 10
1453.3899611112
 20
1354.9317501907
 30
0.0
 11
1453.3899611112
 21
1369.9317501907
 31
0.0
  0
LINE
  5
17C
330
1F
100
AcDbEntity
  8
0
  6
Continuous
 62
     7
370
    25
100
AcDbLine
 10
1453.3899611112
 20
1354.9317501907
 30
0.0
 11
1485.5899611112
 21
1354.9317501907
 31
0.0
  0
LINE
  5
17D
330
1F
100
AcDbEntity
  8
0
  6
Continuous
 62
     7
370
    25
100
AcDbLine
 10
1848.5899611112
 20
817.7317501907
 30
0.0
 11
1848.5899611112
 21
1354.9317501907
 31
0.0
  0
LINE
  5
17E
330
1F
100
AcDbEntity
  8
0
  6
Continuous
 62
     7
370
    25
100
AcDbLine
 10
1848.0300350824
 20
1354.9317501907
 30
0.0
 11
1848.0300350824
 21
817.7317501907
 31
0.0
  0
LINE
  5
17F
330
1F
100
AcDbEntity
  8
0
  6
Continuous
 62
     7
370
    25
100
AcDbLine
 10
1453.3899611112
 20
817.7317501907
 30
0.0
 11
1453.3899611112
 21
1354.9317501907
 31
0.0
  0
LINE
  5
180
330
1F
100
AcDbEntity
  8
0
  6
Continuous
 62
     7
370
    25
100
AcDbLine
 10
1453.9498871401
 20
817.7317501907
 30
0.0
 11
1453.9498871401
 21
1354.9317501907
 31
0.0
  0
CIRCLE
  5
181
330
1F
100
AcDbEntity
  8
0
  6
Continuous
 62
     7
370
    25
100
AcDbCircle
 10
1650.9899611112
 20
1086.3317501907
 30
0.0
 40
157.0
  0
CIRCLE
  5
182
330
1F
100
AcDbEntity
  8
0
  6
Continuous
 62
     7
370
    25
100
AcDbCircle
 10
1545.984604105
 20
1191.3371071969
 30
0.0
 40
4.000000000001592
  0
CIRCLE
  5
183
330
1F
100
AcDbEntity
  8
0
  6
Continuous
 62
     7
370
    25
100
AcDbCircle
 10
1502.4899611112
 20
1086.3317501907
 30
0.0
 40
4.000000000001592
  0
CIRCLE
  5
184
330
1F
100
AcDbEntity
  8
0
  6
Continuous
 62
     7
370
    25
100
AcDbCircle
 10
1545.984604105
 20
981.3263931845
 30
0.0
 40
4.000000000001364
  0
CIRCLE
  5
185
330
1F
100
AcDbEntity
  8
0
  6
Continuous
 62
     7
370
    25
100
AcDbCircle
 10
1650.9899611112
 20
937.8317501907
 30
0.0
 40
4.000000000001137
  0
CIRCLE
  5
186
330
1F
100
AcDbEntity
  8
0
  6
Continuous
 62
     7
370
    25
100
AcDbCircle
 10
1755.9953181174
 20
981.3263931845
 30
0.0
 40
4.000000000000682
  0
CIRCLE
  5
187
330
1F
100
AcDbEntity
  8
0
  6
Continuous
 62
     7
370
    25
100
AcDbCircle
 10
1755.9953181174
 20
1191.3371071969
 30
0.0
 40
4.0
  0
CIRCLE
  5
188
330
1F
100
AcDbEntity
  8
0
  6
Continuous
 62
     7
370
    25
100
AcDbCircle
 10
1650.9899611112
 20
1234.8317501907
 30
0.0
 40
4.0
  0
CIRCLE
  5
189
330
1F
100
AcDbEntity
  8
0
  6
Continuous
 62
     7
370
    25
100
AcDbCircle
 10
1650.9899611112
 20
1086.3317501907
 30
0.0
 40
121.25
  0
CIRCLE
  5
18A
330
1F
100
AcDbEntity
  8
0
  6
Continuous
 62
     7
370
    25
100
AcDbCircle
 10
1799.4899611112
 20
1086.3317501907
 30
0.0
 40
4.000000000000455
  0
CIRCLE
  5
18B
330
1F
100
AcDbEntity
  8
0
  6
Continuous
 62
     7
370
    25
100
AcDbCircle
 10
1744.9899611112
 20
1300.7317501907
 30
0.0
 40
41.40000000000032
  0
CIRCLE
  5
18C
330
1F
100
AcDbEntity
  8
0
  6
Continuous
 62
     7
370
    25
100
AcDbCircle
 10
1650.9899611112
 20
1086.3317501907
 30
0.0
 40
161.0
  0
CIRCLE
  5
18D
330
1F
100
AcDbEntity
  8
0
  6
Continuous
 62
     7
370
    25
100
AcDbCircle
 10
1555.9899611112
 20
871.7317501907
 30
0.0
 40
41.39999999999986
  0
CIRCLE
  5
18E
330
1F
100
AcDbEntity
  8
0
  6
Continuous
 62
     7
370
    25
100
AcDbCircle
 10
1650.9899611112
 20
1086.3317501907
 30
0.0
 40
66.98037574379919
  0
LINE
  5
18F
330
1F
100
AcDbEntity
  8
0
  6
Continuous
 62
     7
370
    25
100
AcDbLine
 10
1850.9899611112
 20
1366.9317501907
 30
0.0
 11
1848.5899611112
 21
1366.9317501907
 31
0.0
  0
LINE
  5
190
330
1F
100
AcDbEntity
  8
0
  6
Continuous
 62
     7
370
    25
100
AcDbLine
 10
1850.9899611112
 20
1369.9317501907
 30
0.0
 11
1850.9899611112
 21
1366.9317501907
 31
0.0
  0
LINE
  5
191
330
1F
100
AcDbEntity
  8
0
  6
Continuous
 62
     7
370
    25
100
AcDbLine
 10
1848.5899611112
 20
805.7317501907
 30
0.0
 11
1850.9899611112
 21
805.7317501907
 31
0.0
  0
LINE
  5
192
330
1F
100
AcDbEntity
  8
0
  6
Continuous
 62
     7
370
    25
100
AcDbLine
 10
1850.9899611112
 20
805.7317501907
 30
0.0
 11
1850.9899611112
 21
802.7317501907
 31
0.0
  0
LINE
  5
193
330
1F
100
AcDbEntity
  8
0
  6
Continuous
 62
     7
370
    25
100
AcDbLine
 10
1453.3899611112
 20
1366.9317501907
 30
0.0
 11
1450.9899611112
 21
1366.9317501907
 31
0.0
  0
LINE
  5
194
330
1F
100
AcDbEntity
  8
0
  6
Continuous
 62
     7
370
    25
100
AcDbLine
 10
1450.9899611112
 20
1366.9317501907
 30
0.0
 11
1450.9899611112
 21
1369.9317501907
 31
0.0
  0
LINE
  5
195
330
1F
100
AcDbEntity
  8
0
  6
Continuous
 62
     7
370
    25
100
AcDbLine
 10
1450.9899611112
 20
805.7317501907
 30
0.0
 11
1453.3899611112
 21
805.7317501907
 31
0.0
  0
LINE
  5
196
330
1F
100
AcDbEntity
  8
0
  6
Continuous
 62
     7
370
    25
100
AcDbLine
 10
1450.9899611112
 20
802.7317501907
 30
0.0
 11
1450.9899611112
 21
805.7317501907
 31
0.0
  0
LINE
  5
197
330
1F
100
AcDbEntity
  8
0
  6
Continuous
 62
     7
370
    25
100
AcDbLine
 10
1850.9899611112
 20
805.7317501907
 30
0.0
 11
1850.9899611112
 21
1366.9317501907
 31
0.0
  0
LINE
  5
198
330
1F
100
AcDbEntity
  8
0
  6
Continuous
 62
     7
370
    25
100
AcDbLine
 10
1450.9899611112
 20
805.7317501907
 30
0.0
 11
1450.9899611112
 21
1366.9317501907
 31
0.0
  0
CIRCLE
  5
199
330
1F
100
AcDbEntity
  8
0
  6
Continuous
 62
     7
370
    25
100
AcDbCircle
 10
1650.9899611112
 20
1086.3317501907
 30
0.0
 40
6.822813948966768
  0
CIRCLE
  5
19A
330
1F
100
AcDbEntity
  8
0
  6
Continuous
 62
     7
370
    25
100
AcDbCircle
 10
1650.9899611112
 20
1086.3317501907
 30
0.0
 40
57.0
  0
LINE
  5
19B
330
1F
100
AcDbEntity
  8
SLD-0
100
AcDbLine
 10
1639.0736541947
 20
1107.1173156088
 30
0.0
 11
1639.0736541947
 21
1100.0861847727
 31
0.0
  0
LINE
  5
19C
330
1F
100
AcDbEntity
  8
SLD-0
100
AcDbLine
 10
1635.5580887766
 20
1103.6017501907
 30
0.0
 11
1642.5892196127
 21
1103.6017501907
 31
0.0
  0
DIMENSION
  5
19D
330
1F
100
AcDbEntity
  8
SLD-0
100
AcDbDimension
  2
_D
 10
1326.3397955981
 20
1103.6017501907
 30
0.0
 11
1326.3397955981
 21
945.6667501907
 31
0.0
 70
   160
  1
<>
 71
     2
 42
-1.0
  3
SLDDIMSTYLE0
100
AcDbAlignedDimension
 13
1450.9899611112
 23
787.7317501907
 33
0.0
 14
1635.5580887766
 24
1103.6017501907
 34
0.0
 50
90.0
100
AcDbRotatedDimension
  0
DIMENSION
  5
1B2
330
1F
100
AcDbEntity
  8
SLD-0
100
AcDbDimension
  2
_D_1
 10
1850.9899611112
 20
1501.3671908999
 30
0.0
 11
1650.9899611112
 21
1501.3671908999
 31
0.0
 70
   160
  1
<>
 71
     2
 42
-1.0
  3
SLDDIMSTYLE1
100
AcDbAlignedDimension
 13
1450.9899611112
 23
1384.9317501907
 33
0.0
 14
1850.9899611112
 24
1384.9317501907
 34
0.0
100
AcDbRotatedDimension
  0
INSERT
  5
1CC
330
1F
100
AcDbEntity
  8
SLD-0
100
AcDbBlockReference
  2
SW_SYMBOL_MOD_CL
 10
1634.7413882717
 20
1418.3086865265
 30
0.0
 41
0.0030416748
 42
0.0030416748
 43
0.0030416748
  0
INSERT
  5
1CD
330
1F
100
AcDbEntity
  8
SLD-0
100
AcDbBlockReference
  2
SW_SYMBOL_MOD_COM
 10
1622.033423741
 20
1089.5018657735
 30
0.0
 41
0.0030416748
 42
0.0030416748
 43
0.0030416748
  0
LINE
  5
1CE
330
1F
100
AcDbEntity
  8
SLD-0
  6
CENTERX2
370
    18
100
AcDbLine
 10
1650.9899611112
 20
1395.7885206112
 30
0.0
 11
1650.9899611112
 21
776.9315706154
 31
0.0
  0
ARC
  5
1CF
330
1F
100
AcDbEntity
  8
0
  6
Continuous
 62
     7
370
    25
100
AcDbCircle
 10
1757.5917081708
 20
1980.6109077982
 30
0.0
 40
106.7000000000001
100
AcDbArc
 50
304.1296111605
 51
331.0846569626
  0
ARC
  5
1D0
330
1F
100
AcDbEntity
  8
0
  6
Continuous
 62
     7
370
    25
100
AcDbCircle
 10
1650.9899611112
 20
3053.9711222554
 30
0.0
 40
1173.55
100
AcDbArc
 50
261.8451119918
 51
278.1548880082
  0
ARC
  5
1D1
330
1F
100
AcDbEntity
  8
0
  6
Continuous
 62
     7
370
    25
100
AcDbCircle
 10
1544.3882140516
 20
1980.6109077982
 30
0.0
 40
106.7000000000001
100
AcDbArc
 50
208.9153430374
 51
235.8703888395
  0
LINE
  5
1D2
330
1F
100
AcDbEntity
  8
0
  6
Continuous
 62
     7
370
    25
100
AcDbLine
 10
1450.9899611112
 20
1929.0196648622
 30
0.0
 11
1450.9899611112
 21
2058.1253351315
 31
0.0
  0
LINE
  5
1D3
330
1F
100
AcDbEntity
  8
0
  6
Continuous
 62
     7
370
    25
100
AcDbLine
 10
1850.9899611112
 20
2058.1253351315
 30
0.0
 11
1850.9899611112
 21
1929.0196648622
 31
0.0
  0
CIRCLE
  5
1D4
330
1F
100
AcDbEntity
  8
0
  6
Continuous
 62
     7
370
    25
100
AcDbCircle
 10
1704.9399611112
 20
2070.2211222554
 30
0.0
 40
7.0
  0
CIRCLE
  5
1D5
330
1F
100
AcDbEntity
  8
0
  6
Continuous
 62
     7
370
    25
100
AcDbCircle
 10
1704.9399611112
 20
2019.4211222554
 30
0.0
 40
7.000000000000227
  0
CIRCLE
  5
1D6
330
1F
100
AcDbEntity
  8
0
  6
Continuous
 62
     7
370
    25
100
AcDbCircle
 10
1597.0399611112
 20
2019.4211222554
 30
0.0
 40
7.000000000000227
  0
CIRCLE
  5
1D7
330
1F
100
AcDbEntity
  8
0
  6
Continuous
 62
     7
370
    25
100
AcDbCircle
 10
1597.0399611112
 20
2070.2211222554
 30
0.0
 40
7.0
  0
CIRCLE
  5
1D8
330
1F
100
AcDbEntity
  8
0
  6
Continuous
 62
     7
370
    25
100
AcDbCircle
 10
1650.9899611112
 20
2044.8211222554
 30
0.0
 40
9.0
  0
CIRCLE
  5
1D9
330
1F
100
AcDbEntity
  8
0
  6
Continuous
 62
     7
370
    25
100
AcDbCircle
 10
1810.5899611112
 20
1979.8211222554
 30
0.0
 40
10.75
  0
CIRCLE
  5
1DA
330
1F
100
AcDbEntity
  8
0
  6
Continuous
 62
     7
370
    25
100
AcDbCircle
 10
1491.3899611112
 20
1979.8211222554
 30
0.0
 40
10.75
  0
CIRCLE
  5
1DB
330
1F
100
AcDbEntity
  8
0
  6
Continuous
 62
     7
370
    25
100
AcDbCircle
 10
1650.9899611112
 20
2190.4211222554
 30
0.0
 40
10.75
  0
LINE
  5
1DC
330
1F
100
AcDbEntity
  8
0
  6
Continuous
 62
     7
370
    25
100
AcDbLine
 10
1450.9899611112
 20
2058.1253351315
 30
0.0
 11
1537.4695693604
 21
2230.8211222554
 31
0.0
  0
LINE
  5
1DD
330
1F
100
AcDbEntity
  8
0
  6
Continuous
 62
     7
370
    25
100
AcDbLine
 10
1537.4695693604
 20
2230.8211222554
 30
0.0
 11
1764.510352862
 21
2230.8211222554
 31
0.0
  0
LINE
  5
1DE
330
1F
100
AcDbEntity
  8
0
  6
Continuous
 62
     7
370
    25
100
AcDbLine
 10
1764.510352862
 20
2230.8211222554
 30
0.0
 11
1850.9899611112
 21
2058.1253351315
 31
0.0
  0
CIRCLE
  5
1DF
330
1F
100
AcDbEntity
  8
0
  6
Continuous
 62
     7
370
    25
100
AcDbCircle
 10
1650.9899611112
 20
2190.4211222554
 30
0.0
 40
5.500000000000455
  0
CIRCLE
  5
1E0
330
1F
100
AcDbEntity
  8
0
  6
Continuous
 62
     7
370
    25
100
AcDbCircle
 10
1597.0399611112
 20
2070.2211222554
 30
0.0
 40
3.5
  0
CIRCLE
  5
1E1
330
1F
100
AcDbEntity
  8
0
  6
Continuous
 62
     7
370
    25
100
AcDbCircle
 10
1704.9399611112
 20
2070.2211222554
 30
0.0
 40
3.5
  0
CIRCLE
  5
1E2
330
1F
100
AcDbEntity
  8
0
  6
Continuous
 62
     7
370
    25
100
AcDbCircle
 10
1650.9899611112
 20
2044.8211222554
 30
0.0
 40
4.5
  0
CIRCLE
  5
1E3
330
1F
100
AcDbEntity
  8
0
  6
Continuous
 62
     7
370
    25
100
AcDbCircle
 10
1704.9399611112
 20
2019.4211222554
 30
0.0
 40
3.500000000000227
  0
CIRCLE
  5
1E4
330
1F
100
AcDbEntity
  8
0
  6
Continuous
 62
     7
370
    25
100
AcDbCircle
 10
1597.0399611112
 20
2019.4211222554
 30
0.0
 40
3.500000000000227
  0
CIRCLE
  5
1E5
330
1F
100
AcDbEntity
  8
0
  6
Continuous
 62
     7
370
    25
100
AcDbCircle
 10
1810.5899611112
 20
1979.8211222554
 30
0.0
 40
5.500000000000227
  0
CIRCLE
  5
1E6
330
1F
100
AcDbEntity
  8
0
  6
Continuous
 62
     7
370
    25
100
AcDbCircle
 10
1491.3899611112
 20
1979.8211222554
 30
0.0
 40
5.500000000000227
  0
LINE
  5
1E7
330
1F
100
AcDbEntity
  8
SLD-0
100
AcDbLine
 10
1491.3899611112
 20
1979.8211222554
 30
0.0
 11
1810.5899611112
 21
1979.8211222554
 31
0.0
  0
LINE
  5
1E8
330
1F
100
AcDbEntity
  8
SLD-0
100
AcDbLine
 10
1597.0399611112
 20
2070.2211222554
 30
0.0
 11
1704.9399611112
 21
2070.2211222554
 31
0.0
  0
LINE
  5
1E9
330
1F
100
AcDbEntity
  8
SLD-0
100
AcDbLine
 10
1704.9399611112
 20
2070.2211222554
 30
0.0
 11
1704.9399611112
 21
2019.4211222554
 31
0.0
  0
LINE
  5
1EA
330
1F
100
AcDbEntity
  8
SLD-0
100
AcDbLine
 10
1704.9399611112
 20
2019.4211222554
 30
0.0
 11
1597.0399611112
 21
2019.4211222554
 31
0.0
  0
LINE
  5
1EB
330
1F
100
AcDbEntity
  8
SLD-0
100
AcDbLine
 10
1597.0399611112
 20
2019.4211222554
 30
0.0
 11
1597.0399611112
 21
2070.2211222554
 31
0.0
  0
LINE
  5
1EC
330
1F
100
AcDbEntity
  8
SLD-0
100
AcDbLine
 10
1650.9899611112
 20
2190.4211222554
 30
0.0
 11
1650.9899611112
 21
2044.8211222554
 31
0.0
  0
DIMENSION
  5
1ED
330
1F
100
AcDbEntity
  8
SLD-0
100
AcDbDimension
  2
_D_2
 10
1450.9899611112
 20
2400.6663318791
 30
0.0
 11
1550.9899611112
 21
2400.6663318791
 31
0.0
 70
   160
  1
<>
 71
     2
 42
-1.0
  3
SLDDIMSTYLE1
100
AcDbAlignedDimension
 13
1650.9899611112
 23
2203.1711222554
 33
0.0
 14
1450.9899611112
 24
2058.1253351314
 34
0.0
100
AcDbRotatedDimension
  0
DIMENSION
  5
201
330
1F
100
AcDbEntity
  8
SLD-0
100
AcDbDimension
  2
_D_3
 10
1704.9399611112
 20
1815.6992793971
 30
0.0
 11
1650.9899611112
 21
1815.6992793971
 31
0.0
 70
   160
  1
<>
 71
     2
 42
-1.0
  3
SLDDIMSTYLE2
100
AcDbAlignedDimension
 13
1597.0399611112
 23
2010.4211222554
 33
0.0
 14
1704.9399611112
 24
2010.4211222554
 34
0.0
100
AcDbRotatedDimension
  0
DIMENSION
  5
216
330
1F
100
AcDbEntity
  8
SLD-0
100
AcDbDimension
  2
_D_4
 10
2194.4104757546
 20
1979.8211222554
 30
0.0
 11
2194.4104757546
 21
2105.3211222554
 31
0.0
 70
   160
  1
<>
 71
     2
 42
-1.0
  3
SLDDIMSTYLE1
100
AcDbAlignedDimension
 13
1764.510352862
 23
2230.8211222554
 33
0.0
 14
1823.3399611112
 24
1979.8211222554
 34
0.0
 50
90.0
100
AcDbRotatedDimension
  0
DIMENSION
  5
22A
330
1F
100
AcDbEntity
  8
SLD-0
100
AcDbDimension
  2
_D_5
 10
1941.5899611112
 20
2070.2211222554
 30
0.0
 11
1941.5899611112
 21
2150.5211222554
 31
0.0
 70
   160
  1
<>
 71
     2
 42
-1.0
  3
SLDDIMSTYLE0
100
AcDbAlignedDimension
 13
1764.510352862
 23
2230.8211222554
 33
0.0
 14
1713.9399611112
 24
2070.2211222554
 34
0.0
 50
90.0
100
AcDbRotatedDimension
  0
DIMENSION
  5
23E
330
1F
100
AcDbEntity
  8
SLD-0
100
AcDbDimension
  2
_D_6
 10
2067.9271837363
 20
2044.8211222554
 30
0.0
 11
2067.9271837363
 21
2137.8211222554
 31
0.0
 70
   160
  1
<>
 71
     2
 42
-1.0
  3
SLDDIMSTYLE3
100
AcDbAlignedDimension
 13
1764.510352862
 23
2230.8211222554
 33
0.0
 14
1661.9899611112
 24
2044.8211222554
 34
0.0
 50
90.0
100
AcDbRotatedDimension
  0
DIMENSION
  5
253
330
1F
100
AcDbEntity
  8
SLD-0
100
AcDbDimension
  2
_D_7
 10
1840.0767827551
 20
2190.4211222554
 30
0.0
 11
1840.0767827551
 21
2340.326717828
 31
0.0
 70
   160
  1
<>
 71
     2
 42
-1.0
  3
SLDDIMSTYLE2
100
AcDbAlignedDimension
 13
1764.510352862
 23
2230.8211222554
 33
0.0
 14
1663.7399611112
 24
2190.4211222554
 34
0.0
 50
90.0
100
AcDbRotatedDimension
  0
DIMENSION
  5
268
330
1F
100
AcDbEntity
  8
SLD-0
100
AcDbDimension
  2
_D_8
 10
1360.9899611112
 20
2019.4211222554
 30
0.0
 11
1360.9899611112
 21
1961.0419944615
 31
0.0
 70
   160
  1
<>
 71
     2
 42
-1.0
  3
SLDDIMSTYLE0
100
AcDbAlignedDimension
 13
1588.0399611112
 23
2070.2211222554
 33
0.0
 14
1588.0399611112
 24
2019.4211222554
 34
0.0
 50
90.0
100
AcDbRotatedDimension
  0
DIMENSION
  5
27D
330
1F
100
AcDbEntity
  8
SLD-0
100
AcDbDimension
  2
_D_9
 10
1810.5899611112
 20
1718.6314086679
 30
0.0
 11
1650.9899611112
 21
1718.6314086679
 31
0.0
 70
   160
  1
<>
 71
     2
 42
-1.0
  3
SLDDIMSTYLE0
100
AcDbAlignedDimension
 13
1491.3899611112
 23
1967.0711222554
 33
0.0
 14
1810.5899611112
 24
1967.0711222554
 34
0.0
100
AcDbRotatedDimension
  0
DIMENSION
  5
291
330
1F
100
AcDbEntity
  8
SLD-0
100
AcDbDimension
  2
_D_10
 10
1450.9899611112
 20
2230.3010246426
 30
0.0
 11
1342.0403424081
 21
2230.3010246426
 31
0.0
 70
   160
  1
<>
 71
     2
 42
-1.0
  3
SLDDIMSTYLE2
100
AcDbAlignedDimension
 13
1491.3899611112
 23
1992.5711222554
 33
0.0
 14
1450.9899611112
 24
2058.1253351314
 34
0.0
 50
0.0
100
AcDbRotatedDimension
  0
DIMENSION
  5
2A5
330
1F
100
AcDbEntity
  8
SLD-0
100
AcDbDimension
  2
_D_11
 10
1597.0399611112
 20
2305.7021451191
 30
0.0
 11
1524.0149611112
 21
2305.7021451191
 31
0.0
 70
   160
  1
<>
 71
     2
 42
-1.0
  3
SLDDIMSTYLE2
100
AcDbAlignedDimension
 13
1450.9899611112
 23
2058.1253351314
 33
0.0
 14
1597.0399611112
 24
2079.2211222554
 34
0.0
100
AcDbRotatedDimension
  0
MTEXT
  5
2B9
330
1F
100
AcDbEntity
  8
SLD-0
100
AcDbMText
 10
1456.7322011636
 20
1630.6511488415
 30
0.0
 40
21.43125
 41
0.0
 71
     1
 72
     1
  1
DIMENSIONS TYP BOTH SIDES
  7
SLDTEXTSTYLE0
 73
     1
 44
1.0
  0
INSERT
  5
2C2
102
{ACAD_REACTORS
330
2C4
102
}
330
1F
100
AcDbEntity
  8
SLD-0
100
AcDbBlockReference
  2
SW_NOTE_0_1
 10
1740.1505646173
 20
2303.6386449184
 30
0.0
  0
LEADER
  5
2C4
330
1F
100
AcDbEntity
  8
SLD-0
100
AcDbLeader
  3
SLDDIMSTYLE4
 73
     2
 76
     3
 10
1657.8755270563
 20
2050.61672245
 30
0.0
 10
1722.1505646173
 20
2303.6386449184
 30
0.0
 10
1740.1505646173
 20
2303.6386449184
 30
0.0
340
2C2
  0
INSERT
  5
2CD
102
{ACAD_REACTORS
330
2CE
102
}
330
1F
100
AcDbEntity
  8
SLD-0
100
AcDbBlockReference
  2
SW_NOTE_0_2
 10
1397.9924717691
 20
1825.9723964868
 30
0.0
  0
LEADER
  5
2CE
330
1F
100
AcDbEntity
  8
SLD-0
100
AcDbLeader
  3
SLDDIMSTYLE4
 73
     2
 76
     3
 10
1593.8453861513
 20
2013.1925838374
 30
0.0
 10
1415.9924717691
 20
1825.9723964868
 30
0.0
 10
1397.9924717691
 20
1825.9723964868
 30
0.0
340
2CD
  0
INSERT
  5
2D7
102
{ACAD_REACTORS
330
2D8
102
}
330
1F
100
AcDbEntity
  8
SLD-0
100
AcDbBlockReference
  2
SW_NOTE_0_3
 10
1968.2559598494
 20
1827.1016311167
 30
0.0
  0
LEADER
  5
2D8
330
1F
100
AcDbEntity
  8
SLD-0
100
AcDbLeader
  3
SLDDIMSTYLE4
 73
     2
 76
     3
 10
1818.1922462412
 20
1972.2206116935
 30
0.0
 10
1950.2559598494
 20
1827.1016311167
 30
0.0
 10
1968.2559598494
 20
1827.1016311167
 30
0.0
340
2D7
  0
MTEXT
  5
2D9
330
1F
100
AcDbEntity
  8
SLD-0
100
AcDbMText
 10
2034.7087459306
 20
1836.7640399798
 30
0.0
 40
21.43125
 41
0.0
 71
     1
 72
     1
  1
3X
  7
SLDTEXTSTYLE0
 73
     1
 44
1.0
  0
MTEXT
  5
2DA
330
1F
100
AcDbEntity
  8
SLD-0
100
AcDbMText
 10
1303.331676946
 20
1836.7640399798
 30
0.0
 40
21.43125
 41
0.0
 71
     1
 72
     1
  1
4X
  7
SLDTEXTSTYLE0
 73
     1
 44
1.0
  0
INSERT
  5
2E6
330
1F
100
AcDbEntity
  8
SLD-0
100
AcDbBlockReference
  2
SW_CENTERMARKSYMBOL_0
 10
1650.9899611112
 20
2190.4211222554
 30
0.0
  0
INSERT
  5
2F2
330
1F
100
AcDbEntity
  8
SLD-0
100
AcDbBlockReference
  2
SW_CENTERMARKSYMBOL_1
 10
1491.3899611112
 20
1979.8211222554
 30
0.0
  0
INSERT
  5
2FE
330
1F
100
AcDbEntity
  8
SLD-0
100
AcDbBlockReference
  2
SW_CENTERMARKSYMBOL_2
 10
1810.5899611112
 20
1979.8211222554
 30
0.0
  0
INSERT
  5
30A
330
1F
100
AcDbEntity
  8
SLD-0
100
AcDbBlockReference
  2
SW_CENTERMARKSYMBOL_3
 10
1597.0399611112
 20
2070.2211222554
 30
0.0
  0
INSERT
  5
316
330
1F
100
AcDbEntity
  8
SLD-0
100
AcDbBlockReference
  2
SW_CENTERMARKSYMBOL_4
 10
1597.0399611112
 20
2019.4211222554
 30
0.0
  0
INSERT
  5
322
330
1F
100
AcDbEntity
  8
SLD-0
100
AcDbBlockReference
  2
SW_CENTERMARKSYMBOL_5
 10
1650.9899611112
 20
2044.8211222554
 30
0.0
  0
INSERT
  5
32E
330
1F
100
AcDbEntity
  8
SLD-0
100
AcDbBlockReference
  2
SW_CENTERMARKSYMBOL_6
 10
1704.9399611112
 20
2019.4211222554
 30
0.0
  0
INSERT
  5
33A
330
1F
100
AcDbEntity
  8
SLD-0
100
AcDbBlockReference
  2
SW_CENTERMARKSYMBOL_7
 10
1704.9399611112
 20
2070.2211222554
 30
0.0
  0
LINE
  5
33B
330
1F
100
AcDbEntity
  8
0
  6
Continuous
 62
     7
370
    25
100
AcDbLine
 10
1450.9899611112
 20
557.9876364272
 30
0.0
 11
1450.9899611112
 21
428.8819661579
 31
0.0
  0
ARC
  5
33C
330
1F
100
AcDbEntity
  8
0
  6
Continuous
 62
     7
370
    25
100
AcDbCircle
 10
1544.3882140516
 20
506.3963934912
 30
0.0
 40
106.7
100
AcDbArc
 50
124.1296111605
 51
151.0846569626
  0
ARC
  5
33D
330
1F
100
AcDbEntity
  8
0
  6
Continuous
 62
     7
370
    25
100
AcDbCircle
 10
1650.9899611112
 20
-566.9638209661
 30
0.0
 40
1173.55
100
AcDbArc
 50
81.8451119918
 51
98.1548880082
  0
ARC
  5
33E
330
1F
100
AcDbEntity
  8
0
  6
Continuous
 62
     7
370
    25
100
AcDbCircle
 10
1757.5917081708
 20
506.3963934912
 30
0.0
 40
106.6999999999999
100
AcDbArc
 50
28.9153430374
 51
55.8703888395
  0
LINE
  5
33F
330
1F
100
AcDbEntity
  8
0
  6
Continuous
 62
     7
370
    25
100
AcDbLine
 10
1850.9899611112
 20
428.8819661579
 30
0.0
 11
1850.9899611112
 21
557.9876364272
 31
0.0
  0
CIRCLE
  5
340
330
1F
100
AcDbEntity
  8
0
  6
Continuous
 62
     7
370
    25
100
AcDbCircle
 10
1704.9399611112
 20
416.7861790339
 30
0.0
 40
7.0
  0
CIRCLE
  5
341
330
1F
100
AcDbEntity
  8
0
  6
Continuous
 62
     7
370
    25
100
AcDbCircle
 10
1704.9399611112
 20
467.5861790339
 30
0.0
 40
6.999999999999943
  0
CIRCLE
  5
342
330
1F
100
AcDbEntity
  8
0
  6
Continuous
 62
     7
370
    25
100
AcDbCircle
 10
1597.0399611112
 20
467.5861790339
 30
0.0
 40
6.999999999999943
  0
CIRCLE
  5
343
330
1F
100
AcDbEntity
  8
0
  6
Continuous
 62
     7
370
    25
100
AcDbCircle
 10
1597.0399611112
 20
416.7861790339
 30
0.0
 40
7.0
  0
CIRCLE
  5
344
330
1F
100
AcDbEntity
  8
0
  6
Continuous
 62
     7
370
    25
100
AcDbCircle
 10
1650.9899611112
 20
442.1861790339
 30
0.0
 40
9.0
  0
CIRCLE
  5
345
330
1F
100
AcDbEntity
  8
0
  6
Continuous
 62
     7
370
    25
100
AcDbCircle
 10
1810.5899611112
 20
507.1861790339
 30
0.0
 40
10.74999999999994
  0
CIRCLE
  5
346
330
1F
100
AcDbEntity
  8
0
  6
Continuous
 62
     7
370
    25
100
AcDbCircle
 10
1491.3899611112
 20
507.1861790339
 30
0.0
 40
10.75
  0
CIRCLE
  5
347
330
1F
100
AcDbEntity
  8
0
  6
Continuous
 62
     7
370
    25
100
AcDbCircle
 10
1650.9899611112
 20
296.5861790339
 30
0.0
 40
10.74999999999994
  0
LINE
  5
348
330
1F
100
AcDbEntity
  8
0
  6
Continuous
 62
     7
370
    25
100
AcDbLine
 10
1450.9899611112
 20
428.8819661579
 30
0.0
 11
1537.4695693604
 21
256.1861790339
 31
0.0
  0
LINE
  5
349
330
1F
100
AcDbEntity
  8
0
  6
Continuous
 62
     7
370
    25
100
AcDbLine
 10
1537.4695693604
 20
256.1861790339
 30
0.0
 11
1764.510352862
 21
256.1861790339
 31
0.0
  0
LINE
  5
34A
330
1F
100
AcDbEntity
  8
0
  6
Continuous
 62
     7
370
    25
100
AcDbLine
 10
1764.510352862
 20
256.1861790339
 30
0.0
 11
1850.9899611112
 21
428.8819661579
 31
0.0
  0
CIRCLE
  5
34B
330
1F
100
AcDbEntity
  8
0
  6
Continuous
 62
     7
370
    25
100
AcDbCircle
 10
1650.9899611112
 20
296.5861790339
 30
0.0
 40
5.500000000000057
  0
CIRCLE
  5
34C
330
1F
100
AcDbEntity
  8
0
  6
Continuous
 62
     7
370
    25
100
AcDbCircle
 10
1704.9399611112
 20
416.7861790339
 30
0.0
 40
3.499999999999943
  0
CIRCLE
  5
34D
330
1F
100
AcDbEntity
  8
0
  6
Continuous
 62
     7
370
    25
100
AcDbCircle
 10
1597.0399611112
 20
416.7861790339
 30
0.0
 40
3.5
  0
CIRCLE
  5
34E
330
1F
100
AcDbEntity
  8
0
  6
Continuous
 62
     7
370
    25
100
AcDbCircle
 10
1650.9899611112
 20
442.1861790339
 30
0.0
 40
4.5
  0
CIRCLE
  5
34F
330
1F
100
AcDbEntity
  8
0
  6
Continuous
 62
     7
370
    25
100
AcDbCircle
 10
1597.0399611112
 20
467.5861790339
 30
0.0
 40
3.5
  0
CIRCLE
  5
350
330
1F
100
AcDbEntity
  8
0
  6
Continuous
 62
     7
370
    25
100
AcDbCircle
 10
1704.9399611112
 20
467.5861790339
 30
0.0
 40
3.5
  0
CIRCLE
  5
351
330
1F
100
AcDbEntity
  8
0
  6
Continuous
 62
     7
370
    25
100
AcDbCircle
 10
1810.5899611112
 20
507.1861790339
 30
0.0
 40
5.500000000000057
  0
CIRCLE
  5
352
330
1F
100
AcDbEntity
  8
0
  6
Continuous
 62
     7
370
    25
100
AcDbCircle
 10
1491.3899611112
 20
507.1861790339
 30
0.0
 40
5.5
  0
LINE
  5
353
330
1F
100
AcDbEntity
  8
SLD-0
100
AcDbLine
 10
1639.0499611112
 20
455.3798487069
 30
0.0
 11
1639.0499611112
 21
448.1925093609
 31
0.0
  0
LINE
  5
354
330
1F
100
AcDbEntity
  8
SLD-0
100
AcDbLine
 10
1635.4562914382
 20
451.7861790339
 30
0.0
 11
1642.6436307843
 21
451.7861790339
 31
0.0
  0
DIMENSION
  5
355
330
1F
100
AcDbEntity
  8
SLD-0
100
AcDbDimension
  2
_D_12
 10
1639.0499611112
 20
677.5626646218
 30
0.0
 11
1545.0199611112
 21
677.5626646218
 31
0.0
 70
   160
  1
<>
 71
     2
 42
-1.0
  3
SLDDIMSTYLE0
100
AcDbAlignedDimension
 13
1450.9899611112
 23
557.9876364272
 33
0.0
 14
1639.0499611112
 24
455.3798487069
 34
0.0
 50
0.0
100
AcDbRotatedDimension
  0
DIMENSION
  5
369
330
1F
100
AcDbEntity
  8
SLD-0
100
AcDbDimension
  2
_D_13
 10
1360.9899611112
 20
256.1861790339
 30
0.0
 11
1360.9899611112
 21
353.9861790339
 31
0.0
 70
   160
  1
<>
 71
     2
 42
-1.0
  3
SLDDIMSTYLE0
100
AcDbAlignedDimension
 13
1635.4562914382
 23
451.7861790339
 33
0.0
 14
1537.4695693604
 24
256.1861790339
 34
0.0
 50
90.0
100
AcDbRotatedDimension
  0
DIMENSION
  5
37D
330
1F
100
AcDbEntity
  8
SLD-0
100
AcDbDimension
  2
_D_14
 10
1450.9899611112
 20
428.8819661579
 30
0.0
 11
1650.9899611112
 21
222.818606729
 31
0.0
 70
   162
  1
<>
 71
     1
 42
-1.0
  3
SLDDIMSTYLE5
100
AcDb2LineAngularDimension
 13
1850.9899611112
 23
428.8819661579
 33
0.0
 14
1764.510352862
 24
256.1861790339
 34
0.0
 15
1537.4695693604
 25
256.1861790339
 35
0.0
 16
1705.8980635587
 26
214.8572879373
 36
0.0
  0
INSERT
  5
389
330
1F
100
AcDbEntity
  8
SLD-0
100
AcDbBlockReference
  2
SW_SYMBOL_MOD_COM
 10
1622.0783462697
 20
437.6870143335
 30
0.0
 41
0.0030416748
 42
0.0030416748
 43
0.0030416748
  0
INSERT
  5
392
102
{ACAD_REACTORS
330
393
102
}
330
1F
100
AcDbEntity
  8
SLD-0
100
AcDbBlockReference
  2
SW_NOTE_0_4
 10
1851.9447929737
 20
293.6010037641
 30
0.0
  0
LEADER
  5
393
330
1F
100
AcDbEntity
  8
SLD-0
100
AcDbLeader
  3
SLDDIMSTYLE4
 73
     2
 76
     3
 10
1657.2979534425
 20
435.7667372554
 30
0.0
 10
1833.9447929737
 20
293.6010037641
 30
0.0
 10
1851.9447929737
 20
293.6010037641
 30
0.0
340
392
  0
INSERT
  5
39C
102
{ACAD_REACTORS
330
39D
102
}
330
1F
100
AcDbEntity
  8
SLD-0
100
AcDbBlockReference
  2
SW_NOTE_0_5
 10
1836.1355081556
 20
665.1191969887
 30
0.0
  0
LEADER
  5
39D
330
1F
100
AcDbEntity
  8
SLD-0
100
AcDbLeader
  3
SLDDIMSTYLE4
 73
     2
 76
     3
 10
1710.0047869005
 20
472.4181082268
 30
0.0
 10
1818.1355081556
 20
665.1191969887
 30
0.0
 10
1836.1355081556
 20
665.1191969887
 30
0.0
340
39C
  0
INSERT
  5
3A6
102
{ACAD_REACTORS
330
3A7
102
}
330
1F
100
AcDbEntity
  8
SLD-0
100
AcDbBlockReference
  2
SW_NOTE_0_6
 10
1327.9799247177
 20
592.8481806775
 30
0.0
  0
LEADER
  5
3A7
330
1F
100
AcDbEntity
  8
SLD-0
100
AcDbLeader
  3
SLDDIMSTYLE4
 73
     2
 76
     3
 10
1480.6449631462
 20
506.8582785455
 30
0.0
 10
1345.9799247177
 20
592.8481806775
 30
0.0
 10
1327.9799247177
 20
592.8481806775
 30
0.0
340
3A6
  0
MTEXT
  5
3A8
330
1F
100
AcDbEntity
  8
SLD-0
100
AcDbMText
 10
1899.8104106006
 20
673.9167709501
 30
0.0
 40
21.43125
 41
0.0
 71
     1
 72
     1
  1
4X
  7
SLDTEXTSTYLE0
 73
     1
 44
1.0
  0
MTEXT
  5
3A9
330
1F
100
AcDbEntity
  8
SLD-0
100
AcDbMText
 10
1232.0054348364
 20
602.1273346724
 30
0.0
 40
21.43125
 41
0.0
 71
     1
 72
     1
  1
3X
  7
SLDTEXTSTYLE0
 73
     1
 44
1.0
  0
LINE
  5
3AA
330
1F
100
AcDbEntity
  8
0
  6
Continuous
 62
     7
370
    25
100
AcDbLine
 10
2174.3246845991
 20
802.7317501907
 30
0.0
 11
2174.3246845991
 21
787.7317501907
 31
0.0
  0
LINE
  5
3AB
330
1F
100
AcDbEntity
  8
0
  6
Continuous
 62
     7
370
    25
100
AcDbLine
 10
2174.3246845991
 20
1384.9317501907
 30
0.0
 11
2174.3246845991
 21
1369.9317501907
 31
0.0
  0
LINE
  5
3AC
330
1F
100
AcDbEntity
  8
0
  6
Continuous
 62
     7
370
    25
100
AcDbLine
 10
2179.7246845991
 20
1369.9317501907
 30
0.0
 11
2179.7246845991
 21
1354.9317501907
 31
0.0
  0
LINE
  5
3AD
330
1F
100
AcDbEntity
  8
0
  6
Continuous
 62
     7
370
    25
100
AcDbLine
 10
2179.7246845991
 20
817.7317501907
 30
0.0
 11
2179.7246845991
 21
802.7317501907
 31
0.0
  0
CIRCLE
  5
3AE
330
1F
100
AcDbEntity
  8
0
  6
Continuous
 62
     7
370
    25
100
AcDbCircle
 10
2273.7246845991
 20
828.1317501907
 30
0.0
 40
10.75
  0
CIRCLE
  5
3AF
330
1F
100
AcDbEntity
  8
0
  6
Continuous
 62
     7
370
    25
100
AcDbCircle
 10
2273.7246845991
 20
828.1317501907
 30
0.0
 40
5.5
  0
CIRCLE
  5
3B0
330
1F
100
AcDbEntity
  8
0
  6
Continuous
 62
     7
370
    25
100
AcDbCircle
 10
2273.7246845991
 20
1344.5317501907
 30
0.0
 40
10.75
  0
CIRCLE
  5
3B1
330
1F
100
AcDbEntity
  8
0
  6
Continuous
 62
     7
370
    25
100
AcDbCircle
 10
2273.7246845991
 20
1344.5317501907
 30
0.0
 40
5.5
  0
LINE
  5
3B2
330
1F
100
AcDbEntity
  8
0
  6
Continuous
 62
     7
370
    25
100
AcDbLine
 10
2524.7246845991
 20
787.7317501907
 30
0.0
 11
2524.7246845991
 21
1384.9317501907
 31
0.0
  0
LINE
  5
3B3
330
1F
100
AcDbEntity
  8
0
  6
Continuous
 62
     7
370
    25
100
AcDbLine
 10
2524.7246845991
 20
787.7317501907
 30
0.0
 11
2352.0288974752
 21
787.7317501907
 31
0.0
  0
LINE
  5
3B4
330
1F
100
AcDbEntity
  8
0
  6
Continuous
 62
     7
370
    25
100
AcDbLine
 10
2352.0288974752
 20
787.7317501907
 30
0.0
 11
2352.0288974752
 21
1384.9317501907
 31
0.0
  0
LINE
  5
3B5
330
1F
100
AcDbEntity
  8
0
  6
Continuous
 62
     7
370
    25
100
AcDbLine
 10
2524.7246845991
 20
1384.9317501907
 30
0.0
 11
2352.0288974752
 21
1384.9317501907
 31
0.0
  0
ARC
  5
3B6
330
1F
100
AcDbEntity
  8
0
  6
Continuous
 62
     7
370
    25
100
AcDbCircle
 10
2244.2246845991
 20
805.7317501907
 30
0.0
 40
3.0
100
AcDbArc
 50
270.0
 51
0.0
  0
LINE
  5
3B7
330
1F
100
AcDbEntity
  8
0
  6
Continuous
 62
     7
370
    25
100
AcDbLine
 10
2247.2246845991
 20
805.7317501907
 30
0.0
 11
2247.2246845991
 21
1366.9317501907
 31
0.0
  0
ARC
  5
3B8
330
1F
100
AcDbEntity
  8
0
  6
Continuous
 62
     7
370
    25
100
AcDbCircle
 10
2244.2246845991
 20
1366.9317501907
 30
0.0
 40
3.0
100
AcDbArc
 50
0.0
 51
90.0
  0
LINE
  5
3B9
330
1F
100
AcDbEntity
  8
0
  6
Continuous
 62
     7
370
    25
100
AcDbLine
 10
2222.9232272059
 20
1369.9317501907
 30
0.0
 11
2244.2246845991
 21
1369.9317501907
 31
0.0
  0
LINE
  5
3BA
330
1F
100
AcDbEntity
  8
0
  6
Continuous
 62
     7
370
    25
100
AcDbLine
 10
2222.9232272059
 20
1369.9317501907
 30
0.0
 11
2222.9232272059
 21
1384.9317501907
 31
0.0
  0
LINE
  5
3BB
330
1F
100
AcDbEntity
  8
0
  6
Continuous
 62
     7
370
    25
100
AcDbLine
 10
2222.9232272059
 20
787.7317501907
 30
0.0
 11
2222.9232272059
 21
802.7317501907
 31
0.0
  0
LINE
  5
3BC
330
1F
100
AcDbEntity
  8
0
  6
Continuous
 62
     7
370
    25
100
AcDbLine
 10
2222.9232272059
 20
802.7317501907
 30
0.0
 11
2244.2246845991
 21
802.7317501907
 31
0.0
  0
LINE
  5
3BD
330
1F
100
AcDbEntity
  8
0
  6
Continuous
 62
     7
370
    25
100
AcDbLine
 10
2352.0288974752
 20
787.7317501907
 30
0.0
 11
2222.9232272059
 21
787.7317501907
 31
0.0
  0
LINE
  5
3BE
330
1F
100
AcDbEntity
  8
0
  6
Continuous
 62
     7
370
    25
100
AcDbLine
 10
2352.0288974752
 20
1384.9317501907
 30
0.0
 11
2222.9232272059
 21
1384.9317501907
 31
0.0
  0
LINE
  5
3BF
330
1F
100
AcDbEntity
  8
0
  6
Continuous
 62
     7
370
    25
100
AcDbLine
 10
2186.1913600377
 20
802.7317501907
 30
0.0
 11
2186.1913600377
 21
787.7317501907
 31
0.0
  0
LINE
  5
3C0
330
1F
100
AcDbEntity
  8
0
  6
Continuous
 62
     7
370
    25
100
AcDbLine
 10
2186.1913600377
 20
802.7317501907
 30
0.0
 11
2222.9232272059
 21
802.7317501907
 31
0.0
  0
LINE
  5
3C1
330
1F
100
AcDbEntity
  8
0
  6
Continuous
 62
     7
370
    25
100
AcDbLine
 10
2186.1913600377
 20
787.7317501907
 30
0.0
 11
2222.9232272059
 21
787.7317501907
 31
0.0
  0
LINE
  5
3C2
330
1F
100
AcDbEntity
  8
0
  6
Continuous
 62
     7
370
    25
100
AcDbLine
 10
2186.1913600377
 20
1384.9317501907
 30
0.0
 11
2186.1913600377
 21
1369.9317501907
 31
0.0
  0
LINE
  5
3C3
330
1F
100
AcDbEntity
  8
0
  6
Continuous
 62
     7
370
    25
100
AcDbLine
 10
2186.1913600377
 20
1369.9317501907
 30
0.0
 11
2222.9232272059
 21
1369.9317501907
 31
0.0
  0
LINE
  5
3C4
330
1F
100
AcDbEntity
  8
0
  6
Continuous
 62
     7
370
    25
100
AcDbLine
 10
2186.1913600377
 20
1384.9317501907
 30
0.0
 11
2222.9232272059
 21
1384.9317501907
 31
0.0
  0
LINE
  5
3C5
330
1F
100
AcDbEntity
  8
0
  6
Continuous
 62
     7
370
    25
100
AcDbLine
 10
2224.0246845991
 20
802.7317501907
 30
0.0
 11
2224.0246845991
 21
817.7317501907
 31
0.0
  0
LINE
  5
3C6
330
1F
100
AcDbEntity
  8
0
  6
Continuous
 62
     7
370
    25
100
AcDbLine
 10
2224.0246845991
 20
817.7317501907
 30
0.0
 11
2224.0246845991
 21
1354.9317501907
 31
0.0
  0
LINE
  5
3C7
330
1F
100
AcDbEntity
  8
0
  6
Continuous
 62
     7
370
    25
100
AcDbLine
 10
2224.0246845991
 20
1354.9317501907
 30
0.0
 11
2224.0246845991
 21
1369.9317501907
 31
0.0
  0
LINE
  5
3C8
330
1F
100
AcDbEntity
  8
0
  6
Continuous
 62
     7
370
    25
100
AcDbLine
 10
2191.3742063607
 20
1354.9317501907
 30
0.0
 11
2191.3742063607
 21
1369.9317501907
 31
0.0
  0
LINE
  5
3C9
330
1F
100
AcDbEntity
  8
0
  6
Continuous
 62
     7
370
    25
100
AcDbLine
 10
2191.3742063607
 20
1354.9317501907
 30
0.0
 11
2224.0246845991
 21
1354.9317501907
 31
0.0
  0
LINE
  5
3CA
330
1F
100
AcDbEntity
  8
0
  6
Continuous
 62
     7
370
    25
100
AcDbLine
 10
2191.3742063607
 20
802.7317501907
 30
0.0
 11
2191.3742063607
 21
817.7317501907
 31
0.0
  0
LINE
  5
3CB
330
1F
100
AcDbEntity
  8
0
  6
Continuous
 62
     7
370
    25
100
AcDbLine
 10
2191.3742063607
 20
817.7317501907
 30
0.0
 11
2224.0246845991
 21
817.7317501907
 31
0.0
  0
LINE
  5
3CC
330
1F
100
AcDbEntity
  8
0
  6
Continuous
 62
     7
370
    25
100
AcDbLine
 10
2223.7246845991
 20
1354.9317501907
 30
0.0
 11
2223.7246845991
 21
817.7317501907
 31
0.0
  0
LINE
  5
3CD
330
1F
100
AcDbEntity
  8
0
  6
Continuous
 62
     7
370
    25
100
AcDbLine
 10
2174.3246845991
 20
802.7317501907
 30
0.0
 11
2186.1913600377
 21
802.7317501907
 31
0.0
  0
LINE
  5
3CE
330
1F
100
AcDbEntity
  8
0
  6
Continuous
 62
     7
370
    25
100
AcDbLine
 10
2174.3246845991
 20
787.7317501907
 30
0.0
 11
2186.1913600377
 21
787.7317501907
 31
0.0
  0
LINE
  5
3CF
330
1F
100
AcDbEntity
  8
0
  6
Continuous
 62
     7
370
    25
100
AcDbLine
 10
2174.3246845991
 20
1369.9317501907
 30
0.0
 11
2186.1913600377
 21
1369.9317501907
 31
0.0
  0
LINE
  5
3D0
330
1F
100
AcDbEntity
  8
0
  6
Continuous
 62
     7
370
    25
100
AcDbLine
 10
2174.3246845991
 20
1384.9317501907
 30
0.0
 11
2186.1913600377
 21
1384.9317501907
 31
0.0
  0
LINE
  5
3D1
330
1F
100
AcDbEntity
  8
0
  6
Continuous
 62
     7
370
    25
100
AcDbLine
 10
2179.7246845991
 20
1354.9317501907
 30
0.0
 11
2191.3742063607
 21
1354.9317501907
 31
0.0
  0
LINE
  5
3D2
330
1F
100
AcDbEntity
  8
0
  6
Continuous
 62
     7
370
    25
100
AcDbLine
 10
2179.7246845991
 20
817.7317501907
 30
0.0
 11
2191.3742063607
 21
817.7317501907
 31
0.0
  0
DIMENSION
  5
3D3
330
1F
100
AcDbEntity
  8
SLD-0
100
AcDbDimension
  2
_D_15
 10
2645.0385715457
 20
787.7317501907
 30
0.0
 11
2645.0385715457
 21
1086.3317501907
 31
0.0
 70
   160
  1
<>
 71
     2
 42
-1.0
  3
SLDDIMSTYLE0
100
AcDbAlignedDimension
 13
2524.7246845991
 23
1384.9317501907
 33
0.0
 14
2524.7246845991
 24
787.7317501907
 34
0.0
 50
90.0
100
AcDbRotatedDimension
  0
DIMENSION
  5
3E7
330
1F
100
AcDbEntity
  8
SLD-0
100
AcDbDimension
  2
_D_16
 10
2524.7246845991
 20
704.2622230011
 30
0.0
 11
2349.5246845991
 21
704.2622230011
 31
0.0
 70
   160
  1
<>
 71
     2
 42
-1.0
  3
SLDDIMSTYLE0
100
AcDbAlignedDimension
 13
2174.3246845991
 23
787.7317501907
 33
0.0
 14
2524.7246845991
 24
787.7317501907
 34
0.0
100
AcDbRotatedDimension
  0
INSERT
  5
403
102
{ACAD_REACTORS
330
404
102
}
330
1F
100
AcDbEntity
  8
SLD-0
100
AcDbBlockReference
  2
SW_NOTE_0_7
 10
2369.1342534504
 20
1527.8544542033
 30
0.0
  0
LEADER
  5
404
330
1F
100
AcDbEntity
  8
SLD-0
100
AcDbLeader
  3
SLDDIMSTYLE4
 73
     2
 76
     3
 10
2281.7144028047
 20
1351.7238919437
 30
0.0
 10
2351.1342534504
 20
1527.8544542033
 30
0.0
 10
2369.1342534504
 20
1527.8544542033
 30
0.0
340
403
  0
MTEXT
  5
405
330
1F
100
AcDbEntity
  8
SLD-0
100
AcDbMText
 10
2439.6815907521
 20
1537.7207296761
 30
0.0
 40
21.43125
 41
0.0
 71
     1
 72
     1
  1
2X
  7
SLDTEXTSTYLE0
 73
     1
 44
1.0
  0
LINE
  5
406
330
1F
100
AcDbEntity
  8
0
  6
Continuous
 62
     7
370
    25
100
AcDbLine
 10
882.4504101998
 20
1369.9317501907
 30
0.0
 11
882.4504101998
 21
1384.9317501907
 31
0.0
  0
LINE
  5
407
330
1F
100
AcDbEntity
  8
0
  6
Continuous
 62
     7
370
    25
100
AcDbLine
 10
882.4504101998
 20
787.7317501907
 30
0.0
 11
882.4504101998
 21
802.7317501907
 31
0.0
  0
LINE
  5
408
330
1F
100
AcDbEntity
  8
0
  6
Continuous
 62
     7
370
    25
100
AcDbLine
 10
877.0504101998
 20
1354.9317501907
 30
0.0
 11
877.0504101998
 21
1369.9317501907
 31
0.0
  0
LINE
  5
409
330
1F
100
AcDbEntity
  8
0
  6
Continuous
 62
     7
370
    25
100
AcDbLine
 10
877.0504101998
 20
802.7317501907
 30
0.0
 11
877.0504101998
 21
817.7317501907
 31
0.0
  0
LINE
  5
40A
330
1F
100
AcDbEntity
  8
0
  6
Continuous
 62
     7
370
    25
100
AcDbLine
 10
704.7461973238
 20
787.7317501907
 30
0.0
 11
704.7461973238
 21
1384.9317501907
 31
0.0
  0
LINE
  5
40B
330
1F
100
AcDbEntity
  8
0
  6
Continuous
 62
     7
370
    25
100
AcDbLine
 10
704.7461973238
 20
787.7317501907
 30
0.0
 11
532.0504101998
 21
787.7317501907
 31
0.0
  0
LINE
  5
40C
330
1F
100
AcDbEntity
  8
0
  6
Continuous
 62
     7
370
    25
100
AcDbLine
 10
532.0504101998
 20
787.7317501907
 30
0.0
 11
532.0504101998
 21
1384.9317501907
 31
0.0
  0
LINE
  5
40D
330
1F
100
AcDbEntity
  8
0
  6
Continuous
 62
     7
370
    25
100
AcDbLine
 10
704.7461973238
 20
1384.9317501907
 30
0.0
 11
532.0504101998
 21
1384.9317501907
 31
0.0
  0
CIRCLE
  5
40E
330
1F
100
AcDbEntity
  8
0
  6
Continuous
 62
     7
370
    25
100
AcDbCircle
 10
783.0504101998
 20
828.1317501907
 30
0.0
 40
10.75
  0
CIRCLE
  5
40F
330
1F
100
AcDbEntity
  8
0
  6
Continuous
 62
     7
370
    25
100
AcDbCircle
 10
783.0504101998
 20
828.1317501907
 30
0.0
 40
5.5
  0
CIRCLE
  5
410
330
1F
100
AcDbEntity
  8
0
  6
Continuous
 62
     7
370
    25
100
AcDbCircle
 10
783.0504101998
 20
1344.5317501907
 30
0.0
 40
10.75
  0
CIRCLE
  5
411
330
1F
100
AcDbEntity
  8
0
  6
Continuous
 62
     7
370
    25
100
AcDbCircle
 10
783.0504101998
 20
1344.5317501907
 30
0.0
 40
5.5
  0
LINE
  5
412
330
1F
100
AcDbEntity
  8
0
  6
Continuous
 62
     7
370
    25
100
AcDbLine
 10
833.851867593
 20
787.7317501907
 30
0.0
 11
833.851867593
 21
802.7317501907
 31
0.0
  0
LINE
  5
413
330
1F
100
AcDbEntity
  8
0
  6
Continuous
 62
     7
370
    25
100
AcDbLine
 10
833.851867593
 20
1369.9317501907
 30
0.0
 11
833.851867593
 21
1384.9317501907
 31
0.0
  0
LINE
  5
414
330
1F
100
AcDbEntity
  8
0
  6
Continuous
 62
     7
370
    25
100
AcDbLine
 10
812.5504101998
 20
1369.9317501907
 30
0.0
 11
833.851867593
 21
1369.9317501907
 31
0.0
  0
ARC
  5
415
330
1F
100
AcDbEntity
  8
0
  6
Continuous
 62
     7
370
    25
100
AcDbCircle
 10
812.5504101998
 20
1366.9317501907
 30
0.0
 40
3.0
100
AcDbArc
 50
90.0
 51
180.0
  0
LINE
  5
416
330
1F
100
AcDbEntity
  8
0
  6
Continuous
 62
     7
370
    25
100
AcDbLine
 10
809.5504101998
 20
805.7317501907
 30
0.0
 11
809.5504101998
 21
1366.9317501907
 31
0.0
  0
ARC
  5
417
330
1F
100
AcDbEntity
  8
0
  6
Continuous
 62
     7
370
    25
100
AcDbCircle
 10
812.5504101998
 20
805.7317501907
 30
0.0
 40
3.0
100
AcDbArc
 50
180.0
 51
270.0
  0
LINE
  5
418
330
1F
100
AcDbEntity
  8
0
  6
Continuous
 62
     7
370
    25
100
AcDbLine
 10
812.5504101998
 20
802.7317501907
 30
0.0
 11
833.851867593
 21
802.7317501907
 31
0.0
  0
LINE
  5
419
330
1F
100
AcDbEntity
  8
0
  6
Continuous
 62
     7
370
    25
100
AcDbLine
 10
833.851867593
 20
787.7317501907
 30
0.0
 11
704.7461973238
 21
787.7317501907
 31
0.0
  0
LINE
  5
41A
330
1F
100
AcDbEntity
  8
0
  6
Continuous
 62
     7
370
    25
100
AcDbLine
 10
833.851867593
 20
1384.9317501907
 30
0.0
 11
704.7461973238
 21
1384.9317501907
 31
0.0
  0
LINE
  5
41B
330
1F
100
AcDbEntity
  8
0
  6
Continuous
 62
     7
370
    25
100
AcDbLine
 10
870.5837347612
 20
1384.9317501907
 30
0.0
 11
870.5837347612
 21
1369.9317501907
 31
0.0
  0
LINE
  5
41C
330
1F
100
AcDbEntity
  8
0
  6
Continuous
 62
     7
370
    25
100
AcDbLine
 10
833.851867593
 20
1369.9317501907
 30
0.0
 11
870.5837347612
 21
1369.9317501907
 31
0.0
  0
LINE
  5
41D
330
1F
100
AcDbEntity
  8
0
  6
Continuous
 62
     7
370
    25
100
AcDbLine
 10
833.851867593
 20
1384.9317501907
 30
0.0
 11
870.5837347612
 21
1384.9317501907
 31
0.0
  0
LINE
  5
41E
330
1F
100
AcDbEntity
  8
0
  6
Continuous
 62
     7
370
    25
100
AcDbLine
 10
870.5837347612
 20
802.7317501907
 30
0.0
 11
870.5837347612
 21
787.7317501907
 31
0.0
  0
LINE
  5
41F
330
1F
100
AcDbEntity
  8
0
  6
Continuous
 62
     7
370
    25
100
AcDbLine
 10
833.851867593
 20
802.7317501907
 30
0.0
 11
870.5837347612
 21
802.7317501907
 31
0.0
  0
LINE
  5
420
330
1F
100
AcDbEntity
  8
0
  6
Continuous
 62
     7
370
    25
100
AcDbLine
 10
833.851867593
 20
787.7317501907
 30
0.0
 11
870.5837347612
 21
787.7317501907
 31
0.0
  0
LINE
  5
421
330
1F
100
AcDbEntity
  8
0
  6
Continuous
 62
     7
370
    25
100
AcDbLine
 10
832.7504101998
 20
1354.9317501907
 30
0.0
 11
832.7504101998
 21
1369.9317501907
 31
0.0
  0
LINE
  5
422
330
1F
100
AcDbEntity
  8
0
  6
Continuous
 62
     7
370
    25
100
AcDbLine
 10
832.7504101998
 20
817.7317501907
 30
0.0
 11
832.7504101998
 21
1354.9317501907
 31
0.0
  0
LINE
  5
423
330
1F
100
AcDbEntity
  8
0
  6
Continuous
 62
     7
370
    25
100
AcDbLine
 10
832.7504101998
 20
802.7317501907
 30
0.0
 11
832.7504101998
 21
817.7317501907
 31
0.0
  0
LINE
  5
424
330
1F
100
AcDbEntity
  8
0
  6
Continuous
 62
     7
370
    25
100
AcDbLine
 10
865.4008884382
 20
802.7317501907
 30
0.0
 11
865.4008884382
 21
817.7317501907
 31
0.0
  0
LINE
  5
425
330
1F
100
AcDbEntity
  8
0
  6
Continuous
 62
     7
370
    25
100
AcDbLine
 10
832.7504101998
 20
817.7317501907
 30
0.0
 11
865.4008884382
 21
817.7317501907
 31
0.0
  0
LINE
  5
426
330
1F
100
AcDbEntity
  8
0
  6
Continuous
 62
     7
370
    25
100
AcDbLine
 10
865.4008884382
 20
1354.9317501907
 30
0.0
 11
865.4008884382
 21
1369.9317501907
 31
0.0
  0
LINE
  5
427
330
1F
100
AcDbEntity
  8
0
  6
Continuous
 62
     7
370
    25
100
AcDbLine
 10
832.7504101998
 20
1354.9317501907
 30
0.0
 11
865.4008884382
 21
1354.9317501907
 31
0.0
  0
LINE
  5
428
330
1F
100
AcDbEntity
  8
0
  6
Continuous
 62
     7
370
    25
100
AcDbLine
 10
833.0504101998
 20
817.7317501907
 30
0.0
 11
833.0504101998
 21
1354.9317501907
 31
0.0
  0
LINE
  5
429
330
1F
100
AcDbEntity
  8
0
  6
Continuous
 62
     7
370
    25
100
AcDbLine
 10
870.5837347612
 20
1369.9317501907
 30
0.0
 11
882.4504101998
 21
1369.9317501907
 31
0.0
  0
LINE
  5
42A
330
1F
100
AcDbEntity
  8
0
  6
Continuous
 62
     7
370
    25
100
AcDbLine
 10
870.5837347612
 20
1384.9317501907
 30
0.0
 11
882.4504101998
 21
1384.9317501907
 31
0.0
  0
LINE
  5
42B
330
1F
100
AcDbEntity
  8
0
  6
Continuous
 62
     7
370
    25
100
AcDbLine
 10
870.5837347612
 20
802.7317501907
 30
0.0
 11
882.4504101998
 21
802.7317501907
 31
0.0
  0
LINE
  5
42C
330
1F
100
AcDbEntity
  8
0
  6
Continuous
 62
     7
370
    25
100
AcDbLine
 10
870.5837347612
 20
787.7317501907
 30
0.0
 11
882.4504101998
 21
787.7317501907
 31
0.0
  0
LINE
  5
42D
330
1F
100
AcDbEntity
  8
0
  6
Continuous
 62
     7
370
    25
100
AcDbLine
 10
865.4008884382
 20
1354.9317501907
 30
0.0
 11
877.0504101998
 21
1354.9317501907
 31
0.0
  0
LINE
  5
42E
330
1F
100
AcDbEntity
  8
0
  6
Continuous
 62
     7
370
    25
100
AcDbLine
 10
865.4008884382
 20
817.7317501907
 30
0.0
 11
877.0504101998
 21
817.7317501907
 31
0.0
  0
LINE
  5
42F
330
1F
100
AcDbEntity
  8
SLD-0
100
AcDbLine
 10
783.0504101998
 20
1344.5317501907
 30
0.0
 11
783.0504101998
 21
828.1317501907
 31
0.0
  0
DIMENSION
  5
430
330
1F
100
AcDbEntity
  8
SLD-0
100
AcDbDimension
  2
_D_17
 10
976.0473605562
 20
828.1317501907
 30
0.0
 11
976.0473605562
 21
1086.3317501907
 31
0.0
 70
   160
  1
<>
 71
     2
 42
-1.0
  3
SLDDIMSTYLE0
100
AcDbAlignedDimension
 13
795.8004101998
 23
1344.5317501907
 33
0.0
 14
795.8004101998
 24
828.1317501907
 34
0.0
 50
90.0
100
AcDbRotatedDimension
  0
DIMENSION
  5
444
330
1F
100
AcDbEntity
  8
SLD-0
100
AcDbDimension
  2
_D_18
 10
976.0473605562
 20
1384.9317501907
 30
0.0
 11
976.0473605562
 21
1463.4360116107
 31
0.0
 70
   160
  1
<>
 71
     2
 42
-1.0
  3
SLDDIMSTYLE2
100
AcDbAlignedDimension
 13
795.8004101998
 23
1344.5317501907
 33
0.0
 14
882.4504101998
 24
1384.9317501907
 34
0.0
 50
90.0
100
AcDbRotatedDimension
  0
DIMENSION
  5
459
330
1F
100
AcDbEntity
  8
SLD-0
100
AcDbDimension
  2
_D_19
 10
532.0504101998
 20
1463.4360116107
 30
0.0
 11
657.5504101998
 21
1463.4360116107
 31
0.0
 70
   160
  1
<>
 71
     2
 42
-1.0
  3
SLDDIMSTYLE1
100
AcDbAlignedDimension
 13
783.0504101998
 23
1357.2817501907
 33
0.0
 14
532.0504101998
 24
1384.9317501907
 34
0.0
100
AcDbRotatedDimension
  0
MTEXT
  5
46D
330
1F
100
AcDbEntity
  8
SLD-0
100
AcDbMText
 10
511.9703037687
 20
712.2057381803
 30
0.0
 40
21.43125
 41
0.0
 71
     1
 72
     1
  1
DIMENSIONS TYP BOTH SIDES
  7
SLDTEXTSTYLE0
 73
     1
 44
1.0
  0
INSERT
  5
476
102
{ACAD_REACTORS
330
477
102
}
330
1F
100
AcDbEntity
  8
SLD-0
100
AcDbBlockReference
  2
SW_NOTE_0_8
 10
877.4153074028
 20
1560.6022584693
 30
0.0
  0
LEADER
  5
477
330
1F
100
AcDbEntity
  8
SLD-0
100
AcDbLeader
  3
SLDDIMSTYLE4
 73
     2
 76
     3
 10
788.5880867176
 20
1353.7456873939
 30
0.0
 10
859.4153074028
 20
1560.6022584693
 30
0.0
 10
877.4153074028
 20
1560.6022584693
 30
0.0
340
476
  0
MTEXT
  5
478
330
1F
100
AcDbEntity
  8
SLD-0
100
AcDbMText
 10
942.8289227504
 20
1569.7469701742
 30
0.0
 40
21.43125
 41
0.0
 71
     1
 72
     1
  1
2X
  7
SLDTEXTSTYLE0
 73
     1
 44
1.0
  0
INSERT
  5
484
330
1F
100
AcDbEntity
  8
SLD-0
100
AcDbBlockReference
  2
SW_CENTERMARKSYMBOL_8
 10
783.0504101998
 20
1344.5317501907
 30
0.0
  0
INSERT
  5
490
330
1F
100
AcDbEntity
  8
SLD-0
100
AcDbBlockReference
  2
SW_CENTERMARKSYMBOL_9
 10
783.0504101998
 20
828.1317501907
 30
0.0
  0
LINE
  5
491
330
1F
100
AcDbEntity
  8
0
  6
Continuous
 62
     7
370
    25
100
AcDbLine
 10
3513.3122390131
 20
787.7317501907
 30
0.0
 11
3513.3122390131
 21
1384.9317501907
 31
0.0
  0
LINE
  5
492
330
1F
100
AcDbEntity
  8
0
  6
Continuous
 62
     7
370
    25
100
AcDbLine
 10
3426.8326307639
 20
787.7317501907
 30
0.0
 11
3426.8326307639
 21
1384.9317501907
 31
0.0
  0
LINE
  5
493
330
1F
100
AcDbEntity
  8
0
  6
Continuous
 62
     7
370
    25
100
AcDbLine
 10
3513.3122390131
 20
1384.9317501907
 30
0.0
 11
3426.8326307639
 21
1384.9317501907
 31
0.0
  0
LINE
  5
494
330
1F
100
AcDbEntity
  8
0
  6
Continuous
 62
     7
370
    25
100
AcDbLine
 10
3513.3122390131
 20
787.7317501907
 30
0.0
 11
3426.8326307639
 21
787.7317501907
 31
0.0
  0
LINE
  5
495
330
1F
100
AcDbEntity
  8
0
  6
Continuous
 62
     7
370
    25
100
AcDbLine
 10
3199.7918472623
 20
787.7317501907
 30
0.0
 11
3199.7918472623
 21
1384.9317501907
 31
0.0
  0
ARC
  5
496
330
1F
100
AcDbEntity
  8
0
  6
Continuous
 62
     7
370
    25
100
AcDbCircle
 10
3362.8122390131
 20
858.4317501907
 30
0.0
 40
11.0
100
AcDbArc
 50
270.0
 51
0.0
  0
LINE
  5
497
330
1F
100
AcDbEntity
  8
0
  6
Continuous
 62
     7
370
    25
100
AcDbLine
 10
3373.8122390131
 20
858.4317501907
 30
0.0
 11
3373.8122390131
 21
991.4317501907
 31
0.0
  0
ARC
  5
498
330
1F
100
AcDbEntity
  8
0
  6
Continuous
 62
     7
370
    25
100
AcDbCircle
 10
3362.8122390131
 20
991.4317501907
 30
0.0
 40
11.0
100
AcDbArc
 50
0.0
 51
90.0
  0
LINE
  5
499
330
1F
100
AcDbEntity
  8
0
  6
Continuous
 62
     7
370
    25
100
AcDbLine
 10
3362.8122390131
 20
1002.4317501907
 30
0.0
 11
3263.8122390131
 21
1002.4317501907
 31
0.0
  0
ARC
  5
49A
330
1F
100
AcDbEntity
  8
0
  6
Continuous
 62
     7
370
    25
100
AcDbCircle
 10
3263.8122390131
 20
991.4317501907
 30
0.0
 40
11.0
100
AcDbArc
 50
90.0
 51
180.0
  0
LINE
  5
49B
330
1F
100
AcDbEntity
  8
0
  6
Continuous
 62
     7
370
    25
100
AcDbLine
 10
3252.8122390131
 20
991.4317501907
 30
0.0
 11
3252.8122390131
 21
858.4317501907
 31
0.0
  0
ARC
  5
49C
330
1F
100
AcDbEntity
  8
0
  6
Continuous
 62
     7
370
    25
100
AcDbCircle
 10
3263.8122390131
 20
858.4317501907
 30
0.0
 40
11.0
100
AcDbArc
 50
180.0
 51
270.0
  0
LINE
  5
49D
330
1F
100
AcDbEntity
  8
0
  6
Continuous
 62
     7
370
    25
100
AcDbLine
 10
3263.8122390131
 20
847.4317501907
 30
0.0
 11
3362.8122390131
 21
847.4317501907
 31
0.0
  0
CIRCLE
  5
49E
330
1F
100
AcDbEntity
  8
0
  6
Continuous
 62
     7
370
    25
100
AcDbCircle
 10
3287.9122390131
 20
1170.2817501907
 30
0.0
 40
7.0
  0
CIRCLE
  5
49F
330
1F
100
AcDbEntity
  8
0
  6
Continuous
 62
     7
370
    25
100
AcDbCircle
 10
3338.7122390131
 20
1170.2817501907
 30
0.0
 40
7.0
  0
CIRCLE
  5
4A0
330
1F
100
AcDbEntity
  8
0
  6
Continuous
 62
     7
370
    25
100
AcDbCircle
 10
3338.7122390131
 20
1062.3817501907
 30
0.0
 40
7.000000000000455
  0
CIRCLE
  5
4A1
330
1F
100
AcDbEntity
  8
0
  6
Continuous
 62
     7
370
    25
100
AcDbCircle
 10
3287.9122390131
 20
1062.3817501907
 30
0.0
 40
7.000000000000455
  0
CIRCLE
  5
4A2
330
1F
100
AcDbEntity
  8
0
  6
Continuous
 62
     7
370
    25
100
AcDbCircle
 10
3313.3122390131
 20
828.1317501907
 30
0.0
 40
10.75
  0
CIRCLE
  5
4A3
330
1F
100
AcDbEntity
  8
0
  6
Continuous
 62
     7
370
    25
100
AcDbCircle
 10
3313.3122390131
 20
1344.5317501907
 30
0.0
 40
10.75
  0
LINE
  5
4A4
330
1F
100
AcDbEntity
  8
0
  6
Continuous
 62
     7
370
    25
100
AcDbLine
 10
3426.8326307639
 20
1384.9317501907
 30
0.0
 11
3199.7918472623
 21
1384.9317501907
 31
0.0
  0
LINE
  5
4A5
330
1F
100
AcDbEntity
  8
0
  6
Continuous
 62
     7
370
    25
100
AcDbLine
 10
3426.8326307639
 20
787.7317501907
 30
0.0
 11
3199.7918472623
 21
787.7317501907
 31
0.0
  0
CIRCLE
  5
4A6
330
1F
100
AcDbEntity
  8
0
  6
Continuous
 62
     7
370
    25
100
AcDbCircle
 10
3338.7122390131
 20
1170.2817501907
 30
0.0
 40
3.5
  0
CIRCLE
  5
4A7
330
1F
100
AcDbEntity
  8
0
  6
Continuous
 62
     7
370
    25
100
AcDbCircle
 10
3338.7122390131
 20
1062.3817501907
 30
0.0
 40
3.5
  0
CIRCLE
  5
4A8
330
1F
100
AcDbEntity
  8
0
  6
Continuous
 62
     7
370
    25
100
AcDbCircle
 10
3313.3122390131
 20
828.1317501907
 30
0.0
 40
5.5
  0
CIRCLE
  5
4A9
330
1F
100
AcDbEntity
  8
0
  6
Continuous
 62
     7
370
    25
100
AcDbCircle
 10
3313.3122390131
 20
1344.5317501907
 30
0.0
 40
5.5
  0
CIRCLE
  5
4AA
330
1F
100
AcDbEntity
  8
0
  6
Continuous
 62
     7
370
    25
100
AcDbCircle
 10
3287.9122390131
 20
1170.2817501907
 30
0.0
 40
3.5
  0
CIRCLE
  5
4AB
330
1F
100
AcDbEntity
  8
0
  6
Continuous
 62
     7
370
    25
100
AcDbCircle
 10
3287.9122390131
 20
1062.3817501907
 30
0.0
 40
3.5
  0
LINE
  5
4AC
330
1F
100
AcDbEntity
  8
0
  6
Continuous
 62
     7
370
    25
100
AcDbLine
 10
3113.3122390131
 20
787.7317501907
 30
0.0
 11
3113.3122390131
 21
1384.9317501907
 31
0.0
  0
LINE
  5
4AD
330
1F
100
AcDbEntity
  8
0
  6
Continuous
 62
     7
370
    25
100
AcDbLine
 10
3199.7918472623
 20
1384.9317501907
 30
0.0
 11
3113.3122390131
 21
1384.9317501907
 31
0.0
  0
LINE
  5
4AE
330
1F
100
AcDbEntity
  8
0
  6
Continuous
 62
     7
370
    25
100
AcDbLine
 10
3199.7918472623
 20
787.7317501907
 30
0.0
 11
3113.3122390131
 21
787.7317501907
 31
0.0
  0
ARC
  5
4AF
330
1F
100
AcDbEntity
  8
0
  6
Continuous
 62
     7
370
    25
100
AcDbCircle
 10
3347.8315613196
 20
861.4944918848
 30
0.0
 40
5.000000000000242
100
AcDbArc
 50
98.8505264799
 51
166.419035196
  0
ARC
  5
4B0
330
1F
100
AcDbEntity
  8
0
  6
Continuous
 62
     7
370
    25
100
AcDbCircle
 10
3346.5622390131
 20
869.6462598453
 30
0.0
 40
3.250000000000455
100
AcDbArc
 50
278.8505264799
 51
0.0
  0
LINE
  5
4B1
330
1F
100
AcDbEntity
  8
0
  6
Continuous
 62
     7
370
    25
100
AcDbLine
 10
3349.8122390131
 20
869.6462598453
 30
0.0
 11
3349.8122390131
 21
916.799578376
 31
0.0
  0
ARC
  5
4B2
330
1F
100
AcDbEntity
  8
0
  6
Continuous
 62
     7
370
    25
100
AcDbCircle
 10
3346.5622390131
 20
916.799578376
 30
0.0
 40
3.250000000000455
100
AcDbArc
 50
0.0
 51
80.3048730667
  0
ARC
  5
4B3
330
1F
100
AcDbEntity
  8
0
  6
Continuous
 62
     7
370
    25
100
AcDbCircle
 10
3347.9515847497
 20
924.9317501907
 30
0.0
 40
5.000000000000116
100
AcDbArc
 50
99.6951269333
 51
260.3048730667
  0
ARC
  5
4B4
330
1F
100
AcDbEntity
  8
0
  6
Continuous
 62
     7
370
    25
100
AcDbCircle
 10
3346.5622390131
 20
933.0639220055
 30
0.0
 40
3.250000000000455
100
AcDbArc
 50
279.6951269333
 51
0.0
  0
LINE
  5
4B5
330
1F
100
AcDbEntity
  8
0
  6
Continuous
 62
     7
370
    25
100
AcDbLine
 10
3349.8122390131
 20
933.0639220055
 30
0.0
 11
3349.8122390131
 21
979.6462598453
 31
0.0
  0
ARC
  5
4B6
330
1F
100
AcDbEntity
  8
0
  6
Continuous
 62
     7
370
    25
100
AcDbCircle
 10
3346.5622390131
 20
979.6462598453
 30
0.0
 40
3.250000000000455
100
AcDbArc
 50
0.0
 51
80.3048730667
  0
ARC
  5
4B7
330
1F
100
AcDbEntity
  8
0
  6
Continuous
 62
     7
370
    25
100
AcDbCircle
 10
3347.9515847497
 20
987.7784316601
 30
0.0
 40
5.000000000000026
100
AcDbArc
 50
189.3946661014
 51
260.3048730667
  0
ARC
  5
4B8
330
1F
100
AcDbEntity
  8
0
  6
Continuous
 62
     7
370
    25
100
AcDbCircle
 10
3339.8122390131
 20
986.4317501907
 30
0.0
 40
3.250000000000118
100
AcDbArc
 50
9.3946661014
 51
90.0
  0
LINE
  5
4B9
330
1F
100
AcDbEntity
  8
0
  6
Continuous
 62
     7
370
    25
100
AcDbLine
 10
3339.8122390131
 20
989.6817501907
 30
0.0
 11
3286.8122390131
 21
989.6817501907
 31
0.0
  0
ARC
  5
4BA
330
1F
100
AcDbEntity
  8
0
  6
Continuous
 62
     7
370
    25
100
AcDbCircle
 10
3286.8122390131
 20
986.4317501907
 30
0.0
 40
3.250000000000118
100
AcDbArc
 50
90.0
 51
170.6053338986
  0
ARC
  5
4BB
330
1F
100
AcDbEntity
  8
0
  6
Continuous
 62
     7
370
    25
100
AcDbCircle
 10
3278.6728932765
 20
987.7784316601
 30
0.0
 40
5.000000000000004
100
AcDbArc
 50
279.6951269333
 51
350.6053338986
  0
ARC
  5
4BC
330
1F
100
AcDbEntity
  8
0
  6
Continuous
 62
     7
370
    25
100
AcDbCircle
 10
3280.0622390131
 20
979.6462598453
 30
0.0
 40
3.250000000000035
100
AcDbArc
 50
99.6951269333
 51
180.0
  0
LINE
  5
4BD
330
1F
100
AcDbEntity
  8
0
  6
Continuous
 62
     7
370
    25
100
AcDbLine
 10
3276.8122390131
 20
979.6462598453
 30
0.0
 11
3276.8122390131
 21
933.0639220055
 31
0.0
  0
ARC
  5
4BE
330
1F
100
AcDbEntity
  8
0
  6
Continuous
 62
     7
370
    25
100
AcDbCircle
 10
3280.0622390131
 20
933.0639220055
 30
0.0
 40
3.25
100
AcDbArc
 50
180.0
 51
260.3048730667
  0
ARC
  5
4BF
330
1F
100
AcDbEntity
  8
0
  6
Continuous
 62
     7
370
    25
100
AcDbCircle
 10
3278.6728932765
 20
924.9317501907
 30
0.0
 40
5.000000000000116
100
AcDbArc
 50
279.6951269333
 51
80.3048730667
  0
ARC
  5
4C0
330
1F
100
AcDbEntity
  8
0
  6
Continuous
 62
     7
370
    25
100
AcDbCircle
 10
3280.0622390131
 20
916.799578376
 30
0.0
 40
3.25
100
AcDbArc
 50
99.6951269333
 51
180.0
  0
LINE
  5
4C1
330
1F
100
AcDbEntity
  8
0
  6
Continuous
 62
     7
370
    25
100
AcDbLine
 10
3276.8122390131
 20
916.799578376
 30
0.0
 11
3276.8122390131
 21
869.6462598453
 31
0.0
  0
ARC
  5
4C2
330
1F
100
AcDbEntity
  8
0
  6
Continuous
 62
     7
370
    25
100
AcDbCircle
 10
3280.0622390131
 20
869.6462598453
 30
0.0
 40
3.25
100
AcDbArc
 50
180.0
 51
261.1494735201
  0
ARC
  5
4C3
330
1F
100
AcDbEntity
  8
0
  6
Continuous
 62
     7
370
    25
100
AcDbCircle
 10
3278.7929167066
 20
861.4944918848
 30
0.0
 40
5.000000000000242
100
AcDbArc
 50
13.580964804
 51
81.1494735201
  0
ARC
  5
4C4
330
1F
100
AcDbEntity
  8
0
  6
Continuous
 62
     7
370
    25
100
AcDbCircle
 10
3286.8122390131
 20
863.4317501907
 30
0.0
 40
3.250000000000114
100
AcDbArc
 50
193.580964804
 51
270.0
  0
LINE
  5
4C5
330
1F
100
AcDbEntity
  8
0
  6
Continuous
 62
     7
370
    25
100
AcDbLine
 10
3286.8122390131
 20
860.1817501907
 30
0.0
 11
3339.8122390131
 21
860.1817501907
 31
0.0
  0
ARC
  5
4C6
330
1F
100
AcDbEntity
  8
0
  6
Continuous
 62
     7
370
    25
100
AcDbCircle
 10
3339.8122390131
 20
863.4317501907
 30
0.0
 40
3.250000000000114
100
AcDbArc
 50
270.0
 51
346.419035196
  0
LINE
  5
4C7
330
1F
100
AcDbEntity
  8
0
  6
Continuous
 62
     7
370
    25
100
AcDbLine
 10
3336.6872390131
 20
864.3067501907
 30
0.0
 11
3336.6872390131
 21
877.0567501907
 31
0.0
  0
LINE
  5
4C8
330
1F
100
AcDbEntity
  8
0
  6
Continuous
 62
     7
370
    25
100
AcDbLine
 10
3289.9372390131
 20
864.3067501907
 30
0.0
 11
3336.6872390131
 21
864.3067501907
 31
0.0
  0
LINE
  5
4C9
330
1F
100
AcDbEntity
  8
0
  6
Continuous
 62
     7
370
    25
100
AcDbLine
 10
3289.9372390131
 20
877.0567501907
 30
0.0
 11
3289.9372390131
 21
864.3067501907
 31
0.0
  0
LINE
  5
4CA
330
1F
100
AcDbEntity
  8
0
  6
Continuous
 62
     7
370
    25
100
AcDbLine
 10
3336.6872390131
 20
877.0567501907
 30
0.0
 11
3289.9372390131
 21
877.0567501907
 31
0.0
  0
CIRCLE
  5
4CB
330
1F
100
AcDbEntity
  8
0
  6
Continuous
 62
     7
370
    25
100
AcDbCircle
 10
3315.3122390131
 20
946.9317501907
 30
0.0
 40
8.928099999999631
  0
CIRCLE
  5
4CC
330
1F
100
AcDbEntity
  8
0
  6
Continuous
 62
     7
370
    25
100
AcDbCircle
 10
3315.3122390131
 20
906.9317501907
 30
0.0
 40
8.928099999999631
  0
CIRCLE
  5
4CD
330
1F
100
AcDbEntity
  8
0
  6
Continuous
 62
     7
370
    25
100
AcDbCircle
 10
3315.3122390131
 20
906.9317501907
 30
0.0
 40
6.096000000000004
  0
CIRCLE
  5
4CE
330
1F
100
AcDbEntity
  8
0
  6
Continuous
 62
     7
370
    25
100
AcDbCircle
 10
3315.3122390131
 20
906.9317501907
 30
0.0
 40
3.492499999999836
  0
CIRCLE
  5
4CF
330
1F
100
AcDbEntity
  8
0
  6
Continuous
 62
     7
370
    25
100
AcDbCircle
 10
3315.3122390131
 20
946.9317501907
 30
0.0
 40
6.096000000000004
  0
CIRCLE
  5
4D0
330
1F
100
AcDbEntity
  8
0
  6
Continuous
 62
     7
370
    25
100
AcDbCircle
 10
3315.3122390131
 20
946.9317501907
 30
0.0
 40
3.492499999999836
  0
LINE
  5
4D1
330
1F
100
AcDbEntity
  8
SLD-0
100
AcDbLine
 10
3287.9122390131
 20
1170.2817501907
 30
0.0
 11
3338.7122390131
 21
1170.2817501907
 31
0.0
  0
LINE
  5
4D2
330
1F
100
AcDbEntity
  8
SLD-0
100
AcDbLine
 10
3338.7122390131
 20
1170.2817501907
 30
0.0
 11
3338.7122390131
 21
1062.3817501907
 31
0.0
  0
LINE
  5
4D3
330
1F
100
AcDbEntity
  8
SLD-0
100
AcDbLine
 10
3338.7122390131
 20
1062.3817501907
 30
0.0
 11
3287.9122390131
 21
1062.3817501907
 31
0.0
  0
LINE
  5
4D4
330
1F
100
AcDbEntity
  8
SLD-0
100
AcDbLine
 10
3287.9122390131
 20
1062.3817501907
 30
0.0
 11
3287.9122390131
 21
1170.2817501907
 31
0.0
  0
LINE
  5
4D5
330
1F
100
AcDbEntity
  8
SLD-0
100
AcDbLine
 10
3313.3122390131
 20
1344.5317501907
 30
0.0
 11
3313.3122390131
 21
828.1317501907
 31
0.0
  0
DIMENSION
  5
4D6
330
1F
100
AcDbEntity
  8
SLD-0
100
AcDbDimension
  2
_D_20
 10
3373.8122390131
 20
608.6102024917
 30
0.0
 11
3170.1702801194
 21
608.6102024917
 31
0.0
 70
   160
  1
<>
 71
     2
 42
-1.0
  3
SLDDIMSTYLE6
100
AcDbAlignedDimension
 13
3252.8122390131
 23
858.4317501907
 33
0.0
 14
3373.8122390131
 24
858.4317501907
 34
0.0
 50
0.0
100
AcDbRotatedDimension
  0
DIMENSION
  5
4EB
330
1F
100
AcDbEntity
  8
SLD-0
100
AcDbDimension
  2
_D_21
 10
3022.7122390131
 20
847.4317501907
 30
0.0
 11
3022.7122390131
 21
924.9317501907
 31
0.0
 70
   160
  1
<>
 71
     2
 42
-1.0
  3
SLDDIMSTYLE6
100
AcDbAlignedDimension
 13
3263.8122390131
 23
1002.4317501907
 33
0.0
 14
3263.8122390131
 24
847.4317501907
 34
0.0
 50
90.0
100
AcDbRotatedDimension
  0
DIMENSION
  5
4FF
330
1F
100
AcDbEntity
  8
SLD-0
100
AcDbDimension
  2
_D_22
 10
3022.7122390131
 20
787.7317501907
 30
0.0
 11
3022.7122390131
 21
753.9729694397
 31
0.0
 70
   160
  1
<>
 71
     2
 42
-1.0
  3
SLDDIMSTYLE7
100
AcDbAlignedDimension
 13
3263.8122390131
 23
847.4317501907
 33
0.0
 14
3113.3122390131
 24
787.7317501907
 34
0.0
 50
90.0
100
AcDbRotatedDimension
  0
DIMENSION
  5
50C
330
1F
100
AcDbEntity
  8
SLD-0
100
AcDbDimension
  2
_D_23
 10
3513.3122390131
 20
608.6102024917
 30
0.0
 11
3443.5622390131
 21
608.6102024917
 31
0.0
 70
   160
  1
<>
 71
     2
 42
-1.0
  3
SLDDIMSTYLE2
100
AcDbAlignedDimension
 13
3373.8122390131
 23
858.4317501907
 33
0.0
 14
3513.3122390131
 24
787.7317501907
 34
0.0
100
AcDbRotatedDimension
  0
DIMENSION
  5
520
330
1F
100
AcDbEntity
  8
SLD-0
100
AcDbDimension
  2
_D_24
 10
3594.0953187452
 20
1062.3817501907
 30
0.0
 11
3594.0953187452
 21
1116.3317501907
 31
0.0
 70
   160
  1
<>
 71
     2
 42
-1.0
  3
SLDDIMSTYLE2
100
AcDbAlignedDimension
 13
3347.7122390131
 23
1170.2817501907
 33
0.0
 14
3347.7122390131
 24
1062.3817501907
 34
0.0
 50
90.0
100
AcDbRotatedDimension
  0
DIMENSION
  5
534
330
1F
100
AcDbEntity
  8
SLD-0
100
AcDbDimension
  2
_D_25
 10
3594.0953187452
 20
1170.2817501907
 30
0.0
 11
3594.0953187452
 21
1277.6067501907
 31
0.0
 70
   160
  1
<>
 71
     2
 42
-1.0
  3
SLDDIMSTYLE0
100
AcDbAlignedDimension
 13
3513.3122390131
 23
1384.9317501907
 33
0.0
 14
3347.7122390131
 24
1170.2817501907
 34
0.0
 50
90.0
100
AcDbRotatedDimension
  0
DIMENSION
  5
548
330
1F
100
AcDbEntity
  8
SLD-0
100
AcDbDimension
  2
_D_26
 10
3287.9122390131
 20
1474.9317501907
 30
0.0
 11
3212.3966411361
 21
1474.9317501907
 31
0.0
 70
   160
  1
<>
 71
     2
 42
-1.0
  3
SLDDIMSTYLE0
100
AcDbAlignedDimension
 13
3338.7122390131
 23
1179.2817501907
 33
0.0
 14
3287.9122390131
 24
1179.2817501907
 34
0.0
100
AcDbRotatedDimension
  0
DIMENSION
  5
55C
330
1F
100
AcDbEntity
  8
SLD-0
100
AcDbDimension
  2
_D_27
 10
3513.3122390131
 20
1474.9317501907
 30
0.0
 11
3426.0122390131
 21
1474.9317501907
 31
0.0
 70
   160
  1
<>
 71
     2
 42
-1.0
  3
SLDDIMSTYLE0
100
AcDbAlignedDimension
 13
3338.7122390131
 23
1179.2817501907
 33
0.0
 14
3513.3122390131
 24
1384.9317501907
 34
0.0
100
AcDbRotatedDimension
  0
DIMENSION
  5
570
330
1F
100
AcDbEntity
  8
SLD-0
100
AcDbDimension
  2
_D_28
 10
3594.0953187452
 20
787.7317501907
 30
0.0
 11
3594.0953187452
 21
886.2902110091
 31
0.0
 70
   160
  1
<>
 71
     2
 42
-1.0
  3
SLDDIMSTYLE2
100
AcDbAlignedDimension
 13
3326.0622390131
 23
828.1317501907
 33
0.0
 14
3513.3122390131
 24
787.7317501907
 34
0.0
 50
90.0
100
AcDbRotatedDimension
  0
DIMENSION
  5
585
330
1F
100
AcDbEntity
  8
SLD-0
100
AcDbDimension
  2
_D_29
 10
3513.3122390131
 20
697.7317501907
 30
0.0
 11
3640.033258271
 21
697.7317501907
 31
0.0
 70
   160
  1
<>
 71
     2
 42
-1.0
  3
SLDDIMSTYLE1
100
AcDbAlignedDimension
 13
3313.3122390131
 23
815.3817501907
 33
0.0
 14
3513.3122390131
 24
787.7317501907
 34
0.0
100
AcDbRotatedDimension
  0
INSERT
  5
5A1
102
{ACAD_REACTORS
330
5A2
102
}
330
1F
100
AcDbEntity
  8
SLD-0
100
AcDbBlockReference
  2
SW_NOTE_0_9
 10
3067.0012547051
 20
1288.4567126725
 30
0.0
  0
LEADER
  5
5A2
330
1F
100
AcDbEntity
  8
SLD-0
100
AcDbLeader
  3
SLDDIMSTYLE4
 73
     2
 76
     3
 10
3305.6787248123
 20
1336.9626048661
 30
0.0
 10
3085.0012547051
 20
1288.4567126725
 30
0.0
 10
3067.0012547051
 20
1288.4567126725
 30
0.0
340
5A1
  0
INSERT
  5
5AB
102
{ACAD_REACTORS
330
5AC
102
}
330
1F
100
AcDbEntity
  8
SLD-0
100
AcDbBlockReference
  2
SW_NOTE_0_10
 10
3067.0012547051
 20
1113.4253450439
 30
0.0
  0
LEADER
  5
5AC
330
1F
100
AcDbEntity
  8
SLD-0
100
AcDbLeader
  3
SLDDIMSTYLE4
 73
     2
 76
     3
 10
3282.4426933686
 20
1165.91321835
 30
0.0
 10
3085.0012547051
 20
1113.4253450439
 30
0.0
 10
3067.0012547051
 20
1113.4253450439
 30
0.0
340
5AB
  0
MTEXT
  5
5AD
330
1F
100
AcDbEntity
  8
SLD-0
100
AcDbMText
 10
2970.6786487793
 20
1298.6715107734
 30
0.0
 40
21.43125
 41
0.0
 71
     1
 72
     1
  1
2X
  7
SLDTEXTSTYLE0
 73
     1
 44
1.0
  0
MTEXT
  5
5AE
330
1F
100
AcDbEntity
  8
SLD-0
100
AcDbMText
 10
2970.6786487793
 20
1123.7368309072
 30
0.0
 40
21.43125
 41
0.0
 71
     1
 72
     1
  1
4X
  7
SLDTEXTSTYLE0
 73
     1
 44
1.0
  0
INSERT
  5
5BA
330
1F
100
AcDbEntity
  8
SLD-0
100
AcDbBlockReference
  2
SW_CENTERMARKSYMBOL_10
 10
3313.3122390131
 20
1344.5317501907
 30
0.0
  0
INSERT
  5
5C6
330
1F
100
AcDbEntity
  8
SLD-0
100
AcDbBlockReference
  2
SW_CENTERMARKSYMBOL_11
 10
3313.3122390131
 20
828.1317501907
 30
0.0
  0
INSERT
  5
5D2
330
1F
100
AcDbEntity
  8
SLD-0
100
AcDbBlockReference
  2
SW_CENTERMARKSYMBOL_12
 10
3287.9122390131
 20
1170.2817501907
 30
0.0
  0
INSERT
  5
5DE
330
1F
100
AcDbEntity
  8
SLD-0
100
AcDbBlockReference
  2
SW_CENTERMARKSYMBOL_13
 10
3338.7122390131
 20
1170.2817501907
 30
0.0
  0
INSERT
  5
5EA
330
1F
100
AcDbEntity
  8
SLD-0
100
AcDbBlockReference
  2
SW_CENTERMARKSYMBOL_14
 10
3287.9122390131
 20
1062.3817501907
 30
0.0
  0
INSERT
  5
5F6
330
1F
100
AcDbEntity
  8
SLD-0
100
AcDbBlockReference
  2
SW_CENTERMARKSYMBOL_15
 10
3338.7122390131
 20
1062.3817501907
 30
0.0
  0
OLE2FRAME
  5
5F7
330
1F
100
AcDbEntity
  8
0
100
AcDbOle2Frame
 70
     2
  3
Picture (Enhanced Metafile)
 10
60.3213102777
 20
140.101362827
 30
0.0
 11
395.2330250904
 21
69.0268510018
 31
0.0
 71
     3
 72
     0
 73
     1
 90
     5248
310
80553854F7B120294E40DC5E415D3E83614000000000000000008E658478BAB3
310
7840DC5E415D3E83614000000000000000008E658478BAB3784020A543EDB741
310
514000000000000000003854F7B120294E4020A543EDB7415140000000000000
310
0000000000000100000000010000010000000100000000000100000000140000
310
D0CF11E0A1B11AE1000000000000000000000000000000003E000300FEFF0900
310
0600000000000000000000000100000001000000000000000010000002000000
310
01000000FEFFFFFF0000000000000000FFFFFFFFFFFFFFFFFFFFFFFFFFFFFFFF
310
FFFFFFFFFFFFFFFFFFFFFFFFFFFFFFFFFFFFFFFFFFFFFFFFFFFFFFFFFFFFFFFF
310
FFFFFFFFFFFFFFFFFFFFFFFFFFFFFFFFFFFFFFFFFFFFFFFFFFFFFFFFFFFFFFFF
310
FFFFFFFFFFFFFFFFFFFFFFFFFFFFFFFFFFFFFFFFFFFFFFFFFFFFFFFFFFFFFFFF
310
FFFFFFFFFFFFFFFFFFFFFFFFFFFFFFFFFFFFFFFFFFFFFFFFFFFFFFFFFFFFFFFF
310
FFFFFFFFFFFFFFFFFFFFFFFFFFFFFFFFFFFFFFFFFFFFFFFFFFFFFFFFFFFFFFFF
310
FFFFFFFFFFFFFFFFFFFFFFFFFFFFFFFFFFFFFFFFFFFFFFFFFFFFFFFFFFFFFFFF
310
FFFFFFFFFFFFFFFFFFFFFFFFFFFFFFFFFFFFFFFFFFFFFFFFFFFFFFFFFFFFFFFF
310
FFFFFFFFFFFFFFFFFFFFFFFFFFFFFFFFFFFFFFFFFFFFFFFFFFFFFFFFFFFFFFFF
310
FFFFFFFFFFFFFFFFFFFFFFFFFFFFFFFFFFFFFFFFFFFFFFFFFFFFFFFFFFFFFFFF
310
FFFFFFFFFFFFFFFFFFFFFFFFFFFFFFFFFFFFFFFFFFFFFFFFFFFFFFFFFFFFFFFF
310
FFFFFFFFFFFFFFFFFFFFFFFFFFFFFFFFFFFFFFFFFFFFFFFFFFFFFFFFFFFFFFFF
310
FFFFFFFFFFFFFFFFFFFFFFFFFFFFFFFFFFFFFFFFFFFFFFFFFFFFFFFFFFFFFFFF
310
FFFFFFFFFFFFFFFFFFFFFFFFFFFFFFFFFFFFFFFFFFFFFFFFFFFFFFFFFFFFFFFF
310
FDFFFFFFFEFFFFFFFEFFFFFF0400000005000000060000000700000008000000
310
FEFFFFFFFFFFFFFFFFFFFFFFFFFFFFFFFFFFFFFFFFFFFFFFFFFFFFFFFFFFFFFF
310
FFFFFFFFFFFFFFFFFFFFFFFFFFFFFFFFFFFFFFFFFFFFFFFFFFFFFFFFFFFFFFFF
310
FFFFFFFFFFFFFFFFFFFFFFFFFFFFFFFFFFFFFFFFFFFFFFFFFFFFFFFFFFFFFFFF
310
FFFFFFFFFFFFFFFFFFFFFFFFFFFFFFFFFFFFFFFFFFFFFFFFFFFFFFFFFFFFFFFF
310
FFFFFFFFFFFFFFFFFFFFFFFFFFFFFFFFFFFFFFFFFFFFFFFFFFFFFFFFFFFFFFFF
310
FFFFFFFFFFFFFFFFFFFFFFFFFFFFFFFFFFFFFFFFFFFFFFFFFFFFFFFFFFFFFFFF
310
FFFFFFFFFFFFFFFFFFFFFFFFFFFFFFFFFFFFFFFFFFFFFFFFFFFFFFFFFFFFFFFF
310
FFFFFFFFFFFFFFFFFFFFFFFFFFFFFFFFFFFFFFFFFFFFFFFFFFFFFFFFFFFFFFFF
310
FFFFFFFFFFFFFFFFFFFFFFFFFFFFFFFFFFFFFFFFFFFFFFFFFFFFFFFFFFFFFFFF
310
FFFFFFFFFFFFFFFFFFFFFFFFFFFFFFFFFFFFFFFFFFFFFFFFFFFFFFFFFFFFFFFF
310
FFFFFFFFFFFFFFFFFFFFFFFFFFFFFFFFFFFFFFFFFFFFFFFFFFFFFFFFFFFFFFFF
310
FFFFFFFFFFFFFFFFFFFFFFFFFFFFFFFFFFFFFFFFFFFFFFFFFFFFFFFFFFFFFFFF
310
FFFFFFFFFFFFFFFFFFFFFFFFFFFFFFFFFFFFFFFFFFFFFFFFFFFFFFFFFFFFFFFF
310
FFFFFFFFFFFFFFFFFFFFFFFFFFFFFFFFFFFFFFFFFFFFFFFFFFFFFFFFFFFFFFFF
310
FFFFFFFFFFFFFFFFFFFFFFFFFFFFFFFFFFFFFFFFFFFFFFFFFFFFFFFFFFFFFFFF
310
52006F006F007400200045006E00740072007900000000000000000000000000
310
0000000000000000000000000000000000000000000000000000000000000000
310
16000500FFFFFFFFFFFFFFFF020000001903000000000000C000000000000046
310
00000000000000000000000040C4CA5BB9B2DA0103000000000C000000000000
310
01004F006C006500000000000000000000000000000000000000000000000000
310
0000000000000000000000000000000000000000000000000000000000000000
310
0A000200FFFFFFFFFFFFFFFFFFFFFFFF00000000000000000000000000000000
310
0000000000000000000000000000000000000000000000001400000000000000
310
010043006F006D0070004F0062006A0000000000000000000000000000000000
310
0000000000000000000000000000000000000000000000000000000000000000
310
120002010100000003000000FFFFFFFF00000000000000000000000000000000
310
0000000000000000000000000000000000000000010000005800000000000000
310
43004F004E00540045004E005400530000000000000000000000000000000000
310
0000000000000000000000000000000000000000000000000000000000000000
310
12000200FFFFFFFFFFFFFFFFFFFFFFFF00000000000000000000000000000000
310
000000000000000000000000000000000000000003000000040B000000000000
310
FEFFFFFF02000000FEFFFFFF0400000005000000060000000700000008000000
310
090000000A0000000B0000000C0000000D0000000E0000000F00000010000000
310
1100000012000000130000001400000015000000160000001700000018000000
310
190000001A0000001B0000001C0000001D0000001E0000001F00000020000000
310
2100000022000000230000002400000025000000260000002700000028000000
310
290000002A0000002B0000002C0000002D0000002E0000002F000000FEFFFFFF
310
FFFFFFFFFFFFFFFFFFFFFFFFFFFFFFFFFFFFFFFFFFFFFFFFFFFFFFFFFFFFFFFF
310
FFFFFFFFFFFFFFFFFFFFFFFFFFFFFFFFFFFFFFFFFFFFFFFFFFFFFFFFFFFFFFFF
310
FFFFFFFFFFFFFFFFFFFFFFFFFFFFFFFFFFFFFFFFFFFFFFFFFFFFFFFFFFFFFFFF
310
FFFFFFFFFFFFFFFFFFFFFFFFFFFFFFFFFFFFFFFFFFFFFFFFFFFFFFFFFFFFFFFF
310
FFFFFFFFFFFFFFFFFFFFFFFFFFFFFFFFFFFFFFFFFFFFFFFFFFFFFFFFFFFFFFFF
310
FFFFFFFFFFFFFFFFFFFFFFFFFFFFFFFFFFFFFFFFFFFFFFFFFFFFFFFFFFFFFFFF
310
FFFFFFFFFFFFFFFFFFFFFFFFFFFFFFFFFFFFFFFFFFFFFFFFFFFFFFFFFFFFFFFF
310
FFFFFFFFFFFFFFFFFFFFFFFFFFFFFFFFFFFFFFFFFFFFFFFFFFFFFFFFFFFFFFFF
310
FFFFFFFFFFFFFFFFFFFFFFFFFFFFFFFFFFFFFFFFFFFFFFFFFFFFFFFFFFFFFFFF
310
FFFFFFFFFFFFFFFFFFFFFFFFFFFFFFFFFFFFFFFFFFFFFFFFFFFFFFFFFFFFFFFF
310
0100000200000000000000000000000000000000000000000000000000000000
310
0000000000000000000000000000000000000000000000000000000000000000
310
0100FEFF030A0000FFFFFFFF1903000000000000C0000000000000461C000000
310
506963747572652028456E68616E636564204D65746166696C652900FFFFFFFF
310
0E00000000000000F439B2710000000000000000000000000000000000000000
310
0000000000000000000000000000000000000000000000000000000000000000
310
74000000010000006C000000FD0A000094000000870B0000B200000062570100
310
111200003B680100BB15000020454D46000001008C0A00003800000003000000
310
0D0000005800000000000000000400000003000040010000F000000041006400
310
6F006200650020005300790073007400FFFFFFFF000000000100000074000000
310
FD0A000094000000870B0000B200000062570100111200003B680100BB150000
310
20454D46000001008C0A000038000000030000000D0000005800000000000000
310
000400000003000040010000F0000000410064006F0062006500200053007900
310
7300740065006D0073000000110000000C00000008000000120000000C000000
310
010000000A0000001000000000000000000000000C0000001000000000000000
310
000000000900000010000000D7040000110100000B000000100000009D010000
310
5B000000130000000C0000000200000027000000180000000100000000000000
310
0000000000000000250000000C000000010000005F0000003400000002000000
310
2C000000000000002C0000000000000005000000000000000000000000000000
310
0000000000000000250000000C000000020000003B000000080000001B000000
310
100000003D210000F20100005800000048010000FC0A000093000000190B0000
310
B30000004B0000004921F9014921F9014921F9014921DA014921DA014921DA01
310
4921D5014621D0014221CD012821BE012821BE012821BE012321BB011D21BB01
310
1821BE01FE20CD01FE20CD01FE20CD01FA20D001F720D501F720DA01F720F801
310
F720F801F720F801F720FE01FA200302FE200602182115021821150218211502
310
1D21170223211702282115024321050243210502432105023721FE013721FE01
310
3721FE013521FD013521FD013521FD0122210902222109022221090221210902
310
1F2109021E2109020621FA010621FA010621FA010521FA010421F9010421F701
310
0421DB010421DB010421DB010421DA010521D9010621D8011E21CA011E21CA01
310
1E21CA011F21CA012121CA012221CA013A21D8013A21D8013A21D8013B21D901
310
3C21DA013C21DB013C21F2013C21F2013C21F2013D000000080000003C000000
310
080000003E000000180000009F8601009F8601006179FEFF6179FEFF13000000
310
0C000000020000003B000000080000001B000000100000002F210000E4010000
310
58000000C4000000050B00009D000000100B0000A90000002A0000002F21EF01
310
2F21EF012F21EF012F21F1012E21F2012C21F3012321F9012321F9012321F901
310
2221FA012121FA012021FA011F21FA011E21FA011D21F9011421F4011421F401
310
1421F4011221F3011121F1011121EF011121E4011121E4011121E4011121E201
310
1221E0011321DF011D21DA011D21DA011D21DA011E21D9011F21D9012021D901
310
2121D9012221D9012321DA012C21DF012C21DF012C21DF012E21E0012F21E201
310
2F21E4013D000000080000003C000000080000003E000000180000009F860100
310
9F8601006179FEFF6179FEFF130000000C000000020000005B00000038000000
310
3D0B0000A3000000430B0000A6000000010000000500000005000000B821F001
310
C821F001C821EB01B821EB01B821F001130000000C000000020000003B000000
310
080000001B0000001000000004220000E70100005800000084010000450B0000
310
9B000000590B0000AA0000005A0000000122E601FD21E501F621E501E421E501
310
E421E501E421E501D921E501D921E301D921E001D921DD01DA21DB01DC21DA01
310
DE21DA01E221D901E921D901EF21D901EF21D901EF21D9010022D9010022DB01
310
0022E0010022E1010022E1010022E1010722E1010722E1010722E1010722DF01
310
0722DF010722DF010722DB010622D8010322D6010022D401FB21D401F321D401
310
E521D401E521D401E521D401D921D401D121D601D121DF01D121E501D321E801
310
D721E901DB21EB01E221EB01EC21EB01F821EB01F821EB01F821EB010022EB01
310
0122ED010122F1010122F5010022F701F621F701E221F701E221F701E221F701
310
DA21F701D921F501D921F201D921EF01D921EF01D921EF01D121EF01D121EF01
310
D121EF01D121F201D121F201D121F201D121FC01DB21FD01E421FD01F521FD01
310
F521FD01F521FD01F921FD01FE21FD010222FB010622FA010922F6010922F201
310
0922EF010922EF010922EF010922EC010722E9010422E7013C00000008000000
310
3E000000180000009F8601009F8601006179FEFF6179FEFF130000000C000000
310
020000005B0000004C000000590B00009B0000006F0B0000AA00000001000000
310
0A0000000A0000002C22E6011722D4010C22D4012822EC012822FC013022FC01
310
3022EC014C22D4014122D4012C22E601130000000C000000020000003B000000
310
080000001B0000001000000082220000E701000058000000780100006F0B0000
310
9B000000830B0000AA000000570000007F22E6017B22E5017422E5016122E501
310
6122E5016122E5015722E5015722E3015722E0015722DB015822D9016622D901
310
6D22D9016D22D9016D22D9017E22D9017E22DB017E22E0017E22E1017E22E101
310
7E22E1018522E1018522E1018522E1018522DF018522DF018522DF018522DB01
310
8422D8018122D6017E22D4017922D4017122D4016322D4016322D4016322D401
310
5722D4014F22D6014F22DF014F22E5015122E8015522E9015922EB015F22EB01
310
6A22EB017622EB017622EB017622EB017E22EB017F22ED017F22F1017F22F501
310
7D22F7017422F7016022F7016022F7016022F7015822F7015722F5015722F201
310
5722EF015722EF015722EF014F22EF014F22EF014F22EF014F22F2014F22F201
310
4F22F2014F22FC015822FD016122FD017322FD017322FD017322FD017722FD01
310
7C22FD018022FB018422FA018622F6018622F2018622EF018622EF018622EF01
310
8622EC018522E9018222E7013C000000080000003E000000180000009F860100
310
9F8601006179FEFF6179FEFF130000000C000000020000005B00000038000000
310
300B0000A6000000340B0000AC00000001000000050000000500000093210202
310
9A2102029A21F3019321F30193210202130000000C000000020000003B000000
310
080000001B000000100000009B210000D40100005800000018010000240B0000
310
9B0000003A0B0000AA0000003F0000008021D4018021D4018021D4017421D401
310
6F21D8016F21E3016F21EE016F21EE016F21EE016F21F8017421FD018021FD01
310
8F21FD018F21FD018F21FD018F21F7018F21F7018F21F7018121F7018121F701
310
8121F7017921F7017621F5017621F0017621E1017621E1017621E1017621DC01
310
7921D9018121D9019A21D9019A21D9019A21D901A121D901A421DC01A421E101
310
A421F001A421F001A421F001A421F401A321F6019E21F7019E21F7019E21F701
310
9E21F7019E21FD019E21FD019E21FD019F21FD019F21FD019F21FD01A421FC01
310
A721FB01A921F801AB21F601AC21F201AC21EE01AC21E301AC21E301AC21E301
310
AC21D801A721D4019B21D4013C000000080000003E000000180000009F860100
310
9F8601006179FEFF6179FEFF130000000C000000020000005B0000006C000000
310
840B00009B000000870B00009F0000000100000012000000120000009222D401
310
9122D8019022D4018E22D4018E22DA018F22DA018F22D6018F22D5019022D601
310
9122DA019122DA019222D6019322D5019322D6019322DA019422DA019422D401
310
9222D401130000000C000000020000005B00000048000000830B00009B000000
310
850B00009F0000000100000009000000090000008A22D5018B22D5018B22DA01
310
8C22DA018C22D5018E22D5018E22D4018A22D4018A22D501280000000C000000
310
01000000280000000C000000020000000E000000140000000000000010000000
310
1400000000000000000000000000000000000000000000000000000000000000
310
0000000000000000000000000000000000000000000000000000000000000000
  1
OLE
  0
ENDSEC
  0
SECTION
  2
OBJECTS
  0
DICTIONARY
  5
C
330
0
100
AcDbDictionary
281
     1
  3
ACAD_GROUP
350
D
  3
ACAD_LAYOUT
350
1A
  3
ACAD_MLINESTYLE
350
17
  3
ACAD_PLOTSETTINGS
350
19
  3
ACAD_PLOTSTYLENAME
350
E
  3
ACAD_SCALELIST
350
47
  3
DWGPROPS
350
5F8
  0
DICTIONARY
  5
D
102
{ACAD_REACTORS
330
C
102
}
330
C
100
AcDbDictionary
281
     1
  0
DICTIONARY
  5
1A
102
{ACAD_REACTORS
330
C
102
}
330
C
100
AcDbDictionary
281
     1
  3
Layout1
350
1E
  3
Layout2
350
26
  3
Model
350
22
  0
DICTIONARY
  5
17
102
{ACAD_REACTORS
330
C
102
}
330
C
100
AcDbDictionary
281
     1
  3
Standard
350
18
  0
DICTIONARY
  5
19
102
{ACAD_REACTORS
330
C
102
}
330
C
100
AcDbDictionary
281
     1
  0
ACDBDICTIONARYWDFLT
  5
E
102
{ACAD_REACTORS
330
C
102
}
330
C
100
AcDbDictionary
281
     1
  3
Normal
350
F
100
AcDbDictionaryWithDefault
340
F
  0
DICTIONARY
  5
47
102
{ACAD_REACTORS
330
C
102
}
330
C
100
AcDbDictionary
281
     1
  3
A0
350
48
  3
A1
350
49
  3
A2
350
4A
  3
A3
350
4B
  3
A4
350
4C
  3
A5
350
4D
  3
A6
350
4E
  3
A7
350
4F
  3
A8
350
50
  3
A9
350
51
  3
B0
350
52
  3
B1
350
53
  3
B2
350
54
  3
B3
350
55
  3
B4
350
56
  3
B5
350
57
  3
B6
350
58
  0
XRECORD
  5
5F8
102
{ACAD_REACTORS
330
C
102
}
330
C
100
AcDbXrecord
280
     1
  1
DWGPROPS COOKIE
  2

  3

  4

  6

  7

  8
Kevin.Castro
  9

300
=
301
=
302
=
303
=
304
=
305
=
306
=
307
=
308
=
309
=
 40
0.0
 41
2460461.740896516
 42
2460461.740902454
  1

 90
        0
  0
LAYOUT
  5
1E
102
{ACAD_REACTORS
330
1A
102
}
330
1A
100
AcDbPlotSettings
  1

  2
none_device
  4

  6

 40
0.0
 41
0.0
 42
0.0
 43
0.0
 44
0.0
 45
0.0
 46
0.0
 47
0.0
 48
0.0
 49
0.0
140
0.0
141
0.0
142
1.0
143
1.0
 70
   688
 72
     1
 73
     0
 74
     5
  7

 75
    16
147
1.0
148
0.0
149
0.0
100
AcDbLayout
  1
Layout1
 70
     1
 71
     1
 10
0.0
 20
0.0
 11
420.0
 21
297.0
 12
0.0
 22
0.0
 32
0.0
 14
1.0000000000E+20
 24
1.0000000000E+20
 34
1.0000000000E+20
 15
-1.0000000000E+20
 25
-1.0000000000E+20
 35
-1.0000000000E+20
146
0.0
 13
0.0
 23
0.0
 33
0.0
 16
1.0
 26
0.0
 36
0.0
 17
0.0
 27
1.0
 37
0.0
 76
     0
330
1B
  0
LAYOUT
  5
26
102
{ACAD_REACTORS
330
1A
102
}
330
1A
100
AcDbPlotSettings
  1

  2
none_device
  4

  6

 40
0.0
 41
0.0
 42
0.0
 43
0.0
 44
0.0
 45
0.0
 46
0.0
 47
0.0
 48
0.0
 49
0.0
140
0.0
141
0.0
142
1.0
143
1.0
 70
   688
 72
     1
 73
     0
 74
     5
  7

 75
    16
147
1.0
148
0.0
149
0.0
100
AcDbLayout
  1
Layout2
 70
     1
 71
     2
 10
0.0
 20
0.0
 11
0.0
 21
0.0
 12
0.0
 22
0.0
 32
0.0
 14
0.0
 24
0.0
 34
0.0
 15
0.0
 25
0.0
 35
0.0
146
0.0
 13
0.0
 23
0.0
 33
0.0
 16
1.0
 26
0.0
 36
0.0
 17
0.0
 27
1.0
 37
0.0
 76
     0
330
23
  0
LAYOUT
  5
22
102
{ACAD_REACTORS
330
1A
102
}
330
1A
100
AcDbPlotSettings
  1

  2
none_device
  4
Letter_(8.50_x_11.00_Inches)
  6

 40
6.35
 41
6.35
 42
6.35000508
 43
6.35000508
 44
215.9
 45
279.4
 46
0.0
 47
0.0
 48
0.0
 49
0.0
140
0.0
141
0.0
142
1.0
143
1.0
 70
  1712
 72
     1
 73
     0
 74
     0
  7

 75
     0
147
1.0
148
0.0
149
0.0
100
AcDbLayout
  1
Model
 70
     1
 71
     0
 10
0.0
 20
0.0
 11
3886.2
 21
2514.6
 12
0.0
 22
0.0
 32
0.0
 14
0.0
 24
0.0
 34
0.0
 15
3886.2
 25
2514.6
 35
0.0
146
0.0
 13
0.0
 23
0.0
 33
0.0
 16
1.0
 26
0.0
 36
0.0
 17
0.0
 27
1.0
 37
0.0
 76
     0
330
1F
331
29
  0
MLINESTYLE
  5
18
102
{ACAD_REACTORS
330
17
102
}
330
17
100
AcDbMlineStyle
  2
Standard
 70
     0
  3

 62
   256
 51
90.0
 52
90.0
 71
     2
 49
0.5
 62
   256
  6
BYLAYER
 49
-0.5
 62
   256
  6
BYLAYER
  0
ACDBPLACEHOLDER
  5
F
102
{ACAD_REACTORS
330
E
102
}
330
E
  0
SCALE
  5
48
102
{ACAD_REACTORS
330
47
102
}
330
47
100
AcDbScale
 70
     0
300
1:1
140
1.0
141
1.0
290
     1
  0
SCALE
  5
49
102
{ACAD_REACTORS
330
47
102
}
330
47
100
AcDbScale
 70
     0
300
1:2
140
1.0
141
2.0
290
     0
  0
SCALE
  5
4A
102
{ACAD_REACTORS
330
47
102
}
330
47
100
AcDbScale
 70
     0
300
1:4
140
1.0
141
4.0
290
     0
  0
SCALE
  5
4B
102
{ACAD_REACTORS
330
47
102
}
330
47
100
AcDbScale
 70
     0
300
1:5
140
1.0
141
5.0
290
     0
  0
SCALE
  5
4C
102
{ACAD_REACTORS
330
47
102
}
330
47
100
AcDbScale
 70
     0
300
1:8
140
1.0
141
8.0
290
     0
  0
SCALE
  5
4D
102
{ACAD_REACTORS
330
47
102
}
330
47
100
AcDbScale
 70
     0
300
1:10
140
1.0
141
10.0
290
     0
  0
SCALE
  5
4E
102
{ACAD_REACTORS
330
47
102
}
330
47
100
AcDbScale
 70
     0
300
1:16
140
1.0
141
16.0
290
     0
  0
SCALE
  5
4F
102
{ACAD_REACTORS
330
47
102
}
330
47
100
AcDbScale
 70
     0
300
1:20
140
1.0
141
20.0
290
     0
  0
SCALE
  5
50
102
{ACAD_REACTORS
330
47
102
}
330
47
100
AcDbScale
 70
     0
300
1:30
140
1.0
141
30.0
290
     0
  0
SCALE
  5
51
102
{ACAD_REACTORS
330
47
102
}
330
47
100
AcDbScale
 70
     0
300
1:40
140
1.0
141
40.0
290
     0
  0
SCALE
  5
52
102
{ACAD_REACTORS
330
47
102
}
330
47
100
AcDbScale
 70
     0
300
1:50
140
1.0
141
50.0
290
     0
  0
SCALE
  5
53
102
{ACAD_REACTORS
330
47
102
}
330
47
100
AcDbScale
 70
     0
300
1:100
140
1.0
141
100.0
290
     0
  0
SCALE
  5
54
102
{ACAD_REACTORS
330
47
102
}
330
47
100
AcDbScale
 70
     0
300
2:1
140
2.0
141
1.0
290
     0
  0
SCALE
  5
55
102
{ACAD_REACTORS
330
47
102
}
330
47
100
AcDbScale
 70
     0
300
4:1
140
4.0
141
1.0
290
     0
  0
SCALE
  5
56
102
{ACAD_REACTORS
330
47
102
}
330
47
100
AcDbScale
 70
     0
300
8:1
140
8.0
141
1.0
290
     0
  0
SCALE
  5
57
102
{ACAD_REACTORS
330
47
102
}
330
47
100
AcDbScale
 70
     0
300
10:1
140
10.0
141
1.0
290
     0
  0
SCALE
  5
58
102
{ACAD_REACTORS
330
47
102
}
330
47
100
AcDbScale
 70
     0
300
100:1
140
100.0
141
1.0
290
     0
  0
ENDSEC
  0
EOF
