  0
SECTION
  2
HEADER
  9
$ACADVER
  1
AC1015
  9
$ACADMAINTVER
 70
     6
  9
$DWGCODEPAGE
  3
ANSI_1252
  9
$INSBASE
 10
0.0
 20
0.0
 30
0.0
  9
$EXTMIN
 10
0.0
 20
0.0
 30
0.0
  9
$EXTMAX
 10
863.6
 20
558.8
 30
0.0
  9
$LIMMIN
 10
0.0
 20
0.0
  9
$LIMMAX
 10
863.6
 20
558.8
  9
$ORTHOMODE
 70
     0
  9
$REGENMODE
 70
     1
  9
$FILLMODE
 70
     1
  9
$QTEXTMODE
 70
     0
  9
$MIRRTEXT
 70
     1
  9
$LTSCALE
 40
2.0
  9
$ATTMODE
 70
     1
  9
$TEXTSIZE
 40
6.35
  9
$TRACEWID
 40
1.0
  9
$TEXTSTYLE
  7
STANDARD
  9
$CLAYER
  8
0
  9
$CELTYPE
  6
ByLayer
  9
$CECOLOR
 62
   256
  9
$CELTSCALE
 40
1.0
  9
$DISPSILH
 70
     0
  9
$DIMSCALE
 40
1.0
  9
$DIMASZ
 40
4.0
  9
$DIMEXO
 40
1.524
  9
$DIMDLI
 40
3.75
  9
$DIMRND
 40
0.0
  9
$DIMDLE
 40
0.0
  9
$DIMEXE
 40
1.524
  9
$DIMTP
 40
0.0
  9
$DIMTM
 40
0.0
  9
$DIMTXT
 40
6.35
  9
$DIMCEN
 40
2.5
  9
$DIMTSZ
 40
0.0
  9
$DIMTOL
 70
     0
  9
$DIMLIM
 70
     0
  9
$DIMTIH
 70
     1
  9
$DIMTOH
 70
     1
  9
$DIMSE1
 70
     0
  9
$DIMSE2
 70
     0
  9
$DIMTAD
 70
     0
  9
$DIMZIN
 70
     1
  9
$DIMBLK
  1

  9
$DIMASO
 70
     1
  9
$DIMSHO
 70
     1
  9
$DIMPOST
  1

  9
$DIMAPOST
  1

  9
$DIMALT
 70
     0
  9
$DIMALTD
 70
     3
  9
$DIMALTF
 40
0.0393700787
  9
$DIMLFAC
 40
1.0
  9
$DIMTOFL
 70
     1
  9
$DIMTVP
 40
0.0
  9
$DIMTIX
 70
     0
  9
$DIMSOXD
 70
     0
  9
$DIMSAH
 70
     0
  9
$DIMBLK1
  1

  9
$DIMBLK2
  1

  9
$DIMSTYLE
  2
ISO-25
  9
$DIMCLRD
 70
     0
  9
$DIMCLRE
 70
     0
  9
$DIMCLRT
 70
     0
  9
$DIMTFAC
 40
1.0
  9
$DIMGAP
 40
3.048
  9
$DIMJUST
 70
     0
  9
$DIMSD1
 70
     0
  9
$DIMSD2
 70
     0
  9
$DIMTOLJ
 70
     0
  9
$DIMTZIN
 70
     1
  9
$DIMALTZ
 70
     0
  9
$DIMALTTZ
 70
     0
  9
$DIMUPT
 70
     0
  9
$DIMDEC
 70
     2
  9
$DIMTDEC
 70
     2
  9
$DIMALTU
 70
     2
  9
$DIMALTTD
 70
     3
  9
$DIMTXSTY
  7
STANDARD
  9
$DIMAUNIT
 70
     0
  9
$DIMADEC
 70
     0
  9
$DIMALTRND
 40
0.0
  9
$DIMAZIN
 70
     0
  9
$DIMDSEP
 70
    44
  9
$DIMATFIT
 70
     3
  9
$DIMFRAC
 70
     0
  9
$DIMLDRBLK
  1

  9
$DIMLUNIT
 70
     2
  9
$DIMLWD
 70
    -2
  9
$DIMLWE
 70
    -2
  9
$DIMTMOVE
 70
     0
  9
$LUNITS
 70
     2
  9
$LUPREC
 70
     3
  9
$SKETCHINC
 40
1.0
  9
$FILLETRAD
 40
0.0
  9
$AUNITS
 70
     0
  9
$AUPREC
 70
     0
  9
$MENU
  1
.
  9
$ELEVATION
 40
0.0
  9
$PELEVATION
 40
0.0
  9
$THICKNESS
 40
0.0
  9
$LIMCHECK
 70
     0
  9
$CHAMFERA
 40
0.0
  9
$CHAMFERB
 40
0.0
  9
$CHAMFERC
 40
0.0
  9
$CHAMFERD
 40
0.0
  9
$SKPOLY
 70
     0
  9
$TDCREATE
 40
2460461.379437813
  9
$TDUCREATE
 40
2460461.671104479
  9
$TDUPDATE
 40
2460461.37944044
  9
$TDUUPDATE
 40
2460461.671107107
  9
$TDINDWG
 40
0.0000000116
  9
$TDUSRTIMER
 40
0.0000000116
  9
$USRTIMER
 70
     1
  9
$ANGBASE
 50
0.0
  9
$ANGDIR
 70
     0
  9
$PDMODE
 70
     0
  9
$PDSIZE
 40
-1.0
  9
$PLINEWID
 40
0.0
  9
$SPLFRAME
 70
     0
  9
$SPLINETYPE
 70
     6
  9
$SPLINESEGS
 70
     8
  9
$HANDSEED
  5
4E4
  9
$SURFTAB1
 70
     6
  9
$SURFTAB2
 70
     6
  9
$SURFTYPE
 70
     6
  9
$SURFU
 70
     6
  9
$SURFV
 70
     6
  9
$UCSBASE
  2

  9
$UCSNAME
  2

  9
$UCSORG
 10
0.0
 20
0.0
 30
0.0
  9
$UCSXDIR
 10
1.0
 20
0.0
 30
0.0
  9
$UCSYDIR
 10
0.0
 20
1.0
 30
0.0
  9
$UCSORTHOREF
  2

  9
$UCSORTHOVIEW
 70
     0
  9
$UCSORGTOP
 10
0.0
 20
0.0
 30
0.0
  9
$UCSORGBOTTOM
 10
0.0
 20
0.0
 30
0.0
  9
$UCSORGLEFT
 10
0.0
 20
0.0
 30
0.0
  9
$UCSORGRIGHT
 10
0.0
 20
0.0
 30
0.0
  9
$UCSORGFRONT
 10
0.0
 20
0.0
 30
0.0
  9
$UCSORGBACK
 10
0.0
 20
0.0
 30
0.0
  9
$PUCSBASE
  2

  9
$PUCSNAME
  2

  9
$PUCSORG
 10
0.0
 20
0.0
 30
0.0
  9
$PUCSXDIR
 10
1.0
 20
0.0
 30
0.0
  9
$PUCSYDIR
 10
0.0
 20
1.0
 30
0.0
  9
$PUCSORTHOREF
  2

  9
$PUCSORTHOVIEW
 70
     0
  9
$PUCSORGTOP
 10
0.0
 20
0.0
 30
0.0
  9
$PUCSORGBOTTOM
 10
0.0
 20
0.0
 30
0.0
  9
$PUCSORGLEFT
 10
0.0
 20
0.0
 30
0.0
  9
$PUCSORGRIGHT
 10
0.0
 20
0.0
 30
0.0
  9
$PUCSORGFRONT
 10
0.0
 20
0.0
 30
0.0
  9
$PUCSORGBACK
 10
0.0
 20
0.0
 30
0.0
  9
$USERI1
 70
     0
  9
$USERI2
 70
     0
  9
$USERI3
 70
     0
  9
$USERI4
 70
     0
  9
$USERI5
 70
     0
  9
$USERR1
 40
0.0
  9
$USERR2
 40
0.0
  9
$USERR3
 40
0.0
  9
$USERR4
 40
0.0
  9
$USERR5
 40
0.0
  9
$WORLDVIEW
 70
     1
  9
$SHADEDGE
 70
     3
  9
$SHADEDIF
 70
    70
  9
$TILEMODE
 70
     1
  9
$MAXACTVP
 70
    64
  9
$PINSBASE
 10
0.0
 20
0.0
 30
0.0
  9
$PLIMCHECK
 70
     0
  9
$PEXTMIN
 10
1.0000000000E+20
 20
1.0000000000E+20
 30
1.0000000000E+20
  9
$PEXTMAX
 10
-1.0000000000E+20
 20
-1.0000000000E+20
 30
-1.0000000000E+20
  9
$PLIMMIN
 10
0.0
 20
0.0
  9
$PLIMMAX
 10
420.0
 20
297.0
  9
$UNITMODE
 70
     0
  9
$VISRETAIN
 70
     1
  9
$PLINEGEN
 70
     0
  9
$PSLTSCALE
 70
     1
  9
$TREEDEPTH
 70
  3020
  9
$CMLSTYLE
  2
Standard
  9
$CMLJUST
 70
     0
  9
$CMLSCALE
 40
20.0
  9
$PROXYGRAPHICS
 70
     1
  9
$MEASUREMENT
 70
     1
  9
$CELWEIGHT
370
    -1
  9
$ENDCAPS
280
     0
  9
$JOINSTYLE
280
     0
  9
$LWDISPLAY
290
     1
  9
$INSUNITS
 70
     4
  9
$HYPERLINKBASE
  1

  9
$STYLESHEET
  1

  9
$XEDIT
290
     1
  9
$CEPSNTYPE
380
     0
  9
$PSTYLEMODE
290
     1
  9
$FINGERPRINTGUID
  2
{e1595662-2e00-4cd8-a1b1-1782625e729e}
  9
$VERSIONGUID
  2
{FAEB1C32-E019-11D5-929B-00C0DF256EC4}
  9
$EXTNAMES
290
     1
  9
$PSVPSCALE
 40
0.0
  9
$OLESTARTUP
290
     0
  0
ENDSEC
  0
SECTION
  2
CLASSES
  0
CLASS
  1
ACDBDICTIONARYWDFLT
  2
AcDbDictionaryWithDefault
  3
ObjectDBX Classes
 90
        0
280
     0
281
     0
  0
CLASS
  1
VISUALSTYLE
  2
AcDbVisualStyle
  3
ObjectDBX Classes
 90
     4095
280
     0
281
     0
  0
CLASS
  1
MATERIAL
  2
AcDbMaterial
  3
ObjectDBX Classes
 90
     1153
280
     0
281
     0
  0
CLASS
  1
SCALE
  2
AcDbScale
  3
ObjectDBX Classes
 90
     1153
280
     0
281
     0
  0
CLASS
  1
TABLESTYLE
  2
AcDbTableStyle
  3
ObjectDBX Classes
 90
     4095
280
     0
281
     0
  0
CLASS
  1
MLEADERSTYLE
  2
AcDbMLeaderStyle
  3
ACDB_MLEADERSTYLE_CLASS
 90
     4095
280
     0
281
     0
  0
CLASS
  1
SUN
  2
AcDbSun
  3
SCENEOE
 90
     1153
280
     0
281
     0
  0
CLASS
  1
ACDBPLACEHOLDER
  2
AcDbPlaceHolder
  3
ObjectDBX Classes
 90
        0
280
     0
281
     0
  0
CLASS
  1
LAYOUT
  2
AcDbLayout
  3
ObjectDBX Classes
 90
        0
280
     0
281
     0
  0
ENDSEC
  0
SECTION
  2
TABLES
  0
TABLE
  2
VPORT
  5
8
330
0
100
AcDbSymbolTable
 70
     1
  0
VPORT
  5
29
330
8
100
AcDbSymbolTableRecord
100
AcDbViewportTableRecord
  2
*Active
 70
     0
 10
0.0
 20
0.0
 11
1.0
 21
1.0
 12
431.8
 22
279.4
 13
0.0
 23
0.0
 14
10.0
 24
10.0
 15
10.0
 25
10.0
 16
0.0
 26
0.0
 36
1.0
 17
0.0
 27
0.0
 37
0.0
 40
558.8
 41
1.5454545455
 42
50.0
 43
0.0
 44
0.0
 50
0.0
 51
0.0
 71
     0
 72
  2000
 73
     1
 74
     3
 75
     0
 76
     0
 77
     0
 78
     0
281
     0
 65
     1
110
0.0
120
0.0
130
0.0
111
1.0
121
0.0
131
0.0
112
0.0
122
1.0
132
0.0
 79
     0
146
0.0
  0
ENDTAB
  0
TABLE
  2
LTYPE
  5
5
330
0
100
AcDbSymbolTable
 70
     6
  0
LTYPE
  5
14
330
5
100
AcDbSymbolTableRecord
100
AcDbLinetypeTableRecord
  2
ByBlock
 70
     0
  3

 72
    65
 73
     0
 40
0.0
  0
LTYPE
  5
15
330
5
100
AcDbSymbolTableRecord
100
AcDbLinetypeTableRecord
  2
ByLayer
 70
     0
  3

 72
    65
 73
     0
 40
0.0
  0
LTYPE
  5
16
330
5
100
AcDbSymbolTableRecord
100
AcDbLinetypeTableRecord
  2
Continuous
 70
     0
  3
Solid line
 72
    65
 73
     0
 40
0.0
  0
LTYPE
  5
5E
330
5
100
AcDbSymbolTableRecord
100
AcDbLinetypeTableRecord
  2
HIDDEN
 70
     0
  3
Hidden __ __ __ __ __ __ __ __ __ __ __ __ __ __
 72
    65
 73
     2
 40
1.905
 49
1.27
 74
     0
 49
-0.635
 74
     0
  0
LTYPE
  5
5F
330
5
100
AcDbSymbolTableRecord
100
AcDbLinetypeTableRecord
  2
PHANTOM
 70
     0
  3
Phantom ______  __  __  ______  __  __  ______
 72
    65
 73
     6
 40
12.7
 49
6.35
 74
     0
 49
-1.27
 74
     0
 49
1.27
 74
     0
 49
-1.27
 74
     0
 49
1.27
 74
     0
 49
-1.27
 74
     0
  0
LTYPE
  5
60
330
5
100
AcDbSymbolTableRecord
100
AcDbLinetypeTableRecord
  2
CENTER
 70
     0
  3
Center ____ _ ____ _ ____ _ ____ _ ____ _ ____
 72
    65
 73
     4
 40
10.16
 49
6.35
 74
     0
 49
-1.27
 74
     0
 49
1.27
 74
     0
 49
-1.27
 74
     0
  0
LTYPE
  5
61
330
5
100
AcDbSymbolTableRecord
100
AcDbLinetypeTableRecord
  2
CENTERX2
 70
     0
  3
Center (2x) ________  __  ________  __  _____
 72
    65
 73
     4
 40
20.32
 49
12.7
 74
     0
 49
-2.54
 74
     0
 49
2.54
 74
     0
 49
-2.54
 74
     0
  0
LTYPE
  5
62
330
5
100
AcDbSymbolTableRecord
100
AcDbLinetypeTableRecord
  2
DOT2
 70
     0
  3
Dot (.5x) ........................................
 72
    65
 73
     2
 40
0.635
 49
0.0
 74
     0
 49
-0.635
 74
     0
  0
ENDTAB
  0
TABLE
  2
LAYER
  5
2
330
0
100
AcDbSymbolTable
 70
     6
  0
LAYER
  5
10
330
2
100
AcDbSymbolTableRecord
100
AcDbLayerTableRecord
  2
0
 70
     0
 62
     7
  6
Continuous
370
    -3
390
F
  0
LAYER
  5
63
330
2
100
AcDbSymbolTableRecord
100
AcDbLayerTableRecord
  2
SLD-0
 70
     0
 62
   179
  6
Continuous
370
    -3
390
F
  0
LAYER
  5
64
330
2
100
AcDbSymbolTableRecord
100
AcDbLayerTableRecord
  2
WIRE_BOND
 70
     0
 62
     6
  6
Continuous
370
   100
390
F
  0
LAYER
  5
65
330
2
100
AcDbSymbolTableRecord
100
AcDbLayerTableRecord
  2
HIGHLIGHT-BLUE
 70
     0
 62
     5
  6
Continuous
370
    70
390
F
  0
LAYER
  5
66
330
2
100
AcDbSymbolTableRecord
100
AcDbLayerTableRecord
  2
MANUAL_DIM
 70
     0
 62
   114
  6
Continuous
370
    -3
390
F
  0
LAYER
  5
67
330
2
100
AcDbSymbolTableRecord
100
AcDbLayerTableRecord
  2
TORQUE_9-10
 70
     0
 62
   155
  6
Continuous
370
    -3
390
F
  0
ENDTAB
  0
TABLE
  2
STYLE
  5
3
330
0
100
AcDbSymbolTable
 70
     5
  0
STYLE
  5
11
330
3
100
AcDbSymbolTableRecord
100
AcDbTextStyleTableRecord
  2
STANDARD
 70
     0
 40
0.0
 41
1.0
 50
0.0
 71
     0
 42
6.35
  3
GOTHIC.TTF
  4

1001
ACAD
1000
CENTURY GOTHIC
1071
       34
  0
STYLE
  5
7A
330
3
100
AcDbSymbolTableRecord
100
AcDbTextStyleTableRecord
  2
SLDTEXTSTYLE0
 70
     0
 40
0.0
 41
0.913
 50
0.0
 71
     0
 42
6.35
  3
GOTHIC.TTF
  4

1001
ACAD
1000
Century Gothic
1071
      290
  0
STYLE
  5
96
330
3
100
AcDbSymbolTableRecord
100
AcDbTextStyleTableRecord
  2
SLDTEXTSTYLE1
 70
     0
 40
0.0
 41
0.87
 50
0.0
 71
     0
 42
6.35
  3
ARIALN.TTF
  4

1001
ACAD
1000
Arial Narrow
1071
      290
  0
STYLE
  5
A1
330
3
100
AcDbSymbolTableRecord
100
AcDbTextStyleTableRecord
  2
SLDTEXTSTYLE2
 70
     0
 40
0.0
 41
0.8969072165
 50
0.0
 71
     0
 42
6.35
  3
ARIALN.TTF
  4

1001
ACAD
1000
Arial Narrow
1071
      290
  0
STYLE
  5
A6
330
3
100
AcDbSymbolTableRecord
100
AcDbTextStyleTableRecord
  2
SLDTEXTSTYLE3
 70
     0
 40
0.0
 41
0.8969072165
 50
0.0
 71
     0
 42
6.35
  3
ARIALN.TTF
  4
bigfont
1001
ACAD
1000
Arial Narrow
1071
      290
  0
ENDTAB
  0
TABLE
  2
VIEW
  5
6
330
0
100
AcDbSymbolTable
 70
     0
  0
ENDTAB
  0
TABLE
  2
UCS
  5
7
330
0
100
AcDbSymbolTable
 70
     0
  0
ENDTAB
  0
TABLE
  2
APPID
  5
9
330
0
100
AcDbSymbolTable
 70
     1
  0
APPID
  5
12
330
9
100
AcDbSymbolTableRecord
100
AcDbRegAppTableRecord
  2
ACAD
 70
     0
  0
ENDTAB
  0
TABLE
  2
DIMSTYLE
  5
A
330
0
100
AcDbSymbolTable
 70
     5
100
AcDbDimStyleTable
  0
DIMSTYLE
105
27
330
A
100
AcDbSymbolTableRecord
100
AcDbDimStyleTableRecord
  2
ISO-25
 70
     0
 41
2.5
 42
0.625
 43
3.75
 44
1.25
 73
     0
 74
     0
 77
     1
 78
     8
140
2.5
141
2.5
143
0.0393700787
147
0.625
171
     3
172
     1
178
     0
271
     2
272
     2
274
     3
278
    44
283
     0
284
     8
340
11
  0
DIMSTYLE
105
22F
102
{ACAD_REACTORS
330
22E
330
244
330
260
102
}
330
A
100
AcDbSymbolTableRecord
100
AcDbDimStyleTableRecord
  2
SLDDIMSTYLE0
 70
     0
 41
4.0
 44
0.0
 45
0.000000001
 78
     4
 79
     1
140
4.7625
147
1.190625
173
     1
178
     0
271
     1
272
     2
276
     2
284
    12
340
7A
  0
DIMSTYLE
105
23B
330
A
100
AcDbSymbolTableRecord
100
AcDbDimStyleTableRecord
  2
SLDDIMSTYLE1
 70
     0
 41
4.0
 44
0.0
 45
0.000000001
146
4.0
147
0.0
173
     1
178
     0
271
     0
272
     0
276
     2
340
11
  0
DIMSTYLE
105
26C
102
{ACAD_REACTORS
330
26B
102
}
330
A
100
AcDbSymbolTableRecord
100
AcDbDimStyleTableRecord
  2
SLDDIMSTYLE2
 70
     0
 41
4.0
 44
0.0
 45
0.000000001
 78
     4
 79
     1
140
4.7625
147
1.190625
172
     1
173
     1
178
     0
271
     1
272
     2
276
     2
284
    12
289
     0
340
7A
  0
DIMSTYLE
105
2F1
102
{ACAD_REACTORS
330
2F0
102
}
330
A
100
AcDbSymbolTableRecord
100
AcDbDimStyleTableRecord
  2
SLDDIMSTYLE3
 70
     0
 41
4.0
 44
0.0
 45
0.000000001
 78
    12
 79
     3
140
4.7625
147
1.190625
173
     1
178
     0
271
     1
272
     2
276
     2
284
    12
340
7A
  0
ENDTAB
  0
TABLE
  2
BLOCK_RECORD
  5
1
330
0
100
AcDbSymbolTable
 70
    11
  0
BLOCK_RECORD
  5
1F
330
1
100
AcDbSymbolTableRecord
100
AcDbBlockTableRecord
  2
*Model_Space
340
22
  0
BLOCK_RECORD
  5
1B
330
1
100
AcDbSymbolTableRecord
100
AcDbBlockTableRecord
  2
*Paper_Space
340
1E
  0
BLOCK_RECORD
  5
23
330
1
100
AcDbSymbolTableRecord
100
AcDbBlockTableRecord
  2
*Paper_Space0
340
26
  0
BLOCK_RECORD
  5
73
330
1
100
AcDbSymbolTableRecord
100
AcDbBlockTableRecord
  2
SW_NOTE_0
340
0
102
{BLKREFS
331
82
102
}
  0
BLOCK_RECORD
  5
230
330
1
100
AcDbSymbolTableRecord
100
AcDbBlockTableRecord
  2
_D
340
0
  0
BLOCK_RECORD
  5
245
330
1
100
AcDbSymbolTableRecord
100
AcDbBlockTableRecord
  2
_D_1
340
0
  0
BLOCK_RECORD
  5
261
330
1
100
AcDbSymbolTableRecord
100
AcDbBlockTableRecord
  2
_D_2
340
0
  0
BLOCK_RECORD
  5
26D
330
1
100
AcDbSymbolTableRecord
100
AcDbBlockTableRecord
  2
_D_3
340
0
  0
BLOCK_RECORD
  5
278
330
1
100
AcDbSymbolTableRecord
100
AcDbBlockTableRecord
  2
SW_SYMBOL_MOD_CL
340
0
102
{BLKREFS
331
27D
102
}
  0
BLOCK_RECORD
  5
27E
330
1
100
AcDbSymbolTableRecord
100
AcDbBlockTableRecord
  2
SW_NOTE_0_1
340
0
102
{BLKREFS
331
286
102
}
  0
BLOCK_RECORD
  5
288
330
1
100
AcDbSymbolTableRecord
100
AcDbBlockTableRecord
  2
SW_CENTERMARKSYMBOL_0
340
0
102
{BLKREFS
331
293
102
}
  0
BLOCK_RECORD
  5
294
330
1
100
AcDbSymbolTableRecord
100
AcDbBlockTableRecord
  2
SW_CENTERMARKSYMBOL_1
340
0
102
{BLKREFS
331
29F
102
}
  0
BLOCK_RECORD
  5
2F2
330
1
100
AcDbSymbolTableRecord
100
AcDbBlockTableRecord
  2
_D_4
340
0
  0
ENDTAB
  0
ENDSEC
  0
SECTION
  2
BLOCKS
  0
BLOCK
  5
20
330
1F
100
AcDbEntity
  8
0
100
AcDbBlockBegin
  2
*Model_Space
 70
     0
 10
0.0
 20
0.0
 30
0.0
  3
*Model_Space
  1

  0
ENDBLK
  5
21
330
1F
100
AcDbEntity
  8
0
100
AcDbBlockEnd
  0
BLOCK
  5
1C
330
1B
100
AcDbEntity
 67
     1
  8
0
100
AcDbBlockBegin
  2
*Paper_Space
 70
     0
 10
0.0
 20
0.0
 30
0.0
  3
*Paper_Space
  1

  0
ENDBLK
  5
1D
330
1B
100
AcDbEntity
 67
     1
  8
0
100
AcDbBlockEnd
  0
BLOCK
  5
24
330
23
100
AcDbEntity
  8
0
100
AcDbBlockBegin
  2
*Paper_Space0
 70
     0
 10
0.0
 20
0.0
 30
0.0
  3
*Paper_Space0
  1

  0
ENDBLK
  5
25
330
23
100
AcDbEntity
  8
0
100
AcDbBlockEnd
  0
BLOCK
  5
74
330
73
100
AcDbEntity
  8
0
100
AcDbBlockBegin
  2
SW_NOTE_0
 70
     0
 10
0.0
 20
0.0
 30
0.0
  3
SW_NOTE_0
  1

  0
LINE
  5
76
330
73
100
AcDbEntity
  8
0
  6
Continuous
 62
     0
370
     0
100
AcDbLine
 10
-2.1034375532
 20
-17.0415623579
 30
0.0
 11
-2.1034375532
 21
-9.3157289084
 31
0.0
  0
LINE
  5
77
330
73
100
AcDbEntity
  8
0
  6
Continuous
 62
     0
370
     0
100
AcDbLine
 10
-2.1034375532
 20
-9.3157289084
 30
0.0
 11
5.6223958964
 21
-9.3157289084
 31
0.0
  0
LINE
  5
78
330
73
100
AcDbEntity
  8
0
  6
Continuous
 62
     0
370
     0
100
AcDbLine
 10
5.6223958964
 20
-9.3157289084
 30
0.0
 11
5.6223958964
 21
-17.0415623579
 31
0.0
  0
LINE
  5
79
330
73
100
AcDbEntity
  8
0
  6
Continuous
 62
     0
370
     0
100
AcDbLine
 10
5.6223958964
 20
-17.0415623579
 30
0.0
 11
-2.1034375532
 21
-17.0415623579
 31
0.0
  0
MTEXT
  5
7B
330
73
100
AcDbEntity
  8
0
  6
Continuous
 62
     0
370
     0
100
AcDbMText
 10
0.0
 20
6.0833496094
 30
0.0
 40
4.7625
 41
0.0
 71
     1
 72
     1
  1
NOTES: UNLESS OTHERWISE SPECIFIED
  7
SLDTEXTSTYLE0
 73
     1
 44
1.0
  0
MTEXT
  5
7C
330
73
100
AcDbEntity
  8
0
  6
Continuous
 62
     0
370
     0
100
AcDbMText
 10
19.999999553
 20
-2.266650176
 30
0.0
 40
4.7625
 41
0.0
 71
     1
 72
     1
  1
NET WEIGHT APPROX. 55 KG [1.21 LBS].
  7
SLDTEXTSTYLE0
 73
     1
 44
1.0
  0
MTEXT
  5
7D
330
73
100
AcDbEntity
  8
0
  6
Continuous
 62
     0
370
     0
100
AcDbMText
 10
0.0
 20
-2.266650176
 30
0.0
 40
4.7625
 41
0.0
 71
     1
 72
     1
  1
1.
  7
SLDTEXTSTYLE0
 73
     1
 44
1.0
  0
MTEXT
  5
7E
330
73
100
AcDbEntity
  8
0
  6
Continuous
 62
     0
370
     0
100
AcDbMText
 10
19.999999553
 20
-10.2702962182
 30
0.0
 40
4.7625
 41
0.0
 71
     1
 72
     1
  1
M3X0.5 MOUNTING HOLES FOR OPTIONAL MOUNTING TRAY ACCESSORY.
  7
SLDTEXTSTYLE0
 73
     1
 44
1.0
  0
MTEXT
  5
7F
330
73
100
AcDbEntity
  8
0
  6
Continuous
 62
     0
370
     0
100
AcDbMText
 10
0.0
 20
-10.2702962182
 30
0.0
 40
4.7625
 41
0.0
 71
     1
 72
     1
  1
2
  7
SLDTEXTSTYLE0
 73
     1
 44
1.0
  0
MTEXT
  5
80
330
73
100
AcDbEntity
  8
0
  6
Continuous
 62
     0
370
     0
100
AcDbMText
 10
19.999999553
 20
-20.2739416569
 30
0.0
 40
4.7625
 41
0.0
 71
     1
 72
     1
  1
PARTS ARE SYMMETRICAL ABOUT CENTER LINES UNLESS OTHERWISE NOTED.
  7
SLDTEXTSTYLE0
 73
     1
 44
1.0
  0
MTEXT
  5
81
330
73
100
AcDbEntity
  8
0
  6
Continuous
 62
     0
370
     0
100
AcDbMText
 10
0.0
 20
-20.2739416569
 30
0.0
 40
4.7625
 41
0.0
 71
     1
 72
     1
  1
3.
  7
SLDTEXTSTYLE0
 73
     1
 44
1.0
  0
ENDBLK
  5
75
330
73
100
AcDbEntity
  8
0
100
AcDbBlockEnd
  0
BLOCK
  5
231
330
230
100
AcDbEntity
  8
0
100
AcDbBlockBegin
  2
_D
 70
     0
 10
0.0
 20
0.0
 30
0.0
  3
_D
  1

  0
SOLID
  5
233
330
230
100
AcDbEntity
  8
SLD-0
100
AcDbTrace
 10
287.9019710866
 20
331.6161579917
 30
0.0
 11
291.9019710866
 21
331.1161579917
 31
0.0
 12
291.9019710866
 22
332.1161579917
 32
0.0
 13
291.9019710866
 23
332.1161579917
 33
0.0
  0
SOLID
  5
234
330
230
100
AcDbEntity
  8
SLD-0
100
AcDbTrace
 10
396.9019710866
 20
331.6161579917
 30
0.0
 11
392.9019710866
 21
332.1161579917
 31
0.0
 12
392.9019710866
 22
331.1161579917
 32
0.0
 13
392.9019710866
 23
331.1161579917
 33
0.0
  0
LINE
  5
235
330
230
100
AcDbEntity
  8
SLD-0
100
AcDbLine
 10
287.9019710866
 20
313.1401579917
 30
0.0
 11
287.9019710866
 21
333.1401579917
 31
0.0
  0
LINE
  5
236
330
230
100
AcDbEntity
  8
SLD-0
100
AcDbLine
 10
396.9019710866
 20
313.1401579917
 30
0.0
 11
396.9019710866
 21
333.1401579917
 31
0.0
  0
LINE
  5
237
330
230
100
AcDbEntity
  8
SLD-0
100
AcDbLine
 10
287.9019710866
 20
331.6161579917
 30
0.0
 11
334.4865198953
 21
331.6161579917
 31
0.0
  0
LINE
  5
238
330
230
100
AcDbEntity
  8
SLD-0
100
AcDbLine
 10
396.9019710866
 20
331.6161579917
 30
0.0
 11
350.317422278
 21
331.6161579917
 31
0.0
  0
MTEXT
  5
239
330
230
100
AcDbEntity
  8
SLD-0
100
AcDbMText
 10
334.4865198953
 20
333.9159661023
 30
0.0
 40
4.7625
 41
0.0
 71
     1
 72
     1
  1
109.0
  7
SLDTEXTSTYLE0
 73
     1
 44
1.0
  0
ENDBLK
  5
232
330
230
100
AcDbEntity
  8
0
100
AcDbBlockEnd
  0
BLOCK
  5
246
330
245
100
AcDbEntity
  8
0
100
AcDbBlockBegin
  2
_D_1
 70
     0
 10
0.0
 20
0.0
 30
0.0
  3
_D_1
  1

  0
SOLID
  5
248
330
245
100
AcDbEntity
  8
SLD-0
100
AcDbTrace
 10
428.9019710866
 20
526.5157793996
 30
0.0
 11
428.4019710866
 21
522.5157793996
 31
0.0
 12
429.4019710866
 22
522.5157793996
 32
0.0
 13
429.4019710866
 23
522.5157793996
 33
0.0
  0
SOLID
  5
249
330
245
100
AcDbEntity
  8
SLD-0
100
AcDbTrace
 10
428.9019710866
 20
386.5157793996
 30
0.0
 11
429.4019710866
 21
390.5157793996
 31
0.0
 12
428.4019710866
 22
390.5157793996
 32
0.0
 13
428.4019710866
 23
390.5157793996
 33
0.0
  0
LINE
  5
24A
330
245
100
AcDbEntity
  8
SLD-0
100
AcDbLine
 10
398.4259710866
 20
526.5157793996
 30
0.0
 11
430.4259710866
 21
526.5157793996
 31
0.0
  0
LINE
  5
24B
330
245
100
AcDbEntity
  8
SLD-0
100
AcDbLine
 10
398.4259710866
 20
386.5157793996
 30
0.0
 11
430.4259710866
 21
386.5157793996
 31
0.0
  0
LINE
  5
24C
330
245
100
AcDbEntity
  8
SLD-0
100
AcDbLine
 10
428.9019710866
 20
526.5157793996
 30
0.0
 11
428.9019710866
 21
460.2993211311
 31
0.0
  0
LINE
  5
24D
330
245
100
AcDbEntity
  8
SLD-0
100
AcDbLine
 10
428.9019710866
 20
386.5157793996
 30
0.0
 11
428.9019710866
 21
452.732237668
 31
0.0
  0
MTEXT
  5
24E
330
245
100
AcDbEntity
  8
SLD-0
100
AcDbMText
 10
420.9865198953
 20
458.8155875102
 30
0.0
 40
4.7625
 41
0.0
 71
     1
 72
     1
  1
140.0
  7
SLDTEXTSTYLE0
 73
     1
 44
1.0
  0
ENDBLK
  5
247
330
245
100
AcDbEntity
  8
0
100
AcDbBlockEnd
  0
BLOCK
  5
262
330
261
100
AcDbEntity
  8
0
100
AcDbBlockBegin
  2
_D_2
 70
     0
 10
0.0
 20
0.0
 30
0.0
  3
_D_2
  1

  0
SOLID
  5
264
330
261
100
AcDbEntity
  8
SLD-0
100
AcDbTrace
 10
297.4019710866
 20
219.7687391424
 30
0.0
 11
301.4019710866
 21
219.2687391424
 31
0.0
 12
301.4019710866
 22
220.2687391424
 32
0.0
 13
301.4019710866
 23
220.2687391424
 33
0.0
  0
SOLID
  5
265
330
261
100
AcDbEntity
  8
SLD-0
100
AcDbTrace
 10
387.4019710866
 20
219.7687391424
 30
0.0
 11
383.4019710866
 21
220.2687391424
 31
0.0
 12
383.4019710866
 22
219.2687391424
 32
0.0
 13
383.4019710866
 23
219.2687391424
 33
0.0
  0
LINE
  5
266
330
261
100
AcDbEntity
  8
SLD-0
100
AcDbLine
 10
297.4019710866
 20
189.2030985836
 30
0.0
 11
297.4019710866
 21
221.2927391424
 31
0.0
  0
LINE
  5
267
330
261
100
AcDbEntity
  8
SLD-0
100
AcDbLine
 10
387.4019710866
 20
189.2030985836
 30
0.0
 11
387.4019710866
 21
221.2927391424
 31
0.0
  0
LINE
  5
268
330
261
100
AcDbEntity
  8
SLD-0
100
AcDbLine
 10
297.4019710866
 20
219.7687391424
 30
0.0
 11
336.2459987176
 21
219.7687391424
 31
0.0
  0
LINE
  5
269
330
261
100
AcDbEntity
  8
SLD-0
100
AcDbLine
 10
387.4019710866
 20
219.7687391424
 30
0.0
 11
348.5579434556
 21
219.7687391424
 31
0.0
  0
MTEXT
  5
26A
330
261
100
AcDbEntity
  8
SLD-0
100
AcDbMText
 10
336.2459987176
 20
222.0685472531
 30
0.0
 40
4.7625
 41
0.0
 71
     1
 72
     1
  1
90.0
  7
SLDTEXTSTYLE0
 73
     1
 44
1.0
  0
ENDBLK
  5
263
330
261
100
AcDbEntity
  8
0
100
AcDbBlockEnd
  0
BLOCK
  5
26E
330
26D
100
AcDbEntity
  8
0
100
AcDbBlockBegin
  2
_D_3
 70
     0
 10
0.0
 20
0.0
 30
0.0
  3
_D_3
  1

  0
SOLID
  5
270
330
26D
100
AcDbEntity
  8
SLD-0
100
AcDbTrace
 10
413.3905028933
 20
191.9290985836
 30
0.0
 11
413.8905028933
 21
195.9290985836
 31
0.0
 12
412.8905028933
 22
195.9290985836
 32
0.0
 13
412.8905028933
 23
195.9290985836
 33
0.0
  0
SOLID
  5
271
330
26D
100
AcDbEntity
  8
SLD-0
100
AcDbTrace
 10
413.3905028933
 20
183.9290985836
 30
0.0
 11
412.8905028933
 21
179.9290985836
 31
0.0
 12
413.8905028933
 22
179.9290985836
 32
0.0
 13
413.8905028933
 23
179.9290985836
 33
0.0
  0
LINE
  5
272
330
26D
100
AcDbEntity
  8
SLD-0
100
AcDbLine
 10
398.4259710866
 20
191.9290985836
 30
0.0
 11
414.9145028933
 21
191.9290985836
 31
0.0
  0
LINE
  5
273
330
26D
100
AcDbEntity
  8
SLD-0
100
AcDbLine
 10
392.6759710866
 20
183.9290985836
 30
0.0
 11
414.9145028933
 21
183.9290985836
 31
0.0
  0
LINE
  5
274
330
26D
100
AcDbEntity
  8
SLD-0
100
AcDbLine
 10
417.3905028933
 20
170.7761799302
 30
0.0
 11
413.3905028933
 21
170.7761799302
 31
0.0
  0
LINE
  5
275
330
26D
100
AcDbEntity
  8
SLD-0
100
AcDbLine
 10
413.3905028933
 20
170.7761799302
 30
0.0
 11
413.3905028933
 21
183.9290985836
 31
0.0
  0
LINE
  5
276
330
26D
100
AcDbEntity
  8
SLD-0
100
AcDbLine
 10
413.3905028933
 20
191.9290985836
 30
0.0
 11
413.3905028933
 21
199.9290985836
 31
0.0
  0
MTEXT
  5
277
330
26D
100
AcDbEntity
  8
SLD-0
100
AcDbMText
 10
417.3905028933
 20
173.0759880408
 30
0.0
 40
4.7625
 41
0.0
 71
     1
 72
     1
  1
8.0
  7
SLDTEXTSTYLE0
 73
     1
 44
1.0
  0
ENDBLK
  5
26F
330
26D
100
AcDbEntity
  8
0
100
AcDbBlockEnd
  0
BLOCK
  5
279
330
278
100
AcDbEntity
  8
0
100
AcDbBlockBegin
  2
SW_SYMBOL_MOD_CL
 70
     0
 10
0.0
 20
0.0
 30
0.0
  3
SW_SYMBOL_MOD_CL
  1

  0
MTEXT
  5
27B
330
278
100
AcDbEntity
  8
SLD-0
 62
     0
100
AcDbMText
 10
800.0
 20
1200.0
 30
0.0
 40
1565.749235474
 41
0.0
 71
     5
 72
     1
  1
C
  7
SLDTEXTSTYLE0
 73
     1
 44
1.0
  0
MTEXT
  5
27C
330
278
100
AcDbEntity
  8
SLD-0
 62
     0
100
AcDbMText
 10
1200.0
 20
600.0
 30
0.0
 40
1565.749235474
 41
0.0
 71
     5
 72
     1
  1
L
  7
SLDTEXTSTYLE0
 73
     1
 44
1.0
  0
ENDBLK
  5
27A
330
278
100
AcDbEntity
  8
0
100
AcDbBlockEnd
  0
BLOCK
  5
27F
330
27E
100
AcDbEntity
  8
0
100
AcDbBlockBegin
  2
SW_NOTE_0_1
 70
     0
 10
0.0
 20
0.0
 30
0.0
  3
SW_NOTE_0_1
  1

  0
LINE
  5
281
330
27E
100
AcDbEntity
  8
SLD-0
 62
     0
100
AcDbLine
 10
0.0
 20
-6.1905152471
 30
0.0
 11
0.0
 21
5.5865615142
 31
0.0
  0
LINE
  5
282
330
27E
100
AcDbEntity
  8
SLD-0
 62
     0
100
AcDbLine
 10
0.0
 20
5.5865615142
 30
0.0
 11
11.7770767613
 21
5.5865615142
 31
0.0
  0
LINE
  5
283
330
27E
100
AcDbEntity
  8
SLD-0
 62
     0
100
AcDbLine
 10
11.7770767613
 20
5.5865615142
 30
0.0
 11
11.7770767613
 21
-6.1905152471
 31
0.0
  0
LINE
  5
284
330
27E
100
AcDbEntity
  8
SLD-0
 62
     0
100
AcDbLine
 10
11.7770767613
 20
-6.1905152471
 30
0.0
 11
0.0
 21
-6.1905152471
 31
0.0
  0
MTEXT
  5
285
330
27E
100
AcDbEntity
  8
SLD-0
 62
     0
100
AcDbMText
 10
5.8405826466
 20
2.0467038171
 30
0.0
 40
4.7625
 41
0.0
 71
     2
 72
     1
  1
2
  7
SLDTEXTSTYLE0
 73
     1
 44
1.0
  0
ENDBLK
  5
280
330
27E
100
AcDbEntity
  8
0
100
AcDbBlockEnd
  0
BLOCK
  5
289
330
288
100
AcDbEntity
  8
0
100
AcDbBlockBegin
  2
SW_CENTERMARKSYMBOL_0
 70
     0
 10
0.0
 20
0.0
 30
0.0
  3
SW_CENTERMARKSYMBOL_0
  1

  0
LINE
  5
28B
330
288
100
AcDbEntity
  8
SLD-0
 62
     0
100
AcDbLine
 10
0.0
 20
0.0
 30
0.0
 11
0.0
 21
2.0
 31
0.0
  0
LINE
  5
28C
330
288
100
AcDbEntity
  8
SLD-0
 62
     0
100
AcDbLine
 10
0.0
 20
0.0
 30
0.0
 11
-2.0
 21
0.0
 31
0.0
  0
LINE
  5
28D
330
288
100
AcDbEntity
  8
SLD-0
 62
     0
100
AcDbLine
 10
0.0
 20
0.0
 30
0.0
 11
0.0
 21
-2.0
 31
0.0
  0
LINE
  5
28E
330
288
100
AcDbEntity
  8
SLD-0
 62
     0
100
AcDbLine
 10
0.0
 20
0.0
 30
0.0
 11
2.0
 21
0.0
 31
0.0
  0
LINE
  5
28F
330
288
100
AcDbEntity
  8
SLD-0
 62
     0
100
AcDbLine
 10
0.0
 20
2.0
 30
0.0
 11
0.0
 21
3.75
 31
0.0
  0
LINE
  5
290
330
288
100
AcDbEntity
  8
SLD-0
 62
     0
100
AcDbLine
 10
-2.0
 20
0.0
 30
0.0
 11
-3.75
 21
0.0
 31
0.0
  0
LINE
  5
291
330
288
100
AcDbEntity
  8
SLD-0
 62
     0
100
AcDbLine
 10
0.0
 20
-2.0
 30
0.0
 11
0.0
 21
-3.75
 31
0.0
  0
LINE
  5
292
330
288
100
AcDbEntity
  8
SLD-0
 62
     0
100
AcDbLine
 10
2.0
 20
0.0
 30
0.0
 11
3.75
 21
0.0
 31
0.0
  0
ENDBLK
  5
28A
330
288
100
AcDbEntity
  8
0
100
AcDbBlockEnd
  0
BLOCK
  5
295
330
294
100
AcDbEntity
  8
0
100
AcDbBlockBegin
  2
SW_CENTERMARKSYMBOL_1
 70
     0
 10
0.0
 20
0.0
 30
0.0
  3
SW_CENTERMARKSYMBOL_1
  1

  0
LINE
  5
297
330
294
100
AcDbEntity
  8
SLD-0
 62
     0
100
AcDbLine
 10
0.0
 20
0.0
 30
0.0
 11
0.0
 21
2.0
 31
0.0
  0
LINE
  5
298
330
294
100
AcDbEntity
  8
SLD-0
 62
     0
100
AcDbLine
 10
0.0
 20
0.0
 30
0.0
 11
-2.0
 21
0.0
 31
0.0
  0
LINE
  5
299
330
294
100
AcDbEntity
  8
SLD-0
 62
     0
100
AcDbLine
 10
0.0
 20
0.0
 30
0.0
 11
0.0
 21
-2.0
 31
0.0
  0
LINE
  5
29A
330
294
100
AcDbEntity
  8
SLD-0
 62
     0
100
AcDbLine
 10
0.0
 20
0.0
 30
0.0
 11
2.0
 21
0.0
 31
0.0
  0
LINE
  5
29B
330
294
100
AcDbEntity
  8
SLD-0
 62
     0
100
AcDbLine
 10
0.0
 20
2.0
 30
0.0
 11
0.0
 21
3.75
 31
0.0
  0
LINE
  5
29C
330
294
100
AcDbEntity
  8
SLD-0
 62
     0
100
AcDbLine
 10
-2.0
 20
0.0
 30
0.0
 11
-3.75
 21
0.0
 31
0.0
  0
LINE
  5
29D
330
294
100
AcDbEntity
  8
SLD-0
 62
     0
100
AcDbLine
 10
0.0
 20
-2.0
 30
0.0
 11
0.0
 21
-3.75
 31
0.0
  0
LINE
  5
29E
330
294
100
AcDbEntity
  8
SLD-0
 62
     0
100
AcDbLine
 10
2.0
 20
0.0
 30
0.0
 11
3.75
 21
0.0
 31
0.0
  0
ENDBLK
  5
296
330
294
100
AcDbEntity
  8
0
100
AcDbBlockEnd
  0
BLOCK
  5
2F3
330
2F2
100
AcDbEntity
  8
0
100
AcDbBlockBegin
  2
_D_4
 70
     0
 10
0.0
 20
0.0
 30
0.0
  3
_D_4
  1

  0
SOLID
  5
2F5
330
2F2
100
AcDbEntity
  8
SLD-0
100
AcDbTrace
 10
217.274113197
 20
311.6161579917
 30
0.0
 11
216.774113197
 21
307.6161579917
 31
0.0
 12
217.774113197
 22
307.6161579917
 32
0.0
 13
217.774113197
 23
307.6161579917
 33
0.0
  0
SOLID
  5
2F6
330
2F2
100
AcDbEntity
  8
SLD-0
100
AcDbTrace
 10
217.274113197
 20
269.2161579917
 30
0.0
 11
217.774113197
 21
273.2161579917
 31
0.0
 12
216.774113197
 22
273.2161579917
 32
0.0
 13
216.774113197
 23
273.2161579917
 33
0.0
  0
LINE
  5
2F7
330
2F2
100
AcDbEntity
  8
SLD-0
100
AcDbLine
 10
198.598113197
 20
311.6161579917
 30
0.0
 11
218.798113197
 21
311.6161579917
 31
0.0
  0
LINE
  5
2F8
330
2F2
100
AcDbEntity
  8
SLD-0
100
AcDbLine
 10
198.598113197
 20
269.2161579917
 30
0.0
 11
218.798113197
 21
269.2161579917
 31
0.0
  0
LINE
  5
2F9
330
2F2
100
AcDbEntity
  8
SLD-0
100
AcDbLine
 10
217.274113197
 20
311.6161579917
 30
0.0
 11
217.274113197
 21
294.1996997232
 31
0.0
  0
LINE
  5
2FA
330
2F2
100
AcDbEntity
  8
SLD-0
100
AcDbLine
 10
217.274113197
 20
269.2161579917
 30
0.0
 11
217.274113197
 21
286.6326162601
 31
0.0
  0
MTEXT
  5
2FB
330
2F2
100
AcDbEntity
  8
SLD-0
100
AcDbMText
 10
211.118140828
 20
292.7159661023
 30
0.0
 40
4.7625
 41
0.0
 71
     1
 72
     1
  1
42.4
  7
SLDTEXTSTYLE0
 73
     1
 44
1.0
  0
ENDBLK
  5
2F4
330
2F2
100
AcDbEntity
  8
0
100
AcDbBlockEnd
  0
ENDSEC
  0
SECTION
  2
ENTITIES
  0
LINE
  5
68
330
1F
100
AcDbEntity
  8
SLD-0
 62
     7
100
AcDbLine
 10
13.0
 20
545.8
 30
0.0
 11
850.6
 21
545.8
 31
0.0
  0
LINE
  5
69
330
1F
100
AcDbEntity
  8
0
  6
Continuous
 62
     7
370
    18
100
AcDbLine
 10
13.0
 20
36.0
 30
0.0
 11
850.6
 21
36.0
 31
0.0
  0
LINE
  5
6A
330
1F
100
AcDbEntity
  8
0
  6
CENTER
 62
     7
370
    18
100
AcDbLine
 10
366.9102516261
 20
17.8535393558
 30
0.0
 11
376.2532816249
 21
17.8535393558
 31
0.0
  0
LINE
  5
6B
330
1F
100
AcDbEntity
  8
0
  6
Continuous
 62
     7
370
    18
100
AcDbLine
 10
367.8560246098
 20
16.5835393558
 30
0.0
 11
375.4760246098
 21
15.3135393558
 31
0.0
  0
LINE
  5
6C
330
1F
100
AcDbEntity
  8
0
  6
Continuous
 62
     7
370
    18
100
AcDbLine
 10
367.8560246098
 20
19.1235393558
 30
0.0
 11
375.4760246098
 21
20.3935393558
 31
0.0
  0
LINE
  5
6D
330
1F
100
AcDbEntity
  8
0
  6
CENTER
 62
     7
370
    18
100
AcDbLine
 10
359.4841846098
 20
17.8535393558
 30
0.0
 11
366.0088790379
 21
17.8535393558
 31
0.0
  0
LINE
  5
6E
330
1F
100
AcDbEntity
  8
0
  6
CENTER
 62
     7
370
    18
100
AcDbLine
 10
362.7465318239
 20
14.5577954402
 30
0.0
 11
362.7465318239
 21
21.1492832714
 31
0.0
  0
LINE
  5
6F
330
1F
100
AcDbEntity
  8
0
  6
Continuous
 62
     7
370
    18
100
AcDbLine
 10
367.8560246098
 20
19.1235393558
 30
0.0
 11
367.8560246098
 21
16.5835393558
 31
0.0
  0
LINE
  5
70
330
1F
100
AcDbEntity
  8
0
  6
Continuous
 62
     7
370
    18
100
AcDbLine
 10
375.4760246098
 20
20.3935393558
 30
0.0
 11
375.4760246098
 21
15.3135393558
 31
0.0
  0
CIRCLE
  5
71
330
1F
100
AcDbEntity
  8
0
  6
Continuous
 62
     7
370
    18
100
AcDbCircle
 10
362.7465318239
 20
17.8535393558
 30
0.0
 40
2.539999999999801
  0
CIRCLE
  5
72
330
1F
100
AcDbEntity
  8
0
  6
Continuous
 62
     7
370
    18
100
AcDbCircle
 10
362.7465318239
 20
17.8535393558
 30
0.0
 40
1.269999999999877
  0
INSERT
  5
82
330
1F
100
AcDbEntity
  8
0
  6
Continuous
 62
     7
370
     0
100
AcDbBlockReference
  2
SW_NOTE_0
 10
15.5958096208
 20
532.6308127598
 30
0.0
  0
MTEXT
  5
83
330
1F
100
AcDbEntity
  8
0
  6
Continuous
 62
     7
370
     0
100
AcDbMText
 10
295.5043019013
 20
28.9819567757
 30
0.0
 40
3.7041666667
 41
0.0
 71
     2
 72
     1
  1
00PW4
  7
SLDTEXTSTYLE0
 73
     1
 44
1.0
  0
MTEXT
  5
84
330
1F
100
AcDbEntity
  8
0
  6
Continuous
 62
     7
370
     0
100
AcDbMText
 10
453.4011705876
 20
17.7884262976
 30
0.0
 40
3.7041666667
 41
0.0
 71
     1
 72
     1
  1
D.GREEN
  7
SLDTEXTSTYLE0
 73
     1
 44
1.0
  0
MTEXT
  5
85
330
1F
100
AcDbEntity
  8
0
  6
Continuous
 62
     7
370
     0
100
AcDbMText
 10
323.1288533613
 20
33.0777444155
 30
0.0
 40
3.175
 41
0.0
 71
     1
 72
     1
  1
UNLESS  OTHERWISE  SPECIFIED
  7
SLDTEXTSTYLE0
 73
     1
 44
1.0
  0
MTEXT
  5
86
330
1F
100
AcDbEntity
  8
0
  6
Continuous
 62
     7
370
     0
100
AcDbMText
 10
323.1288533613
 20
28.8444111333
 30
0.0
 40
3.175
 41
0.0
 71
     1
 72
     1
  1
DIMENSIONS  ARE  IN  MM [IN]
  7
SLDTEXTSTYLE0
 73
     1
 44
1.0
  0
MTEXT
  5
87
330
1F
100
AcDbEntity
  8
0
  6
Continuous
 62
     7
370
     0
100
AcDbMText
 10
785.8795289483
 20
17.9849245354
 30
0.0
 40
3.7041666667
 41
0.0
 71
     2
 72
     1
  1
1:2
  7
SLDTEXTSTYLE0
 73
     1
 44
1.0
  0
MTEXT
  5
88
330
1F
100
AcDbEntity
  8
0
  6
Continuous
 62
     7
370
     0
100
AcDbMText
 10
327.9605285881
 20
19.6918719363
 30
0.0
 40
3.175
 41
0.0
 71
     1
 72
     1
  1
PROJECTION
  7
SLDTEXTSTYLE0
 73
     1
 44
1.0
  0
MTEXT
  5
89
330
1F
100
AcDbEntity
  8
0
  6
Continuous
 62
     7
370
     0
100
AcDbMText
 10
425.5151766137
 20
21.8087727956
 30
0.0
 40
3.175
 41
0.0
 71
     1
 72
     1
  1
%%p
  7
SLDTEXTSTYLE0
 73
     1
 44
1.0
  0
MTEXT
  5
8A
330
1F
100
AcDbEntity
  8
0
  6
Continuous
 62
     7
370
     0
100
AcDbMText
 10
428.5420099058
 20
21.8087727956
 30
0.0
 40
3.175
 41
0.0
 71
     1
 72
     1
  1
1
  7
SLDTEXTSTYLE0
 73
     1
 44
1.0
  0
MTEXT
  5
8B
330
1F
100
AcDbEntity
  8
0
  6
Continuous
 62
     7
370
     0
100
AcDbMText
 10
430.8879821346
 20
21.8087727956
 30
0.0
 40
3.175
 41
0.0
 71
     1
 72
     1
  1
%%d
  7
SLDTEXTSTYLE0
 73
     1
 44
1.0
  0
MTEXT
  5
8C
330
1F
100
AcDbEntity
  8
0
  6
Continuous
 62
     7
370
     0
100
AcDbMText
 10
394.0737550472
 20
21.8087727956
 30
0.0
 40
3.175
 41
0.0
 71
     1
 72
     1
  1
.X 
  7
SLDTEXTSTYLE0
 73
     1
 44
1.0
  0
MTEXT
  5
8D
330
1F
100
AcDbEntity
  8
0
  6
Continuous
 62
     7
370
     0
100
AcDbMText
 10
398.9891256531
 20
21.8087727956
 30
0.0
 40
3.175
 41
0.0
 71
     1
 72
     1
  1
%%p
  7
SLDTEXTSTYLE0
 73
     1
 44
1.0
  0
MTEXT
  5
8E
330
1F
100
AcDbEntity
  8
0
  6
Continuous
 62
     7
370
     0
100
AcDbMText
 10
402.0159584795
 20
21.8087727956
 30
0.0
 40
3.175
 41
0.0
 71
     1
 72
     1
  1
 3
  7
SLDTEXTSTYLE0
 73
     1
 44
1.0
  0
MTEXT
  5
8F
330
1F
100
AcDbEntity
  8
0
  6
Continuous
 62
     7
370
     0
100
AcDbMText
 10
394.0737550472
 20
17.5754395134
 30
0.0
 40
3.175
 41
0.0
 71
     1
 72
     1
  1
.XX 
  7
SLDTEXTSTYLE0
 73
     1
 44
1.0
  0
MTEXT
  5
90
330
1F
100
AcDbEntity
  8
0
  6
Continuous
 62
     7
370
     0
100
AcDbMText
 10
401.5644030039
 20
17.5754395134
 30
0.0
 40
3.175
 41
0.0
 71
     1
 72
     1
  1
%%p
  7
SLDTEXTSTYLE0
 73
     1
 44
1.0
  0
MTEXT
  5
91
330
1F
100
AcDbEntity
  8
0
  6
Continuous
 62
     7
370
     0
100
AcDbMText
 10
682.6676913785
 20
27.111360112
 30
0.0
 40
6.35
 41
0.0
 71
     2
 72
     1
  1
PROCESSOR, QIO-LVR4
  7
SLDTEXTSTYLE0
 73
     1
 44
1.0
  0
MTEXT
  5
92
330
1F
100
AcDbEntity
  8
0
  6
Continuous
 62
     7
370
     0
100
AcDbMText
 10
394.1291861843
 20
33.0777444155
 30
0.0
 40
3.175
 41
0.0
 71
     1
 72
     1
  1
TOLERANCES  ARE:
  7
SLDTEXTSTYLE0
 73
     1
 44
1.0
  0
MTEXT
  5
93
330
1F
100
AcDbEntity
  8
0
  6
Continuous
 62
     7
370
     0
100
AcDbMText
 10
394.1291861843
 20
28.8444111333
 30
0.0
 40
3.175
 41
0.0
 71
     1
 72
     1
  1
DECIMALS          ANGLES
  7
SLDTEXTSTYLE0
 73
     1
 44
1.0
  0
MTEXT
  5
94
330
1F
100
AcDbEntity
  8
0
  6
Continuous
 62
     7
370
     0
100
AcDbMText
 10
507.2368872533
 20
21.8062403245
 30
0.0
 40
2.6458333333
 41
0.0
 71
     1
 72
     1
  1
MFG ENGINEER
  7
SLDTEXTSTYLE0
 73
     1
 44
1.0
  0
MTEXT
  5
95
330
1F
100
AcDbEntity
  8
0
  6
Continuous
 62
     7
370
     0
100
AcDbMText
 10
453.4011705876
 20
21.8062403245
 30
0.0
 40
2.6458333333
 41
0.0
 71
     1
 72
     1
  1
MECH ENGINEER
  7
SLDTEXTSTYLE0
 73
     1
 44
1.0
  0
MTEXT
  5
97
330
1F
100
AcDbEntity
  8
0
  6
Continuous
 62
     7
370
     0
100
AcDbMText
 10
770.9809949308
 20
17.5597523616
 30
0.0
 40
2.6458333333
 41
0.0
 71
     1
 72
     1
  1
SCALE:  
  7
SLDTEXTSTYLE1
 73
     1
 44
1.0
  0
MTEXT
  5
98
330
1F
100
AcDbEntity
  8
SLD-0
 62
     7
100
AcDbMText
 10
770.8270341986
 20
27.7753595768
 30
0.0
 40
6.35
 41
0.0
 71
     1
 72
     1
  1
FG-901635-2D
  7
SLDTEXTSTYLE0
 73
     1
 44
1.0
  0
MTEXT
  5
99
330
1F
100
AcDbEntity
  8
0
  6
Continuous
 62
     7
370
     0
100
AcDbMText
 10
843.7692246236
 20
27.8523399428
 30
0.0
 40
6.35
 41
0.0
 71
     2
 72
     1
  1
A
  7
SLDTEXTSTYLE0
 73
     1
 44
1.0
  0
MTEXT
  5
9A
330
1F
100
AcDbEntity
  8
0
  6
Continuous
 62
     7
370
     0
100
AcDbMText
 10
841.5970786686
 20
17.9849245354
 30
0.0
 40
3.7041666667
 41
0.0
 71
     2
 72
     1
  1
1  OF  2
  7
SLDTEXTSTYLE0
 73
     1
 44
1.0
  0
MTEXT
  5
9B
330
1F
100
AcDbEntity
  8
0
  6
Continuous
 62
     7
370
     0
100
AcDbMText
 10
770.9809949308
 20
32.8518608785
 30
0.0
 40
2.6458333333
 41
0.0
 71
     1
 72
     1
  1
DRAWING NUMBER
  7
SLDTEXTSTYLE0
 73
     1
 44
1.0
  0
MTEXT
  5
9C
330
1F
100
AcDbEntity
  8
SLD-0
 62
     7
100
AcDbMText
 10
507.2368872533
 20
32.8184112811
 30
0.0
 40
2.6458333333
 41
0.0
 71
     1
 72
     1
  1
TECH DIRECTOR
  7
SLDTEXTSTYLE0
 73
     1
 44
1.0
  0
MTEXT
  5
9D
330
1F
100
AcDbEntity
  8
SLD-0
 62
     7
100
AcDbMText
 10
453.4011705876
 20
32.8184112811
 30
0.0
 40
2.6458333333
 41
0.0
 71
     1
 72
     1
  1
DRAWN BY
  7
SLDTEXTSTYLE0
 73
     1
 44
1.0
  0
MTEXT
  5
9E
330
1F
100
AcDbEntity
  8
SLD-0
 62
     7
100
AcDbMText
 10
453.4011705876
 20
29.0353427065
 30
0.0
 40
3.7041666667
 41
0.0
 71
     1
 72
     1
  1
K.CASTRO
  7
SLDTEXTSTYLE0
 73
     1
 44
1.0
  0
MTEXT
  5
9F
330
1F
100
AcDbEntity
  8
SLD-0
 62
     7
100
AcDbMText
 10
507.2368872533
 20
17.7884262976
 30
0.0
 40
3.7041666667
 41
0.0
 71
     1
 72
     1
  1
C.WHITNEY
  7
SLDTEXTSTYLE0
 73
     1
 44
1.0
  0
MTEXT
  5
A0
330
1F
100
AcDbEntity
  8
SLD-0
 62
     7
100
AcDbMText
 10
507.2368872533
 20
29.0353427065
 30
0.0
 40
3.7041666667
 41
0.0
 71
     1
 72
     1
  1
A.FOSTER
  7
SLDTEXTSTYLE0
 73
     1
 44
1.0
  0
MTEXT
  5
A2
330
1F
100
AcDbEntity
  8
0
  6
Continuous
 62
     7
370
     0
100
AcDbMText
 10
219.2539871701
 20
29.9824397841
 30
0.0
 40
2.1166666667
 41
0.0
 71
     2
 72
     1
  1
THIS DOCUMENT CONTAINS CONFIDENTIAL OR PROPRIETARY INFORMATION WHICH 
  7
SLDTEXTSTYLE2
 73
     1
 44
1.0
  0
MTEXT
  5
A3
330
1F
100
AcDbEntity
  8
0
  6
Continuous
 62
     7
370
     0
100
AcDbMText
 10
219.4368646347
 20
27.160217596
 30
0.0
 40
2.1166666667
 41
0.0
 71
     2
 72
     1
  1
IS THE PROPERTY OF QSC, LLC THAT MAY NOT BE DISCLOSED, REPRODUCED OR 
  7
SLDTEXTSTYLE2
 73
     1
 44
1.0
  0
MTEXT
  5
A4
330
1F
100
AcDbEntity
  8
0
  6
Continuous
 62
     7
370
     0
100
AcDbMText
 10
219.3957803042
 20
24.3379954079
 30
0.0
 40
2.1166666667
 41
0.0
 71
     2
 72
     1
  1
USED WITHOUT EXPRESS WRITTEN CONSENT FROM QSC, LLC. NO PORTION OF THIS 
  7
SLDTEXTSTYLE2
 73
     1
 44
1.0
  0
MTEXT
  5
A5
330
1F
100
AcDbEntity
  8
0
  6
Continuous
 62
     7
370
     0
100
AcDbMText
 10
219.325223306
 20
21.5157732198
 30
0.0
 40
2.1166666667
 41
0.0
 71
     2
 72
     1
  1
DOCUMENT MAY BE REPRODUCED, REDISTRIBUTED, OR OTHERWISE DISCLOSED TO 
  7
SLDTEXTSTYLE2
 73
     1
 44
1.0
  0
MTEXT
  5
A7
330
1F
100
AcDbEntity
  8
0
  6
Continuous
 62
     7
370
     0
100
AcDbMText
 10
218.97644348
 20
18.6935510317
 30
0.0
 40
2.1166666667
 41
0.0
 71
     2
 72
     1
  1
ANY THIRD PARTY WITHOUT QSC\U+2019S WRITTEN PERMISSION.
  7
SLDTEXTSTYLE3
 73
     1
 44
1.0
  0
MTEXT
  5
A8
330
1F
100
AcDbEntity
  8
0
  6
Continuous
 62
     7
370
     0
100
AcDbMText
 10
820.2888488759
 20
17.4944348222
 30
0.0
 40
2.6458333333
 41
0.0
 71
     1
 72
     1
  1
SHEET:
  7
SLDTEXTSTYLE0
 73
     1
 44
1.0
  0
MTEXT
  5
A9
330
1F
100
AcDbEntity
  8
SLD-0
100
AcDbMText
 10
97.8307203839
 20
30.5931483324
 30
0.0
 40
4.2333333333
 41
0.0
 71
     1
 72
     1
  1
QSC, LLC
  7
SLDTEXTSTYLE0
 73
     1
 44
1.0
  0
MTEXT
  5
AA
330
1F
100
AcDbEntity
  8
0
  6
Continuous
 62
     7
370
     0
100
AcDbMText
 10
844.0018372523
 20
32.9050913038
 30
0.0
 40
2.6458333333
 41
0.0
 71
     2
 72
     1
  1
REV
  7
SLDTEXTSTYLE0
 73
     1
 44
1.0
  0
MTEXT
  5
AB
330
1F
100
AcDbEntity
  8
SLD-0
 62
     7
100
AcDbMText
 10
560.546153547
 20
32.8184112811
 30
0.0
 40
2.6458333333
 41
0.0
 71
     1
 72
     1
  1
REV BY
  7
SLDTEXTSTYLE0
 73
     1
 44
1.0
  0
MTEXT
  5
AC
330
1F
100
AcDbEntity
  8
SLD-0
 62
     7
100
AcDbMText
 10
560.546153547
 20
29.0353427065
 30
0.0
 40
3.7041666667
 41
0.0
 71
     1
 72
     1
  1
KC
  7
SLDTEXTSTYLE0
 73
     1
 44
1.0
  0
MTEXT
  5
AD
330
1F
100
AcDbEntity
  8
SLD-0
 62
     7
100
AcDbMText
 10
560.546153547
 20
17.7884262976
 30
0.0
 40
3.7041666667
 41
0.0
 71
     1
 72
     1
  1
26-MAR-2024
  7
SLDTEXTSTYLE0
 73
     1
 44
1.0
  0
MTEXT
  5
AE
330
1F
100
AcDbEntity
  8
0
  6
Continuous
 62
     7
370
     0
100
AcDbMText
 10
560.546153547
 20
21.8062403245
 30
0.0
 40
2.6458333333
 41
0.0
 71
     1
 72
     1
  1
REV DATE
  7
SLDTEXTSTYLE0
 73
     1
 44
1.0
  0
MTEXT
  5
AF
330
1F
100
AcDbEntity
  8
SLD-0
100
AcDbMText
 10
295.5471677433
 20
22.2629071355
 30
0.0
 40
2.6458333333
 41
0.0
 71
     2
 72
     1
  1
FORM
  7
SLDTEXTSTYLE0
 73
     1
 44
1.0
  0
MTEXT
  5
B0
330
1F
100
AcDbEntity
  8
0
  6
Continuous
 62
     7
370
     0
100
AcDbMText
 10
295.9613660503
 20
18.2808667991
 30
0.0
 40
3.7041666667
 41
0.0
 71
     2
 72
     1
  1
QOS40169 B
  7
SLDTEXTSTYLE0
 73
     1
 44
1.0
  0
MTEXT
  5
B1
330
1F
100
AcDbEntity
  8
SLD-0
100
AcDbMText
 10
98.4427247375
 20
18.4600960709
 30
0.0
 40
3.175
 41
0.0
 71
     1
 72
     1
  1
COSTA MESA, CA 92626 USA
  7
SLDTEXTSTYLE0
 73
     1
 44
1.0
  0
MTEXT
  5
B2
330
1F
100
AcDbEntity
  8
SLD-0
100
AcDbMText
 10
98.2987012991
 20
23.8772967061
 30
0.0
 40
3.175
 41
0.0
 71
     1
 72
     1
  1
1675 MACARTHUR BLVD
  7
SLDTEXTSTYLE0
 73
     1
 44
1.0
  0
MTEXT
  5
B3
330
1F
100
AcDbEntity
  8
SLD-0
 62
     7
100
AcDbMText
 10
295.6823598987
 20
33.1439750107
 30
0.0
 40
2.6458333333
 41
0.0
 71
     2
 72
     1
  1
CAGE CODE
  7
SLDTEXTSTYLE0
 73
     1
 44
1.0
  0
SPLINE
  5
B4
330
1F
100
AcDbEntity
  8
0
  6
Continuous
 62
     7
370
    25
100
AcDbSpline
210
0.0
220
0.0
230
1.0
 70
     8
 71
     3
 72
    17
 73
    13
 74
     0
 42
0.00000001
 43
0.00000001
 40
0.0
 40
0.0
 40
0.0
 40
0.0
 40
0.0532334315323213
 40
0.1556602427655094
 40
0.2593530117198111
 40
0.3643131429523362
 40
0.4701744809753173
 40
0.5764740986366537
 40
0.6826894519370252
 40
0.7882058495719303
 40
0.8925583124354364
 40
1.0
 40
1.0
 40
1.0
 40
1.0
 10
696.6987321192919
 20
432.7176399783718
 30
0.0
 10
696.7633297871988
 20
432.6784556769572
 30
0.0
 10
696.9522202715997
 20
432.5638765920625
 30
0.0
 10
697.2811566259646
 20
432.3088089757198
 30
0.0
 10
697.6703388676187
 20
431.9319008270246
 30
0.0
 10
698.0437279984777
 20
431.4853037085155
 30
0.0
 10
698.3849247875463
 20
430.9848970937284
 30
0.0
 10
698.6798488707069
 20
430.4483604165242
 30
0.0
 10
698.9173680802535
 20
429.8960098980504
 30
0.0
 10
699.0878714631033
 20
429.35182658373
 30
0.0
 10
699.1950454797778
 20
428.8244865606091
 30
0.0
 10
699.2077856261157
 20
428.516717459488
 30
0.0
 10
699.2142486130281
 20
428.3605883523439
 30
0.0
  0
LINE
  5
B5
330
1F
100
AcDbEntity
  8
0
  6
Continuous
 62
     7
370
    25
100
AcDbLine
 10
699.214248613
 20
428.3605883523
 30
0.0
 11
699.214248613
 21
419.4668258293
 31
0.0
  0
LINE
  5
B6
330
1F
100
AcDbEntity
  8
0
  6
Continuous
 62
     7
370
    25
100
AcDbLine
 10
633.8425961261
 20
469.0037149164
 30
0.0
 11
696.6987321193
 21
432.7176399784
 31
0.0
  0
LINE
  5
B7
330
1F
100
AcDbEntity
  8
0
  6
Continuous
 62
     7
370
    25
100
AcDbLine
 10
691.3956619639
 20
430.3836669354
 30
0.0
 11
690.2087145791
 21
429.6984567952
 31
0.0
  0
LINE
  5
B8
330
1F
100
AcDbEntity
  8
0
  6
Continuous
 62
     7
370
    25
100
AcDbLine
 10
693.7084301433
 20
423.6361147586
 30
0.0
 11
694.8953775282
 21
424.3213248987
 31
0.0
  0
SPLINE
  5
B9
330
1F
100
AcDbEntity
  8
0
  6
Continuous
 62
     7
370
    25
100
AcDbSpline
210
0.0
220
0.0
230
1.0
 70
     8
 71
     3
 72
    13
 73
     9
 74
     0
 42
0.00000001
 43
0.00000001
 40
0.0
 40
0.0
 40
0.0
 40
0.0
 40
0.1089209151873975
 40
0.3152896770269875
 40
0.5215215311508019
 40
0.7320330141305725
 40
0.960672733608169
 40
1.0
 40
1.0
 40
1.0
 40
1.0
 10
699.2142486130281
 20
419.4668258292843
 30
0.0
 10
699.2126346840048
 20
419.3952713289374
 30
0.0
 10
699.2079628984288
 20
419.1881449449422
 30
0.0
 10
699.1587091582534
 20
418.9016976686177
 30
0.0
 10
699.0678438357752
 20
418.6498640574177
 30
0.0
 10
698.9597449737005
 20
418.495075573454
 30
0.0
 10
698.9001876586958
 20
418.430219450917
 30
0.0
 10
698.8523520443013
 20
418.412629206846
 30
0.0
 10
698.8453316124962
 20
418.410047634298
 30
0.0
  0
LINE
  5
BA
330
1F
100
AcDbEntity
  8
0
  6
Continuous
 62
     7
370
    25
100
AcDbLine
 10
698.464766471
 20
418.3863747562
 30
0.0
 11
699.0799493706
 21
418.7415122849
 31
0.0
  0
SPLINE
  5
BB
330
1F
100
AcDbEntity
  8
0
  6
Continuous
 62
     7
370
    25
100
AcDbSpline
210
0.0
220
0.0
230
1.0
 70
     8
 71
     3
 72
    12
 73
     8
 74
     0
 42
0.00000001
 43
0.00000001
 40
0.0
 40
0.0
 40
0.0
 40
0.0
 40
0.2485054479318785
 40
0.4596892736965647
 40
0.6591565192320907
 40
0.8713743101789899
 40
1.0
 40
1.0
 40
1.0
 40
1.0
 10
632.745911302121
 20
469.2139963662401
 30
0.0
 10
632.7837613457402
 20
469.2337207360703
 30
0.0
 10
632.8537769498466
 20
469.2702071846245
 30
0.0
 10
633.040411464378
 20
469.2848401819484
 30
0.0
 10
633.2949138197972
 20
469.2463078882377
 30
0.0
 10
633.5725525212259
 20
469.1501557415791
 30
0.0
 10
633.7686092763787
 20
469.0438369379333
 30
0.0
 10
633.8425961260574
 20
469.0037149164439
 30
0.0
  0
LINE
  5
BC
330
1F
100
AcDbEntity
  8
0
  6
Continuous
 62
     7
370
    25
100
AcDbLine
 10
633.1476896471
 20
469.249915366
 30
0.0
 11
632.5325067475
 21
468.8947778374
 31
0.0
  0
LINE
  5
BD
330
1F
100
AcDbEntity
  8
0
  6
Continuous
 62
     7
370
    25
100
AcDbLine
 10
703.5904789117
 20
433.3060109547
 30
0.0
 11
626.5158397624
 21
477.8002530491
 31
0.0
  0
LINE
  5
BE
330
1F
100
AcDbEntity
  8
0
  6
Continuous
 62
     7
370
    25
100
AcDbLine
 10
703.5904789117
 20
398.6846805308
 30
0.0
 11
703.5904789117
 21
433.3060109547
 31
0.0
  0
LINE
  5
BF
330
1F
100
AcDbEntity
  8
0
  6
Continuous
 62
     7
370
    25
100
AcDbLine
 10
626.5158397624
 20
443.1789226251
 30
0.0
 11
703.5904789117
 21
398.6846805308
 31
0.0
  0
LINE
  5
C0
330
1F
100
AcDbEntity
  8
0
  6
Continuous
 62
     7
370
    25
100
AcDbLine
 10
626.5158397624
 20
477.8002530491
 30
0.0
 11
626.5158397624
 21
443.1789226251
 31
0.0
  0
LWPOLYLINE
  5
C1
330
1F
100
AcDbEntity
  8
0
  6
Continuous
 62
     7
370
    25
100
AcDbPolyline
 90
       23
 70
   128
 43
0.0
 10
632.7914124454
 20
443.6388156883
 10
632.7448679067
 20
444.039510241
 10
632.6090050524
 20
444.4614820845
 10
632.3948306828
 20
444.8705455697
 10
632.1196959316
 20
445.2335608058
 10
631.8058905802
 20
445.5211184573
 10
631.4788372718
 20
445.7099223134
 10
631.1650319204
 20
445.7846766086
 10
630.8898971692
 20
445.7393251945
 10
630.6757227996
 20
445.577542173
 10
630.5398599453
 20
445.3124342422
 10
630.4933154066
 20
444.96547887
 10
630.5398599453
 20
444.5647843174
 10
630.6757227996
 20
444.1428124739
 10
630.8898971692
 20
443.7337489887
 10
631.1650319204
 20
443.3707337526
 10
631.4788372718
 20
443.0831761011
 10
631.8058905802
 20
442.894372245
 10
632.1196959316
 20
442.8196179497
 10
632.3948306828
 20
442.8649693638
 10
632.6090050524
 20
443.0267523854
 10
632.7448679067
 20
443.2918603162
 10
632.7914124454
 20
443.6388156883
  0
LWPOLYLINE
  5
C2
330
1F
100
AcDbEntity
  8
0
  6
Continuous
 62
     7
370
    25
100
AcDbPolyline
 90
       23
 70
   128
 43
0.0
 10
655.0652760528
 20
434.4548215806
 10
655.0187315141
 20
434.8555161333
 10
654.8828686597
 20
435.2774879768
 10
654.6686942901
 20
435.6865514619
 10
654.393559539
 20
436.049566698
 10
654.0797541876
 20
436.3371243495
 10
653.7527008792
 20
436.5259282057
 10
653.4388955277
 20
436.6006825009
 10
653.1637607766
 20
436.5553310868
 10
652.949586407
 20
436.3935480653
 10
652.8137235526
 20
436.1284401345
 10
652.7671790139
 20
435.7814847623
 10
652.8137235526
 20
435.3807902097
 10
652.949586407
 20
434.9588183662
 10
653.1637607766
 20
434.549754881
 10
653.4388955277
 20
434.1867396449
 10
653.7527008792
 20
433.8991819934
 10
654.0797541876
 20
433.7103781373
 10
654.393559539
 20
433.635623842
 10
654.6686942901
 20
433.6809752561
 10
654.8828686597
 20
433.8427582777
 10
655.0187315141
 20
434.1078662085
 10
655.0652760528
 20
434.4548215806
  0
LWPOLYLINE
  5
C3
330
1F
100
AcDbEntity
  8
0
  6
Continuous
 62
     7
370
    25
100
AcDbPolyline
 90
       23
 70
   128
 43
0.0
 10
642.3373539914
 20
438.1280609335
 10
642.2908094528
 20
438.5287554862
 10
642.1549465984
 20
438.9507273297
 10
641.9407722288
 20
439.3597908149
 10
641.6656374777
 20
439.722806051
 10
641.3518321262
 20
440.0103637024
 10
641.0247788178
 20
440.1991675586
 10
640.7109734664
 20
440.2739218538
 10
640.4358387152
 20
440.2285704397
 10
640.2216643457
 20
440.0667874182
 10
640.0858014913
 20
439.8016794874
 10
640.0392569526
 20
439.4547241152
 10
640.0858014913
 20
439.0540295626
 10
640.2216643457
 20
438.6320577191
 10
640.4358387152
 20
438.2229942339
 10
640.7109734664
 20
437.8599789978
 10
641.0247788178
 20
437.5724213463
 10
641.3518321262
 20
437.3836174902
 10
641.6656374777
 20
437.3088631949
 10
641.9407722288
 20
437.354214609
 10
642.1549465984
 20
437.5159976306
 10
642.2908094528
 20
437.7811055614
 10
642.3373539914
 20
438.1280609335
  0
LWPOLYLINE
  5
C4
330
1F
100
AcDbEntity
  8
0
  6
Continuous
 62
     7
370
    25
100
AcDbPolyline
 90
       23
 70
   128
 43
0.0
 10
635.9733929608
 20
441.8018974367
 10
635.9268484221
 20
442.2025919894
 10
635.7909855677
 20
442.6245638329
 10
635.5768111981
 20
443.0336273181
 10
635.301676447
 20
443.3966425542
 10
634.9878710955
 20
443.6842002057
 10
634.6608177871
 20
443.8730040618
 10
634.3470124357
 20
443.947758357
 10
634.0718776846
 20
443.9024069429
 10
633.857703315
 20
443.7406239214
 10
633.7218404606
 20
443.4755159906
 10
633.6752959219
 20
443.1285606184
 10
633.7218404606
 20
442.7278660658
 10
633.857703315
 20
442.3058942223
 10
634.0718776846
 20
441.8968307371
 10
634.3470124357
 20
441.533815501
 10
634.6608177871
 20
441.2462578495
 10
634.9878710955
 20
441.0574539934
 10
635.301676447
 20
440.9826996981
 10
635.5768111981
 20
441.0280511122
 10
635.7909855677
 20
441.1898341338
 10
635.9268484221
 20
441.4549420646
 10
635.9733929608
 20
441.8018974367
  0
LWPOLYLINE
  5
C5
330
1F
100
AcDbEntity
  8
0
  6
Continuous
 62
     7
370
    25
100
AcDbPolyline
 90
       23
 70
   128
 43
0.0
 10
690.0670617215
 20
414.248720813
 10
690.0205171828
 20
414.6494153656
 10
689.8846543285
 20
415.0713872092
 10
689.6704799589
 20
415.4804506943
 10
689.3953452077
 20
415.8434659304
 10
689.0815398563
 20
416.1310235819
 10
688.7544865479
 20
416.3198274381
 10
688.4406811965
 20
416.3945817333
 10
688.1655464453
 20
416.3492303192
 10
687.9513720757
 20
416.1874472976
 10
687.8155092214
 20
415.9223393668
 10
687.7689646827
 20
415.5753839947
 10
687.8155092214
 20
415.1746894421
 10
687.9513720757
 20
414.7527175986
 10
688.1655464453
 20
414.3436541134
 10
688.4406811965
 20
413.9806388773
 10
688.7544865479
 20
413.6930812258
 10
689.0815398563
 20
413.5042773696
 10
689.3953452077
 20
413.4295230744
 10
689.6704799589
 20
413.4748744885
 10
689.8846543285
 20
413.6366575101
 10
690.0205171828
 20
413.9017654409
 10
690.0670617215
 20
414.248720813
  0
LWPOLYLINE
  5
C6
330
1F
100
AcDbEntity
  8
0
  6
Continuous
 62
     7
370
    25
100
AcDbPolyline
 90
       23
 70
   128
 43
0.0
 10
693.2490422369
 20
412.4118025614
 10
693.2024976982
 20
412.812497114
 10
693.0666348438
 20
413.2344689575
 10
692.8524604742
 20
413.6435324427
 10
692.5773257231
 20
414.0065476788
 10
692.2635203717
 20
414.2941053303
 10
691.9364670632
 20
414.4829091865
 10
691.6226617118
 20
414.5576634817
 10
691.3475269607
 20
414.5123120676
 10
691.1333525911
 20
414.350529046
 10
690.9974897367
 20
414.0854211152
 10
690.950945198
 20
413.7384657431
 10
690.9974897367
 20
413.3377711905
 10
691.1333525911
 20
412.915799347
 10
691.3475269607
 20
412.5067358618
 10
691.6226617118
 20
412.1437206257
 10
691.9364670632
 20
411.8561629742
 10
692.2635203717
 20
411.667359118
 10
692.5773257231
 20
411.5926048228
 10
692.8524604742
 20
411.6379562369
 10
693.0666348438
 20
411.7997392585
 10
693.2024976982
 20
412.0648471893
 10
693.2490422369
 20
412.4118025614
  0
LWPOLYLINE
  5
C7
330
1F
100
AcDbEntity
  8
0
  6
Continuous
 62
     7
370
    25
100
AcDbPolyline
 90
       23
 70
   128
 43
0.0
 10
683.7031006909
 20
417.9225573162
 10
683.6565561522
 20
418.3232518688
 10
683.5206932978
 20
418.7452237124
 10
683.3065189282
 20
419.1542871975
 10
683.0313841771
 20
419.5173024336
 10
682.7175788256
 20
419.8048600851
 10
682.3905255172
 20
419.9936639413
 10
682.0767201658
 20
420.0684182365
 10
681.8015854147
 20
420.0230668224
 10
681.5874110451
 20
419.8612838008
 10
681.4515481907
 20
419.59617587
 10
681.405003652
 20
419.2492204979
 10
681.4515481907
 20
418.8485259453
 10
681.5874110451
 20
418.4265541018
 10
681.8015854147
 20
418.0174906166
 10
682.0767201658
 20
417.6544753805
 10
682.3905255172
 20
417.366917729
 10
682.7175788256
 20
417.1781138729
 10
683.0313841771
 20
417.1033595776
 10
683.3065189282
 20
417.1487109917
 10
683.5206932978
 20
417.3104940133
 10
683.6565561522
 20
417.5756019441
 10
683.7031006909
 20
417.9225573162
  0
LWPOLYLINE
  5
C8
330
1F
100
AcDbEntity
  8
0
  6
Continuous
 62
     7
370
    25
100
AcDbPolyline
 90
       23
 70
   128
 43
0.0
 10
686.8850812062
 20
416.0856390646
 10
686.8385366675
 20
416.4863336172
 10
686.7026738131
 20
416.9083054608
 10
686.4884994435
 20
417.3173689459
 10
686.2133646924
 20
417.680384182
 10
685.899559341
 20
417.9679418335
 10
685.5725060326
 20
418.1567456897
 10
685.2587006811
 20
418.2314999849
 10
684.98356593
 20
418.1861485708
 10
684.7693915604
 20
418.0243655492
 10
684.633528706
 20
417.7592576184
 10
684.5869841673
 20
417.4123022463
 10
684.633528706
 20
417.0116076937
 10
684.7693915604
 20
416.5896358502
 10
684.98356593
 20
416.180572365
 10
685.2587006811
 20
415.8175571289
 10
685.5725060326
 20
415.5299994774
 10
685.899559341
 20
415.3411956212
 10
686.2133646924
 20
415.266441326
 10
686.4884994435
 20
415.3117927401
 10
686.7026738131
 20
415.4735757617
 10
686.8385366675
 20
415.7386836925
 10
686.8850812062
 20
416.0856390646
  0
LWPOLYLINE
  5
C9
330
1F
100
AcDbEntity
  8
0
  6
Continuous
 62
     7
370
    25
100
AcDbPolyline
 90
       23
 70
   128
 43
0.0
 10
690.0670617215
 20
417.9231544665
 10
690.0205171828
 20
418.3238490191
 10
689.8846543285
 20
418.7458208626
 10
689.6704799589
 20
419.1548843478
 10
689.3953452077
 20
419.5178995839
 10
689.0815398563
 20
419.8054572354
 10
688.7544865479
 20
419.9942610916
 10
688.4406811965
 20
420.0690153868
 10
688.1655464453
 20
420.0236639727
 10
687.9513720757
 20
419.8618809511
 10
687.8155092214
 20
419.5967730203
 10
687.7689646827
 20
419.2498176482
 10
687.8155092214
 20
418.8491230956
 10
687.9513720757
 20
418.4271512521
 10
688.1655464453
 20
418.0180877669
 10
688.4406811965
 20
417.6550725308
 10
688.7544865479
 20
417.3675148793
 10
689.0815398563
 20
417.1787110231
 10
689.3953452077
 20
417.1039567279
 10
689.6704799589
 20
417.149308142
 10
689.8846543285
 20
417.3110911636
 10
690.0205171828
 20
417.5761990944
 10
690.0670617215
 20
417.9231544665
  0
LWPOLYLINE
  5
CA
330
1F
100
AcDbEntity
  8
0
  6
Continuous
 62
     7
370
    25
100
AcDbPolyline
 90
       23
 70
   128
 43
0.0
 10
693.2490422369
 20
416.0862362149
 10
693.2024976982
 20
416.4869307675
 10
693.0666348438
 20
416.908902611
 10
692.8524604742
 20
417.3179660962
 10
692.5773257231
 20
417.6809813323
 10
692.2635203717
 20
417.9685389838
 10
691.9364670632
 20
418.15734284
 10
691.6226617118
 20
418.2320971352
 10
691.3475269607
 20
418.1867457211
 10
691.1333525911
 20
418.0249626995
 10
690.9974897367
 20
417.7598547687
 10
690.950945198
 20
417.4128993966
 10
690.9974897367
 20
417.012204844
 10
691.1333525911
 20
416.5902330005
 10
691.3475269607
 20
416.1811695153
 10
691.6226617118
 20
415.8181542792
 10
691.9364670632
 20
415.5305966277
 10
692.2635203717
 20
415.3417927715
 10
692.5773257231
 20
415.2670384763
 10
692.8524604742
 20
415.3123898904
 10
693.0666348438
 20
415.474172912
 10
693.2024976982
 20
415.7392808428
 10
693.2490422369
 20
416.0862362149
  0
LWPOLYLINE
  5
CB
330
1F
100
AcDbEntity
  8
0
  6
Continuous
 62
     7
370
    25
100
AcDbPolyline
 90
       23
 70
   128
 43
0.0
 10
664.6112175988
 20
425.2696331723
 10
664.5646730601
 20
425.670327725
 10
664.4288102058
 20
426.0922995685
 10
664.2146358362
 20
426.5013630537
 10
663.939501085
 20
426.8643782897
 10
663.6256957336
 20
427.1519359412
 10
663.2986424252
 20
427.3407397974
 10
662.9848370738
 20
427.4154940926
 10
662.7097023226
 20
427.3701426785
 10
662.495527953
 20
427.208359657
 10
662.3596650987
 20
426.9432517262
 10
662.31312056
 20
426.596296354
 10
662.3596650987
 20
426.1956018014
 10
662.495527953
 20
425.7736299579
 10
662.7097023226
 20
425.3645664727
 10
662.9848370738
 20
425.0015512366
 10
663.2986424252
 20
424.7139935851
 10
663.6256957336
 20
424.525189729
 10
663.939501085
 20
424.4504354337
 10
664.2146358362
 20
424.4957868478
 10
664.4288102058
 20
424.6575698694
 10
664.5646730601
 20
424.9226778002
 10
664.6112175988
 20
425.2696331723
  0
LWPOLYLINE
  5
CC
330
1F
100
AcDbEntity
  8
0
  6
Continuous
 62
     7
370
    25
100
AcDbPolyline
 90
       23
 70
   128
 43
0.0
 10
648.7013150221
 20
434.4542244303
 10
648.6547704834
 20
434.854918983
 10
648.5189076291
 20
435.2768908265
 10
648.3047332595
 20
435.6859543117
 10
648.0295985083
 20
436.0489695478
 10
647.7157931569
 20
436.3365271992
 10
647.3887398485
 20
436.5253310554
 10
647.0749344971
 20
436.6000853506
 10
646.7997997459
 20
436.5547339365
 10
646.5856253763
 20
436.392950915
 10
646.449762522
 20
436.1278429842
 10
646.4032179833
 20
435.780887612
 10
646.449762522
 20
435.3801930594
 10
646.5856253763
 20
434.9582212159
 10
646.7997997459
 20
434.5491577307
 10
647.0749344971
 20
434.1861424946
 10
647.3887398485
 20
433.8985848431
 10
647.7157931569
 20
433.709780987
 10
648.0295985083
 20
433.6350266917
 10
648.3047332595
 20
433.6803781058
 10
648.5189076291
 20
433.8421611274
 10
648.6547704834
 20
434.1072690582
 10
648.7013150221
 20
434.4542244303
  0
LWPOLYLINE
  5
CD
330
1F
100
AcDbEntity
  8
0
  6
Continuous
 62
     7
370
    25
100
AcDbPolyline
 90
       23
 70
   128
 43
0.0
 10
645.5193345068
 20
436.2911426819
 10
645.4727899681
 20
436.6918372346
 10
645.3369271137
 20
437.1138090781
 10
645.1227527441
 20
437.5228725633
 10
644.847617993
 20
437.8858877994
 10
644.5338126416
 20
438.1734454508
 10
644.2067593331
 20
438.362249307
 10
643.8929539817
 20
438.4370036022
 10
643.6178192306
 20
438.3916521881
 10
643.403644861
 20
438.2298691666
 10
643.2677820066
 20
437.9647612358
 10
643.2212374679
 20
437.6178058636
 10
643.2677820066
 20
437.217111311
 10
643.403644861
 20
436.7951394675
 10
643.6178192306
 20
436.3860759823
 10
643.8929539817
 20
436.0230607462
 10
644.2067593331
 20
435.7355030947
 10
644.5338126416
 20
435.5466992386
 10
644.847617993
 20
435.4719449433
 10
645.1227527441
 20
435.5172963574
 10
645.3369271137
 20
435.679079379
 10
645.4727899681
 20
435.9441873098
 10
645.5193345068
 20
436.2911426819
  0
LWPOLYLINE
  5
CE
330
1F
100
AcDbEntity
  8
0
  6
Continuous
 62
     7
370
    25
100
AcDbPolyline
 90
       23
 70
   128
 43
0.0
 10
655.0652760528
 20
430.7803879271
 10
655.0187315141
 20
431.1810824798
 10
654.8828686597
 20
431.6030543233
 10
654.6686942901
 20
432.0121178085
 10
654.393559539
 20
432.3751330446
 10
654.0797541876
 20
432.662690696
 10
653.7527008792
 20
432.8514945522
 10
653.4388955277
 20
432.9262488474
 10
653.1637607766
 20
432.8808974333
 10
652.949586407
 20
432.7191144118
 10
652.8137235526
 20
432.454006481
 10
652.7671790139
 20
432.1070511088
 10
652.8137235526
 20
431.7063565562
 10
652.949586407
 20
431.2843847127
 10
653.1637607766
 20
430.8753212275
 10
653.4388955277
 20
430.5123059914
 10
653.7527008792
 20
430.2247483399
 10
654.0797541876
 20
430.0359444838
 10
654.393559539
 20
429.9611901885
 10
654.6686942901
 20
430.0065416026
 10
654.8828686597
 20
430.1683246242
 10
655.0187315141
 20
430.433432555
 10
655.0652760528
 20
430.7803879271
  0
LWPOLYLINE
  5
CF
330
1F
100
AcDbEntity
  8
0
  6
Continuous
 62
     7
370
    25
100
AcDbPolyline
 90
       23
 70
   128
 43
0.0
 10
639.1553734761
 20
439.9649791851
 10
639.1088289374
 20
440.3656737378
 10
638.972966083
 20
440.7876455813
 10
638.7587917134
 20
441.1967090665
 10
638.4836569623
 20
441.5597243026
 10
638.1698516109
 20
441.8472819541
 10
637.8427983025
 20
442.0360858102
 10
637.528992951
 20
442.1108401054
 10
637.2538581999
 20
442.0654886913
 10
637.0396838303
 20
441.9037056698
 10
636.9038209759
 20
441.638597739
 10
636.8572764372
 20
441.2916423668
 10
636.9038209759
 20
440.8909478142
 10
637.0396838303
 20
440.4689759707
 10
637.2538581999
 20
440.0599124855
 10
637.528992951
 20
439.6968972494
 10
637.8427983025
 20
439.4093395979
 10
638.1698516109
 20
439.2205357418
 10
638.4836569623
 20
439.1457814465
 10
638.7587917134
 20
439.1911328606
 10
638.972966083
 20
439.3529158822
 10
639.1088289374
 20
439.618023813
 10
639.1553734761
 20
439.9649791851
  0
LWPOLYLINE
  5
D0
330
1F
100
AcDbEntity
  8
0
  6
Continuous
 62
     7
370
    25
100
AcDbPolyline
 90
       23
 70
   128
 43
0.0
 10
661.4292370835
 20
427.1065514239
 10
661.3826925448
 20
427.5072459766
 10
661.2468296904
 20
427.9292178201
 10
661.0326553208
 20
428.3382813053
 10
660.7575205697
 20
428.7012965413
 10
660.4437152183
 20
428.9888541928
 10
660.1166619098
 20
429.177658049
 10
659.8028565584
 20
429.2524123442
 10
659.5277218073
 20
429.2070609301
 10
659.3135474377
 20
429.0452779086
 10
659.1776845833
 20
428.7801699778
 10
659.1311400446
 20
428.4332146056
 10
659.1776845833
 20
428.032520053
 10
659.3135474377
 20
427.6105482095
 10
659.5277218073
 20
427.2014847243
 10
659.8028565584
 20
426.8384694882
 10
660.1166619098
 20
426.5509118367
 10
660.4437152183
 20
426.3621079806
 10
660.7575205697
 20
426.2873536853
 10
661.0326553208
 20
426.3327050994
 10
661.2468296904
 20
426.494488121
 10
661.3826925448
 20
426.7595960518
 10
661.4292370835
 20
427.1065514239
  0
LWPOLYLINE
  5
D1
330
1F
100
AcDbEntity
  8
0
  6
Continuous
 62
     7
370
    25
100
AcDbPolyline
 90
       23
 70
   128
 43
0.0
 10
658.2472565681
 20
428.9434696755
 10
658.2007120294
 20
429.3441642282
 10
658.0648491751
 20
429.7661360717
 10
657.8506748055
 20
430.1751995569
 10
657.5755400544
 20
430.5382147929
 10
657.2617347029
 20
430.8257724444
 10
656.9346813945
 20
431.0145763006
 10
656.6208760431
 20
431.0893305958
 10
656.3457412919
 20
431.0439791817
 10
656.1315669224
 20
430.8821961602
 10
655.995704068
 20
430.6170882294
 10
655.9491595293
 20
430.2701328572
 10
655.995704068
 20
429.8694383046
 10
656.1315669224
 20
429.4474664611
 10
656.3457412919
 20
429.0384029759
 10
656.6208760431
 20
428.6753877398
 10
656.9346813945
 20
428.3878300883
 10
657.2617347029
 20
428.1990262322
 10
657.5755400544
 20
428.1242719369
 10
657.8506748055
 20
428.169623351
 10
658.0648491751
 20
428.3314063726
 10
658.2007120294
 20
428.5965143034
 10
658.2472565681
 20
428.9434696755
  0
LWPOLYLINE
  5
D2
330
1F
100
AcDbEntity
  8
0
  6
Continuous
 62
     7
370
    25
100
AcDbPolyline
 90
       23
 70
   128
 43
0.0
 10
667.7931981142
 20
423.4327149207
 10
667.7466535755
 20
423.8334094734
 10
667.6107907211
 20
424.2553813169
 10
667.3966163515
 20
424.6644448021
 10
667.1214816004
 20
425.0274600381
 10
666.8076762489
 20
425.3150176896
 10
666.4806229405
 20
425.5038215458
 10
666.1668175891
 20
425.578575841
 10
665.891682838
 20
425.5332244269
 10
665.6775084684
 20
425.3714414054
 10
665.541645614
 20
425.1063334746
 10
665.4951010753
 20
424.7593781024
 10
665.541645614
 20
424.3586835498
 10
665.6775084684
 20
423.9367117063
 10
665.891682838
 20
423.5276482211
 10
666.1668175891
 20
423.164632985
 10
666.4806229405
 20
422.8770753335
 10
666.8076762489
 20
422.6882714774
 10
667.1214816004
 20
422.6135171821
 10
667.3966163515
 20
422.6588685962
 10
667.6107907211
 20
422.8206516178
 10
667.7466535755
 20
423.0857595486
 10
667.7931981142
 20
423.4327149207
  0
LWPOLYLINE
  5
D3
330
1F
100
AcDbEntity
  8
0
  6
Continuous
 62
     7
370
    25
100
AcDbPolyline
 90
       23
 70
   128
 43
0.0
 10
683.7031006909
 20
414.2481236627
 10
683.6565561522
 20
414.6488182154
 10
683.5206932978
 20
415.0707900589
 10
683.3065189282
 20
415.4798535441
 10
683.0313841771
 20
415.8428687801
 10
682.7175788256
 20
416.1304264316
 10
682.3905255172
 20
416.3192302878
 10
682.0767201658
 20
416.393984583
 10
681.8015854147
 20
416.3486331689
 10
681.5874110451
 20
416.1868501474
 10
681.4515481907
 20
415.9217422166
 10
681.405003652
 20
415.5747868444
 10
681.4515481907
 20
415.1740922918
 10
681.5874110451
 20
414.7521204483
 10
681.8015854147
 20
414.3430569631
 10
682.0767201658
 20
413.980041727
 10
682.3905255172
 20
413.6924840755
 10
682.7175788256
 20
413.5036802194
 10
683.0313841771
 20
413.4289259241
 10
683.3065189282
 20
413.4742773382
 10
683.5206932978
 20
413.6360603598
 10
683.6565561522
 20
413.9011682906
 10
683.7031006909
 20
414.2481236627
  0
LWPOLYLINE
  5
D4
330
1F
100
AcDbEntity
  8
0
  6
Continuous
 62
     7
370
    25
100
AcDbPolyline
 90
       23
 70
   128
 43
0.0
 10
686.8850812062
 20
412.4112054111
 10
686.8385366675
 20
412.8118999638
 10
686.7026738131
 20
413.2338718073
 10
686.4884994435
 20
413.6429352925
 10
686.2133646924
 20
414.0059505285
 10
685.899559341
 20
414.29350818
 10
685.5725060326
 20
414.4823120362
 10
685.2587006811
 20
414.5570663314
 10
684.98356593
 20
414.5117149173
 10
684.7693915604
 20
414.3499318958
 10
684.633528706
 20
414.084823965
 10
684.5869841673
 20
413.7378685928
 10
684.633528706
 20
413.3371740402
 10
684.7693915604
 20
412.9152021967
 10
684.98356593
 20
412.5061387115
 10
685.2587006811
 20
412.1431234754
 10
685.5725060326
 20
411.8555658239
 10
685.899559341
 20
411.6667619678
 10
686.2133646924
 20
411.5920076725
 10
686.4884994435
 20
411.6373590866
 10
686.7026738131
 20
411.7991421082
 10
686.8385366675
 20
412.064250039
 10
686.8850812062
 20
412.4112054111
  0
LWPOLYLINE
  5
D5
330
1F
100
AcDbEntity
  8
0
  6
Continuous
 62
     7
370
    25
100
AcDbPolyline
 90
       23
 70
   128
 43
0.0
 10
696.4310227522
 20
410.5748843098
 10
696.3844782135
 20
410.9755788624
 10
696.2486153592
 20
411.3975507059
 10
696.0344409896
 20
411.8066141911
 10
695.7593062384
 20
412.1696294272
 10
695.445500887
 20
412.4571870787
 10
695.1184475786
 20
412.6459909349
 10
694.8046422271
 20
412.7207452301
 10
694.529507476
 20
412.675393816
 10
694.3153331064
 20
412.5136107944
 10
694.1794702521
 20
412.2485028636
 10
694.1329257134
 20
411.9015474915
 10
694.1794702521
 20
411.5008529389
 10
694.3153331064
 20
411.0788810954
 10
694.529507476
 20
410.6698176102
 10
694.8046422271
 20
410.3068023741
 10
695.1184475786
 20
410.0192447226
 10
695.445500887
 20
409.8304408664
 10
695.7593062384
 20
409.7556865712
 10
696.0344409896
 20
409.8010379853
 10
696.2486153592
 20
409.9628210069
 10
696.3844782135
 20
410.2279289377
 10
696.4310227522
 20
410.5748843098
  0
LWPOLYLINE
  5
D6
330
1F
100
AcDbEntity
  8
0
  6
Continuous
 62
     7
370
    25
100
AcDbPolyline
 90
       23
 70
   128
 43
0.0
 10
699.6130032676
 20
408.7379660582
 10
699.5664587289
 20
409.1386606108
 10
699.4305958745
 20
409.5606324543
 10
699.2164215049
 20
409.9696959395
 10
698.9412867538
 20
410.3327111756
 10
698.6274814023
 20
410.6202688271
 10
698.3004280939
 20
410.8090726833
 10
697.9866227425
 20
410.8838269785
 10
697.7114879914
 20
410.8384755644
 10
697.4973136218
 20
410.6766925428
 10
697.3614507674
 20
410.411584612
 10
697.3149062287
 20
410.0646292399
 10
697.3614507674
 20
409.6639346873
 10
697.4973136218
 20
409.2419628438
 10
697.7114879914
 20
408.8328993586
 10
697.9866227425
 20
408.4698841225
 10
698.3004280939
 20
408.182326471
 10
698.6274814023
 20
407.9935226148
 10
698.9412867538
 20
407.9187683196
 10
699.2164215049
 20
407.9641197337
 10
699.4305958745
 20
408.1259027553
 10
699.5664587289
 20
408.3910106861
 10
699.6130032676
 20
408.7379660582
  0
LWPOLYLINE
  5
D7
330
1F
100
AcDbEntity
  8
0
  6
Continuous
 62
     7
370
    25
100
AcDbPolyline
 90
       23
 70
   128
 43
0.0
 10
696.4310227522
 20
406.9004506563
 10
696.3844782135
 20
407.301145209
 10
696.2486153592
 20
407.7231170525
 10
696.0344409896
 20
408.1321805376
 10
695.7593062384
 20
408.4951957737
 10
695.445500887
 20
408.7827534252
 10
695.1184475786
 20
408.9715572814
 10
694.8046422271
 20
409.0463115766
 10
694.529507476
 20
409.0009601625
 10
694.3153331064
 20
408.839177141
 10
694.1794702521
 20
408.5740692102
 10
694.1329257134
 20
408.227113838
 10
694.1794702521
 20
407.8264192854
 10
694.3153331064
 20
407.4044474419
 10
694.529507476
 20
406.9953839567
 10
694.8046422271
 20
406.6323687206
 10
695.1184475786
 20
406.3448110691
 10
695.445500887
 20
406.156007213
 10
695.7593062384
 20
406.0812529177
 10
696.0344409896
 20
406.1266043318
 10
696.2486153592
 20
406.2883873534
 10
696.3844782135
 20
406.5534952842
 10
696.4310227522
 20
406.9004506563
  0
LWPOLYLINE
  5
D8
330
1F
100
AcDbEntity
  8
0
  6
Continuous
 62
     7
370
    25
100
AcDbPolyline
 90
       23
 70
   128
 43
0.0
 10
699.6130032676
 20
405.0635324047
 10
699.5664587289
 20
405.4642269574
 10
699.4305958745
 20
405.8861988009
 10
699.2164215049
 20
406.295262286
 10
698.9412867538
 20
406.6582775221
 10
698.6274814023
 20
406.9458351736
 10
698.3004280939
 20
407.1346390298
 10
697.9866227425
 20
407.209393325
 10
697.7114879914
 20
407.1640419109
 10
697.4973136218
 20
407.0022588894
 10
697.3614507674
 20
406.7371509586
 10
697.3149062287
 20
406.3901955864
 10
697.3614507674
 20
405.9895010338
 10
697.4973136218
 20
405.5675291903
 10
697.7114879914
 20
405.1584657051
 10
697.9866227425
 20
404.795450469
 10
698.3004280939
 20
404.5078928175
 10
698.6274814023
 20
404.3190889614
 10
698.9412867538
 20
404.2443346661
 10
699.2164215049
 20
404.2896860802
 10
699.4305958745
 20
404.4514691018
 10
699.5664587289
 20
404.7165770326
 10
699.6130032676
 20
405.0635324047
  0
LWPOLYLINE
  5
D9
330
1F
100
AcDbEntity
  8
0
  6
Continuous
 62
     7
370
    25
100
AcDbPolyline
 90
       23
 70
   128
 43
0.0
 10
696.4310227522
 20
414.2493179633
 10
696.3844782135
 20
414.6500125159
 10
696.2486153592
 20
415.0719843594
 10
696.0344409896
 20
415.4810478446
 10
695.7593062384
 20
415.8440630807
 10
695.445500887
 20
416.1316207322
 10
695.1184475786
 20
416.3204245884
 10
694.8046422271
 20
416.3951788836
 10
694.529507476
 20
416.3498274695
 10
694.3153331064
 20
416.1880444479
 10
694.1794702521
 20
415.9229365171
 10
694.1329257134
 20
415.575981145
 10
694.1794702521
 20
415.1752865924
 10
694.3153331064
 20
414.7533147488
 10
694.529507476
 20
414.3442512637
 10
694.8046422271
 20
413.9812360276
 10
695.1184475786
 20
413.6936783761
 10
695.445500887
 20
413.5048745199
 10
695.7593062384
 20
413.4301202247
 10
696.0344409896
 20
413.4754716388
 10
696.2486153592
 20
413.6372546604
 10
696.3844782135
 20
413.9023625912
 10
696.4310227522
 20
414.2493179633
  0
LWPOLYLINE
  5
DA
330
1F
100
AcDbEntity
  8
0
  6
Continuous
 62
     7
370
    25
100
AcDbPolyline
 90
       23
 70
   128
 43
0.0
 10
699.6130032676
 20
412.4123997117
 10
699.5664587289
 20
412.8130942643
 10
699.4305958745
 20
413.2350661078
 10
699.2164215049
 20
413.644129593
 10
698.9412867538
 20
414.0071448291
 10
698.6274814023
 20
414.2947024806
 10
698.3004280939
 20
414.4835063367
 10
697.9866227425
 20
414.558260632
 10
697.7114879914
 20
414.5129092179
 10
697.4973136218
 20
414.3511261963
 10
697.3614507674
 20
414.0860182655
 10
697.3149062287
 20
413.7390628934
 10
697.3614507674
 20
413.3383683408
 10
697.4973136218
 20
412.9163964972
 10
697.7114879914
 20
412.5073330121
 10
697.9866227425
 20
412.144317776
 10
698.3004280939
 20
411.8567601245
 10
698.6274814023
 20
411.6679562683
 10
698.9412867538
 20
411.5932019731
 10
699.2164215049
 20
411.6385533872
 10
699.4305958745
 20
411.8003364088
 10
699.5664587289
 20
412.0654443396
 10
699.6130032676
 20
412.4123997117
  0
LWPOLYLINE
  5
DB
330
1F
100
AcDbEntity
  8
0
  6
Continuous
 62
     7
370
    25
100
AcDbPolyline
 90
       23
 70
   128
 43
0.0
 10
683.7031006909
 20
421.5969909697
 10
683.6565561522
 20
421.9976855223
 10
683.5206932978
 20
422.4196573658
 10
683.3065189282
 20
422.828720851
 10
683.0313841771
 20
423.1917360871
 10
682.7175788256
 20
423.4792937386
 10
682.3905255172
 20
423.6680975948
 10
682.0767201658
 20
423.74285189
 10
681.8015854147
 20
423.6975004759
 10
681.5874110451
 20
423.5357174543
 10
681.4515481907
 20
423.2706095235
 10
681.405003652
 20
422.9236541514
 10
681.4515481907
 20
422.5229595988
 10
681.5874110451
 20
422.1009877553
 10
681.8015854147
 20
421.6919242701
 10
682.0767201658
 20
421.328909034
 10
682.3905255172
 20
421.0413513825
 10
682.7175788256
 20
420.8525475263
 10
683.0313841771
 20
420.7777932311
 10
683.3065189282
 20
420.8231446452
 10
683.5206932978
 20
420.9849276668
 10
683.6565561522
 20
421.2500355976
 10
683.7031006909
 20
421.5969909697
  0
LWPOLYLINE
  5
DC
330
1F
100
AcDbEntity
  8
0
  6
Continuous
 62
     7
370
    25
100
AcDbPolyline
 90
       23
 70
   128
 43
0.0
 10
686.8850812062
 20
419.7600727181
 10
686.8385366675
 20
420.1607672707
 10
686.7026738131
 20
420.5827391142
 10
686.4884994435
 20
420.9918025994
 10
686.2133646924
 20
421.3548178355
 10
685.899559341
 20
421.642375487
 10
685.5725060326
 20
421.8311793432
 10
685.2587006811
 20
421.9059336384
 10
684.98356593
 20
421.8605822243
 10
684.7693915604
 20
421.6987992027
 10
684.633528706
 20
421.4336912719
 10
684.5869841673
 20
421.0867358998
 10
684.633528706
 20
420.6860413472
 10
684.7693915604
 20
420.2640695037
 10
684.98356593
 20
419.8550060185
 10
685.2587006811
 20
419.4919907824
 10
685.5725060326
 20
419.2044331309
 10
685.899559341
 20
419.0156292747
 10
686.2133646924
 20
418.9408749795
 10
686.4884994435
 20
418.9862263936
 10
686.7026738131
 20
419.1480094152
 10
686.8385366675
 20
419.413117346
 10
686.8850812062
 20
419.7600727181
  0
LWPOLYLINE
  5
DD
330
1F
100
AcDbEntity
  8
0
  6
Continuous
 62
     7
370
    25
100
AcDbPolyline
 90
       23
 70
   128
 43
0.0
 10
632.7914124454
 20
447.3132493418
 10
632.7448679067
 20
447.7139438945
 10
632.6090050524
 20
448.135915738
 10
632.3948306828
 20
448.5449792232
 10
632.1196959316
 20
448.9079944592
 10
631.8058905802
 20
449.1955521107
 10
631.4788372718
 20
449.3843559669
 10
631.1650319204
 20
449.4591102621
 10
630.8898971692
 20
449.413758848
 10
630.6757227996
 20
449.2519758265
 10
630.5398599453
 20
448.9868678957
 10
630.4933154066
 20
448.6399125235
 10
630.5398599453
 20
448.2392179709
 10
630.6757227996
 20
447.8172461274
 10
630.8898971692
 20
447.4081826422
 10
631.1650319204
 20
447.0451674061
 10
631.4788372718
 20
446.7576097546
 10
631.8058905802
 20
446.5688058985
 10
632.1196959316
 20
446.4940516032
 10
632.3948306828
 20
446.5394030173
 10
632.6090050524
 20
446.7011860389
 10
632.7448679067
 20
446.9662939697
 10
632.7914124454
 20
447.3132493418
  0
LWPOLYLINE
  5
DE
330
1F
100
AcDbEntity
  8
0
  6
Continuous
 62
     7
370
    25
100
AcDbPolyline
 90
       23
 70
   128
 43
0.0
 10
632.7914124454
 20
450.9876829953
 10
632.7448679067
 20
451.3883775479
 10
632.6090050524
 20
451.8103493915
 10
632.3948306828
 20
452.2194128766
 10
632.1196959316
 20
452.5824281127
 10
631.8058905802
 20
452.8699857642
 10
631.4788372718
 20
453.0587896204
 10
631.1650319204
 20
453.1335439156
 10
630.8898971692
 20
453.0881925015
 10
630.6757227996
 20
452.9264094799
 10
630.5398599453
 20
452.6613015492
 10
630.4933154066
 20
452.314346177
 10
630.5398599453
 20
451.9136516244
 10
630.6757227996
 20
451.4916797809
 10
630.8898971692
 20
451.0826162957
 10
631.1650319204
 20
450.7196010596
 10
631.4788372718
 20
450.4320434081
 10
631.8058905802
 20
450.243239552
 10
632.1196959316
 20
450.1684852567
 10
632.3948306828
 20
450.2138366708
 10
632.6090050524
 20
450.3756196924
 10
632.7448679067
 20
450.6407276232
 10
632.7914124454
 20
450.9876829953
  0
LWPOLYLINE
  5
DF
330
1F
100
AcDbEntity
  8
0
  6
Continuous
 62
     7
370
    25
100
AcDbPolyline
 90
       23
 70
   128
 43
0.0
 10
677.3391396602
 20
425.2708274729
 10
677.2925951215
 20
425.6715220255
 10
677.1567322671
 20
426.093493869
 10
676.9425578975
 20
426.5025573542
 10
676.6674231464
 20
426.8655725903
 10
676.353617795
 20
427.1531302418
 10
676.0265644865
 20
427.341934098
 10
675.7127591351
 20
427.4166883932
 10
675.437624384
 20
427.3713369791
 10
675.2234500144
 20
427.2095539575
 10
675.08758716
 20
426.9444460267
 10
675.0410426213
 20
426.5974906546
 10
675.08758716
 20
426.196796102
 10
675.2234500144
 20
425.7748242585
 10
675.437624384
 20
425.3657607733
 10
675.7127591351
 20
425.0027455372
 10
676.0265644865
 20
424.7151878857
 10
676.353617795
 20
424.5263840295
 10
676.6674231464
 20
424.4516297343
 10
676.9425578975
 20
424.4969811484
 10
677.1567322671
 20
424.65876417
 10
677.2925951215
 20
424.9238721008
 10
677.3391396602
 20
425.2708274729
  0
LWPOLYLINE
  5
E0
330
1F
100
AcDbEntity
  8
0
  6
Continuous
 62
     7
370
    25
100
AcDbPolyline
 90
       23
 70
   128
 43
0.0
 10
680.5211201755
 20
423.4339092213
 10
680.4745756368
 20
423.8346037739
 10
680.3387127825
 20
424.2565756174
 10
680.1245384129
 20
424.6656391026
 10
679.8494036617
 20
425.0286543387
 10
679.5355983103
 20
425.3162119902
 10
679.2085450019
 20
425.5050158464
 10
678.8947396505
 20
425.5797701416
 10
678.6196048993
 20
425.5344187275
 10
678.4054305297
 20
425.3726357059
 10
678.2695676754
 20
425.1075277751
 10
678.2230231367
 20
424.760572403
 10
678.2695676754
 20
424.3598778504
 10
678.4054305297
 20
423.9379060069
 10
678.6196048993
 20
423.5288425217
 10
678.8947396505
 20
423.1658272856
 10
679.2085450019
 20
422.8782696341
 10
679.5355983103
 20
422.6894657779
 10
679.8494036617
 20
422.6147114827
 10
680.1245384129
 20
422.6600628968
 10
680.3387127825
 20
422.8218459184
 10
680.4745756368
 20
423.0869538492
 10
680.5211201755
 20
423.4339092213
  0
LWPOLYLINE
  5
E1
330
1F
100
AcDbEntity
  8
0
  6
Continuous
 62
     7
370
    25
100
AcDbPolyline
 90
       23
 70
   128
 43
0.0
 10
690.0670617215
 20
410.5742871595
 10
690.0205171828
 20
410.9749817122
 10
689.8846543285
 20
411.3969535557
 10
689.6704799589
 20
411.8060170409
 10
689.3953452077
 20
412.1690322769
 10
689.0815398563
 20
412.4565899284
 10
688.7544865479
 20
412.6453937846
 10
688.4406811965
 20
412.7201480798
 10
688.1655464453
 20
412.6747966657
 10
687.9513720757
 20
412.5130136442
 10
687.8155092214
 20
412.2479057134
 10
687.7689646827
 20
411.9009503412
 10
687.8155092214
 20
411.5002557886
 10
687.9513720757
 20
411.0782839451
 10
688.1655464453
 20
410.6692204599
 10
688.4406811965
 20
410.3062052238
 10
688.7544865479
 20
410.0186475723
 10
689.0815398563
 20
409.8298437162
 10
689.3953452077
 20
409.7550894209
 10
689.6704799589
 20
409.800440835
 10
689.8846543285
 20
409.9622238566
 10
690.0205171828
 20
410.2273317874
 10
690.0670617215
 20
410.5742871595
  0
LWPOLYLINE
  5
E2
330
1F
100
AcDbEntity
  8
0
  6
Continuous
 62
     7
370
    25
100
AcDbPolyline
 90
       23
 70
   128
 43
0.0
 10
693.2490422369
 20
408.7373689079
 10
693.2024976982
 20
409.1380634606
 10
693.0666348438
 20
409.5600353041
 10
692.8524604742
 20
409.9690987893
 10
692.5773257231
 20
410.3321140253
 10
692.2635203717
 20
410.6196716768
 10
691.9364670632
 20
410.808475533
 10
691.6226617118
 20
410.8832298282
 10
691.3475269607
 20
410.8378784141
 10
691.1333525911
 20
410.6760953926
 10
690.9974897367
 20
410.4109874618
 10
690.950945198
 20
410.0640320896
 10
690.9974897367
 20
409.663337537
 10
691.1333525911
 20
409.2413656935
 10
691.3475269607
 20
408.8323022083
 10
691.6226617118
 20
408.4692869722
 10
691.9364670632
 20
408.1817293207
 10
692.2635203717
 20
407.9929254646
 10
692.5773257231
 20
407.9181711693
 10
692.8524604742
 20
407.9635225834
 10
693.0666348438
 20
408.125305605
 10
693.2024976982
 20
408.3904135358
 10
693.2490422369
 20
408.7373689079
  0
LWPOLYLINE
  5
E3
330
1F
100
AcDbEntity
  8
0
  6
Continuous
 62
     7
370
    25
100
AcDbPolyline
 90
       23
 70
   128
 43
0.0
 10
642.3373539914
 20
441.802494587
 10
642.2908094528
 20
442.2031891397
 10
642.1549465984
 20
442.6251609832
 10
641.9407722288
 20
443.0342244684
 10
641.6656374777
 20
443.3972397044
 10
641.3518321262
 20
443.6847973559
 10
641.0247788178
 20
443.8736012121
 10
640.7109734664
 20
443.9483555073
 10
640.4358387152
 20
443.9030040932
 10
640.2216643457
 20
443.7412210717
 10
640.0858014913
 20
443.4761131409
 10
640.0392569526
 20
443.1291577687
 10
640.0858014913
 20
442.7284632161
 10
640.2216643457
 20
442.3064913726
 10
640.4358387152
 20
441.8974278874
 10
640.7109734664
 20
441.5344126513
 10
641.0247788178
 20
441.2468549998
 10
641.3518321262
 20
441.0580511437
 10
641.6656374777
 20
440.9832968484
 10
641.9407722288
 20
441.0286482625
 10
642.1549465984
 20
441.1904312841
 10
642.2908094528
 20
441.4555392149
 10
642.3373539914
 20
441.802494587
  0
LWPOLYLINE
  5
E4
330
1F
100
AcDbEntity
  8
0
  6
Continuous
 62
     7
370
    25
100
AcDbPolyline
 90
       23
 70
   128
 43
0.0
 10
674.1571591448
 20
419.7588784175
 10
674.1106146061
 20
420.1595729702
 10
673.9747517518
 20
420.5815448137
 10
673.7605773822
 20
420.9906082989
 10
673.485442631
 20
421.3536235349
 10
673.1716372796
 20
421.6411811864
 10
672.8445839712
 20
421.8299850426
 10
672.5307786198
 20
421.9047393378
 10
672.2556438686
 20
421.8593879237
 10
672.041469499
 20
421.6976049022
 10
671.9056066447
 20
421.4324969714
 10
671.859062106
 20
421.0855415992
 10
671.9056066447
 20
420.6848470466
 10
672.041469499
 20
420.2628752031
 10
672.2556438686
 20
419.8538117179
 10
672.5307786198
 20
419.4907964818
 10
672.8445839712
 20
419.2032388303
 10
673.1716372796
 20
419.0144349742
 10
673.485442631
 20
418.9396806789
 10
673.7605773822
 20
418.985032093
 10
673.9747517518
 20
419.1468151146
 10
674.1106146061
 20
419.4119230454
 10
674.1571591448
 20
419.7588784175
  0
LWPOLYLINE
  5
E5
330
1F
100
AcDbEntity
  8
0
  6
Continuous
 62
     7
370
    25
100
AcDbPolyline
 90
       23
 70
   128
 43
0.0
 10
670.9751786295
 20
421.5957966691
 10
670.9286340908
 20
421.9964912218
 10
670.7927712364
 20
422.4184630653
 10
670.5785968668
 20
422.8275265505
 10
670.3034621157
 20
423.1905417865
 10
669.9896567643
 20
423.478099438
 10
669.6626034559
 20
423.6669032942
 10
669.3487981044
 20
423.7416575894
 10
669.0736633533
 20
423.6963061753
 10
668.8594889837
 20
423.5345231538
 10
668.7236261293
 20
423.269415223
 10
668.6770815906
 20
422.9224598508
 10
668.7236261293
 20
422.5217652982
 10
668.8594889837
 20
422.0997934547
 10
669.0736633533
 20
421.6907299695
 10
669.3487981044
 20
421.3277147334
 10
669.6626034559
 20
421.0401570819
 10
669.9896567643
 20
420.8513532258
 10
670.3034621157
 20
420.7765989305
 10
670.5785968668
 20
420.8219503446
 10
670.7927712364
 20
420.9837333662
 10
670.9286340908
 20
421.248841297
 10
670.9751786295
 20
421.5957966691
  0
LWPOLYLINE
  5
E6
330
1F
100
AcDbEntity
  8
0
  6
Continuous
 62
     7
370
    25
100
AcDbPolyline
 90
       23
 70
   128
 43
0.0
 10
680.5211201755
 20
416.0850419143
 10
680.4745756368
 20
416.485736467
 10
680.3387127825
 20
416.9077083105
 10
680.1245384129
 20
417.3167717957
 10
679.8494036617
 20
417.6797870317
 10
679.5355983103
 20
417.9673446832
 10
679.2085450019
 20
418.1561485394
 10
678.8947396505
 20
418.2309028346
 10
678.6196048993
 20
418.1855514205
 10
678.4054305297
 20
418.023768399
 10
678.2695676754
 20
417.7586604682
 10
678.2230231367
 20
417.411705096
 10
678.2695676754
 20
417.0110105434
 10
678.4054305297
 20
416.5890386999
 10
678.6196048993
 20
416.1799752147
 10
678.8947396505
 20
415.8169599786
 10
679.2085450019
 20
415.5294023271
 10
679.5355983103
 20
415.340598471
 10
679.8494036617
 20
415.2658441757
 10
680.1245384129
 20
415.3111955898
 10
680.3387127825
 20
415.4729786114
 10
680.4745756368
 20
415.7380865422
 10
680.5211201755
 20
416.0850419143
  0
LWPOLYLINE
  5
E7
330
1F
100
AcDbEntity
  8
0
  6
Continuous
 62
     7
370
    25
100
AcDbPolyline
 90
       23
 70
   128
 43
0.0
 10
658.2472565681
 20
436.2923369825
 10
658.2007120294
 20
436.6930315351
 10
658.0648491751
 20
437.1150033786
 10
657.8506748055
 20
437.5240668638
 10
657.5755400544
 20
437.8870820999
 10
657.2617347029
 20
438.1746397514
 10
656.9346813945
 20
438.3634436076
 10
656.6208760431
 20
438.4381979028
 10
656.3457412919
 20
438.3928464887
 10
656.1315669224
 20
438.2310634671
 10
655.995704068
 20
437.9659555363
 10
655.9491595293
 20
437.6190001642
 10
655.995704068
 20
437.2183056116
 10
656.1315669224
 20
436.7963337681
 10
656.3457412919
 20
436.3872702829
 10
656.6208760431
 20
436.0242550468
 10
656.9346813945
 20
435.7366973953
 10
657.2617347029
 20
435.5478935391
 10
657.5755400544
 20
435.4731392439
 10
657.8506748055
 20
435.518490658
 10
658.0648491751
 20
435.6802736796
 10
658.2007120294
 20
435.9453816104
 10
658.2472565681
 20
436.2923369825
  0
LWPOLYLINE
  5
E8
330
1F
100
AcDbEntity
  8
0
  6
Continuous
 62
     7
370
    25
100
AcDbPolyline
 90
       23
 70
   128
 43
0.0
 10
639.1553734761
 20
443.6394128386
 10
639.1088289374
 20
444.0401073913
 10
638.972966083
 20
444.4620792348
 10
638.7587917134
 20
444.87114272
 10
638.4836569623
 20
445.234157956
 10
638.1698516109
 20
445.5217156075
 10
637.8427983025
 20
445.7105194637
 10
637.528992951
 20
445.7852737589
 10
637.2538581999
 20
445.7399223448
 10
637.0396838303
 20
445.5781393233
 10
636.9038209759
 20
445.3130313925
 10
636.8572764372
 20
444.9660760203
 10
636.9038209759
 20
444.5653814677
 10
637.0396838303
 20
444.1434096242
 10
637.2538581999
 20
443.734346139
 10
637.528992951
 20
443.3713309029
 10
637.8427983025
 20
443.0837732514
 10
638.1698516109
 20
442.8949693953
 10
638.4836569623
 20
442.8202151
 10
638.7587917134
 20
442.8655665141
 10
638.972966083
 20
443.0273495357
 10
639.1088289374
 20
443.2924574665
 10
639.1553734761
 20
443.6394128386
  0
LWPOLYLINE
  5
E9
330
1F
100
AcDbEntity
  8
0
  6
Continuous
 62
     7
370
    25
100
AcDbPolyline
 90
       23
 70
   128
 43
0.0
 10
635.9733929608
 20
445.4763310902
 10
635.9268484221
 20
445.8770256429
 10
635.7909855677
 20
446.2989974864
 10
635.5768111981
 20
446.7080609716
 10
635.301676447
 20
447.0710762076
 10
634.9878710955
 20
447.3586338591
 10
634.6608177871
 20
447.5474377153
 10
634.3470124357
 20
447.6221920105
 10
634.0718776846
 20
447.5768405964
 10
633.857703315
 20
447.4150575749
 10
633.7218404606
 20
447.1499496441
 10
633.6752959219
 20
446.8029942719
 10
633.7218404606
 20
446.4022997193
 10
633.857703315
 20
445.9803278758
 10
634.0718776846
 20
445.5712643906
 10
634.3470124357
 20
445.2082491545
 10
634.6608177871
 20
444.920691503
 10
634.9878710955
 20
444.7318876469
 10
635.301676447
 20
444.6571333516
 10
635.5768111981
 20
444.7024847657
 10
635.7909855677
 20
444.8642677873
 10
635.9268484221
 20
445.1293757181
 10
635.9733929608
 20
445.4763310902
  0
LWPOLYLINE
  5
EA
330
1F
100
AcDbEntity
  8
0
  6
Continuous
 62
     7
370
    25
100
AcDbPolyline
 90
       23
 70
   128
 43
0.0
 10
645.5193345068
 20
439.9655763354
 10
645.4727899681
 20
440.3662708881
 10
645.3369271137
 20
440.7882427316
 10
645.1227527441
 20
441.1973062168
 10
644.847617993
 20
441.5603214528
 10
644.5338126416
 20
441.8478791043
 10
644.2067593331
 20
442.0366829605
 10
643.8929539817
 20
442.1114372557
 10
643.6178192306
 20
442.0660858416
 10
643.403644861
 20
441.9043028201
 10
643.2677820066
 20
441.6391948893
 10
643.2212374679
 20
441.2922395171
 10
643.2677820066
 20
440.8915449645
 10
643.403644861
 20
440.469573121
 10
643.6178192306
 20
440.0605096358
 10
643.8929539817
 20
439.6974943997
 10
644.2067593331
 20
439.4099367482
 10
644.5338126416
 20
439.2211328921
 10
644.847617993
 20
439.1463785968
 10
645.1227527441
 20
439.1917300109
 10
645.3369271137
 20
439.3535130325
 10
645.4727899681
 20
439.6186209633
 10
645.5193345068
 20
439.9655763354
  0
LWPOLYLINE
  5
EB
330
1F
100
AcDbEntity
  8
0
  6
Continuous
 62
     7
370
    25
100
AcDbPolyline
 90
       23
 70
   128
 43
0.0
 10
667.7931981142
 20
427.1071485742
 10
667.7466535755
 20
427.5078431268
 10
667.6107907211
 20
427.9298149704
 10
667.3966163515
 20
428.3388784555
 10
667.1214816004
 20
428.7018936916
 10
666.8076762489
 20
428.9894513431
 10
666.4806229405
 20
429.1782551993
 10
666.1668175891
 20
429.2530094945
 10
665.891682838
 20
429.2076580804
 10
665.6775084684
 20
429.0458750589
 10
665.541645614
 20
428.7807671281
 10
665.4951010753
 20
428.4338117559
 10
665.541645614
 20
428.0331172033
 10
665.6775084684
 20
427.6111453598
 10
665.891682838
 20
427.2020818746
 10
666.1668175891
 20
426.8390666385
 10
666.4806229405
 20
426.551508987
 10
666.8076762489
 20
426.3627051309
 10
667.1214816004
 20
426.2879508356
 10
667.3966163515
 20
426.3333022497
 10
667.6107907211
 20
426.4950852713
 10
667.7466535755
 20
426.7601932021
 10
667.7931981142
 20
427.1071485742
  0
LWPOLYLINE
  5
EC
330
1F
100
AcDbEntity
  8
0
  6
Continuous
 62
     7
370
    25
100
AcDbPolyline
 90
       23
 70
   128
 43
0.0
 10
651.8832955375
 20
436.2917398322
 10
651.8367509988
 20
436.6924343849
 10
651.7008881444
 20
437.1144062284
 10
651.4867137748
 20
437.5234697136
 10
651.2115790237
 20
437.8864849496
 10
650.8977736722
 20
438.1740426011
 10
650.5707203638
 20
438.3628464573
 10
650.2569150124
 20
438.4376007525
 10
649.9817802613
 20
438.3922493384
 10
649.7676058917
 20
438.2304663169
 10
649.6317430373
 20
437.9653583861
 10
649.5851984986
 20
437.6184030139
 10
649.6317430373
 20
437.2177084613
 10
649.7676058917
 20
436.7957366178
 10
649.9817802613
 20
436.3866731326
 10
650.2569150124
 20
436.0236578965
 10
650.5707203638
 20
435.736100245
 10
650.8977736722
 20
435.5472963889
 10
651.2115790237
 20
435.4725420936
 10
651.4867137748
 20
435.5178935077
 10
651.7008881444
 20
435.6796765293
 10
651.8367509988
 20
435.9447844601
 10
651.8832955375
 20
436.2917398322
  0
LWPOLYLINE
  5
ED
330
1F
100
AcDbEntity
  8
0
  6
Continuous
 62
     7
370
    25
100
AcDbPolyline
 90
       23
 70
   128
 43
0.0
 10
648.7013150221
 20
438.1286580838
 10
648.6547704834
 20
438.5293526365
 10
648.5189076291
 20
438.95132448
 10
648.3047332595
 20
439.3603879652
 10
648.0295985083
 20
439.7234032012
 10
647.7157931569
 20
440.0109608527
 10
647.3887398485
 20
440.1997647089
 10
647.0749344971
 20
440.2745190041
 10
646.7997997459
 20
440.22916759
 10
646.5856253763
 20
440.0673845685
 10
646.449762522
 20
439.8022766377
 10
646.4032179833
 20
439.4553212655
 10
646.449762522
 20
439.0546267129
 10
646.5856253763
 20
438.6326548694
 10
646.7997997459
 20
438.2235913842
 10
647.0749344971
 20
437.8605761481
 10
647.3887398485
 20
437.5730184966
 10
647.7157931569
 20
437.3842146405
 10
648.0295985083
 20
437.3094603452
 10
648.3047332595
 20
437.3548117593
 10
648.5189076291
 20
437.5165947809
 10
648.6547704834
 20
437.7817027117
 10
648.7013150221
 20
438.1286580838
  0
LWPOLYLINE
  5
EE
330
1F
100
AcDbEntity
  8
0
  6
Continuous
 62
     7
370
    25
100
AcDbPolyline
 90
       23
 70
   128
 43
0.0
 10
658.2472565681
 20
432.617903329
 10
658.2007120294
 20
433.0185978817
 10
658.0648491751
 20
433.4405697252
 10
657.8506748055
 20
433.8496332103
 10
657.5755400544
 20
434.2126484464
 10
657.2617347029
 20
434.5002060979
 10
656.9346813945
 20
434.6890099541
 10
656.6208760431
 20
434.7637642493
 10
656.3457412919
 20
434.7184128352
 10
656.1315669224
 20
434.5566298137
 10
655.995704068
 20
434.2915218829
 10
655.9491595293
 20
433.9445665107
 10
655.995704068
 20
433.5438719581
 10
656.1315669224
 20
433.1219001146
 10
656.3457412919
 20
432.7128366294
 10
656.6208760431
 20
432.3498213933
 10
656.9346813945
 20
432.0622637418
 10
657.2617347029
 20
431.8734598857
 10
657.5755400544
 20
431.7987055904
 10
657.8506748055
 20
431.8440570045
 10
658.0648491751
 20
432.0058400261
 10
658.2007120294
 20
432.2709479569
 10
658.2472565681
 20
432.617903329
  0
LWPOLYLINE
  5
EF
330
1F
100
AcDbEntity
  8
0
  6
Continuous
 62
     7
370
    25
100
AcDbPolyline
 90
       23
 70
   128
 43
0.0
 10
677.3391396602
 20
417.9219601659
 10
677.2925951215
 20
418.3226547186
 10
677.1567322671
 20
418.7446265621
 10
676.9425578975
 20
419.1536900473
 10
676.6674231464
 20
419.5167052833
 10
676.353617795
 20
419.8042629348
 10
676.0265644865
 20
419.993066791
 10
675.7127591351
 20
420.0678210862
 10
675.437624384
 20
420.0224696721
 10
675.2234500144
 20
419.8606866506
 10
675.08758716
 20
419.5955787198
 10
675.0410426213
 20
419.2486233476
 10
675.08758716
 20
418.847928795
 10
675.2234500144
 20
418.4259569515
 10
675.437624384
 20
418.0168934663
 10
675.7127591351
 20
417.6538782302
 10
676.0265644865
 20
417.3663205787
 10
676.353617795
 20
417.1775167226
 10
676.6674231464
 20
417.1027624273
 10
676.9425578975
 20
417.1481138414
 10
677.1567322671
 20
417.309896863
 10
677.2925951215
 20
417.5750047938
 10
677.3391396602
 20
417.9219601659
  0
LWPOLYLINE
  5
F0
330
1F
100
AcDbEntity
  8
0
  6
Continuous
 62
     7
370
    25
100
AcDbPolyline
 90
       23
 70
   128
 43
0.0
 10
664.6112175988
 20
428.9440668258
 10
664.5646730601
 20
429.3447613784
 10
664.4288102058
 20
429.766733222
 10
664.2146358362
 20
430.1757967071
 10
663.939501085
 20
430.5388119432
 10
663.6256957336
 20
430.8263695947
 10
663.2986424252
 20
431.0151734509
 10
662.9848370738
 20
431.0899277461
 10
662.7097023226
 20
431.044576332
 10
662.495527953
 20
430.8827933105
 10
662.3596650987
 20
430.6176853797
 10
662.31312056
 20
430.2707300075
 10
662.3596650987
 20
429.8700354549
 10
662.495527953
 20
429.4480636114
 10
662.7097023226
 20
429.0390001262
 10
662.9848370738
 20
428.6759848901
 10
663.2986424252
 20
428.3884272386
 10
663.6256957336
 20
428.1996233825
 10
663.939501085
 20
428.1248690872
 10
664.2146358362
 20
428.1702205013
 10
664.4288102058
 20
428.3320035229
 10
664.5646730601
 20
428.5971114537
 10
664.6112175988
 20
428.9440668258
  0
LWPOLYLINE
  5
F1
330
1F
100
AcDbEntity
  8
0
  6
Continuous
 62
     7
370
    25
100
AcDbPolyline
 90
       23
 70
   128
 43
0.0
 10
661.4292370835
 20
430.7809850774
 10
661.3826925448
 20
431.18167963
 10
661.2468296904
 20
431.6036514736
 10
661.0326553208
 20
432.0127149587
 10
660.7575205697
 20
432.3757301948
 10
660.4437152183
 20
432.6632878463
 10
660.1166619098
 20
432.8520917025
 10
659.8028565584
 20
432.9268459977
 10
659.5277218073
 20
432.8814945836
 10
659.3135474377
 20
432.7197115621
 10
659.1776845833
 20
432.4546036313
 10
659.1311400446
 20
432.1076482591
 10
659.1776845833
 20
431.7069537065
 10
659.3135474377
 20
431.284981863
 10
659.5277218073
 20
430.8759183778
 10
659.8028565584
 20
430.5129031417
 10
660.1166619098
 20
430.2253454902
 10
660.4437152183
 20
430.0365416341
 10
660.7575205697
 20
429.9617873388
 10
661.0326553208
 20
430.0071387529
 10
661.2468296904
 20
430.1689217745
 10
661.3826925448
 20
430.4340297053
 10
661.4292370835
 20
430.7809850774
  0
LWPOLYLINE
  5
F2
330
1F
100
AcDbEntity
  8
0
  6
Continuous
 62
     7
370
    25
100
AcDbPolyline
 90
       23
 70
   128
 43
0.0
 10
670.9751786295
 20
425.2702303226
 10
670.9286340908
 20
425.6709248752
 10
670.7927712364
 20
426.0928967188
 10
670.5785968668
 20
426.5019602039
 10
670.3034621157
 20
426.86497544
 10
669.9896567643
 20
427.1525330915
 10
669.6626034559
 20
427.3413369477
 10
669.3487981044
 20
427.4160912429
 10
669.0736633533
 20
427.3707398288
 10
668.8594889837
 20
427.2089568072
 10
668.7236261293
 20
426.9438488765
 10
668.6770815906
 20
426.5968935043
 10
668.7236261293
 20
426.1961989517
 10
668.8594889837
 20
425.7742271082
 10
669.0736633533
 20
425.365163623
 10
669.3487981044
 20
425.0021483869
 10
669.6626034559
 20
424.7145907354
 10
669.9896567643
 20
424.5257868793
 10
670.3034621157
 20
424.451032584
 10
670.5785968668
 20
424.4963839981
 10
670.7927712364
 20
424.6581670197
 10
670.9286340908
 20
424.9232749505
 10
670.9751786295
 20
425.2702303226
  0
LWPOLYLINE
  5
F3
330
1F
100
AcDbEntity
  8
0
  6
Continuous
 62
     7
370
    25
100
AcDbPolyline
 90
       23
 70
   128
 43
0.0
 10
645.5193345068
 20
443.6400099889
 10
645.4727899681
 20
444.0407045415
 10
645.3369271137
 20
444.4626763851
 10
645.1227527441
 20
444.8717398702
 10
644.847617993
 20
445.2347551063
 10
644.5338126416
 20
445.5223127578
 10
644.2067593331
 20
445.711116614
 10
643.8929539817
 20
445.7858709092
 10
643.6178192306
 20
445.7405194951
 10
643.403644861
 20
445.5787364735
 10
643.2677820066
 20
445.3136285427
 10
643.2212374679
 20
444.9666731706
 10
643.2677820066
 20
444.565978618
 10
643.403644861
 20
444.1440067745
 10
643.6178192306
 20
443.7349432893
 10
643.8929539817
 20
443.3719280532
 10
644.2067593331
 20
443.0843704017
 10
644.5338126416
 20
442.8955665456
 10
644.847617993
 20
442.8208122503
 10
645.1227527441
 20
442.8661636644
 10
645.3369271137
 20
443.027946686
 10
645.4727899681
 20
443.2930546168
 10
645.5193345068
 20
443.6400099889
  0
LWPOLYLINE
  5
F4
330
1F
100
AcDbEntity
  8
0
  6
Continuous
 62
     7
370
    25
100
AcDbPolyline
 90
       23
 70
   128
 43
0.0
 10
677.3391396602
 20
421.5963938194
 10
677.2925951215
 20
421.997088372
 10
677.1567322671
 20
422.4190602156
 10
676.9425578975
 20
422.8281237007
 10
676.6674231464
 20
423.1911389368
 10
676.353617795
 20
423.4786965883
 10
676.0265644865
 20
423.6675004445
 10
675.7127591351
 20
423.7422547397
 10
675.437624384
 20
423.6969033256
 10
675.2234500144
 20
423.535120304
 10
675.08758716
 20
423.2700123732
 10
675.0410426213
 20
422.9230570011
 10
675.08758716
 20
422.5223624485
 10
675.2234500144
 20
422.100390605
 10
675.437624384
 20
421.6913271198
 10
675.7127591351
 20
421.3283118837
 10
676.0265644865
 20
421.0407542322
 10
676.353617795
 20
420.8519503761
 10
676.6674231464
 20
420.7771960808
 10
676.9425578975
 20
420.8225474949
 10
677.1567322671
 20
420.9843305165
 10
677.2925951215
 20
421.2494384473
 10
677.3391396602
 20
421.5963938194
  0
LWPOLYLINE
  5
F5
330
1F
100
AcDbEntity
  8
0
  6
Continuous
 62
     7
370
    25
100
AcDbPolyline
 90
       23
 70
   128
 43
0.0
 10
674.1571591448
 20
423.433312071
 10
674.1106146061
 20
423.8340066236
 10
673.9747517518
 20
424.2559784672
 10
673.7605773822
 20
424.6650419523
 10
673.485442631
 20
425.0280571884
 10
673.1716372796
 20
425.3156148399
 10
672.8445839712
 20
425.5044186961
 10
672.5307786198
 20
425.5791729913
 10
672.2556438686
 20
425.5338215772
 10
672.041469499
 20
425.3720385556
 10
671.9056066447
 20
425.1069306249
 10
671.859062106
 20
424.7599752527
 10
671.9056066447
 20
424.3592807001
 10
672.041469499
 20
423.9373088566
 10
672.2556438686
 20
423.5282453714
 10
672.5307786198
 20
423.1652301353
 10
672.8445839712
 20
422.8776724838
 10
673.1716372796
 20
422.6888686277
 10
673.485442631
 20
422.6141143324
 10
673.7605773822
 20
422.6594657465
 10
673.9747517518
 20
422.8212487681
 10
674.1106146061
 20
423.0863566989
 10
674.1571591448
 20
423.433312071
  0
LWPOLYLINE
  5
F6
330
1F
100
AcDbEntity
  8
0
  6
Continuous
 62
     7
370
    25
100
AcDbPolyline
 90
       23
 70
   128
 43
0.0
 10
635.9733929608
 20
449.1507647437
 10
635.9268484221
 20
449.5514592963
 10
635.7909855677
 20
449.9734311399
 10
635.5768111981
 20
450.382494625
 10
635.301676447
 20
450.7455098611
 10
634.9878710955
 20
451.0330675126
 10
634.6608177871
 20
451.2218713688
 10
634.3470124357
 20
451.296625664
 10
634.0718776846
 20
451.2512742499
 10
633.857703315
 20
451.0894912283
 10
633.7218404606
 20
450.8243832975
 10
633.6752959219
 20
450.4774279254
 10
633.7218404606
 20
450.0767333728
 10
633.857703315
 20
449.6547615293
 10
634.0718776846
 20
449.2456980441
 10
634.3470124357
 20
448.882682808
 10
634.6608177871
 20
448.5951251565
 10
634.9878710955
 20
448.4063213004
 10
635.301676447
 20
448.3315670051
 10
635.5768111981
 20
448.3769184192
 10
635.7909855677
 20
448.5387014408
 10
635.9268484221
 20
448.8038093716
 10
635.9733929608
 20
449.1507647437
  0
LWPOLYLINE
  5
F7
330
1F
100
AcDbEntity
  8
0
  6
Continuous
 62
     7
370
    25
100
AcDbPolyline
 90
       23
 70
   128
 43
0.0
 10
651.8832955375
 20
432.6173061787
 10
651.8367509988
 20
433.0180007314
 10
651.7008881444
 20
433.4399725749
 10
651.4867137748
 20
433.8490360601
 10
651.2115790237
 20
434.2120512962
 10
650.8977736722
 20
434.4996089476
 10
650.5707203638
 20
434.6884128038
 10
650.2569150124
 20
434.763167099
 10
649.9817802613
 20
434.7178156849
 10
649.7676058917
 20
434.5560326634
 10
649.6317430373
 20
434.2909247326
 10
649.5851984986
 20
433.9439693604
 10
649.6317430373
 20
433.5432748078
 10
649.7676058917
 20
433.1213029643
 10
649.9817802613
 20
432.7122394791
 10
650.2569150124
 20
432.349224243
 10
650.5707203638
 20
432.0616665915
 10
650.8977736722
 20
431.8728627354
 10
651.2115790237
 20
431.7981084401
 10
651.4867137748
 20
431.8434598542
 10
651.7008881444
 20
432.0052428758
 10
651.8367509988
 20
432.2703508066
 10
651.8832955375
 20
432.6173061787
  0
LWPOLYLINE
  5
F8
330
1F
100
AcDbEntity
  8
0
  6
Continuous
 62
     7
370
    25
100
AcDbPolyline
 90
       23
 70
   128
 43
0.0
 10
642.3373539914
 20
445.4769282405
 10
642.2908094528
 20
445.8776227931
 10
642.1549465984
 20
446.2995946367
 10
641.9407722288
 20
446.7086581218
 10
641.6656374777
 20
447.0716733579
 10
641.3518321262
 20
447.3592310094
 10
641.0247788178
 20
447.5480348656
 10
640.7109734664
 20
447.6227891608
 10
640.4358387152
 20
447.5774377467
 10
640.2216643457
 20
447.4156547251
 10
640.0858014913
 20
447.1505467943
 10
640.0392569526
 20
446.8035914222
 10
640.0858014913
 20
446.4028968696
 10
640.2216643457
 20
445.9809250261
 10
640.4358387152
 20
445.5718615409
 10
640.7109734664
 20
445.2088463048
 10
641.0247788178
 20
444.9212886533
 10
641.3518321262
 20
444.7324847972
 10
641.6656374777
 20
444.6577305019
 10
641.9407722288
 20
444.703081916
 10
642.1549465984
 20
444.8648649376
 10
642.2908094528
 20
445.1299728684
 10
642.3373539914
 20
445.4769282405
  0
LWPOLYLINE
  5
F9
330
1F
100
AcDbEntity
  8
0
  6
Continuous
 62
     7
370
    25
100
AcDbPolyline
 90
       23
 70
   128
 43
0.0
 10
639.1553734761
 20
447.3138464921
 10
639.1088289374
 20
447.7145410447
 10
638.972966083
 20
448.1365128883
 10
638.7587917134
 20
448.5455763734
 10
638.4836569623
 20
448.9085916095
 10
638.1698516109
 20
449.196149261
 10
637.8427983025
 20
449.3849531172
 10
637.528992951
 20
449.4597074124
 10
637.2538581999
 20
449.4143559983
 10
637.0396838303
 20
449.2525729767
 10
636.9038209759
 20
448.9874650459
 10
636.8572764372
 20
448.6405096738
 10
636.9038209759
 20
448.2398151212
 10
637.0396838303
 20
447.8178432777
 10
637.2538581999
 20
447.4087797925
 10
637.528992951
 20
447.0457645564
 10
637.8427983025
 20
446.7582069049
 10
638.1698516109
 20
446.5694030488
 10
638.4836569623
 20
446.4946487535
 10
638.7587917134
 20
446.5400001676
 10
638.972966083
 20
446.7017831892
 10
639.1088289374
 20
446.96689112
 10
639.1553734761
 20
447.3138464921
  0
LWPOLYLINE
  5
FA
330
1F
100
AcDbEntity
  8
0
  6
Continuous
 62
     7
370
    25
100
AcDbPolyline
 90
       23
 70
   128
 43
0.0
 10
648.7013150221
 20
441.8030917373
 10
648.6547704834
 20
442.2037862899
 10
648.5189076291
 20
442.6257581335
 10
648.3047332595
 20
443.0348216186
 10
648.0295985083
 20
443.3978368547
 10
647.7157931569
 20
443.6853945062
 10
647.3887398485
 20
443.8741983624
 10
647.0749344971
 20
443.9489526576
 10
646.7997997459
 20
443.9036012435
 10
646.5856253763
 20
443.7418182219
 10
646.449762522
 20
443.4767102911
 10
646.4032179833
 20
443.129754919
 10
646.449762522
 20
442.7290603664
 10
646.5856253763
 20
442.3070885229
 10
646.7997997459
 20
441.8980250377
 10
647.0749344971
 20
441.5350098016
 10
647.3887398485
 20
441.2474521501
 10
647.7157931569
 20
441.0586482939
 10
648.0295985083
 20
440.9838939987
 10
648.3047332595
 20
441.0292454128
 10
648.5189076291
 20
441.1910284344
 10
648.6547704834
 20
441.4561363652
 10
648.7013150221
 20
441.8030917373
  0
LWPOLYLINE
  5
FB
330
1F
100
AcDbEntity
  8
0
  6
Continuous
 62
     7
370
    25
100
AcDbPolyline
 90
       23
 70
   128
 43
0.0
 10
670.9751786295
 20
428.9446639761
 10
670.9286340908
 20
429.3453585287
 10
670.7927712364
 20
429.7673303722
 10
670.5785968668
 20
430.1763938574
 10
670.3034621157
 20
430.5394090935
 10
669.9896567643
 20
430.826966745
 10
669.6626034559
 20
431.0157706012
 10
669.3487981044
 20
431.0905248964
 10
669.0736633533
 20
431.0451734823
 10
668.8594889837
 20
430.8833904607
 10
668.7236261293
 20
430.6182825299
 10
668.6770815906
 20
430.2713271578
 10
668.7236261293
 20
429.8706326052
 10
668.8594889837
 20
429.4486607617
 10
669.0736633533
 20
429.0395972765
 10
669.3487981044
 20
428.6765820404
 10
669.6626034559
 20
428.3890243889
 10
669.9896567643
 20
428.2002205327
 10
670.3034621157
 20
428.1254662375
 10
670.5785968668
 20
428.1708176516
 10
670.7927712364
 20
428.3326006732
 10
670.9286340908
 20
428.597708604
 10
670.9751786295
 20
428.9446639761
  0
LWPOLYLINE
  5
FC
330
1F
100
AcDbEntity
  8
0
  6
Continuous
 62
     7
370
    25
100
AcDbPolyline
 90
       23
 70
   128
 43
0.0
 10
655.0652760528
 20
438.1292552341
 10
655.0187315141
 20
438.5299497867
 10
654.8828686597
 20
438.9519216302
 10
654.6686942901
 20
439.3609851154
 10
654.393559539
 20
439.7240003515
 10
654.0797541876
 20
440.011558003
 10
653.7527008792
 20
440.2003618592
 10
653.4388955277
 20
440.2751161544
 10
653.1637607766
 20
440.2297647403
 10
652.949586407
 20
440.0679817187
 10
652.8137235526
 20
439.8028737879
 10
652.7671790139
 20
439.4559184158
 10
652.8137235526
 20
439.0552238632
 10
652.949586407
 20
438.6332520197
 10
653.1637607766
 20
438.2241885345
 10
653.4388955277
 20
437.8611732984
 10
653.7527008792
 20
437.5736156469
 10
654.0797541876
 20
437.3848117907
 10
654.393559539
 20
437.3100574955
 10
654.6686942901
 20
437.3554089096
 10
654.8828686597
 20
437.5171919312
 10
655.0187315141
 20
437.782299862
 10
655.0652760528
 20
438.1292552341
  0
LWPOLYLINE
  5
FD
330
1F
100
AcDbEntity
  8
0
  6
Continuous
 62
     7
370
    25
100
AcDbPolyline
 90
       23
 70
   128
 43
0.0
 10
651.8832955375
 20
439.9661734857
 10
651.8367509988
 20
440.3668680383
 10
651.7008881444
 20
440.7888398818
 10
651.4867137748
 20
441.197903367
 10
651.2115790237
 20
441.5609186031
 10
650.8977736722
 20
441.8484762546
 10
650.5707203638
 20
442.0372801108
 10
650.2569150124
 20
442.112034406
 10
649.9817802613
 20
442.0666829919
 10
649.7676058917
 20
441.9048999703
 10
649.6317430373
 20
441.6397920395
 10
649.5851984986
 20
441.2928366674
 10
649.6317430373
 20
440.8921421148
 10
649.7676058917
 20
440.4701702713
 10
649.9817802613
 20
440.0611067861
 10
650.2569150124
 20
439.69809155
 10
650.5707203638
 20
439.4105338985
 10
650.8977736722
 20
439.2217300423
 10
651.2115790237
 20
439.1469757471
 10
651.4867137748
 20
439.1923271612
 10
651.7008881444
 20
439.3541101828
 10
651.8367509988
 20
439.6192181136
 10
651.8832955375
 20
439.9661734857
  0
LWPOLYLINE
  5
FE
330
1F
100
AcDbEntity
  8
0
  6
Continuous
 62
     7
370
    25
100
AcDbPolyline
 90
       23
 70
   128
 43
0.0
 10
661.4292370835
 20
434.4554187309
 10
661.3826925448
 20
434.8561132835
 10
661.2468296904
 20
435.278085127
 10
661.0326553208
 20
435.6871486122
 10
660.7575205697
 20
436.0501638483
 10
660.4437152183
 20
436.3377214998
 10
660.1166619098
 20
436.526525356
 10
659.8028565584
 20
436.6012796512
 10
659.5277218073
 20
436.5559282371
 10
659.3135474377
 20
436.3941452155
 10
659.1776845833
 20
436.1290372847
 10
659.1311400446
 20
435.7820819126
 10
659.1776845833
 20
435.38138736
 10
659.3135474377
 20
434.9594155165
 10
659.5277218073
 20
434.5503520313
 10
659.8028565584
 20
434.1873367952
 10
660.1166619098
 20
433.8997791437
 10
660.4437152183
 20
433.7109752875
 10
660.7575205697
 20
433.6362209923
 10
661.0326553208
 20
433.6815724064
 10
661.2468296904
 20
433.843355428
 10
661.3826925448
 20
434.1084633588
 10
661.4292370835
 20
434.4554187309
  0
LWPOLYLINE
  5
FF
330
1F
100
AcDbEntity
  8
0
  6
Continuous
 62
     7
370
    25
100
AcDbPolyline
 90
       23
 70
   128
 43
0.0
 10
680.5211201755
 20
419.7594755678
 10
680.4745756368
 20
420.1601701204
 10
680.3387127825
 20
420.582141964
 10
680.1245384129
 20
420.9912054491
 10
679.8494036617
 20
421.3542206852
 10
679.5355983103
 20
421.6417783367
 10
679.2085450019
 20
421.8305821929
 10
678.8947396505
 20
421.9053364881
 10
678.6196048993
 20
421.859985074
 10
678.4054305297
 20
421.6982020524
 10
678.2695676754
 20
421.4330941216
 10
678.2230231367
 20
421.0861387495
 10
678.2695676754
 20
420.6854441969
 10
678.4054305297
 20
420.2634723534
 10
678.6196048993
 20
419.8544088682
 10
678.8947396505
 20
419.4913936321
 10
679.2085450019
 20
419.2038359806
 10
679.5355983103
 20
419.0150321245
 10
679.8494036617
 20
418.9402778292
 10
680.1245384129
 20
418.9856292433
 10
680.3387127825
 20
419.1474122649
 10
680.4745756368
 20
419.4125201957
 10
680.5211201755
 20
419.7594755678
  0
LWPOLYLINE
  5
100
330
1F
100
AcDbEntity
  8
0
  6
Continuous
 62
     7
370
    25
100
AcDbPolyline
 90
       23
 70
   128
 43
0.0
 10
667.7931981142
 20
430.7815822277
 10
667.7466535755
 20
431.1822767803
 10
667.6107907211
 20
431.6042486238
 10
667.3966163515
 20
432.013312109
 10
667.1214816004
 20
432.3763273451
 10
666.8076762489
 20
432.6638849966
 10
666.4806229405
 20
432.8526888528
 10
666.1668175891
 20
432.927443148
 10
665.891682838
 20
432.8820917339
 10
665.6775084684
 20
432.7203087123
 10
665.541645614
 20
432.4552007815
 10
665.4951010753
 20
432.1082454094
 10
665.541645614
 20
431.7075508568
 10
665.6775084684
 20
431.2855790133
 10
665.891682838
 20
430.8765155281
 10
666.1668175891
 20
430.513500292
 10
666.4806229405
 20
430.2259426405
 10
666.8076762489
 20
430.0371387843
 10
667.1214816004
 20
429.9623844891
 10
667.3966163515
 20
430.0077359032
 10
667.6107907211
 20
430.1695189248
 10
667.7466535755
 20
430.4346268556
 10
667.7931981142
 20
430.7815822277
  0
LWPOLYLINE
  5
101
330
1F
100
AcDbEntity
  8
0
  6
Continuous
 62
     7
370
    25
100
AcDbPolyline
 90
       23
 70
   128
 43
0.0
 10
664.6112175988
 20
432.6185004793
 10
664.5646730601
 20
433.0191950319
 10
664.4288102058
 20
433.4411668754
 10
664.2146358362
 20
433.8502303606
 10
663.939501085
 20
434.2132455967
 10
663.6256957336
 20
434.5008032482
 10
663.2986424252
 20
434.6896071044
 10
662.9848370738
 20
434.7643613996
 10
662.7097023226
 20
434.7190099855
 10
662.495527953
 20
434.5572269639
 10
662.3596650987
 20
434.2921190331
 10
662.31312056
 20
433.945163661
 10
662.3596650987
 20
433.5444691084
 10
662.495527953
 20
433.1224972649
 10
662.7097023226
 20
432.7134337797
 10
662.9848370738
 20
432.3504185436
 10
663.2986424252
 20
432.0628608921
 10
663.6256957336
 20
431.8740570359
 10
663.939501085
 20
431.7993027407
 10
664.2146358362
 20
431.8446541548
 10
664.4288102058
 20
432.0064371764
 10
664.5646730601
 20
432.2715451072
 10
664.6112175988
 20
432.6185004793
  0
LWPOLYLINE
  5
102
330
1F
100
AcDbEntity
  8
0
  6
Continuous
 62
     7
370
    25
100
AcDbPolyline
 90
       23
 70
   128
 43
0.0
 10
674.1571591448
 20
427.1077457245
 10
674.1106146061
 20
427.5084402771
 10
673.9747517518
 20
427.9304121206
 10
673.7605773822
 20
428.3394756058
 10
673.485442631
 20
428.7024908419
 10
673.1716372796
 20
428.9900484934
 10
672.8445839712
 20
429.1788523496
 10
672.5307786198
 20
429.2536066448
 10
672.2556438686
 20
429.2082552307
 10
672.041469499
 20
429.0464722091
 10
671.9056066447
 20
428.7813642783
 10
671.859062106
 20
428.4344089062
 10
671.9056066447
 20
428.0337143536
 10
672.041469499
 20
427.6117425101
 10
672.2556438686
 20
427.2026790249
 10
672.5307786198
 20
426.8396637888
 10
672.8445839712
 20
426.5521061373
 10
673.1716372796
 20
426.3633022811
 10
673.485442631
 20
426.2885479859
 10
673.7605773822
 20
426.3338994
 10
673.9747517518
 20
426.4956824216
 10
674.1106146061
 20
426.7607903524
 10
674.1571591448
 20
427.1077457245
  0
ARC
  5
103
330
1F
100
AcDbEntity
  8
0
  6
Continuous
 62
     7
370
    25
100
AcDbCircle
 10
632.4474540187
 20
468.0131827137
 30
0.0
 40
1.884532532526265
100
AcDbArc
 50
51.325426758
 51
188.6853249967
  0
LINE
  5
104
330
1F
100
AcDbEntity
  8
0
  6
Continuous
 62
     7
370
    25
100
AcDbLine
 10
630.5845321813
 20
458.8348413895
 30
0.0
 11
630.5845321813
 21
467.7286039125
 31
0.0
  0
ARC
  5
105
330
1F
100
AcDbEntity
  8
0
  6
Continuous
 62
     7
370
    25
100
AcDbCircle
 10
637.1580612909
 20
459.1191349087
 30
0.0
 40
6.579673833797298
100
AcDbArc
 50
182.4763980378
 51
237.5236021078
  0
LINE
  5
106
330
1F
100
AcDbEntity
  8
0
  6
Continuous
 62
     7
370
    25
100
AcDbLine
 10
696.4812273337
 20
417.2823635199
 30
0.0
 11
633.6250913404
 21
453.568438458
 31
0.0
  0
ARC
  5
107
330
1F
100
AcDbEntity
  8
0
  6
Continuous
 62
     7
370
    25
100
AcDbCircle
 10
697.6588646554
 20
418.7536327694
 30
0.0
 40
1.884532532526238
100
AcDbArc
 50
231.3254267581
 51
8.6853249967
  0
LINE
  5
108
330
1F
100
AcDbEntity
  8
0
  6
Continuous
 62
     7
370
    25
100
AcDbLine
 10
699.5217864928
 20
427.9319740936
 30
0.0
 11
699.5217864928
 21
419.0382115706
 31
0.0
  0
ARC
  5
109
330
1F
100
AcDbEntity
  8
0
  6
Continuous
 62
     7
370
    25
100
AcDbCircle
 10
692.9482573832
 20
427.6476805744
 30
0.0
 40
6.579673833796607
100
AcDbArc
 50
2.4763980378
 51
57.5236021078
  0
LINE
  5
10A
330
1F
100
AcDbEntity
  8
0
  6
Continuous
 62
     7
370
    25
100
AcDbLine
 10
633.6250913404
 20
469.4844519632
 30
0.0
 11
696.4812273337
 21
433.1983770252
 31
0.0
  0
LINE
  5
10B
330
1F
100
AcDbEntity
  8
0
  6
Continuous
 62
     7
370
    25
100
AcDbLine
 10
703.5904789117
 20
398.6846805308
 30
0.0
 11
802.5854282778
 21
455.8332483584
 31
0.0
  0
LINE
  5
10C
330
1F
100
AcDbEntity
  8
0
  6
Continuous
 62
     7
370
    25
100
AcDbLine
 10
703.5904789117
 20
433.3060109547
 30
0.0
 11
802.5854282778
 21
490.4545787823
 31
0.0
  0
LINE
  5
10D
330
1F
100
AcDbEntity
  8
0
  6
Continuous
 62
     7
370
    25
100
AcDbLine
 10
802.5854282778
 20
455.8332483584
 30
0.0
 11
802.5854282778
 21
490.4545787823
 31
0.0
  0
LWPOLYLINE
  5
10E
330
1F
100
AcDbEntity
  8
0
  6
Continuous
 62
     7
370
    25
100
AcDbPolyline
 90
       26
 70
   128
 43
0.0
 10
797.7063914877
 20
482.3304555193
 10
797.661961368
 20
482.7109374419
 10
797.531462717
 20
483.0162143619
 10
797.3230952447
 20
483.2271046075
 10
797.0499514458
 20
483.330357169
 10
796.7291939497
 20
483.3194843083
 10
796.3809771296
 20
483.1951692072
 10
796.0271807289
 20
482.9652230407
 10
795.6900350766
 20
482.6440941721
 10
795.390724274
 20
482.2519603092
 10
795.1480551197
 20
481.8134606649
 10
794.977275409
 20
481.3561477844
 10
794.8891158593
 20
480.908756318
 10
794.8891158593
 20
480.4993975169
 10
794.977275409
 20
480.1537929
 10
795.1480551197
 20
479.8936580764
 10
795.390724274
 20
479.7353382739
 10
795.6900350766
 20
479.6887813079
 10
796.0271807289
 20
479.7569125238
 10
796.3809771296
 20
479.9354509867
 10
796.7291939497
 20
480.2131784684
 10
797.0499514458
 20
480.5726443298
 10
797.3230952447
 20
480.9912620089
 10
797.531462717
 20
481.4427282171
 10
797.661961368
 20
481.8986756724
 10
797.7063914877
 20
482.3304555193
  0
LWPOLYLINE
  5
10F
330
1F
100
AcDbEntity
  8
0
  6
Continuous
 62
     7
370
    25
100
AcDbPolyline
 90
       26
 70
   128
 43
0.0
 10
797.7063914877
 20
474.1650474004
 10
797.661961368
 20
474.5455293231
 10
797.531462717
 20
474.850806243
 10
797.3230952447
 20
475.0616964886
 10
797.0499514458
 20
475.1649490501
 10
796.7291939497
 20
475.1540761894
 10
796.3809771296
 20
475.0297610883
 10
796.0271807289
 20
474.7998149218
 10
795.6900350766
 20
474.4786860532
 10
795.390724274
 20
474.0865521904
 10
795.1480551197
 20
473.648052546
 10
794.977275409
 20
473.1907396656
 10
794.8891158593
 20
472.7433481992
 10
794.8891158593
 20
472.333989398
 10
794.977275409
 20
471.9883847811
 10
795.1480551197
 20
471.7282499576
 10
795.390724274
 20
471.5699301551
 10
795.6900350766
 20
471.5233731891
 10
796.0271807289
 20
471.5915044049
 10
796.3809771296
 20
471.7700428679
 10
796.7291939497
 20
472.0477703496
 10
797.0499514458
 20
472.407236211
 10
797.3230952447
 20
472.82585389
 10
797.531462717
 20
473.2773200983
 10
797.661961368
 20
473.7332675536
 10
797.7063914877
 20
474.1650474004
  0
LWPOLYLINE
  5
110
330
1F
100
AcDbEntity
  8
0
  6
Continuous
 62
     7
370
    25
100
AcDbPolyline
 90
       26
 70
   128
 43
0.0
 10
765.8865863343
 20
463.9612730033
 10
765.8421562146
 20
464.3417549259
 10
765.7116575636
 20
464.6470318458
 10
765.5032900913
 20
464.8579220914
 10
765.2301462924
 20
464.961174653
 10
764.9093887963
 20
464.9503017923
 10
764.5611719762
 20
464.8259866912
 10
764.2073755755
 20
464.5960405246
 10
763.8702299232
 20
464.274911656
 10
763.5709191206
 20
463.8827777932
 10
763.3282499663
 20
463.4442781489
 10
763.1574702556
 20
462.9869652684
 10
763.0693107059
 20
462.539573802
 10
763.0693107059
 20
462.1302150009
 10
763.1574702556
 20
461.7846103839
 10
763.3282499663
 20
461.5244755604
 10
763.5709191206
 20
461.3661557579
 10
763.8702299232
 20
461.3195987919
 10
764.2073755755
 20
461.3877300078
 10
764.5611719762
 20
461.5662684707
 10
764.9093887963
 20
461.8439959524
 10
765.2301462924
 20
462.2034618138
 10
765.5032900913
 20
462.6220794928
 10
765.7116575636
 20
463.0735457011
 10
765.8421562146
 20
463.5294931564
 10
765.8865863343
 20
463.9612730033
  0
LWPOLYLINE
  5
111
330
1F
100
AcDbEntity
  8
0
  6
Continuous
 62
     7
370
    25
100
AcDbPolyline
 90
       26
 70
   128
 43
0.0
 10
772.9576541461
 20
459.8779054435
 10
772.9132240265
 20
460.2583873662
 10
772.7827253755
 20
460.5636642861
 10
772.5743579032
 20
460.7745545317
 10
772.3012141043
 20
460.8778070932
 10
771.9804566082
 20
460.8669342325
 10
771.6322397881
 20
460.7426191314
 10
771.2784433873
 20
460.5126729649
 10
770.941297735
 20
460.1915440963
 10
770.6419869325
 20
459.7994102335
 10
770.3993177781
 20
459.3609105891
 10
770.2285380674
 20
458.9035977087
 10
770.1403785177
 20
458.4562062423
 10
770.1403785177
 20
458.0468474411
 10
770.2285380674
 20
457.7012428242
 10
770.3993177781
 20
457.4411080007
 10
770.6419869325
 20
457.2827881982
 10
770.941297735
 20
457.2362312322
 10
771.2784433873
 20
457.304362448
 10
771.6322397881
 20
457.482900911
 10
771.9804566082
 20
457.7606283927
 10
772.3012141043
 20
458.1200942541
 10
772.5743579032
 20
458.5387119331
 10
772.7827253755
 20
458.9901781414
 10
772.9132240265
 20
459.4461255967
 10
772.9576541461
 20
459.8779054435
  0
LWPOLYLINE
  5
112
330
1F
100
AcDbEntity
  8
0
  6
Continuous
 62
     7
370
    25
100
AcDbPolyline
 90
       26
 70
   128
 43
0.0
 10
772.9576541461
 20
463.960609503
 10
772.9132240265
 20
464.3410914256
 10
772.7827253755
 20
464.6463683455
 10
772.5743579032
 20
464.8572585911
 10
772.3012141043
 20
464.9605111527
 10
771.9804566082
 20
464.949638292
 10
771.6322397881
 20
464.8253231909
 10
771.2784433873
 20
464.5953770243
 10
770.941297735
 20
464.2742481557
 10
770.6419869325
 20
463.8821142929
 10
770.3993177781
 20
463.4436146486
 10
770.2285380674
 20
462.9863017681
 10
770.1403785177
 20
462.5389103017
 10
770.1403785177
 20
462.1295515005
 10
770.2285380674
 20
461.7839468836
 10
770.3993177781
 20
461.5238120601
 10
770.6419869325
 20
461.3654922576
 10
770.941297735
 20
461.3189352916
 10
771.2784433873
 20
461.3870665075
 10
771.6322397881
 20
461.5656049704
 10
771.9804566082
 20
461.8433324521
 10
772.3012141043
 20
462.2027983135
 10
772.5743579032
 20
462.6214159925
 10
772.7827253755
 20
463.0728822008
 10
772.9132240265
 20
463.5288296561
 10
772.9576541461
 20
463.960609503
  0
LWPOLYLINE
  5
113
330
1F
100
AcDbEntity
  8
0
  6
Continuous
 62
     7
370
    25
100
AcDbPolyline
 90
       26
 70
   128
 43
0.0
 10
797.7063914877
 20
478.2477514599
 10
797.661961368
 20
478.6282333825
 10
797.531462717
 20
478.9335103024
 10
797.3230952447
 20
479.144400548
 10
797.0499514458
 20
479.2476531096
 10
796.7291939497
 20
479.2367802489
 10
796.3809771296
 20
479.1124651478
 10
796.0271807289
 20
478.8825189812
 10
795.6900350766
 20
478.5613901126
 10
795.390724274
 20
478.1692562498
 10
795.1480551197
 20
477.7307566055
 10
794.977275409
 20
477.273443725
 10
794.8891158593
 20
476.8260522586
 10
794.8891158593
 20
476.4166934574
 10
794.977275409
 20
476.0710888405
 10
795.1480551197
 20
475.810954017
 10
795.390724274
 20
475.6526342145
 10
795.6900350766
 20
475.6060772485
 10
796.0271807289
 20
475.6742084644
 10
796.3809771296
 20
475.8527469273
 10
796.7291939497
 20
476.130474409
 10
797.0499514458
 20
476.4899402704
 10
797.3230952447
 20
476.9085579494
 10
797.531462717
 20
477.3600241577
 10
797.661961368
 20
477.815971613
 10
797.7063914877
 20
478.2477514599
  0
LWPOLYLINE
  5
114
330
1F
100
AcDbEntity
  8
0
  6
Continuous
 62
     7
370
    25
100
AcDbPolyline
 90
       26
 70
   128
 43
0.0
 10
769.4221202402
 20
466.0022932828
 10
769.3776901206
 20
466.3827752055
 10
769.2471914695
 20
466.6880521254
 10
769.0388239973
 20
466.898942371
 10
768.7656801984
 20
467.0021949325
 10
768.4449227023
 20
466.9913220718
 10
768.0967058821
 20
466.8670069707
 10
767.7429094814
 20
466.6370608042
 10
767.4057638291
 20
466.3159319356
 10
767.1064530265
 20
465.9237980728
 10
766.8637838722
 20
465.4852984284
 10
766.6930041615
 20
465.027985548
 10
766.6048446118
 20
464.5805940816
 10
766.6048446118
 20
464.1712352804
 10
766.6930041615
 20
463.8256306635
 10
766.8637838722
 20
463.56549584
 10
767.1064530265
 20
463.4071760375
 10
767.4057638291
 20
463.3606190715
 10
767.7429094814
 20
463.4287502873
 10
768.0967058821
 20
463.6072887503
 10
768.4449227023
 20
463.885016232
 10
768.7656801984
 20
464.2444820934
 10
769.0388239973
 20
464.6630997724
 10
769.2471914695
 20
465.1145659807
 10
769.3776901206
 20
465.570513436
 10
769.4221202402
 20
466.0022932828
  0
LWPOLYLINE
  5
115
330
1F
100
AcDbEntity
  8
0
  6
Continuous
 62
     7
370
    25
100
AcDbPolyline
 90
       26
 70
   128
 43
0.0
 10
780.028721958
 20
463.9599460026
 10
779.9842918384
 20
464.3404279253
 10
779.8537931873
 20
464.6457048452
 10
779.6454257151
 20
464.8565950908
 10
779.3722819162
 20
464.9598476523
 10
779.0515244201
 20
464.9489747916
 10
778.7033075999
 20
464.8246596905
 10
778.3495111992
 20
464.594713524
 10
778.0123655469
 20
464.2735846554
 10
777.7130547443
 20
463.8814507926
 10
777.47038559
 20
463.4429511483
 10
777.2996058793
 20
462.9856382678
 10
777.2114463296
 20
462.5382468014
 10
777.2114463296
 20
462.1288880002
 10
777.2996058793
 20
461.7832833833
 10
777.47038559
 20
461.5231485598
 10
777.7130547443
 20
461.3648287573
 10
778.0123655469
 20
461.3182717913
 10
778.3495111992
 20
461.3864030072
 10
778.7033075999
 20
461.5649414701
 10
779.0515244201
 20
461.8426689518
 10
779.3722819162
 20
462.2021348132
 10
779.6454257151
 20
462.6207524922
 10
779.8537931873
 20
463.0722187005
 10
779.9842918384
 20
463.5281661558
 10
780.028721958
 20
463.9599460026
  0
LWPOLYLINE
  5
116
330
1F
100
AcDbEntity
  8
0
  6
Continuous
 62
     7
370
    25
100
AcDbPolyline
 90
       26
 70
   128
 43
0.0
 10
783.5642558639
 20
466.0009662822
 10
783.5198257443
 20
466.3814482048
 10
783.3893270933
 20
466.6867251248
 10
783.180959621
 20
466.8976153704
 10
782.9078158221
 20
467.0008679319
 10
782.587058326
 20
466.9899950712
 10
782.2388415059
 20
466.8656799701
 10
781.8850451051
 20
466.6357338036
 10
781.5478994528
 20
466.314604935
 10
781.2485886503
 20
465.9224710721
 10
781.0059194959
 20
465.4839714278
 10
780.8351397852
 20
465.0266585474
 10
780.7469802355
 20
464.5792670809
 10
780.7469802355
 20
464.1699082798
 10
780.8351397852
 20
463.8243036629
 10
781.0059194959
 20
463.5641688393
 10
781.2485886503
 20
463.4058490368
 10
781.5478994528
 20
463.3592920708
 10
781.8850451051
 20
463.4274232867
 10
782.2388415059
 20
463.6059617496
 10
782.587058326
 20
463.8836892313
 10
782.9078158221
 20
464.2431550928
 10
783.180959621
 20
464.6617727718
 10
783.3893270933
 20
465.11323898
 10
783.5198257443
 20
465.5691864354
 10
783.5642558639
 20
466.0009662822
  0
LWPOLYLINE
  5
117
330
1F
100
AcDbEntity
  8
0
  6
Continuous
 62
     7
370
    25
100
AcDbPolyline
 90
       26
 70
   128
 43
0.0
 10
776.4931880521
 20
461.9189257231
 10
776.4487579324
 20
462.2994076457
 10
776.3182592814
 20
462.6046845657
 10
776.1098918091
 20
462.8155748113
 10
775.8367480102
 20
462.9188273728
 10
775.5159905141
 20
462.9079545121
 10
775.167773694
 20
462.783639411
 10
774.8139772933
 20
462.5536932445
 10
774.476831641
 20
462.2325643759
 10
774.1775208384
 20
461.840430513
 10
773.9348516841
 20
461.4019308687
 10
773.7640719734
 20
460.9446179883
 10
773.6759124237
 20
460.4972265218
 10
773.6759124237
 20
460.0878677207
 10
773.7640719734
 20
459.7422631038
 10
773.9348516841
 20
459.4821282802
 10
774.1775208384
 20
459.3238084777
 10
774.476831641
 20
459.2772515117
 10
774.8139772933
 20
459.3453827276
 10
775.167773694
 20
459.5239211905
 10
775.5159905141
 20
459.8016486722
 10
775.8367480102
 20
460.1611145336
 10
776.1098918091
 20
460.5797322127
 10
776.3182592814
 20
461.0311984209
 10
776.4487579324
 20
461.4871458762
 10
776.4931880521
 20
461.9189257231
  0
LWPOLYLINE
  5
118
330
1F
100
AcDbEntity
  8
0
  6
Continuous
 62
     7
370
    25
100
AcDbPolyline
 90
       26
 70
   128
 43
0.0
 10
769.4221202402
 20
461.9195892234
 10
769.3776901206
 20
462.300071146
 10
769.2471914695
 20
462.605348066
 10
769.0388239973
 20
462.8162383116
 10
768.7656801984
 20
462.9194908731
 10
768.4449227023
 20
462.9086180124
 10
768.0967058821
 20
462.7843029113
 10
767.7429094814
 20
462.5543567448
 10
767.4057638291
 20
462.2332278762
 10
767.1064530265
 20
461.8410940133
 10
766.8637838722
 20
461.402594369
 10
766.6930041615
 20
460.9452814886
 10
766.6048446118
 20
460.4978900221
 10
766.6048446118
 20
460.088531221
 10
766.6930041615
 20
459.7429266041
 10
766.8637838722
 20
459.4827917805
 10
767.1064530265
 20
459.324471978
 10
767.4057638291
 20
459.277915012
 10
767.7429094814
 20
459.3460462279
 10
768.0967058821
 20
459.5245846908
 10
768.4449227023
 20
459.8023121725
 10
768.7656801984
 20
460.161778034
 10
769.0388239973
 20
460.580395713
 10
769.2471914695
 20
461.0318619213
 10
769.3776901206
 20
461.4878093766
 10
769.4221202402
 20
461.9195892234
  0
LWPOLYLINE
  5
119
330
1F
100
AcDbEntity
  8
0
  6
Continuous
 62
     7
370
    25
100
AcDbPolyline
 90
       26
 70
   128
 43
0.0
 10
780.028721958
 20
472.1253541215
 10
779.9842918384
 20
472.5058360441
 10
779.8537931873
 20
472.8111129641
 10
779.6454257151
 20
473.0220032097
 10
779.3722819162
 20
473.1252557712
 10
779.0515244201
 20
473.1143829105
 10
778.7033075999
 20
472.9900678094
 10
778.3495111992
 20
472.7601216429
 10
778.0123655469
 20
472.4389927743
 10
777.7130547443
 20
472.0468589114
 10
777.47038559
 20
471.6083592671
 10
777.2996058793
 20
471.1510463867
 10
777.2114463296
 20
470.7036549202
 10
777.2114463296
 20
470.2942961191
 10
777.2996058793
 20
469.9486915022
 10
777.47038559
 20
469.6885566786
 10
777.7130547443
 20
469.5302368761
 10
778.0123655469
 20
469.4836799101
 10
778.3495111992
 20
469.551811126
 10
778.7033075999
 20
469.7303495889
 10
779.0515244201
 20
470.0080770706
 10
779.3722819162
 20
470.3675429321
 10
779.6454257151
 20
470.7861606111
 10
779.8537931873
 20
471.2376268193
 10
779.9842918384
 20
471.6935742747
 10
780.028721958
 20
472.1253541215
  0
LWPOLYLINE
  5
11A
330
1F
100
AcDbEntity
  8
0
  6
Continuous
 62
     7
370
    25
100
AcDbPolyline
 90
       26
 70
   128
 43
0.0
 10
776.4931880521
 20
470.0843338419
 10
776.4487579324
 20
470.4648157646
 10
776.3182592814
 20
470.7700926845
 10
776.1098918091
 20
470.9809829301
 10
775.8367480102
 20
471.0842354916
 10
775.5159905141
 20
471.0733626309
 10
775.167773694
 20
470.9490475298
 10
774.8139772933
 20
470.7191013633
 10
774.476831641
 20
470.3979724947
 10
774.1775208384
 20
470.0058386319
 10
773.9348516841
 20
469.5673389876
 10
773.7640719734
 20
469.1100261071
 10
773.6759124237
 20
468.6626346407
 10
773.6759124237
 20
468.2532758395
 10
773.7640719734
 20
467.9076712226
 10
773.9348516841
 20
467.6475363991
 10
774.1775208384
 20
467.4892165966
 10
774.476831641
 20
467.4426596306
 10
774.8139772933
 20
467.5107908465
 10
775.167773694
 20
467.6893293094
 10
775.5159905141
 20
467.9670567911
 10
775.8367480102
 20
468.3265226525
 10
776.1098918091
 20
468.7451403315
 10
776.3182592814
 20
469.1966065398
 10
776.4487579324
 20
469.6525539951
 10
776.4931880521
 20
470.0843338419
  0
LWPOLYLINE
  5
11B
330
1F
100
AcDbEntity
  8
0
  6
Continuous
 62
     7
370
    25
100
AcDbPolyline
 90
       26
 70
   128
 43
0.0
 10
772.9576541461
 20
468.0433135624
 10
772.9132240265
 20
468.423795485
 10
772.7827253755
 20
468.729072405
 10
772.5743579032
 20
468.9399626506
 10
772.3012141043
 20
469.0432152121
 10
771.9804566082
 20
469.0323423514
 10
771.6322397881
 20
468.9080272503
 10
771.2784433873
 20
468.6780810838
 10
770.941297735
 20
468.3569522152
 10
770.6419869325
 20
467.9648183523
 10
770.3993177781
 20
467.526318708
 10
770.2285380674
 20
467.0690058276
 10
770.1403785177
 20
466.6216143611
 10
770.1403785177
 20
466.21225556
 10
770.2285380674
 20
465.8666509431
 10
770.3993177781
 20
465.6065161195
 10
770.6419869325
 20
465.448196317
 10
770.941297735
 20
465.401639351
 10
771.2784433873
 20
465.4697705669
 10
771.6322397881
 20
465.6483090298
 10
771.9804566082
 20
465.9260365115
 10
772.3012141043
 20
466.2855023729
 10
772.5743579032
 20
466.704120052
 10
772.7827253755
 20
467.1555862602
 10
772.9132240265
 20
467.6115337155
 10
772.9576541461
 20
468.0433135624
  0
LWPOLYLINE
  5
11C
330
1F
100
AcDbEntity
  8
0
  6
Continuous
 62
     7
370
    25
100
AcDbPolyline
 90
       26
 70
   128
 43
0.0
 10
794.1708575817
 20
476.2067311803
 10
794.1264274621
 20
476.5872131029
 10
793.9959288111
 20
476.8924900229
 10
793.7875613388
 20
477.1033802685
 10
793.5144175399
 20
477.20663283
 10
793.1936600438
 20
477.1957599693
 10
792.8454432237
 20
477.0714448682
 10
792.4916468229
 20
476.8414987017
 10
792.1545011706
 20
476.5203698331
 10
791.8551903681
 20
476.1282359702
 10
791.6125212137
 20
475.6897363259
 10
791.441741503
 20
475.2324234455
 10
791.3535819533
 20
474.785031979
 10
791.3535819533
 20
474.3756731779
 10
791.441741503
 20
474.030068561
 10
791.6125212137
 20
473.7699337374
 10
791.8551903681
 20
473.6116139349
 10
792.1545011706
 20
473.5650569689
 10
792.4916468229
 20
473.6331881848
 10
792.8454432237
 20
473.8117266477
 10
793.1936600438
 20
474.0894541294
 10
793.5144175399
 20
474.4489199909
 10
793.7875613388
 20
474.8675376699
 10
793.9959288111
 20
475.3190038781
 10
794.1264274621
 20
475.7749513334
 10
794.1708575817
 20
476.2067311803
  0
LWPOLYLINE
  5
11D
330
1F
100
AcDbEntity
  8
0
  6
Continuous
 62
     7
370
    25
100
AcDbPolyline
 90
       26
 70
   128
 43
0.0
 10
783.5642558639
 20
474.1663744011
 10
783.5198257443
 20
474.5468563237
 10
783.3893270933
 20
474.8521332436
 10
783.180959621
 20
475.0630234892
 10
782.9078158221
 20
475.1662760508
 10
782.587058326
 20
475.1554031901
 10
782.2388415059
 20
475.031088089
 10
781.8850451051
 20
474.8011419224
 10
781.5478994528
 20
474.4800130538
 10
781.2485886503
 20
474.087879191
 10
781.0059194959
 20
473.6493795467
 10
780.8351397852
 20
473.1920666662
 10
780.7469802355
 20
472.7446751998
 10
780.7469802355
 20
472.3353163986
 10
780.8351397852
 20
471.9897117817
 10
781.0059194959
 20
471.7295769582
 10
781.2485886503
 20
471.5712571557
 10
781.5478994528
 20
471.5247001897
 10
781.8850451051
 20
471.5928314056
 10
782.2388415059
 20
471.7713698685
 10
782.587058326
 20
472.0490973502
 10
782.9078158221
 20
472.4085632116
 10
783.180959621
 20
472.8271808906
 10
783.3893270933
 20
473.2786470989
 10
783.5198257443
 20
473.7345945542
 10
783.5642558639
 20
474.1663744011
  0
LWPOLYLINE
  5
11E
330
1F
100
AcDbEntity
  8
0
  6
Continuous
 62
     7
370
    25
100
AcDbPolyline
 90
       26
 70
   128
 43
0.0
 10
787.0997897699
 20
476.2073946806
 10
787.0553596502
 20
476.5878766033
 10
786.9248609992
 20
476.8931535232
 10
786.7164935269
 20
477.1040437688
 10
786.443349728
 20
477.2072963303
 10
786.1225922319
 20
477.1964234696
 10
785.7743754118
 20
477.0721083685
 10
785.4205790111
 20
476.842162202
 10
785.0834333588
 20
476.5210333334
 10
784.7841225562
 20
476.1288994705
 10
784.5414534019
 20
475.6903998262
 10
784.3706736912
 20
475.2330869458
 10
784.2825141415
 20
474.7856954794
 10
784.2825141415
 20
474.3763366782
 10
784.3706736912
 20
474.0307320613
 10
784.5414534019
 20
473.7705972377
 10
784.7841225562
 20
473.6122774352
 10
785.0834333588
 20
473.5657204692
 10
785.4205790111
 20
473.6338516851
 10
785.7743754118
 20
473.8123901481
 10
786.1225922319
 20
474.0901176298
 10
786.443349728
 20
474.4495834912
 10
786.7164935269
 20
474.8682011702
 10
786.9248609992
 20
475.3196673785
 10
787.0553596502
 20
475.7756148338
 10
787.0997897699
 20
476.2073946806
  0
LWPOLYLINE
  5
11F
330
1F
100
AcDbEntity
  8
0
  6
Continuous
 62
     7
370
    25
100
AcDbPolyline
 90
       26
 70
   128
 43
0.0
 10
790.6353236758
 20
478.2484149602
 10
790.5908935562
 20
478.6288968828
 10
790.4603949051
 20
478.9341738027
 10
790.2520274329
 20
479.1450640483
 10
789.978883634
 20
479.2483166099
 10
789.6581261379
 20
479.2374437492
 10
789.3099093177
 20
479.1131286481
 10
788.956112917
 20
478.8831824815
 10
788.6189672647
 20
478.5620536129
 10
788.3196564621
 20
478.1699197501
 10
788.0769873078
 20
477.7314201058
 10
787.9062075971
 20
477.2741072253
 10
787.8180480474
 20
476.8267157589
 10
787.8180480474
 20
476.4173569578
 10
787.9062075971
 20
476.0717523408
 10
788.0769873078
 20
475.8116175173
 10
788.3196564621
 20
475.6532977148
 10
788.6189672647
 20
475.6067407488
 10
788.956112917
 20
475.6748719647
 10
789.3099093177
 20
475.8534104276
 10
789.6581261379
 20
476.1311379093
 10
789.978883634
 20
476.4906037707
 10
790.2520274329
 20
476.9092214497
 10
790.4603949051
 20
477.360687658
 10
790.5908935562
 20
477.8166351133
 10
790.6353236758
 20
478.2484149602
  0
LWPOLYLINE
  5
120
330
1F
100
AcDbEntity
  8
0
  6
Continuous
 62
     7
370
    25
100
AcDbPolyline
 90
       26
 70
   128
 43
0.0
 10
794.1708575817
 20
480.2894352397
 10
794.1264274621
 20
480.6699171624
 10
793.9959288111
 20
480.9751940823
 10
793.7875613388
 20
481.1860843279
 10
793.5144175399
 20
481.2893368894
 10
793.1936600438
 20
481.2784640287
 10
792.8454432237
 20
481.1541489276
 10
792.4916468229
 20
480.9242027611
 10
792.1545011706
 20
480.6030738925
 10
791.8551903681
 20
480.2109400297
 10
791.6125212137
 20
479.7724403853
 10
791.441741503
 20
479.3151275049
 10
791.3535819533
 20
478.8677360385
 10
791.3535819533
 20
478.4583772373
 10
791.441741503
 20
478.1127726204
 10
791.6125212137
 20
477.8526377969
 10
791.8551903681
 20
477.6943179944
 10
792.1545011706
 20
477.6477610284
 10
792.4916468229
 20
477.7158922442
 10
792.8454432237
 20
477.8944307072
 10
793.1936600438
 20
478.1721581889
 10
793.5144175399
 20
478.5316240503
 10
793.7875613388
 20
478.9502417293
 10
793.9959288111
 20
479.4017079376
 10
794.1264274621
 20
479.8576553929
 10
794.1708575817
 20
480.2894352397
  0
LWPOLYLINE
  5
121
330
1F
100
AcDbEntity
  8
0
  6
Continuous
 62
     7
370
    25
100
AcDbPolyline
 90
       26
 70
   128
 43
0.0
 10
776.4931880521
 20
466.0016297825
 10
776.4487579324
 20
466.3821117052
 10
776.3182592814
 20
466.6873886251
 10
776.1098918091
 20
466.8982788707
 10
775.8367480102
 20
467.0015314322
 10
775.5159905141
 20
466.9906585715
 10
775.167773694
 20
466.8663434704
 10
774.8139772933
 20
466.6363973039
 10
774.476831641
 20
466.3152684353
 10
774.1775208384
 20
465.9231345724
 10
773.9348516841
 20
465.4846349281
 10
773.7640719734
 20
465.0273220477
 10
773.6759124237
 20
464.5799305813
 10
773.6759124237
 20
464.1705717801
 10
773.7640719734
 20
463.8249671632
 10
773.9348516841
 20
463.5648323396
 10
774.1775208384
 20
463.4065125371
 10
774.476831641
 20
463.3599555711
 10
774.8139772933
 20
463.428086787
 10
775.167773694
 20
463.60662525
 10
775.5159905141
 20
463.8843527317
 10
775.8367480102
 20
464.2438185931
 10
776.1098918091
 20
464.6624362721
 10
776.3182592814
 20
465.1139024804
 10
776.4487579324
 20
465.5698499357
 10
776.4931880521
 20
466.0016297825
  0
LWPOLYLINE
  5
122
330
1F
100
AcDbEntity
  8
0
  6
Continuous
 62
     7
370
    25
100
AcDbPolyline
 90
       26
 70
   128
 43
0.0
 10
794.1708575817
 20
472.1240271209
 10
794.1264274621
 20
472.5045090435
 10
793.9959288111
 20
472.8097859634
 10
793.7875613388
 20
473.020676209
 10
793.5144175399
 20
473.1239287706
 10
793.1936600438
 20
473.1130559099
 10
792.8454432237
 20
472.9887408088
 10
792.4916468229
 20
472.7587946422
 10
792.1545011706
 20
472.4376657736
 10
791.8551903681
 20
472.0455319108
 10
791.6125212137
 20
471.6070322665
 10
791.441741503
 20
471.149719386
 10
791.3535819533
 20
470.7023279196
 10
791.3535819533
 20
470.2929691185
 10
791.441741503
 20
469.9473645015
 10
791.6125212137
 20
469.687229678
 10
791.8551903681
 20
469.5289098755
 10
792.1545011706
 20
469.4823529095
 10
792.4916468229
 20
469.5504841254
 10
792.8454432237
 20
469.7290225883
 10
793.1936600438
 20
470.00675007
 10
793.5144175399
 20
470.3662159314
 10
793.7875613388
 20
470.7848336104
 10
793.9959288111
 20
471.2362998187
 10
794.1264274621
 20
471.692247274
 10
794.1708575817
 20
472.1240271209
  0
LWPOLYLINE
  5
123
330
1F
100
AcDbEntity
  8
0
  6
Continuous
 62
     7
370
    25
100
AcDbPolyline
 90
       26
 70
   128
 43
0.0
 10
790.6353236758
 20
470.0830068413
 10
790.5908935562
 20
470.463488764
 10
790.4603949051
 20
470.7687656839
 10
790.2520274329
 20
470.9796559295
 10
789.978883634
 20
471.082908491
 10
789.6581261379
 20
471.0720356303
 10
789.3099093177
 20
470.9477205292
 10
788.956112917
 20
470.7177743627
 10
788.6189672647
 20
470.3966454941
 10
788.3196564621
 20
470.0045116312
 10
788.0769873078
 20
469.5660119869
 10
787.9062075971
 20
469.1086991065
 10
787.8180480474
 20
468.6613076401
 10
787.8180480474
 20
468.2519488389
 10
787.9062075971
 20
467.906344222
 10
788.0769873078
 20
467.6462093984
 10
788.3196564621
 20
467.4878895959
 10
788.6189672647
 20
467.4413326299
 10
788.956112917
 20
467.5094638458
 10
789.3099093177
 20
467.6880023088
 10
789.6581261379
 20
467.9657297905
 10
789.978883634
 20
468.3251956519
 10
790.2520274329
 20
468.7438133309
 10
790.4603949051
 20
469.1952795392
 10
790.5908935562
 20
469.6512269945
 10
790.6353236758
 20
470.0830068413
  0
LWPOLYLINE
  5
124
330
1F
100
AcDbEntity
  8
0
  6
Continuous
 62
     7
370
    25
100
AcDbPolyline
 90
       26
 70
   128
 43
0.0
 10
787.0997897699
 20
468.0419865618
 10
787.0553596502
 20
468.4224684844
 10
786.9248609992
 20
468.7277454043
 10
786.7164935269
 20
468.9386356499
 10
786.443349728
 20
469.0418882115
 10
786.1225922319
 20
469.0310153508
 10
785.7743754118
 20
468.9067002497
 10
785.4205790111
 20
468.6767540831
 10
785.0834333588
 20
468.3556252145
 10
784.7841225562
 20
467.9634913517
 10
784.5414534019
 20
467.5249917074
 10
784.3706736912
 20
467.0676788269
 10
784.2825141415
 20
466.6202873605
 10
784.2825141415
 20
466.2109285593
 10
784.3706736912
 20
465.8653239424
 10
784.5414534019
 20
465.6051891189
 10
784.7841225562
 20
465.4468693164
 10
785.0834333588
 20
465.4003123504
 10
785.4205790111
 20
465.4684435663
 10
785.7743754118
 20
465.6469820292
 10
786.1225922319
 20
465.9247095109
 10
786.443349728
 20
466.2841753723
 10
786.7164935269
 20
466.7027930513
 10
786.9248609992
 20
467.1542592596
 10
787.0553596502
 20
467.6102067149
 10
787.0997897699
 20
468.0419865618
  0
LWPOLYLINE
  5
125
330
1F
100
AcDbEntity
  8
0
  6
Continuous
 62
     7
370
    25
100
AcDbPolyline
 90
       26
 70
   128
 43
0.0
 10
780.028721958
 20
468.0426500621
 10
779.9842918384
 20
468.4231319847
 10
779.8537931873
 20
468.7284089046
 10
779.6454257151
 20
468.9392991502
 10
779.3722819162
 20
469.0425517118
 10
779.0515244201
 20
469.0316788511
 10
778.7033075999
 20
468.90736375
 10
778.3495111992
 20
468.6774175834
 10
778.0123655469
 20
468.3562887148
 10
777.7130547443
 20
467.964154852
 10
777.47038559
 20
467.5256552077
 10
777.2996058793
 20
467.0683423272
 10
777.2114463296
 20
466.6209508608
 10
777.2114463296
 20
466.2115920597
 10
777.2996058793
 20
465.8659874427
 10
777.47038559
 20
465.6058526192
 10
777.7130547443
 20
465.4475328167
 10
778.0123655469
 20
465.4009758507
 10
778.3495111992
 20
465.4691070666
 10
778.7033075999
 20
465.6476455295
 10
779.0515244201
 20
465.9253730112
 10
779.3722819162
 20
466.2848388726
 10
779.6454257151
 20
466.7034565516
 10
779.8537931873
 20
467.1549227599
 10
779.9842918384
 20
467.6108702152
 10
780.028721958
 20
468.0426500621
  0
LWPOLYLINE
  5
126
330
1F
100
AcDbEntity
  8
0
  6
Continuous
 62
     7
370
    25
100
AcDbPolyline
 90
       26
 70
   128
 43
0.0
 10
783.5642558639
 20
470.0836703416
 10
783.5198257443
 20
470.4641522643
 10
783.3893270933
 20
470.7694291842
 10
783.180959621
 20
470.9803194298
 10
782.9078158221
 20
471.0835719913
 10
782.587058326
 20
471.0726991306
 10
782.2388415059
 20
470.9483840295
 10
781.8850451051
 20
470.718437863
 10
781.5478994528
 20
470.3973089944
 10
781.2485886503
 20
470.0051751316
 10
781.0059194959
 20
469.5666754872
 10
780.8351397852
 20
469.1093626068
 10
780.7469802355
 20
468.6619711404
 10
780.7469802355
 20
468.2526123392
 10
780.8351397852
 20
467.9070077223
 10
781.0059194959
 20
467.6468728988
 10
781.2485886503
 20
467.4885530963
 10
781.5478994528
 20
467.4419961303
 10
781.8850451051
 20
467.5101273461
 10
782.2388415059
 20
467.6886658091
 10
782.587058326
 20
467.9663932908
 10
782.9078158221
 20
468.3258591522
 10
783.180959621
 20
468.7444768312
 10
783.3893270933
 20
469.1959430395
 10
783.5198257443
 20
469.6518904948
 10
783.5642558639
 20
470.0836703416
  0
LWPOLYLINE
  5
127
330
1F
100
AcDbEntity
  8
0
  6
Continuous
 62
     7
370
    25
100
AcDbPolyline
 90
       26
 70
   128
 43
0.0
 10
787.0997897699
 20
472.1246906212
 10
787.0553596502
 20
472.5051725438
 10
786.9248609992
 20
472.8104494638
 10
786.7164935269
 20
473.0213397094
 10
786.443349728
 20
473.1245922709
 10
786.1225922319
 20
473.1137194102
 10
785.7743754118
 20
472.9894043091
 10
785.4205790111
 20
472.7594581426
 10
785.0834333588
 20
472.438329274
 10
784.7841225562
 20
472.0461954111
 10
784.5414534019
 20
471.6076957668
 10
784.3706736912
 20
471.1503828863
 10
784.2825141415
 20
470.7029914199
 10
784.2825141415
 20
470.2936326188
 10
784.3706736912
 20
469.9480280019
 10
784.5414534019
 20
469.6878931783
 10
784.7841225562
 20
469.5295733758
 10
785.0834333588
 20
469.4830164098
 10
785.4205790111
 20
469.5511476257
 10
785.7743754118
 20
469.7296860886
 10
786.1225922319
 20
470.0074135703
 10
786.443349728
 20
470.3668794317
 10
786.7164935269
 20
470.7854971108
 10
786.9248609992
 20
471.236963319
 10
787.0553596502
 20
471.6929107743
 10
787.0997897699
 20
472.1246906212
  0
LWPOLYLINE
  5
128
330
1F
100
AcDbEntity
  8
0
  6
Continuous
 62
     7
370
    25
100
AcDbPolyline
 90
       26
 70
   128
 43
0.0
 10
790.6353236758
 20
474.1657109007
 10
790.5908935562
 20
474.5461928234
 10
790.4603949051
 20
474.8514697433
 10
790.2520274329
 20
475.0623599889
 10
789.978883634
 20
475.1656125504
 10
789.6581261379
 20
475.1547396897
 10
789.3099093177
 20
475.0304245886
 10
788.956112917
 20
474.8004784221
 10
788.6189672647
 20
474.4793495535
 10
788.3196564621
 20
474.0872156907
 10
788.0769873078
 20
473.6487160464
 10
787.9062075971
 20
473.1914031659
 10
787.8180480474
 20
472.7440116995
 10
787.8180480474
 20
472.3346528983
 10
787.9062075971
 20
471.9890482814
 10
788.0769873078
 20
471.7289134579
 10
788.3196564621
 20
471.5705936554
 10
788.6189672647
 20
471.5240366894
 10
788.956112917
 20
471.5921679053
 10
789.3099093177
 20
471.7707063682
 10
789.6581261379
 20
472.0484338499
 10
789.978883634
 20
472.4078997113
 10
790.2520274329
 20
472.8265173903
 10
790.4603949051
 20
473.2779835986
 10
790.5908935562
 20
473.7339310539
 10
790.6353236758
 20
474.1657109007
  0
LWPOLYLINE
  5
129
330
1F
100
AcDbEntity
  8
0
  6
Continuous
 62
     7
370
    25
100
AcDbPolyline
 90
       28
 70
   128
 43
0.0
 10
765.4269669265
 20
451.6927904322
 10
765.3802695472
 20
452.1271854213
 10
765.2426948772
 20
452.4842464176
 10
765.0216596026
 20
452.7447241704
 10
764.7290797922
 20
452.8945762566
 10
764.3807284993
 20
452.9257241115
 10
763.9953854323
 20
452.8364885461
 10
763.5938245357
 20
452.631680273
 10
763.1976940613
 20
452.322340559
 10
762.8283495056
 20
451.9251459882
 10
762.5057023292
 20
451.4615094228
 10
762.2471465248
 20
450.9564256301
 10
762.0666209028
 20
450.4371238079
 10
761.9738576463
 20
449.931599652
 10
761.9738576463
 20
449.4671061005
 10
762.0666209028
 20
449.0686841209
 10
762.2471465248
 20
448.7578127453
 10
762.5057023292
 20
448.55125113
 10
762.8283495056
 20
448.4601350653
 10
763.1976940613
 20
448.4893766416
 10
763.5938245357
 20
448.637399438
 10
763.9953854323
 20
448.8962235074
 10
764.3807284993
 20
449.2518955771
 10
764.7290797922
 20
449.6852412737
 10
765.0216596026
 20
450.1728988186
 10
765.2426948772
 20
450.6885784674
 10
765.3802695472
 20
451.2044797967
 10
765.4269669265
 20
451.6927904322
  0
LWPOLYLINE
  5
12A
330
1F
100
AcDbEntity
  8
0
  6
Continuous
 62
     7
370
    25
100
AcDbPolyline
 90
       28
 70
   128
 43
0.0
 10
744.2137634909
 20
439.4466687549
 10
744.1670661116
 20
439.8810637439
 10
744.0294914417
 20
440.2381247402
 10
743.808456167
 20
440.498602493
 10
743.5158763566
 20
440.6484545793
 10
743.1675250637
 20
440.6796024342
 10
742.7821819967
 20
440.5903668688
 10
742.3806211001
 20
440.3855585956
 10
741.9844906257
 20
440.0762188816
 10
741.61514607
 20
439.6790243109
 10
741.2924988936
 20
439.2153877455
 10
741.0339430892
 20
438.7103039527
 10
740.8534174672
 20
438.1910021306
 10
740.7606542107
 20
437.6854779747
 10
740.7606542107
 20
437.2209844231
 10
740.8534174672
 20
436.8225624435
 10
741.0339430892
 20
436.511691068
 10
741.2924988936
 20
436.3051294527
 10
741.61514607
 20
436.2140133879
 10
741.9844906257
 20
436.2432549642
 10
742.3806211001
 20
436.3912777607
 10
742.7821819967
 20
436.65010183
 10
743.1675250637
 20
437.0057738997
 10
743.5158763566
 20
437.4391195964
 10
743.808456167
 20
437.9267771413
 10
744.0294914417
 20
438.4424567901
 10
744.1670661116
 20
438.9583581193
 10
744.2137634909
 20
439.4466687549
  0
LINE
  5
12B
330
1F
100
AcDbEntity
  8
0
  6
Continuous
 62
     7
370
    25
100
AcDbLine
 10
626.5158397624
 20
477.8002530491
 30
0.0
 11
725.5107891285
 21
534.9488208767
 31
0.0
  0
LINE
  5
12C
330
1F
100
AcDbEntity
  8
0
  6
Continuous
 62
     7
370
    25
100
AcDbLine
 10
802.5854282778
 20
490.4545787823
 30
0.0
 11
725.5107891285
 21
534.9488208767
 31
0.0
  0
LWPOLYLINE
  5
12D
330
1F
100
AcDbEntity
  8
0
  6
Continuous
 62
     7
370
    25
100
AcDbPolyline
 90
       16
 70
   128
 43
0.0
 10
695.16176608
 20
425.4957401364
 10
695.1172186843
 20
426.0766010283
 10
694.9850935053
 20
426.6891147274
 10
694.7698899076
 20
427.3124228145
 10
694.4789363915
 20
427.92529928
 10
694.1221410301
 20
428.5068733512
 10
693.7116540614
 20
429.0373402205
 10
693.2614541269
 20
429.4986354749
 10
692.7868722455
 20
429.8750502577
 10
692.3040697337
 20
430.1537662151
 10
691.8294878522
 20
430.3252920094
 10
691.3792879178
 20
430.3837865353
 10
690.9688009491
 20
430.3272578319
 10
690.6120055877
 20
430.1576309165
 10
690.3210520716
 20
429.8806822302
 10
690.1954676383
 20
429.6906928472
  0
ARC
  5
12E
330
1F
100
AcDbEntity
  8
0
  6
Continuous
 62
     7
370
    25
100
AcDbCircle
 10
693.5727472081
 20
425.2342612486
 30
0.0
 40
1.610388830063592
100
AcDbArc
 50
274.3567347525
 51
9.3444882844
  0
LINE
  5
12F
330
1F
100
AcDbEntity
  8
0
  6
Continuous
 62
     7
370
    25
100
AcDbLine
 10
699.0862087156
 20
419.7599091756
 30
0.0
 11
699.0862087156
 21
428.7418581064
 31
0.0
  0
ARC
  5
130
330
1F
100
AcDbEntity
  8
0
  6
Continuous
 62
     7
370
    25
100
AcDbCircle
 10
697.7929856133
 20
419.5501275849
 30
0.0
 40
1.310127592285482
100
AcDbArc
 50
230.7967147643
 51
9.2140369905
  0
LINE
  5
131
330
1F
100
AcDbEntity
  8
0
  6
Continuous
 62
     7
370
    25
100
AcDbLine
 10
634.0323848464
 20
454.8650598838
 30
0.0
 11
696.964888372
 21
418.5348989077
 31
0.0
  0
ARC
  5
132
330
1F
100
AcDbEntity
  8
0
  6
Continuous
 62
     7
370
    25
100
AcDbCircle
 10
636.516712807
 20
458.748877044
 30
0.0
 40
4.610414422716405
100
AcDbArc
 50
182.6054784857
 51
237.39452166
  0
LINE
  5
133
330
1F
100
AcDbEntity
  8
0
  6
Continuous
 62
     7
370
    25
100
AcDbLine
 10
631.9110645028
 20
467.5212434179
 30
0.0
 11
631.9110645028
 21
458.5392944872
 31
0.0
  0
ARC
  5
134
330
1F
100
AcDbEntity
  8
0
  6
Continuous
 62
     7
370
    25
100
AcDbCircle
 10
633.2042876051
 20
467.7310250086
 30
0.0
 40
1.310127592285543
100
AcDbArc
 50
50.7967147643
 51
189.2140369905
  0
LINE
  5
135
330
1F
100
AcDbEntity
  8
0
  6
Continuous
 62
     7
370
    25
100
AcDbLine
 10
696.964888372
 20
432.4160927098
 30
0.0
 11
634.0323848464
 21
468.7462536859
 31
0.0
  0
LWPOLYLINE
  5
136
330
1F
100
AcDbEntity
  8
0
  6
Continuous
 62
     7
370
    25
100
AcDbPolyline
 90
        3
 70
   128
 43
0.0
 10
698.5558658016
 20
418.4389652804
 10
698.8186418128
 20
418.4622216869
 10
699.0151076707
 20
418.5185907164
  0
LWPOLYLINE
  5
137
330
1F
100
AcDbEntity
  8
0
  6
Continuous
 62
     7
370
    25
100
AcDbPolyline
 90
        3
 70
   128
 43
0.0
 10
632.9222631584
 20
469.3052774789
 10
632.7749536583
 20
469.163061427
 10
632.6236122845
 20
468.9473719444
  0
LWPOLYLINE
  5
138
330
1F
100
AcDbEntity
  8
0
  6
Continuous
 62
     7
370
    25
100
AcDbPolyline
 90
       34
 70
   128
 43
0.0
 10
694.4334460954
 20
425.2385715812
 10
694.3887219029
 20
425.8052500845
 10
694.2561657743
 20
426.4030848037
 10
694.0405686334
 20
427.0104684345
 10
693.7497227226
 20
427.6054485498
 10
693.394139971
 20
428.1665210182
 10
692.9866720657
 20
428.6734072187
 10
692.5420459583
 20
429.1077869635
 10
692.0763315949
 20
429.4539606367
 10
691.606361106
 20
429.6994166198
 10
691.1491204495
 20
429.8352834942
 10
690.7211354941
 20
429.8566506769
 10
690.3378747312
 20
429.7627459023
 10
690.0131902034
 20
429.5569631336
 10
689.7588168554
 20
429.2467398963
 10
689.5839484027
 20
428.8432884664
 10
689.4949050469
 20
428.3611906298
 10
689.4949050469
 20
427.8178706584
 10
689.5839484027
 20
427.2329655515
 10
689.7588168554
 20
426.6276153038
 10
690.0131902034
 20
426.0236988502
 10
690.3378747312
 20
425.4430433051
 10
690.7211354941
 20
424.9066350726
 10
691.1491204495
 20
424.4338613439
 10
691.606361106
 20
424.0418093934
 10
692.0763315949
 20
423.744649
 10
692.5420459583
 20
423.5531203145
 10
692.9866720657
 20
423.4741456827
 10
693.394139971
 20
423.5105794536
 10
693.7497227226
 20
423.6611048157
 10
694.0405686334
 20
423.9202813903
 10
694.2561657743
 20
424.2787418607
 10
694.3887219029
 20
424.7235305315
 10
694.4334460954
 20
425.2385715812
  0
LWPOLYLINE
  5
139
330
1F
100
AcDbEntity
  8
0
  6
Continuous
 62
     7
370
    25
100
AcDbPolyline
 90
        3
 70
   128
 43
0.0
 10
691.0289566319
 20
430.343450214
 10
690.9362349713
 20
430.2358197589
 10
690.8107473507
 20
430.0460029165
  0
LWPOLYLINE
  5
13A
330
1F
100
AcDbEntity
  8
0
  6
Continuous
 62
     7
370
    25
100
AcDbPolyline
 90
        3
 70
   128
 43
0.0
 10
694.3104629149
 20
423.9836608799
 10
694.326836961
 20
423.98354128
 10
694.6771682469
 20
424.0238776013
  0
ARC
  5
13B
330
1F
100
AcDbEntity
  8
0
  6
Continuous
 62
     7
370
    25
100
AcDbCircle
 10
700.20296776
 20
414.0796421454
 30
0.0
 40
2.167924987958517
100
AcDbArc
 50
167.5515469092
 51
252.4430765581
  0
ARC
  5
13C
330
1F
100
AcDbEntity
  8
0
  6
Continuous
 62
     7
370
    25
100
AcDbCircle
 10
700.20296776
 20
410.4052084919
 30
0.0
 40
2.167924987958829
100
AcDbArc
 50
167.5515469092
 51
252.4430765581
  0
ARC
  5
13D
330
1F
100
AcDbEntity
  8
0
  6
Continuous
 62
     7
370
    25
100
AcDbCircle
 10
697.0209872446
 20
415.916560397
 30
0.0
 40
2.16792498795967
100
AcDbArc
 50
167.5515469093
 51
252.443076558
  0
ARC
  5
13E
330
1F
100
AcDbEntity
  8
0
  6
Continuous
 62
     7
370
    25
100
AcDbCircle
 10
700.20296776
 20
406.7307748385
 30
0.0
 40
2.167924987959171
100
AcDbArc
 50
167.5515469092
 51
252.4430765581
  0
ARC
  5
13F
330
1F
100
AcDbEntity
  8
0
  6
Continuous
 62
     7
370
    25
100
AcDbCircle
 10
697.0209872446
 20
412.2421267435
 30
0.0
 40
2.167924987959311
100
AcDbArc
 50
167.5515469092
 51
252.4430765581
  0
ARC
  5
140
330
1F
100
AcDbEntity
  8
0
  6
Continuous
 62
     7
370
    25
100
AcDbCircle
 10
693.8390067293
 20
417.7534786486
 30
0.0
 40
2.167924987959002
100
AcDbArc
 50
167.5515469092
 51
252.4430765581
  0
ARC
  5
141
330
1F
100
AcDbEntity
  8
0
  6
Continuous
 62
     7
370
    25
100
AcDbCircle
 10
697.0209872446
 20
408.5676930901
 30
0.0
 40
2.167924987958862
100
AcDbArc
 50
167.5515469092
 51
252.4430765581
  0
ARC
  5
142
330
1F
100
AcDbEntity
  8
0
  6
Continuous
 62
     7
370
    25
100
AcDbCircle
 10
693.8390067293
 20
414.0790449952
 30
0.0
 40
2.167924987959308
100
AcDbArc
 50
167.5515469092
 51
252.4430765581
  0
ARC
  5
143
330
1F
100
AcDbEntity
  8
0
  6
Continuous
 62
     7
370
    25
100
AcDbCircle
 10
690.657026214
 20
419.5903969002
 30
0.0
 40
2.167924987959111
100
AcDbArc
 50
167.5515469092
 51
252.4430765581
  0
ARC
  5
144
330
1F
100
AcDbEntity
  8
0
  6
Continuous
 62
     7
370
    25
100
AcDbCircle
 10
693.8390067293
 20
410.4046113417
 30
0.0
 40
2.167924987958298
100
AcDbArc
 50
167.5515469092
 51
252.4430765581
  0
ARC
  5
145
330
1F
100
AcDbEntity
  8
0
  6
Continuous
 62
     7
370
    25
100
AcDbCircle
 10
690.657026214
 20
415.9159632468
 30
0.0
 40
2.167924987958817
100
AcDbArc
 50
167.5515469092
 51
252.4430765581
  0
ARC
  5
146
330
1F
100
AcDbEntity
  8
0
  6
Continuous
 62
     7
370
    25
100
AcDbCircle
 10
687.4750456986
 20
421.4273151518
 30
0.0
 40
2.167924987959422
100
AcDbArc
 50
167.5515469092
 51
252.4430765581
  0
ARC
  5
147
330
1F
100
AcDbEntity
  8
0
  6
Continuous
 62
     7
370
    25
100
AcDbCircle
 10
690.657026214
 20
412.2415295933
 30
0.0
 40
2.167924987959533
100
AcDbArc
 50
167.5515469093
 51
252.443076558
  0
ARC
  5
148
330
1F
100
AcDbEntity
  8
0
  6
Continuous
 62
     7
370
    25
100
AcDbCircle
 10
687.4750456986
 20
417.7528814984
 30
0.0
 40
2.167924987959323
100
AcDbArc
 50
167.5515469092
 51
252.4430765581
  0
ARC
  5
149
330
1F
100
AcDbEntity
  8
0
  6
Continuous
 62
     7
370
    25
100
AcDbCircle
 10
684.2930651833
 20
423.2642334034
 30
0.0
 40
2.167924987959373
100
AcDbArc
 50
167.5515469092
 51
252.4430765581
  0
ARC
  5
14A
330
1F
100
AcDbEntity
  8
0
  6
Continuous
 62
     7
370
    25
100
AcDbCircle
 10
687.4750456986
 20
414.0784478449
 30
0.0
 40
2.167924987959422
100
AcDbArc
 50
167.5515469092
 51
252.4430765581
  0
ARC
  5
14B
330
1F
100
AcDbEntity
  8
0
  6
Continuous
 62
     7
370
    25
100
AcDbCircle
 10
684.2930651833
 20
419.58979975
 30
0.0
 40
2.167924987959225
100
AcDbArc
 50
167.5515469092
 51
252.4430765581
  0
ARC
  5
14C
330
1F
100
AcDbEntity
  8
0
  6
Continuous
 62
     7
370
    25
100
AcDbCircle
 10
681.1110846679
 20
425.101151655
 30
0.0
 40
2.167924987959138
100
AcDbArc
 50
167.5515469092
 51
252.4430765581
  0
ARC
  5
14D
330
1F
100
AcDbEntity
  8
0
  6
Continuous
 62
     7
370
    25
100
AcDbCircle
 10
684.2930651833
 20
415.9153660965
 30
0.0
 40
2.167924987959068
100
AcDbArc
 50
167.5515469092
 51
252.4430765581
  0
ARC
  5
14E
330
1F
100
AcDbEntity
  8
0
  6
Continuous
 62
     7
370
    25
100
AcDbCircle
 10
681.1110846679
 20
421.4267180016
 30
0.0
 40
2.167924987959138
100
AcDbArc
 50
167.5515469092
 51
252.4430765581
  0
ARC
  5
14F
330
1F
100
AcDbEntity
  8
0
  6
Continuous
 62
     7
370
    25
100
AcDbCircle
 10
677.9291041526
 20
426.9380699066
 30
0.0
 40
2.167924987959568
100
AcDbArc
 50
167.5515469093
 51
252.443076558
  0
ARC
  5
150
330
1F
100
AcDbEntity
  8
0
  6
Continuous
 62
     7
370
    25
100
AcDbCircle
 10
681.1110846679
 20
417.7522843481
 30
0.0
 40
2.167924987958656
100
AcDbArc
 50
167.5515469092
 51
252.4430765581
  0
ARC
  5
151
330
1F
100
AcDbEntity
  8
0
  6
Continuous
 62
     7
370
    25
100
AcDbCircle
 10
677.9291041526
 20
423.2636362532
 30
0.0
 40
2.167924987959422
100
AcDbArc
 50
167.5515469092
 51
252.4430765581
  0
ARC
  5
152
330
1F
100
AcDbEntity
  8
0
  6
Continuous
 62
     7
370
    25
100
AcDbCircle
 10
674.7471236373
 20
428.7749881582
 30
0.0
 40
2.167924987959398
100
AcDbArc
 50
167.5515469092
 51
252.4430765581
  0
LWPOLYLINE
  5
153
330
1F
100
AcDbEntity
  8
0
  6
Continuous
 62
     7
370
    25
100
AcDbPolyline
 90
        7
 70
   128
 43
0.0
 10
743.5773673878
 20
439.4466687549
 10
743.5329372682
 20
439.8271506775
 10
743.4024386172
 20
440.1324275974
 10
743.1940711449
 20
440.343317843
 10
742.920927346
 20
440.4465704046
 10
742.6001698499
 20
440.4356975439
 10
742.3139138894
 20
440.3410682714
  0
LWPOLYLINE
  5
154
330
1F
100
AcDbEntity
  8
0
  6
Continuous
 62
     7
370
    25
100
AcDbPolyline
 90
       14
 70
   128
 43
0.0
 10
740.7570235178
 20
437.6441628305
 10
740.7600917594
 20
437.6156107525
 10
740.8482513091
 20
437.2700061355
 10
741.0190310198
 20
437.009871312
 10
741.2617001742
 20
436.8515515095
 10
741.5610109767
 20
436.8049945435
 10
741.898156629
 20
436.8731257594
 10
742.2519530298
 20
437.0516642223
 10
742.6001698499
 20
437.329391704
 10
742.920927346
 20
437.6888575654
 10
743.1940711449
 20
438.1074752444
 10
743.4024386172
 20
438.5589414527
 10
743.5329372682
 20
439.014888908
 10
743.5773673878
 20
439.4466687549
  0
ARC
  5
155
330
1F
100
AcDbEntity
  8
0
  6
Continuous
 62
     7
370
    25
100
AcDbCircle
 10
677.9291041526
 20
419.5892025997
 30
0.0
 40
2.167924987958805
100
AcDbArc
 50
167.5515469092
 51
252.4430765581
  0
ARC
  5
156
330
1F
100
AcDbEntity
  8
0
  6
Continuous
 62
     7
370
    25
100
AcDbCircle
 10
674.7471236373
 20
425.1005545048
 30
0.0
 40
2.167924987959151
100
AcDbArc
 50
167.5515469092
 51
252.4430765581
  0
ARC
  5
157
330
1F
100
AcDbEntity
  8
0
  6
Continuous
 62
     7
370
    25
100
AcDbCircle
 10
671.5651431219
 20
430.6119064098
 30
0.0
 40
2.167924987959131
100
AcDbArc
 50
167.5515469092
 51
252.4430765581
  0
ARC
  5
158
330
1F
100
AcDbEntity
  8
0
  6
Continuous
 62
     7
370
    25
100
AcDbCircle
 10
674.7471236373
 20
421.4261208513
 30
0.0
 40
2.167924987959175
100
AcDbArc
 50
167.5515469092
 51
252.4430765581
  0
ARC
  5
159
330
1F
100
AcDbEntity
  8
0
  6
Continuous
 62
     7
370
    25
100
AcDbCircle
 10
671.5651431219
 20
426.9374727564
 30
0.0
 40
2.167924987958521
100
AcDbArc
 50
167.5515469092
 51
252.4430765581
  0
ARC
  5
15A
330
1F
100
AcDbEntity
  8
0
  6
Continuous
 62
     7
370
    25
100
AcDbCircle
 10
668.3831626066
 20
432.4488246614
 30
0.0
 40
2.167924987958311
100
AcDbArc
 50
167.5515469092
 51
252.4430765581
  0
ARC
  5
15B
330
1F
100
AcDbEntity
  8
0
  6
Continuous
 62
     7
370
    25
100
AcDbCircle
 10
671.5651431219
 20
423.2630391029
 30
0.0
 40
2.167924987958906
100
AcDbArc
 50
167.5515469092
 51
252.4430765581
  0
ARC
  5
15C
330
1F
100
AcDbEntity
  8
0
  6
Continuous
 62
     7
370
    25
100
AcDbCircle
 10
668.3831626066
 20
428.774391008
 30
0.0
 40
2.167924987958261
100
AcDbArc
 50
167.5515469092
 51
252.4430765581
  0
ARC
  5
15D
330
1F
100
AcDbEntity
  8
0
  6
Continuous
 62
     7
370
    25
100
AcDbCircle
 10
665.2011820912
 20
434.285742913
 30
0.0
 40
2.167924987959744
100
AcDbArc
 50
167.5515469093
 51
252.443076558
  0
ARC
  5
15E
330
1F
100
AcDbEntity
  8
0
  6
Continuous
 62
     7
370
    25
100
AcDbCircle
 10
668.3831626066
 20
425.0999573545
 30
0.0
 40
2.167924987959376
100
AcDbArc
 50
167.5515469092
 51
252.4430765581
  0
ARC
  5
15F
330
1F
100
AcDbEntity
  8
0
  6
Continuous
 62
     7
370
    25
100
AcDbCircle
 10
665.2011820912
 20
430.6113092596
 30
0.0
 40
2.167924987959126
100
AcDbArc
 50
167.5515469092
 51
252.4430765581
  0
ARC
  5
160
330
1F
100
AcDbEntity
  8
0
  6
Continuous
 62
     7
370
    25
100
AcDbCircle
 10
662.0192015759
 20
436.1226611646
 30
0.0
 40
2.167924987959102
100
AcDbArc
 50
167.5515469092
 51
252.4430765581
  0
LWPOLYLINE
  5
161
330
1F
100
AcDbEntity
  8
0
  6
Continuous
 62
     7
370
    25
100
AcDbPolyline
 90
        3
 70
   128
 43
0.0
 10
765.1794795531
 20
464.3694770592
 10
765.1350494335
 20
464.7499589818
 10
765.054168566
 20
464.9692147873
  0
ARC
  5
162
330
1F
100
AcDbEntity
  8
0
  6
Continuous
 62
     7
370
    25
100
AcDbCircle
 10
762.4408731073
 20
464.3647269027
 30
0.0
 40
2.738610565414287
100
AcDbArc
 50
285.7332063341
 51
0.0993803415
  0
ARC
  5
163
330
1F
100
AcDbEntity
  8
0
  6
Continuous
 62
     7
370
    25
100
AcDbCircle
 10
665.2011820912
 20
426.9368756061
 30
0.0
 40
2.167924987958397
100
AcDbArc
 50
167.5515469092
 51
252.4430765581
  0
ARC
  5
164
330
1F
100
AcDbEntity
  8
0
  6
Continuous
 62
     7
370
    25
100
AcDbCircle
 10
662.0192015759
 20
432.4482275112
 30
0.0
 40
2.167924987959396
100
AcDbArc
 50
167.5515469093
 51
252.4430765581
  0
ARC
  5
165
330
1F
100
AcDbEntity
  8
0
  6
Continuous
 62
     7
370
    25
100
AcDbCircle
 10
658.8372210606
 20
437.9595794162
 30
0.0
 40
2.167924987959461
100
AcDbArc
 50
167.5515469093
 51
252.443076558
  0
LWPOLYLINE
  5
166
330
1F
100
AcDbEntity
  8
0
  6
Continuous
 62
     7
370
    25
100
AcDbPolyline
 90
        3
 70
   128
 43
0.0
 10
768.715013459
 20
466.4104973387
 10
768.6705833394
 20
466.7909792614
 10
768.5897024719
 20
467.0102350669
  0
ARC
  5
167
330
1F
100
AcDbEntity
  8
0
  6
Continuous
 62
     7
370
    25
100
AcDbCircle
 10
765.9764070132
 20
466.4057471823
 30
0.0
 40
2.738610565414557
100
AcDbArc
 50
285.7332063342
 51
0.0993803415
  0
ARC
  5
168
330
1F
100
AcDbEntity
  8
0
  6
Continuous
 62
     7
370
    25
100
AcDbCircle
 10
662.0192015759
 20
428.7737938577
 30
0.0
 40
2.16792498795857
100
AcDbArc
 50
167.5515469092
 51
252.4430765581
  0
ARC
  5
169
330
1F
100
AcDbEntity
  8
0
  6
Continuous
 62
     7
370
    25
100
AcDbCircle
 10
658.8372210606
 20
434.2851457628
 30
0.0
 40
2.167924987959522
100
AcDbArc
 50
167.5515469093
 51
252.443076558
  0
ARC
  5
16A
330
1F
100
AcDbEntity
  8
0
  6
Continuous
 62
     7
370
    25
100
AcDbCircle
 10
655.6552405452
 20
439.7964976678
 30
0.0
 40
2.167924987958606
100
AcDbArc
 50
167.5515469092
 51
252.4430765581
  0
LWPOLYLINE
  5
16B
330
1F
100
AcDbEntity
  8
0
  6
Continuous
 62
     7
370
    25
100
AcDbPolyline
 90
        3
 70
   128
 43
0.0
 10
768.715013459
 20
462.3277932793
 10
768.6705833394
 20
462.708275202
 10
768.5897024719
 20
462.9275310075
  0
ARC
  5
16C
330
1F
100
AcDbEntity
  8
0
  6
Continuous
 62
     7
370
    25
100
AcDbCircle
 10
765.9764070132
 20
462.3230431229
 30
0.0
 40
2.738610565414895
100
AcDbArc
 50
285.7332063342
 51
0.0993803415
  0
LWPOLYLINE
  5
16D
330
1F
100
AcDbEntity
  8
0
  6
Continuous
 62
     7
370
    25
100
AcDbPolyline
 90
        3
 70
   128
 43
0.0
 10
772.2505473649
 20
468.4515176183
 10
772.2061172453
 20
468.8319995409
 10
772.1252363779
 20
469.0512553465
  0
ARC
  5
16E
330
1F
100
AcDbEntity
  8
0
  6
Continuous
 62
     7
370
    25
100
AcDbCircle
 10
769.5119409191
 20
468.4467674618
 30
0.0
 40
2.738610565414895
100
AcDbArc
 50
285.7332063342
 51
0.0993803415
  0
ARC
  5
16F
330
1F
100
AcDbEntity
  8
0
  6
Continuous
 62
     7
370
    25
100
AcDbCircle
 10
658.8372210606
 20
430.6107121093
 30
0.0
 40
2.167924987958434
100
AcDbArc
 50
167.5515469092
 51
252.4430765581
  0
ARC
  5
170
330
1F
100
AcDbEntity
  8
0
  6
Continuous
 62
     7
370
    25
100
AcDbCircle
 10
655.6552405452
 20
436.1220640144
 30
0.0
 40
2.167924987959126
100
AcDbArc
 50
167.5515469092
 51
252.4430765581
  0
ARC
  5
171
330
1F
100
AcDbEntity
  8
0
  6
Continuous
 62
     7
370
    25
100
AcDbCircle
 10
652.4732600299
 20
441.6334159195
 30
0.0
 40
2.167924987959002
100
AcDbArc
 50
167.5515469092
 51
252.4430765581
  0
LWPOLYLINE
  5
172
330
1F
100
AcDbEntity
  8
0
  6
Continuous
 62
     7
370
    25
100
AcDbPolyline
 90
        7
 70
   128
 43
0.0
 10
764.7905708234
 20
451.6927904322
 10
764.7461407038
 20
452.0732723549
 10
764.6156420528
 20
452.3785492748
 10
764.4072745805
 20
452.5894395204
 10
764.1341307816
 20
452.6926920819
 10
763.8133732855
 20
452.6818192212
 10
763.5271173241
 20
452.5871899483
  0
LWPOLYLINE
  5
173
330
1F
100
AcDbEntity
  8
0
  6
Continuous
 62
     7
370
    25
100
AcDbPolyline
 90
       14
 70
   128
 43
0.0
 10
761.9702269533
 20
449.8902845091
 10
761.973295195
 20
449.8617324298
 10
762.0614547447
 20
449.5161278129
 10
762.2322344554
 20
449.2559929893
 10
762.4749036098
 20
449.0976731868
 10
762.7742144123
 20
449.0511162208
 10
763.1113600646
 20
449.1192474367
 10
763.4651564654
 20
449.2977858996
 10
763.8133732855
 20
449.5755133814
 10
764.1341307816
 20
449.9349792428
 10
764.4072745805
 20
450.3535969218
 10
764.6156420528
 20
450.8050631301
 10
764.7461407038
 20
451.2610105854
 10
764.7905708234
 20
451.6927904322
  0
LWPOLYLINE
  5
174
330
1F
100
AcDbEntity
  8
0
  6
Continuous
 62
     7
370
    25
100
AcDbPolyline
 90
        3
 70
   128
 43
0.0
 10
772.2505473649
 20
464.3688135589
 10
772.2061172453
 20
464.7492954815
 10
772.1252363779
 20
464.968551287
  0
ARC
  5
175
330
1F
100
AcDbEntity
  8
0
  6
Continuous
 62
     7
370
    25
100
AcDbCircle
 10
769.5119409191
 20
464.3640634024
 30
0.0
 40
2.738610565414543
100
AcDbArc
 50
285.7332063342
 51
0.0993803415
  0
LWPOLYLINE
  5
176
330
1F
100
AcDbEntity
  8
0
  6
Continuous
 62
     7
370
    25
100
AcDbPolyline
 90
        3
 70
   128
 43
0.0
 10
775.7860812709
 20
470.4925378979
 10
775.7416511513
 20
470.8730198205
 10
775.6607702838
 20
471.092275626
  0
ARC
  5
177
330
1F
100
AcDbEntity
  8
0
  6
Continuous
 62
     7
370
    25
100
AcDbCircle
 10
773.0474748251
 20
470.4877877414
 30
0.0
 40
2.738610565414441
100
AcDbArc
 50
285.7332063342
 51
0.0993803415
  0
ARC
  5
178
330
1F
100
AcDbEntity
  8
0
  6
Continuous
 62
     7
370
    25
100
AcDbCircle
 10
655.6552405452
 20
432.4476303609
 30
0.0
 40
2.167924987958544
100
AcDbArc
 50
167.5515469092
 51
252.4430765581
  0
ARC
  5
179
330
1F
100
AcDbEntity
  8
0
  6
Continuous
 62
     7
370
    25
100
AcDbCircle
 10
652.4732600299
 20
437.958982266
 30
0.0
 40
2.167924987959553
100
AcDbArc
 50
167.5515469093
 51
252.443076558
  0
ARC
  5
17A
330
1F
100
AcDbEntity
  8
0
  6
Continuous
 62
     7
370
    25
100
AcDbCircle
 10
649.2912795145
 20
443.4703341711
 30
0.0
 40
2.167924987958929
100
AcDbArc
 50
167.5515469092
 51
252.4430765581
  0
LWPOLYLINE
  5
17B
330
1F
100
AcDbEntity
  8
0
  6
Continuous
 62
     7
370
    25
100
AcDbPolyline
 90
        3
 70
   128
 43
0.0
 10
772.2505473649
 20
460.2861094994
 10
772.2061172453
 20
460.6665914221
 10
772.1252363779
 20
460.8858472276
  0
ARC
  5
17C
330
1F
100
AcDbEntity
  8
0
  6
Continuous
 62
     7
370
    25
100
AcDbCircle
 10
769.5119409191
 20
460.281359343
 30
0.0
 40
2.738610565414668
100
AcDbArc
 50
285.7332063342
 51
0.0993803415
  0
LWPOLYLINE
  5
17D
330
1F
100
AcDbEntity
  8
0
  6
Continuous
 62
     7
370
    25
100
AcDbPolyline
 90
        3
 70
   128
 43
0.0
 10
775.7860812709
 20
466.4098338384
 10
775.7416511513
 20
466.7903157611
 10
775.6607702838
 20
467.0095715666
  0
ARC
  5
17E
330
1F
100
AcDbEntity
  8
0
  6
Continuous
 62
     7
370
    25
100
AcDbCircle
 10
773.0474748251
 20
466.405083682
 30
0.0
 40
2.738610565415132
100
AcDbArc
 50
285.7332063342
 51
0.0993803415
  0
LWPOLYLINE
  5
17F
330
1F
100
AcDbEntity
  8
0
  6
Continuous
 62
     7
370
    25
100
AcDbPolyline
 90
        3
 70
   128
 43
0.0
 10
779.3216151768
 20
472.5335581774
 10
779.2771850572
 20
472.9140401001
 10
779.1963041897
 20
473.1332959056
  0
ARC
  5
180
330
1F
100
AcDbEntity
  8
0
  6
Continuous
 62
     7
370
    25
100
AcDbCircle
 10
776.583008731
 20
472.528808021
 30
0.0
 40
2.738610565414451
100
AcDbArc
 50
285.7332063341
 51
0.0993803415
  0
ARC
  5
181
330
1F
100
AcDbEntity
  8
0
  6
Continuous
 62
     7
370
    25
100
AcDbCircle
 10
652.4732600299
 20
434.2845486125
 30
0.0
 40
2.167924987959002
100
AcDbArc
 50
167.5515469092
 51
252.4430765581
  0
ARC
  5
182
330
1F
100
AcDbEntity
  8
0
  6
Continuous
 62
     7
370
    25
100
AcDbCircle
 10
649.2912795145
 20
439.7959005176
 30
0.0
 40
2.167924987958644
100
AcDbArc
 50
167.5515469092
 51
252.4430765581
  0
ARC
  5
183
330
1F
100
AcDbEntity
  8
0
  6
Continuous
 62
     7
370
    25
100
AcDbCircle
 10
646.1092989992
 20
445.3072524227
 30
0.0
 40
2.167924987959657
100
AcDbArc
 50
167.5515469093
 51
252.4430765581
  0
ARC
  5
184
330
1F
100
AcDbEntity
  8
0
  6
Continuous
 62
     7
370
    25
100
AcDbCircle
 10
649.2912795145
 20
436.1214668641
 30
0.0
 40
2.16792498795842
100
AcDbArc
 50
167.5515469092
 51
252.4430765581
  0
ARC
  5
185
330
1F
100
AcDbEntity
  8
0
  6
Continuous
 62
     7
370
    25
100
AcDbCircle
 10
646.1092989992
 20
441.6328187692
 30
0.0
 40
2.167924987959323
100
AcDbArc
 50
167.5515469092
 51
252.4430765581
  0
ARC
  5
186
330
1F
100
AcDbEntity
  8
0
  6
Continuous
 62
     7
370
    25
100
AcDbCircle
 10
642.9273184839
 20
447.1441706743
 30
0.0
 40
2.167924987960363
100
AcDbArc
 50
167.5515469093
 51
252.443076558
  0
LWPOLYLINE
  5
187
330
1F
100
AcDbEntity
  8
0
  6
Continuous
 62
     7
370
    25
100
AcDbPolyline
 90
        3
 70
   128
 43
0.0
 10
775.7860812709
 20
462.327129779
 10
775.7416511513
 20
462.7076117016
 10
775.6607702838
 20
462.9268675072
  0
ARC
  5
188
330
1F
100
AcDbEntity
  8
0
  6
Continuous
 62
     7
370
    25
100
AcDbCircle
 10
773.0474748251
 20
462.3223796225
 30
0.0
 40
2.7386105654148
100
AcDbArc
 50
285.7332063342
 51
0.0993803415
  0
LWPOLYLINE
  5
189
330
1F
100
AcDbEntity
  8
0
  6
Continuous
 62
     7
370
    25
100
AcDbPolyline
 90
        3
 70
   128
 43
0.0
 10
779.3216151768
 20
468.450854118
 10
779.2771850572
 20
468.8313360406
 10
779.1963041897
 20
469.0505918461
  0
ARC
  5
18A
330
1F
100
AcDbEntity
  8
0
  6
Continuous
 62
     7
370
    25
100
AcDbCircle
 10
776.583008731
 20
468.4461039615
 30
0.0
 40
2.738610565414916
100
AcDbArc
 50
285.7332063342
 51
0.0993803415
  0
LWPOLYLINE
  5
18B
330
1F
100
AcDbEntity
  8
0
  6
Continuous
 62
     7
370
    25
100
AcDbPolyline
 90
        3
 70
   128
 43
0.0
 10
782.8571490827
 20
474.574578457
 10
782.8127189631
 20
474.9550603796
 10
782.7318380957
 20
475.1743161851
  0
ARC
  5
18C
330
1F
100
AcDbEntity
  8
0
  6
Continuous
 62
     7
370
    25
100
AcDbCircle
 10
780.1185426369
 20
474.5698283005
 30
0.0
 40
2.738610565414814
100
AcDbArc
 50
285.7332063342
 51
0.0993803415
  0
ARC
  5
18D
330
1F
100
AcDbEntity
  8
0
  6
Continuous
 62
     7
370
    25
100
AcDbCircle
 10
646.1092989992
 20
437.9583851157
 30
0.0
 40
2.16792498795993
100
AcDbArc
 50
167.5515469093
 51
252.443076558
  0
ARC
  5
18E
330
1F
100
AcDbEntity
  8
0
  6
Continuous
 62
     7
370
    25
100
AcDbCircle
 10
642.9273184839
 20
443.4697370208
 30
0.0
 40
2.167924987960115
100
AcDbArc
 50
167.5515469093
 51
252.443076558
  0
ARC
  5
18F
330
1F
100
AcDbEntity
  8
0
  6
Continuous
 62
     7
370
    25
100
AcDbCircle
 10
639.7453379685
 20
448.9810889259
 30
0.0
 40
2.167924987958228
100
AcDbArc
 50
167.5515469092
 51
252.4430765581
  0
LWPOLYLINE
  5
190
330
1F
100
AcDbEntity
  8
0
  6
Continuous
 62
     7
370
    25
100
AcDbPolyline
 90
        3
 70
   128
 43
0.0
 10
779.3216151768
 20
464.3681500586
 10
779.2771850572
 20
464.7486319812
 10
779.1963041897
 20
464.9678877867
  0
ARC
  5
191
330
1F
100
AcDbEntity
  8
0
  6
Continuous
 62
     7
370
    25
100
AcDbCircle
 10
776.583008731
 20
464.3633999021
 30
0.0
 40
2.738610565414441
100
AcDbArc
 50
285.7332063342
 51
0.0993803415
  0
LWPOLYLINE
  5
192
330
1F
100
AcDbEntity
  8
0
  6
Continuous
 62
     7
370
    25
100
AcDbPolyline
 90
        3
 70
   128
 43
0.0
 10
782.8571490827
 20
470.4918743975
 10
782.8127189631
 20
470.8723563202
 10
782.7318380957
 20
471.0916121257
  0
ARC
  5
193
330
1F
100
AcDbEntity
  8
0
  6
Continuous
 62
     7
370
    25
100
AcDbCircle
 10
780.1185426369
 20
470.4871242411
 30
0.0
 40
2.738610565415009
100
AcDbArc
 50
285.7332063342
 51
0.0993803415
  0
LWPOLYLINE
  5
194
330
1F
100
AcDbEntity
  8
0
  6
Continuous
 62
     7
370
    25
100
AcDbPolyline
 90
        3
 70
   128
 43
0.0
 10
786.3926829887
 20
476.6155987365
 10
786.3482528691
 20
476.9960806592
 10
786.2673720016
 20
477.2153364647
  0
ARC
  5
195
330
1F
100
AcDbEntity
  8
0
  6
Continuous
 62
     7
370
    25
100
AcDbCircle
 10
783.6540765429
 20
476.6108485801
 30
0.0
 40
2.738610565414213
100
AcDbArc
 50
285.7332063341
 51
0.0993803415
  0
ARC
  5
196
330
1F
100
AcDbEntity
  8
0
  6
Continuous
 62
     7
370
    25
100
AcDbCircle
 10
642.9273184839
 20
439.7953033673
 30
0.0
 40
2.16792498795941
100
AcDbArc
 50
167.5515469092
 51
252.4430765581
  0
ARC
  5
197
330
1F
100
AcDbEntity
  8
0
  6
Continuous
 62
     7
370
    25
100
AcDbCircle
 10
639.7453379685
 20
445.3066552724
 30
0.0
 40
2.167924987958668
100
AcDbArc
 50
167.5515469092
 51
252.4430765581
  0
ARC
  5
198
330
1F
100
AcDbEntity
  8
0
  6
Continuous
 62
     7
370
    25
100
AcDbCircle
 10
636.5633574532
 20
450.8180071775
 30
0.0
 40
2.167924987958322
100
AcDbArc
 50
167.5515469092
 51
252.4430765581
  0
LWPOLYLINE
  5
199
330
1F
100
AcDbEntity
  8
0
  6
Continuous
 62
     7
370
    25
100
AcDbPolyline
 90
        3
 70
   128
 43
0.0
 10
782.8571490827
 20
466.4091703381
 10
782.8127189631
 20
466.7896522608
 10
782.7318380957
 20
467.0089080663
  0
ARC
  5
19A
330
1F
100
AcDbEntity
  8
0
  6
Continuous
 62
     7
370
    25
100
AcDbCircle
 10
780.1185426369
 20
466.4044201817
 30
0.0
 40
2.738610565414327
100
AcDbArc
 50
285.7332063341
 51
0.0993803415
  0
LWPOLYLINE
  5
19B
330
1F
100
AcDbEntity
  8
0
  6
Continuous
 62
     7
370
    25
100
AcDbPolyline
 90
        3
 70
   128
 43
0.0
 10
786.3926829887
 20
472.5328946771
 10
786.3482528691
 20
472.9133765997
 10
786.2673720016
 20
473.1326324053
  0
ARC
  5
19C
330
1F
100
AcDbEntity
  8
0
  6
Continuous
 62
     7
370
    25
100
AcDbCircle
 10
783.6540765429
 20
472.5281445206
 30
0.0
 40
2.738610565415303
100
AcDbArc
 50
285.7332063342
 51
0.0993803415
  0
LWPOLYLINE
  5
19D
330
1F
100
AcDbEntity
  8
0
  6
Continuous
 62
     7
370
    25
100
AcDbPolyline
 90
        3
 70
   128
 43
0.0
 10
789.9282168946
 20
478.6566190161
 10
789.883786775
 20
479.0371009387
 10
789.8029059075
 20
479.2563567442
  0
ARC
  5
19E
330
1F
100
AcDbEntity
  8
0
  6
Continuous
 62
     7
370
    25
100
AcDbCircle
 10
787.1896104488
 20
478.6518688596
 30
0.0
 40
2.738610565414668
100
AcDbArc
 50
285.7332063342
 51
0.0993803415
  0
ARC
  5
19F
330
1F
100
AcDbEntity
  8
0
  6
Continuous
 62
     7
370
    25
100
AcDbCircle
 10
639.7453379685
 20
441.6322216189
 30
0.0
 40
2.167924987958925
100
AcDbArc
 50
167.5515469092
 51
252.4430765581
  0
ARC
  5
1A0
330
1F
100
AcDbEntity
  8
0
  6
Continuous
 62
     7
370
    25
100
AcDbCircle
 10
636.5633574532
 20
447.143573524
 30
0.0
 40
2.167924987958566
100
AcDbArc
 50
167.5515469092
 51
252.4430765581
  0
ARC
  5
1A1
330
1F
100
AcDbEntity
  8
0
  6
Continuous
 62
     7
370
    25
100
AcDbCircle
 10
633.3813769378
 20
452.6549254291
 30
0.0
 40
2.167924987958965
100
AcDbArc
 50
167.5515469092
 51
252.4430765581
  0
LWPOLYLINE
  5
1A2
330
1F
100
AcDbEntity
  8
0
  6
Continuous
 62
     7
370
    25
100
AcDbPolyline
 90
        3
 70
   128
 43
0.0
 10
786.3926829887
 20
468.4501906177
 10
786.3482528691
 20
468.8306725403
 10
786.2673720016
 20
469.0499283458
  0
ARC
  5
1A3
330
1F
100
AcDbEntity
  8
0
  6
Continuous
 62
     7
370
    25
100
AcDbCircle
 10
783.6540765429
 20
468.4454404612
 30
0.0
 40
2.738610565414214
100
AcDbArc
 50
285.7332063341
 51
0.0993803415
  0
LWPOLYLINE
  5
1A4
330
1F
100
AcDbEntity
  8
0
  6
Continuous
 62
     7
370
    25
100
AcDbPolyline
 90
        3
 70
   128
 43
0.0
 10
789.9282168946
 20
474.5739149567
 10
789.883786775
 20
474.9543968793
 10
789.8029059075
 20
475.1736526848
  0
ARC
  5
1A5
330
1F
100
AcDbEntity
  8
0
  6
Continuous
 62
     7
370
    25
100
AcDbCircle
 10
787.1896104488
 20
474.5691648002
 30
0.0
 40
2.738610565413986
100
AcDbArc
 50
285.7332063341
 51
0.0993803415
  0
LWPOLYLINE
  5
1A6
330
1F
100
AcDbEntity
  8
0
  6
Continuous
 62
     7
370
    25
100
AcDbPolyline
 90
        3
 70
   128
 43
0.0
 10
793.4637508005
 20
480.6976392956
 10
793.4193206809
 20
481.0781212183
 10
793.3384398135
 20
481.2973770238
  0
ARC
  5
1A7
330
1F
100
AcDbEntity
  8
0
  6
Continuous
 62
     7
370
    25
100
AcDbCircle
 10
790.7251443547
 20
480.6928891392
 30
0.0
 40
2.738610565413759
100
AcDbArc
 50
285.7332063341
 51
0.0993803415
  0
ARC
  5
1A8
330
1F
100
AcDbEntity
  8
0
  6
Continuous
 62
     7
370
    25
100
AcDbCircle
 10
636.5633574532
 20
443.4691398705
 30
0.0
 40
2.167924987958783
100
AcDbArc
 50
167.5515469092
 51
252.4430765581
  0
ARC
  5
1A9
330
1F
100
AcDbEntity
  8
0
  6
Continuous
 62
     7
370
    25
100
AcDbCircle
 10
633.3813769378
 20
448.9804917756
 30
0.0
 40
2.167924987959732
100
AcDbArc
 50
167.5515469093
 51
252.443076558
  0
LWPOLYLINE
  5
1AA
330
1F
100
AcDbEntity
  8
0
  6
Continuous
 62
     7
370
    25
100
AcDbPolyline
 90
        3
 70
   128
 43
0.0
 10
789.9282168946
 20
470.4912108972
 10
789.883786775
 20
470.8716928199
 10
789.8029059075
 20
471.0909486254
  0
ARC
  5
1AB
330
1F
100
AcDbEntity
  8
0
  6
Continuous
 62
     7
370
    25
100
AcDbCircle
 10
787.1896104488
 20
470.4864607408
 30
0.0
 40
2.738610565414668
100
AcDbArc
 50
285.7332063342
 51
0.0993803415
  0
LWPOLYLINE
  5
1AC
330
1F
100
AcDbEntity
  8
0
  6
Continuous
 62
     7
370
    25
100
AcDbPolyline
 90
        3
 70
   128
 43
0.0
 10
793.4637508005
 20
476.6149352362
 10
793.4193206809
 20
476.9954171589
 10
793.3384398135
 20
477.2146729644
  0
ARC
  5
1AD
330
1F
100
AcDbEntity
  8
0
  6
Continuous
 62
     7
370
    25
100
AcDbCircle
 10
790.7251443547
 20
476.6101850798
 30
0.0
 40
2.738610565414481
100
AcDbArc
 50
285.7332063341
 51
0.0993803415
  0
LWPOLYLINE
  5
1AE
330
1F
100
AcDbEntity
  8
0
  6
Continuous
 62
     7
370
    25
100
AcDbPolyline
 90
        3
 70
   128
 43
0.0
 10
796.9992847065
 20
482.7386595752
 10
796.9548545869
 20
483.1191414978
 10
796.8739737194
 20
483.3383973034
  0
ARC
  5
1AF
330
1F
100
AcDbEntity
  8
0
  6
Continuous
 62
     7
370
    25
100
AcDbCircle
 10
794.2606782607
 20
482.7339094187
 30
0.0
 40
2.738610565414102
100
AcDbArc
 50
285.7332063341
 51
0.0993803415
  0
ARC
  5
1B0
330
1F
100
AcDbEntity
  8
0
  6
Continuous
 62
     7
370
    25
100
AcDbCircle
 10
633.3813769378
 20
445.3060581221
 30
0.0
 40
2.167924987959313
100
AcDbArc
 50
167.5515469092
 51
252.4430765581
  0
LWPOLYLINE
  5
1B1
330
1F
100
AcDbEntity
  8
0
  6
Continuous
 62
     7
370
    25
100
AcDbPolyline
 90
        3
 70
   128
 43
0.0
 10
793.4637508005
 20
472.5322311768
 10
793.4193206809
 20
472.9127130994
 10
793.3384398135
 20
473.1319689049
  0
ARC
  5
1B2
330
1F
100
AcDbEntity
  8
0
  6
Continuous
 62
     7
370
    25
100
AcDbCircle
 10
790.7251443547
 20
472.5274810203
 30
0.0
 40
2.738610565414287
100
AcDbArc
 50
285.7332063341
 51
0.0993803415
  0
LWPOLYLINE
  5
1B3
330
1F
100
AcDbEntity
  8
0
  6
Continuous
 62
     7
370
    25
100
AcDbPolyline
 90
        3
 70
   128
 43
0.0
 10
796.9992847065
 20
478.6559555158
 10
796.9548545869
 20
479.0364374384
 10
796.8739737194
 20
479.2556932439
  0
ARC
  5
1B4
330
1F
100
AcDbEntity
  8
0
  6
Continuous
 62
     7
370
    25
100
AcDbCircle
 10
794.2606782607
 20
478.6512053593
 30
0.0
 40
2.738610565414213
100
AcDbArc
 50
285.7332063341
 51
0.0993803415
  0
LWPOLYLINE
  5
1B5
330
1F
100
AcDbEntity
  8
0
  6
Continuous
 62
     7
370
    25
100
AcDbPolyline
 90
        3
 70
   128
 43
0.0
 10
796.9992847065
 20
474.5732514563
 10
796.9548545869
 20
474.953733379
 10
796.8739737194
 20
475.1729891845
  0
ARC
  5
1B6
330
1F
100
AcDbEntity
  8
0
  6
Continuous
 62
     7
370
    25
100
AcDbCircle
 10
794.2606782607
 20
474.5685012999
 30
0.0
 40
2.738610565413746
100
AcDbArc
 50
285.7332063341
 51
0.0993803415
  0
ARC
  5
1B7
330
1F
100
AcDbEntity
  8
0
  6
Continuous
 62
     7
370
    25
100
AcDbCircle
 10
697.0078032951
 20
433.1468032603
 30
0.0
 40
0.5290955456080584
100
AcDbArc
 50
174.4061926014
 51
233.9976066399
  0
ARC
  5
1B8
330
1F
100
AcDbEntity
  8
0
  6
Continuous
 62
     7
370
    25
100
AcDbCircle
 10
699.7402146051
 20
428.4135644417
 30
0.0
 40
0.5288100826793364
100
AcDbArc
 50
185.9501008594
 51
245.6030546931
  0
LINE
  5
1B9
330
1F
100
AcDbEntity
  8
0
  6
Continuous
 62
     7
370
    25
100
AcDbLine
 10
699.0862087156
 20
428.7418581064
 30
0.0
 11
699.1828036503
 21
428.7976211752
 31
0.0
  0
LINE
  5
1BA
330
1F
100
AcDbEntity
  8
0
  6
Continuous
 62
     7
370
    25
100
AcDbLine
 10
696.964888372
 20
432.4160927098
 30
0.0
 11
697.0571441807
 21
432.4693508545
 31
0.0
  0
ARC
  5
1BB
330
1F
100
AcDbEntity
  8
0
  6
Continuous
 62
     7
370
    25
100
AcDbCircle
 10
699.7397285286
 20
419.519227525
 30
0.0
 40
0.5280862424178115
100
AcDbArc
 50
185.6947992512
 51
245.6253417065
  0
ARC
  5
1BC
330
1F
100
AcDbEntity
  8
0
  6
Continuous
 62
     7
370
    25
100
AcDbCircle
 10
634.1245611743
 20
469.4208597333
 30
0.0
 40
0.5035018238671325
100
AcDbArc
 50
172.7441704474
 51
235.9436491592
  0
LINE
  5
1BD
330
1F
100
AcDbEntity
  8
0
  6
Continuous
 62
     7
370
    25
100
AcDbLine
 10
699.0862087156
 20
419.7599091756
 30
0.0
 11
699.214248613
 21
419.8338250351
 31
0.0
  0
LINE
  5
1BE
330
1F
100
AcDbEntity
  8
0
  6
Continuous
 62
     7
370
    25
100
AcDbLine
 10
634.0323848464
 20
468.7462536859
 30
0.0
 11
634.1604826141
 21
468.8202029531
 31
0.0
  0
LWPOLYLINE
  5
1BF
330
1F
100
AcDbEntity
  8
0
  6
Continuous
 62
     7
370
    25
100
AcDbPolyline
 90
        4
 70
   128
 43
0.0
 10
698.1122882063
 20
418.2617795632
 10
698.5004437613
 20
418.2785298618
 10
698.8486894539
 20
418.4075207157
 10
698.8488343623
 20
418.4076044116
  0
ARC
  5
1C0
330
1F
100
AcDbEntity
  8
0
  6
Continuous
 62
     7
370
    25
100
AcDbCircle
 10
698.1235289788
 20
417.1982126124
 30
0.0
 40
1.644456161974546
100
AcDbArc
 50
129.2902540074
 51
177.0667514805
  0
ARC
  5
1C1
330
1F
100
AcDbEntity
  8
0
  6
Continuous
 62
     7
370
    25
100
AcDbCircle
 10
635.2677931264
 20
453.4841330423
 30
0.0
 40
1.644863690632844
100
AcDbArc
 50
129.4188887383
 51
177.0620897757
  0
LWPOLYLINE
  5
1C2
330
1F
100
AcDbEntity
  8
0
  6
Continuous
 62
     7
370
    25
100
AcDbPolyline
 90
        3
 70
   128
 43
0.0
 10
632.7424085523
 20
469.2164395889
 10
632.4567556068
 20
468.9793696019
 10
632.2483525707
 20
468.6518595761
  0
ARC
  5
1C3
330
1F
100
AcDbEntity
  8
0
  6
Continuous
 62
     7
370
    25
100
AcDbCircle
 10
631.3328037472
 20
469.193208291
 30
0.0
 40
1.644681221905648
100
AcDbArc
 50
242.9373500346
 51
290.7055731518
  0
ARC
  5
1C4
330
1F
100
AcDbEntity
  8
0
  6
Continuous
 62
     7
370
    25
100
AcDbCircle
 10
631.332869862
 20
460.2998688845
 30
0.0
 40
1.645088096527888
100
AcDbArc
 50
242.9420040517
 51
290.5770868826
  0
MTEXT
  5
1C5
330
1F
100
AcDbEntity
  8
SLD-0
100
AcDbMText
 10
689.5173389934
 20
379.6456298446
 30
0.0
 40
5.2916666667
 41
0.0
 71
     1
 72
     1
  1
FREESTANDING
  7
SLDTEXTSTYLE0
 73
     1
 44
1.0
  0
CIRCLE
  5
1C6
330
1F
100
AcDbEntity
  8
0
  6
Continuous
 62
     7
370
    25
100
AcDbCircle
 10
380.6519710866
 20
295.4621579917
 30
0.0
 40
3.5
  0
CIRCLE
  5
1C7
330
1F
100
AcDbEntity
  8
0
  6
Continuous
 62
     7
370
    25
100
AcDbCircle
 10
295.1519710866
 20
274.2161579917
 30
0.0
 40
1.625
  0
CIRCLE
  5
1C8
330
1F
100
AcDbEntity
  8
0
  6
Continuous
 62
     7
370
    25
100
AcDbCircle
 10
326.6519710866
 20
278.7161579917
 30
0.0
 40
1.625000000000057
  0
CIRCLE
  5
1C9
330
1F
100
AcDbEntity
  8
0
  6
Continuous
 62
     7
370
    25
100
AcDbCircle
 10
308.6519710866
 20
274.2161579917
 30
0.0
 40
1.625
  0
CIRCLE
  5
1CA
330
1F
100
AcDbEntity
  8
0
  6
Continuous
 62
     7
370
    25
100
AcDbCircle
 10
299.6519710866
 20
274.2161579917
 30
0.0
 40
1.625
  0
CIRCLE
  5
1CB
330
1F
100
AcDbEntity
  8
0
  6
Continuous
 62
     7
370
    25
100
AcDbCircle
 10
376.1519710866
 20
278.7161579917
 30
0.0
 40
1.625000000000057
  0
CIRCLE
  5
1CC
330
1F
100
AcDbEntity
  8
0
  6
Continuous
 62
     7
370
    25
100
AcDbCircle
 10
380.6519710866
 20
278.7161579917
 30
0.0
 40
1.625
  0
CIRCLE
  5
1CD
330
1F
100
AcDbEntity
  8
0
  6
Continuous
 62
     7
370
    25
100
AcDbCircle
 10
367.1519710866
 20
278.7161579917
 30
0.0
 40
1.625
  0
CIRCLE
  5
1CE
330
1F
100
AcDbEntity
  8
0
  6
Continuous
 62
     7
370
    25
100
AcDbCircle
 10
371.6519710866
 20
278.7161579917
 30
0.0
 40
1.625
  0
CIRCLE
  5
1CF
330
1F
100
AcDbEntity
  8
0
  6
Continuous
 62
     7
370
    25
100
AcDbCircle
 10
376.1519710866
 20
283.2161579917
 30
0.0
 40
1.625
  0
CIRCLE
  5
1D0
330
1F
100
AcDbEntity
  8
0
  6
Continuous
 62
     7
370
    25
100
AcDbCircle
 10
380.6519710866
 20
283.2161579917
 30
0.0
 40
1.625000000000057
  0
CIRCLE
  5
1D1
330
1F
100
AcDbEntity
  8
0
  6
Continuous
 62
     7
370
    25
100
AcDbCircle
 10
340.1519710866
 20
274.2161579917
 30
0.0
 40
1.625
  0
CIRCLE
  5
1D2
330
1F
100
AcDbEntity
  8
0
  6
Continuous
 62
     7
370
    25
100
AcDbCircle
 10
317.6519710866
 20
274.2161579917
 30
0.0
 40
1.625
  0
CIRCLE
  5
1D3
330
1F
100
AcDbEntity
  8
0
  6
Continuous
 62
     7
370
    25
100
AcDbCircle
 10
313.1519710866
 20
274.2161579917
 30
0.0
 40
1.625
  0
CIRCLE
  5
1D4
330
1F
100
AcDbEntity
  8
0
  6
Continuous
 62
     7
370
    25
100
AcDbCircle
 10
326.6519710866
 20
274.2161579917
 30
0.0
 40
1.625
  0
CIRCLE
  5
1D5
330
1F
100
AcDbEntity
  8
0
  6
Continuous
 62
     7
370
    25
100
AcDbCircle
 10
335.6519710866
 20
274.2161579917
 30
0.0
 40
1.625000000000057
  0
CIRCLE
  5
1D6
330
1F
100
AcDbEntity
  8
0
  6
Continuous
 62
     7
370
    25
100
AcDbCircle
 10
389.6519710866
 20
274.2161579917
 30
0.0
 40
1.625
  0
CIRCLE
  5
1D7
330
1F
100
AcDbEntity
  8
0
  6
Continuous
 62
     7
370
    25
100
AcDbCircle
 10
385.1519710866
 20
283.2161579917
 30
0.0
 40
1.625
  0
CIRCLE
  5
1D8
330
1F
100
AcDbEntity
  8
0
  6
Continuous
 62
     7
370
    25
100
AcDbCircle
 10
389.6519710866
 20
283.2161579917
 30
0.0
 40
1.625
  0
CIRCLE
  5
1D9
330
1F
100
AcDbEntity
  8
0
  6
Continuous
 62
     7
370
    25
100
AcDbCircle
 10
367.1519710866
 20
283.2161579917
 30
0.0
 40
1.625000000000057
  0
CIRCLE
  5
1DA
330
1F
100
AcDbEntity
  8
0
  6
Continuous
 62
     7
370
    25
100
AcDbCircle
 10
371.6519710866
 20
283.2161579917
 30
0.0
 40
1.625
  0
CIRCLE
  5
1DB
330
1F
100
AcDbEntity
  8
0
  6
Continuous
 62
     7
370
    25
100
AcDbCircle
 10
295.1519710866
 20
278.7161579917
 30
0.0
 40
1.625
  0
CIRCLE
  5
1DC
330
1F
100
AcDbEntity
  8
0
  6
Continuous
 62
     7
370
    25
100
AcDbCircle
 10
295.1519710866
 20
283.2161579917
 30
0.0
 40
1.625
  0
CIRCLE
  5
1DD
330
1F
100
AcDbEntity
  8
0
  6
Continuous
 62
     7
370
    25
100
AcDbCircle
 10
358.1519710866
 20
283.2161579917
 30
0.0
 40
1.625
  0
CIRCLE
  5
1DE
330
1F
100
AcDbEntity
  8
0
  6
Continuous
 62
     7
370
    25
100
AcDbCircle
 10
362.6519710866
 20
283.2161579917
 30
0.0
 40
1.625
  0
CIRCLE
  5
1DF
330
1F
100
AcDbEntity
  8
0
  6
Continuous
 62
     7
370
    25
100
AcDbCircle
 10
376.1519710866
 20
274.2161579917
 30
0.0
 40
1.625
  0
CIRCLE
  5
1E0
330
1F
100
AcDbEntity
  8
0
  6
Continuous
 62
     7
370
    25
100
AcDbCircle
 10
380.6519710866
 20
274.2161579917
 30
0.0
 40
1.625
  0
CIRCLE
  5
1E1
330
1F
100
AcDbEntity
  8
0
  6
Continuous
 62
     7
370
    25
100
AcDbCircle
 10
308.6519710866
 20
278.7161579917
 30
0.0
 40
1.625
  0
CIRCLE
  5
1E2
330
1F
100
AcDbEntity
  8
0
  6
Continuous
 62
     7
370
    25
100
AcDbCircle
 10
353.6519710866
 20
274.2161579917
 30
0.0
 40
1.625
  0
CIRCLE
  5
1E3
330
1F
100
AcDbEntity
  8
0
  6
Continuous
 62
     7
370
    25
100
AcDbCircle
 10
349.1519710866
 20
274.2161579917
 30
0.0
 40
1.625
  0
CIRCLE
  5
1E4
330
1F
100
AcDbEntity
  8
0
  6
Continuous
 62
     7
370
    25
100
AcDbCircle
 10
362.6519710866
 20
274.2161579917
 30
0.0
 40
1.625
  0
CIRCLE
  5
1E5
330
1F
100
AcDbEntity
  8
0
  6
Continuous
 62
     7
370
    25
100
AcDbCircle
 10
331.1519710866
 20
283.2161579917
 30
0.0
 40
1.625
  0
CIRCLE
  5
1E6
330
1F
100
AcDbEntity
  8
0
  6
Continuous
 62
     7
370
    25
100
AcDbCircle
 10
304.1519710866
 20
278.7161579917
 30
0.0
 40
1.625
  0
CIRCLE
  5
1E7
330
1F
100
AcDbEntity
  8
0
  6
Continuous
 62
     7
370
    25
100
AcDbCircle
 10
299.6519710866
 20
278.7161579917
 30
0.0
 40
1.625
  0
CIRCLE
  5
1E8
330
1F
100
AcDbEntity
  8
0
  6
Continuous
 62
     7
370
    25
100
AcDbCircle
 10
313.1519710866
 20
278.7161579917
 30
0.0
 40
1.625
  0
CIRCLE
  5
1E9
330
1F
100
AcDbEntity
  8
0
  6
Continuous
 62
     7
370
    25
100
AcDbCircle
 10
313.1519710866
 20
283.2161579917
 30
0.0
 40
1.625000000000057
  0
CIRCLE
  5
1EA
330
1F
100
AcDbEntity
  8
0
  6
Continuous
 62
     7
370
    25
100
AcDbCircle
 10
358.1519710866
 20
278.7161579917
 30
0.0
 40
1.625
  0
CIRCLE
  5
1EB
330
1F
100
AcDbEntity
  8
0
  6
Continuous
 62
     7
370
    25
100
AcDbCircle
 10
353.6519710866
 20
278.7161579917
 30
0.0
 40
1.624999999999943
  0
CIRCLE
  5
1EC
330
1F
100
AcDbEntity
  8
0
  6
Continuous
 62
     7
370
    25
100
AcDbCircle
 10
299.6519710866
 20
283.2161579917
 30
0.0
 40
1.625
  0
CIRCLE
  5
1ED
330
1F
100
AcDbEntity
  8
0
  6
Continuous
 62
     7
370
    25
100
AcDbCircle
 10
322.1519710866
 20
274.2161579917
 30
0.0
 40
1.625
  0
CIRCLE
  5
1EE
330
1F
100
AcDbEntity
  8
0
  6
Continuous
 62
     7
370
    25
100
AcDbCircle
 10
308.6519710866
 20
283.2161579917
 30
0.0
 40
1.625000000000057
  0
CIRCLE
  5
1EF
330
1F
100
AcDbEntity
  8
0
  6
Continuous
 62
     7
370
    25
100
AcDbCircle
 10
304.1519710866
 20
283.2161579917
 30
0.0
 40
1.625
  0
CIRCLE
  5
1F0
330
1F
100
AcDbEntity
  8
0
  6
Continuous
 62
     7
370
    25
100
AcDbCircle
 10
317.6519710866
 20
283.2161579917
 30
0.0
 40
1.625000000000057
  0
CIRCLE
  5
1F1
330
1F
100
AcDbEntity
  8
0
  6
Continuous
 62
     7
370
    25
100
AcDbCircle
 10
349.1519710866
 20
283.2161579917
 30
0.0
 40
1.624999999999943
  0
CIRCLE
  5
1F2
330
1F
100
AcDbEntity
  8
0
  6
Continuous
 62
     7
370
    25
100
AcDbCircle
 10
326.6519710866
 20
283.2161579917
 30
0.0
 40
1.625
  0
CIRCLE
  5
1F3
330
1F
100
AcDbEntity
  8
0
  6
Continuous
 62
     7
370
    25
100
AcDbCircle
 10
322.1519710866
 20
283.2161579917
 30
0.0
 40
1.625
  0
CIRCLE
  5
1F4
330
1F
100
AcDbEntity
  8
0
  6
Continuous
 62
     7
370
    25
100
AcDbCircle
 10
335.6519710866
 20
283.2161579917
 30
0.0
 40
1.625
  0
CIRCLE
  5
1F5
330
1F
100
AcDbEntity
  8
0
  6
Continuous
 62
     7
370
    25
100
AcDbCircle
 10
362.6519710866
 20
278.7161579917
 30
0.0
 40
1.625
  0
CIRCLE
  5
1F6
330
1F
100
AcDbEntity
  8
0
  6
Continuous
 62
     7
370
    25
100
AcDbCircle
 10
344.6519710866
 20
283.2161579917
 30
0.0
 40
1.624999999999943
  0
CIRCLE
  5
1F7
330
1F
100
AcDbEntity
  8
0
  6
Continuous
 62
     7
370
    25
100
AcDbCircle
 10
340.1519710866
 20
283.2161579917
 30
0.0
 40
1.625
  0
CIRCLE
  5
1F8
330
1F
100
AcDbEntity
  8
0
  6
Continuous
 62
     7
370
    25
100
AcDbCircle
 10
353.6519710866
 20
283.2161579917
 30
0.0
 40
1.624999999999943
  0
LINE
  5
1F9
330
1F
100
AcDbEntity
  8
0
  6
Continuous
 62
     7
370
    25
100
AcDbLine
 10
396.9019710866
 20
311.6161579917
 30
0.0
 11
287.9019710866
 21
311.6161579917
 31
0.0
  0
LINE
  5
1FA
330
1F
100
AcDbEntity
  8
0
  6
Continuous
 62
     7
370
    25
100
AcDbLine
 10
396.9019710866
 20
269.2161579917
 30
0.0
 11
396.9019710866
 21
311.6161579917
 31
0.0
  0
LINE
  5
1FB
330
1F
100
AcDbEntity
  8
0
  6
Continuous
 62
     7
370
    25
100
AcDbLine
 10
287.9019710866
 20
269.2161579917
 30
0.0
 11
396.9019710866
 21
269.2161579917
 31
0.0
  0
LINE
  5
1FC
330
1F
100
AcDbEntity
  8
0
  6
Continuous
 62
     7
370
    25
100
AcDbLine
 10
287.9019710866
 20
311.6161579917
 30
0.0
 11
287.9019710866
 21
269.2161579917
 31
0.0
  0
CIRCLE
  5
1FD
330
1F
100
AcDbEntity
  8
0
  6
Continuous
 62
     7
370
    25
100
AcDbCircle
 10
349.1519710866
 20
278.7161579917
 30
0.0
 40
1.624999999999943
  0
CIRCLE
  5
1FE
330
1F
100
AcDbEntity
  8
0
  6
Continuous
 62
     7
370
    25
100
AcDbCircle
 10
385.1519710866
 20
274.2161579917
 30
0.0
 40
1.625
  0
CIRCLE
  5
1FF
330
1F
100
AcDbEntity
  8
0
  6
Continuous
 62
     7
370
    25
100
AcDbCircle
 10
335.6519710866
 20
278.7161579917
 30
0.0
 40
1.625
  0
CIRCLE
  5
200
330
1F
100
AcDbEntity
  8
0
  6
Continuous
 62
     7
370
    25
100
AcDbCircle
 10
389.6519710866
 20
278.7161579917
 30
0.0
 40
1.625000000000057
  0
CIRCLE
  5
201
330
1F
100
AcDbEntity
  8
0
  6
Continuous
 62
     7
370
    25
100
AcDbCircle
 10
340.1519710866
 20
278.7161579917
 30
0.0
 40
1.625
  0
CIRCLE
  5
202
330
1F
100
AcDbEntity
  8
0
  6
Continuous
 62
     7
370
    25
100
AcDbCircle
 10
385.1519710866
 20
278.7161579917
 30
0.0
 40
1.625000000000057
  0
CIRCLE
  5
203
330
1F
100
AcDbEntity
  8
0
  6
Continuous
 62
     7
370
    25
100
AcDbCircle
 10
358.1519710866
 20
274.2161579917
 30
0.0
 40
1.625000000000057
  0
CIRCLE
  5
204
330
1F
100
AcDbEntity
  8
0
  6
Continuous
 62
     7
370
    25
100
AcDbCircle
 10
371.6519710866
 20
274.2161579917
 30
0.0
 40
1.625
  0
CIRCLE
  5
205
330
1F
100
AcDbEntity
  8
0
  6
Continuous
 62
     7
370
    25
100
AcDbCircle
 10
331.1519710866
 20
278.7161579917
 30
0.0
 40
1.625000000000057
  0
CIRCLE
  5
206
330
1F
100
AcDbEntity
  8
0
  6
Continuous
 62
     7
370
    25
100
AcDbCircle
 10
367.1519710866
 20
274.2161579917
 30
0.0
 40
1.625
  0
CIRCLE
  5
207
330
1F
100
AcDbEntity
  8
0
  6
Continuous
 62
     7
370
    25
100
AcDbCircle
 10
317.6519710866
 20
278.7161579917
 30
0.0
 40
1.625
  0
CIRCLE
  5
208
330
1F
100
AcDbEntity
  8
0
  6
Continuous
 62
     7
370
    25
100
AcDbCircle
 10
344.6519710866
 20
274.2161579917
 30
0.0
 40
1.625
  0
CIRCLE
  5
209
330
1F
100
AcDbEntity
  8
0
  6
Continuous
 62
     7
370
    25
100
AcDbCircle
 10
322.1519710866
 20
278.7161579917
 30
0.0
 40
1.625
  0
CIRCLE
  5
20A
330
1F
100
AcDbEntity
  8
0
  6
Continuous
 62
     7
370
    25
100
AcDbCircle
 10
331.1519710866
 20
274.2161579917
 30
0.0
 40
1.625
  0
CIRCLE
  5
20B
330
1F
100
AcDbEntity
  8
0
  6
Continuous
 62
     7
370
    25
100
AcDbCircle
 10
344.6519710866
 20
278.7161579917
 30
0.0
 40
1.624999999999943
  0
CIRCLE
  5
20C
330
1F
100
AcDbEntity
  8
0
  6
Continuous
 62
     7
370
    25
100
AcDbCircle
 10
304.1519710866
 20
274.2161579917
 30
0.0
 40
1.625
  0
LINE
  5
20D
330
1F
100
AcDbEntity
  8
0
  6
Continuous
 62
     7
370
    25
100
AcDbLine
 10
297.9559710866
 20
288.0161579917
 30
0.0
 11
386.8479710866
 21
288.0161579917
 31
0.0
  0
ARC
  5
20E
330
1F
100
AcDbEntity
  8
0
  6
Continuous
 62
     7
370
    25
100
AcDbCircle
 10
386.8479710866
 20
291.2661579917
 30
0.0
 40
3.25
100
AcDbArc
 50
270.0
 51
0.0
  0
LINE
  5
20F
330
1F
100
AcDbEntity
  8
0
  6
Continuous
 62
     7
370
    25
100
AcDbLine
 10
390.0979710866
 20
291.2661579917
 30
0.0
 11
390.0979710866
 21
302.1581579917
 31
0.0
  0
ARC
  5
210
330
1F
100
AcDbEntity
  8
0
  6
Continuous
 62
     7
370
    25
100
AcDbCircle
 10
386.8479710866
 20
302.1581579917
 30
0.0
 40
3.250000000000057
100
AcDbArc
 50
0.0
 51
90.0
  0
ARC
  5
211
330
1F
100
AcDbEntity
  8
0
  6
Continuous
 62
     7
370
    25
100
AcDbCircle
 10
297.9559710866
 20
291.2661579917
 30
0.0
 40
3.25
100
AcDbArc
 50
180.0
 51
270.0
  0
LINE
  5
212
330
1F
100
AcDbEntity
  8
0
  6
Continuous
 62
     7
370
    25
100
AcDbLine
 10
294.7059710866
 20
302.1581579917
 30
0.0
 11
294.7059710866
 21
291.2661579917
 31
0.0
  0
ARC
  5
213
330
1F
100
AcDbEntity
  8
0
  6
Continuous
 62
     7
370
    25
100
AcDbCircle
 10
297.9559710866
 20
302.1581579917
 30
0.0
 40
3.25
100
AcDbArc
 50
90.0
 51
180.0
  0
LINE
  5
214
330
1F
100
AcDbEntity
  8
0
  6
Continuous
 62
     7
370
    25
100
AcDbLine
 10
386.8479710866
 20
305.4081579917
 30
0.0
 11
297.9559710866
 21
305.4081579917
 31
0.0
  0
LINE
  5
215
330
1F
100
AcDbEntity
  8
0
  6
Continuous
 62
     7
370
    25
100
AcDbLine
 10
389.9019710866
 20
291.2121579917
 30
0.0
 11
389.9019710866
 21
302.2121579917
 31
0.0
  0
LINE
  5
216
330
1F
100
AcDbEntity
  8
0
  6
Continuous
 62
     7
370
    25
100
AcDbLine
 10
297.9019710866
 20
288.2121579917
 30
0.0
 11
386.9019710866
 21
288.2121579917
 31
0.0
  0
LINE
  5
217
330
1F
100
AcDbEntity
  8
0
  6
Continuous
 62
     7
370
    25
100
AcDbLine
 10
386.9019710866
 20
305.2121579917
 30
0.0
 11
297.9019710866
 21
305.2121579917
 31
0.0
  0
LINE
  5
218
330
1F
100
AcDbEntity
  8
0
  6
Continuous
 62
     7
370
    25
100
AcDbLine
 10
294.9019710866
 20
302.2121579917
 30
0.0
 11
294.9019710866
 21
291.2121579917
 31
0.0
  0
ARC
  5
219
330
1F
100
AcDbEntity
  8
0
  6
Continuous
 62
     7
370
    25
100
AcDbCircle
 10
297.9019710866
 20
291.2121579917
 30
0.0
 40
3.0
100
AcDbArc
 50
180.0
 51
270.0
  0
ARC
  5
21A
330
1F
100
AcDbEntity
  8
0
  6
Continuous
 62
     7
370
    25
100
AcDbCircle
 10
386.9019710866
 20
291.2121579917
 30
0.0
 40
3.0
100
AcDbArc
 50
270.0
 51
0.0
  0
ARC
  5
21B
330
1F
100
AcDbEntity
  8
0
  6
Continuous
 62
     7
370
    25
100
AcDbCircle
 10
297.9019710866
 20
302.2121579917
 30
0.0
 40
3.0
100
AcDbArc
 50
90.0
 51
180.0
  0
CIRCLE
  5
21C
330
1F
100
AcDbEntity
  8
0
  6
Continuous
 62
     7
370
    25
100
AcDbCircle
 10
380.6519710866
 20
295.4621579917
 30
0.0
 40
3.699999999999989
  0
ARC
  5
21D
330
1F
100
AcDbEntity
  8
0
  6
Continuous
 62
     7
370
    25
100
AcDbCircle
 10
386.9019710866
 20
302.2121579917
 30
0.0
 40
3.0
100
AcDbArc
 50
0.0
 51
90.0
  0
ARC
  5
21E
330
1F
100
AcDbEntity
  8
0
  6
PHANTOM
 62
     1
370
    18
100
AcDbCircle
 10
297.9559710866
 20
302.1581579917
 30
0.0
 40
4.300000000000068
100
AcDbArc
 50
90.0
 51
180.0
  0
LINE
  5
21F
330
1F
100
AcDbEntity
  8
0
  6
PHANTOM
 62
     1
370
    18
100
AcDbLine
 10
293.6559710866
 20
291.2661579917
 30
0.0
 11
293.6559710866
 21
302.1581579917
 31
0.0
  0
ARC
  5
220
330
1F
100
AcDbEntity
  8
0
  6
PHANTOM
 62
     1
370
    18
100
AcDbCircle
 10
297.9559710866
 20
291.2661579917
 30
0.0
 40
4.300000000000068
100
AcDbArc
 50
180.0
 51
270.0
  0
LINE
  5
221
330
1F
100
AcDbEntity
  8
0
  6
PHANTOM
 62
     1
370
    18
100
AcDbLine
 10
386.8479710866
 20
286.9661579917
 30
0.0
 11
297.9559710866
 21
286.9661579917
 31
0.0
  0
ARC
  5
222
330
1F
100
AcDbEntity
  8
0
  6
PHANTOM
 62
     1
370
    18
100
AcDbCircle
 10
386.8479710866
 20
291.2661579917
 30
0.0
 40
4.300000000000068
100
AcDbArc
 50
270.0
 51
0.0
  0
LINE
  5
223
330
1F
100
AcDbEntity
  8
0
  6
PHANTOM
 62
     1
370
    18
100
AcDbLine
 10
391.1479710866
 20
302.1581579917
 30
0.0
 11
391.1479710866
 21
291.2661579917
 31
0.0
  0
ARC
  5
224
330
1F
100
AcDbEntity
  8
0
  6
PHANTOM
 62
     1
370
    18
100
AcDbCircle
 10
386.8479710866
 20
302.1581579917
 30
0.0
 40
4.300000000000068
100
AcDbArc
 50
0.0
 51
90.0
  0
LINE
  5
225
330
1F
100
AcDbEntity
  8
0
  6
PHANTOM
 62
     1
370
    18
100
AcDbLine
 10
297.9559710866
 20
306.4581579917
 30
0.0
 11
386.8479710866
 21
306.4581579917
 31
0.0
  0
LINE
  5
226
330
1F
100
AcDbEntity
  8
0
  6
PHANTOM
 62
     1
370
    18
100
AcDbLine
 10
386.8479710866
 20
288.0161579917
 30
0.0
 11
386.8479710866
 21
286.9661579917
 31
0.0
  0
LINE
  5
227
330
1F
100
AcDbEntity
  8
0
  6
PHANTOM
 62
     1
370
    18
100
AcDbLine
 10
297.9559710866
 20
288.0161579917
 30
0.0
 11
297.9559710866
 21
286.9661579917
 31
0.0
  0
LINE
  5
228
330
1F
100
AcDbEntity
  8
0
  6
PHANTOM
 62
     1
370
    18
100
AcDbLine
 10
390.0979710866
 20
291.2661579917
 30
0.0
 11
391.1479710866
 21
291.2661579917
 31
0.0
  0
LINE
  5
229
330
1F
100
AcDbEntity
  8
0
  6
PHANTOM
 62
     1
370
    18
100
AcDbLine
 10
390.0979710866
 20
302.1581579917
 30
0.0
 11
391.1479710866
 21
302.1581579917
 31
0.0
  0
LINE
  5
22A
330
1F
100
AcDbEntity
  8
0
  6
PHANTOM
 62
     1
370
    18
100
AcDbLine
 10
386.8479710866
 20
306.4581579917
 30
0.0
 11
386.8479710866
 21
305.4081579917
 31
0.0
  0
LINE
  5
22B
330
1F
100
AcDbEntity
  8
0
  6
PHANTOM
 62
     1
370
    18
100
AcDbLine
 10
293.6559710866
 20
291.2661579917
 30
0.0
 11
294.7059710866
 21
291.2661579917
 31
0.0
  0
LINE
  5
22C
330
1F
100
AcDbEntity
  8
0
  6
PHANTOM
 62
     1
370
    18
100
AcDbLine
 10
293.6559710866
 20
302.1581579917
 30
0.0
 11
294.7059710866
 21
302.1581579917
 31
0.0
  0
LINE
  5
22D
330
1F
100
AcDbEntity
  8
0
  6
PHANTOM
 62
     1
370
    18
100
AcDbLine
 10
297.9559710866
 20
306.4581579917
 30
0.0
 11
297.9559710866
 21
305.4081579917
 31
0.0
  0
DIMENSION
  5
22E
330
1F
100
AcDbEntity
  8
SLD-0
100
AcDbDimension
  2
_D
 10
396.9019710866
 20
331.6161579917
 30
0.0
 11
342.4019710866
 21
331.6161579917
 31
0.0
 70
   160
  1
<>
 71
     2
 42
-1.0
  3
SLDDIMSTYLE0
100
AcDbAlignedDimension
 13
287.9019710866
 23
311.6161579917
 33
0.0
 14
396.9019710866
 24
311.6161579917
 34
0.0
100
AcDbRotatedDimension
  0
MTEXT
  5
23A
330
1F
100
AcDbEntity
  8
SLD-0
100
AcDbMText
 10
264.1179433969
 20
257.2657755512
 30
0.0
 40
4.7625
 41
0.0
 71
     1
 72
     1
  1
INTAKE
  7
SLDTEXTSTYLE0
 73
     1
 44
1.0
  0
LEADER
  5
23C
330
1F
100
AcDbEntity
  8
SLD-0
100
AcDbLeader
  3
SLDDIMSTYLE1
 76
     3
 10
299.1727046191
 20
272.6634414518
 30
0.0
 10
289.6319389605
 20
254.9393949844
 30
0.0
 10
285.6319389605
 20
254.9393949844
 30
0.0
  0
LINE
  5
23D
330
1F
100
AcDbEntity
  8
0
  6
Continuous
 62
     7
370
    25
100
AcDbLine
 10
377.1519710866
 20
386.5157793996
 30
0.0
 11
377.1519710866
 21
386.3157793996
 31
0.0
  0
LINE
  5
23E
330
1F
100
AcDbEntity
  8
0
  6
Continuous
 62
     7
370
    25
100
AcDbLine
 10
384.1519710866
 20
386.3157793996
 30
0.0
 11
384.1519710866
 21
386.5157793996
 31
0.0
  0
LINE
  5
23F
330
1F
100
AcDbEntity
  8
0
  6
Continuous
 62
     7
370
    25
100
AcDbLine
 10
396.9019710866
 20
386.5157793996
 30
0.0
 11
287.9019710866
 21
386.5157793996
 31
0.0
  0
LINE
  5
240
330
1F
100
AcDbEntity
  8
0
  6
Continuous
 62
     7
370
    25
100
AcDbLine
 10
287.9019710866
 20
386.5157793996
 30
0.0
 11
287.9019710866
 21
526.5157793996
 31
0.0
  0
LINE
  5
241
330
1F
100
AcDbEntity
  8
0
  6
Continuous
 62
     7
370
    25
100
AcDbLine
 10
396.9019710866
 20
526.5157793996
 30
0.0
 11
287.9019710866
 21
526.5157793996
 31
0.0
  0
LINE
  5
242
330
1F
100
AcDbEntity
  8
0
  6
Continuous
 62
     7
370
    25
100
AcDbLine
 10
396.9019710866
 20
386.5157793996
 30
0.0
 11
396.9019710866
 21
526.5157793996
 31
0.0
  0
LINE
  5
243
330
1F
100
AcDbEntity
  8
0
  6
Continuous
 62
     7
370
    25
100
AcDbLine
 10
384.1519710866
 20
386.3157793996
 30
0.0
 11
377.1519710866
 21
386.3157793996
 31
0.0
  0
DIMENSION
  5
244
330
1F
100
AcDbEntity
  8
SLD-0
100
AcDbDimension
  2
_D_1
 10
428.9019710866
 20
386.5157793996
 30
0.0
 11
428.9019710866
 21
456.5157793996
 31
0.0
 70
   160
  1
<>
 71
     2
 42
-1.0
  3
SLDDIMSTYLE0
100
AcDbAlignedDimension
 13
396.9019710866
 23
526.5157793996
 33
0.0
 14
396.9019710866
 24
386.5157793996
 34
0.0
 50
90.0
100
AcDbRotatedDimension
  0
LINE
  5
24F
330
1F
100
AcDbEntity
  8
0
  6
Continuous
 62
     7
370
    25
100
AcDbLine
 10
384.1519710866
 20
191.9290985836
 30
0.0
 11
384.1519710866
 21
192.1290985836
 31
0.0
  0
LINE
  5
250
330
1F
100
AcDbEntity
  8
0
  6
Continuous
 62
     7
370
    25
100
AcDbLine
 10
377.1519710866
 20
192.1290985836
 30
0.0
 11
377.1519710866
 21
191.9290985836
 31
0.0
  0
LINE
  5
251
330
1F
100
AcDbEntity
  8
0
  6
Continuous
 62
     7
370
    25
100
AcDbLine
 10
329.7019710866
 20
53.8290985836
 30
0.0
 11
329.7019710866
 21
51.9290985836
 31
0.0
  0
LINE
  5
252
330
1F
100
AcDbEntity
  8
0
  6
Continuous
 62
     7
370
    25
100
AcDbLine
 10
287.9019710866
 20
51.9290985836
 30
0.0
 11
329.7019710866
 21
51.9290985836
 31
0.0
  0
LINE
  5
253
330
1F
100
AcDbEntity
  8
0
  6
Continuous
 62
     7
370
    25
100
AcDbLine
 10
287.9019710866
 20
191.9290985836
 30
0.0
 11
287.9019710866
 21
51.9290985836
 31
0.0
  0
LINE
  5
254
330
1F
100
AcDbEntity
  8
0
  6
Continuous
 62
     7
370
    25
100
AcDbLine
 10
287.9019710866
 20
191.9290985836
 30
0.0
 11
396.9019710866
 21
191.9290985836
 31
0.0
  0
LINE
  5
255
330
1F
100
AcDbEntity
  8
0
  6
Continuous
 62
     7
370
    25
100
AcDbLine
 10
396.9019710866
 20
191.9290985836
 30
0.0
 11
396.9019710866
 21
51.9290985836
 31
0.0
  0
LINE
  5
256
330
1F
100
AcDbEntity
  8
0
  6
Continuous
 62
     7
370
    25
100
AcDbLine
 10
335.7019710866
 20
51.9290985836
 30
0.0
 11
396.9019710866
 21
51.9290985836
 31
0.0
  0
LINE
  5
257
330
1F
100
AcDbEntity
  8
0
  6
Continuous
 62
     7
370
    25
100
AcDbLine
 10
335.7019710866
 20
53.8290985836
 30
0.0
 11
335.7019710866
 21
51.9290985836
 31
0.0
  0
LINE
  5
258
330
1F
100
AcDbEntity
  8
0
  6
Continuous
 62
     7
370
    25
100
AcDbLine
 10
335.7019710866
 20
53.8290985836
 30
0.0
 11
329.7019710866
 21
53.8290985836
 31
0.0
  0
CIRCLE
  5
259
330
1F
100
AcDbEntity
  8
0
  6
Continuous
 62
     7
370
    25
100
AcDbCircle
 10
297.4019710866
 20
183.9290985836
 30
0.0
 40
1.75
  0
CIRCLE
  5
25A
330
1F
100
AcDbEntity
  8
0
  6
Continuous
 62
     7
370
    25
100
AcDbCircle
 10
387.4019710866
 20
183.9290985836
 30
0.0
 40
1.75
  0
CIRCLE
  5
25B
330
1F
100
AcDbEntity
  8
0
  6
Continuous
 62
     7
370
    25
100
AcDbCircle
 10
297.4019710866
 20
183.9290985836
 30
0.0
 40
1.300000000000011
  0
CIRCLE
  5
25C
330
1F
100
AcDbEntity
  8
0
  6
Continuous
 62
     7
370
    25
100
AcDbCircle
 10
387.4019710866
 20
183.9290985836
 30
0.0
 40
1.300000000000011
  0
LINE
  5
25D
330
1F
100
AcDbEntity
  8
0
  6
Continuous
 62
     7
370
    25
100
AcDbLine
 10
329.7019710866
 20
51.9290985836
 30
0.0
 11
335.7019710866
 21
51.9290985836
 31
0.0
  0
LINE
  5
25E
330
1F
100
AcDbEntity
  8
0
  6
Continuous
 62
     7
370
    25
100
AcDbLine
 10
377.1519710866
 20
192.1290985836
 30
0.0
 11
384.1519710866
 21
192.1290985836
 31
0.0
  0
LINE
  5
25F
330
1F
100
AcDbEntity
  8
SLD-0
100
AcDbLine
 10
297.4019710866
 20
183.9290985836
 30
0.0
 11
387.4019710866
 21
183.9290985836
 31
0.0
  0
DIMENSION
  5
260
330
1F
100
AcDbEntity
  8
SLD-0
100
AcDbDimension
  2
_D_2
 10
387.4019710866
 20
219.7687391424
 30
0.0
 11
342.4019710866
 21
219.7687391424
 31
0.0
 70
   160
  1
<>
 71
     2
 42
-1.0
  3
SLDDIMSTYLE0
100
AcDbAlignedDimension
 13
297.4019710866
 23
187.6790985836
 33
0.0
 14
387.4019710866
 24
187.6790985836
 34
0.0
100
AcDbRotatedDimension
  0
DIMENSION
  5
26B
330
1F
100
AcDbEntity
  8
SLD-0
100
AcDbDimension
  2
_D_3
 10
413.3905028933
 20
183.9290985836
 30
0.0
 11
413.3905028933
 21
170.7761799302
 31
0.0
 70
   160
  1
<>
 71
     2
 42
-1.0
  3
SLDDIMSTYLE2
100
AcDbAlignedDimension
 13
396.9019710866
 23
191.9290985836
 33
0.0
 14
391.1519710866
 24
183.9290985836
 34
0.0
 50
90.0
100
AcDbRotatedDimension
  0
INSERT
  5
27D
330
1F
100
AcDbEntity
  8
SLD-0
100
AcDbBlockReference
  2
SW_SYMBOL_MOD_CL
 10
338.3346637485
 20
199.4598212136
 30
0.0
 41
0.0030416748
 42
0.0030416748
 43
0.0030416748
  0
INSERT
  5
286
102
{ACAD_REACTORS
330
287
102
}
330
1F
100
AcDbEntity
  8
SLD-0
100
AcDbBlockReference
  2
SW_NOTE_0_1
 10
416.6140904311
 20
218.2965299685
 30
0.0
  0
LEADER
  5
287
330
1F
100
AcDbEntity
  8
SLD-0
100
AcDbLeader
  3
SLDDIMSTYLE1
 73
     2
 76
     3
 10
388.7714069322
 20
185.0186606354
 30
0.0
 10
412.6140904311
 20
218.2965299685
 30
0.0
 10
416.6140904311
 20
218.2965299685
 30
0.0
340
286
  0
INSERT
  5
293
330
1F
100
AcDbEntity
  8
SLD-0
100
AcDbBlockReference
  2
SW_CENTERMARKSYMBOL_0
 10
297.4019710866
 20
183.9290985836
 30
0.0
  0
INSERT
  5
29F
330
1F
100
AcDbEntity
  8
SLD-0
100
AcDbBlockReference
  2
SW_CENTERMARKSYMBOL_1
 10
387.4019710866
 20
183.9290985836
 30
0.0
  0
LINE
  5
2A0
330
1F
100
AcDbEntity
  8
SLD-0
  6
CENTERX2
370
    18
100
AcDbLine
 10
342.4019710866
 20
195.9290985836
 30
0.0
 11
342.4019710866
 21
47.9290985836
 31
0.0
  0
LINE
  5
2A1
330
1F
100
AcDbEntity
  8
0
  6
Continuous
 62
     7
370
    25
100
AcDbLine
 10
473.0552119409
 20
298.9621579917
 30
0.0
 11
472.8552119409
 21
298.9621579917
 31
0.0
  0
LINE
  5
2A2
330
1F
100
AcDbEntity
  8
0
  6
Continuous
 62
     7
370
    25
100
AcDbLine
 10
472.8552119409
 20
291.9621579917
 30
0.0
 11
473.0552119409
 21
291.9621579917
 31
0.0
  0
LINE
  5
2A3
330
1F
100
AcDbEntity
  8
0
  6
Continuous
 62
     7
370
    25
100
AcDbLine
 10
473.0552119409
 20
269.2161579917
 30
0.0
 11
473.0552119409
 21
311.6161579917
 31
0.0
  0
LINE
  5
2A4
330
1F
100
AcDbEntity
  8
0
  6
Continuous
 62
     7
370
    25
100
AcDbLine
 10
473.0552119409
 20
311.6161579917
 30
0.0
 11
613.0552119409
 21
311.6161579917
 31
0.0
  0
LINE
  5
2A5
330
1F
100
AcDbEntity
  8
0
  6
Continuous
 62
     7
370
    25
100
AcDbLine
 10
613.0552119409
 20
269.2161579917
 30
0.0
 11
613.0552119409
 21
311.6161579917
 31
0.0
  0
CIRCLE
  5
2A6
330
1F
100
AcDbEntity
  8
0
  6
Continuous
 62
     7
370
    25
100
AcDbCircle
 10
604.1552119409
 20
305.1161579917
 30
0.0
 40
1.999999999999091
  0
CIRCLE
  5
2A7
330
1F
100
AcDbEntity
  8
0
  6
Continuous
 62
     7
370
    25
100
AcDbCircle
 10
604.1552119409
 20
295.1161579917
 30
0.0
 40
1.999999999999204
  0
CIRCLE
  5
2A8
330
1F
100
AcDbEntity
  8
0
  6
Continuous
 62
     7
370
    25
100
AcDbCircle
 10
559.1552119409
 20
305.1161579917
 30
0.0
 40
1.999999999999091
  0
CIRCLE
  5
2A9
330
1F
100
AcDbEntity
  8
0
  6
Continuous
 62
     7
370
    25
100
AcDbCircle
 10
569.1552119409
 20
295.1161579917
 30
0.0
 40
1.999999999999091
  0
CIRCLE
  5
2AA
330
1F
100
AcDbEntity
  8
0
  6
Continuous
 62
     7
370
    25
100
AcDbCircle
 10
569.1552119409
 20
300.1161579917
 30
0.0
 40
1.999999999999204
  0
CIRCLE
  5
2AB
330
1F
100
AcDbEntity
  8
0
  6
Continuous
 62
     7
370
    25
100
AcDbCircle
 10
604.1552119409
 20
300.1161579917
 30
0.0
 40
1.999999999999091
  0
CIRCLE
  5
2AC
330
1F
100
AcDbEntity
  8
0
  6
Continuous
 62
     7
370
    25
100
AcDbCircle
 10
564.1552119409
 20
305.1161579917
 30
0.0
 40
1.999999999999091
  0
CIRCLE
  5
2AD
330
1F
100
AcDbEntity
  8
0
  6
Continuous
 62
     7
370
    25
100
AcDbCircle
 10
579.1552119409
 20
295.1161579917
 30
0.0
 40
1.999999999999091
  0
CIRCLE
  5
2AE
330
1F
100
AcDbEntity
  8
0
  6
Continuous
 62
     7
370
    25
100
AcDbCircle
 10
584.1552119409
 20
295.1161579917
 30
0.0
 40
1.999999999999204
  0
CIRCLE
  5
2AF
330
1F
100
AcDbEntity
  8
0
  6
Continuous
 62
     7
370
    25
100
AcDbCircle
 10
574.1552119409
 20
295.1161579917
 30
0.0
 40
1.999999999999091
  0
CIRCLE
  5
2B0
330
1F
100
AcDbEntity
  8
0
  6
Continuous
 62
     7
370
    25
100
AcDbCircle
 10
564.1552119409
 20
300.1161579917
 30
0.0
 40
1.999999999999204
  0
CIRCLE
  5
2B1
330
1F
100
AcDbEntity
  8
0
  6
Continuous
 62
     7
370
    25
100
AcDbCircle
 10
579.1552119409
 20
305.1161579917
 30
0.0
 40
1.999999999999204
  0
CIRCLE
  5
2B2
330
1F
100
AcDbEntity
  8
0
  6
Continuous
 62
     7
370
    25
100
AcDbCircle
 10
574.1552119409
 20
305.1161579917
 30
0.0
 40
1.999999999999204
  0
CIRCLE
  5
2B3
330
1F
100
AcDbEntity
  8
0
  6
Continuous
 62
     7
370
    25
100
AcDbCircle
 10
569.1552119409
 20
305.1161579917
 30
0.0
 40
1.999999999999204
  0
CIRCLE
  5
2B4
330
1F
100
AcDbEntity
  8
0
  6
Continuous
 62
     7
370
    25
100
AcDbCircle
 10
599.1552119409
 20
300.1161579917
 30
0.0
 40
1.999999999999204
  0
CIRCLE
  5
2B5
330
1F
100
AcDbEntity
  8
0
  6
Continuous
 62
     7
370
    25
100
AcDbCircle
 10
584.1552119409
 20
305.1161579917
 30
0.0
 40
1.999999999999204
  0
CIRCLE
  5
2B6
330
1F
100
AcDbEntity
  8
0
  6
Continuous
 62
     7
370
    25
100
AcDbCircle
 10
589.1552119409
 20
305.1161579917
 30
0.0
 40
1.999999999999204
  0
CIRCLE
  5
2B7
330
1F
100
AcDbEntity
  8
0
  6
Continuous
 62
     7
370
    25
100
AcDbCircle
 10
594.1552119409
 20
305.1161579917
 30
0.0
 40
1.999999999999204
  0
CIRCLE
  5
2B8
330
1F
100
AcDbEntity
  8
0
  6
Continuous
 62
     7
370
    25
100
AcDbCircle
 10
599.1552119409
 20
305.1161579917
 30
0.0
 40
1.999999999999091
  0
CIRCLE
  5
2B9
330
1F
100
AcDbEntity
  8
0
  6
Continuous
 62
     7
370
    25
100
AcDbCircle
 10
574.1552119409
 20
300.1161579917
 30
0.0
 40
1.999999999999204
  0
CIRCLE
  5
2BA
330
1F
100
AcDbEntity
  8
0
  6
Continuous
 62
     7
370
    25
100
AcDbCircle
 10
599.1552119409
 20
295.1161579917
 30
0.0
 40
1.999999999999204
  0
CIRCLE
  5
2BB
330
1F
100
AcDbEntity
  8
0
  6
Continuous
 62
     7
370
    25
100
AcDbCircle
 10
594.1552119409
 20
295.1161579917
 30
0.0
 40
1.999999999999318
  0
CIRCLE
  5
2BC
330
1F
100
AcDbEntity
  8
0
  6
Continuous
 62
     7
370
    25
100
AcDbCircle
 10
589.1552119409
 20
295.1161579917
 30
0.0
 40
1.999999999999204
  0
CIRCLE
  5
2BD
330
1F
100
AcDbEntity
  8
0
  6
Continuous
 62
     7
370
    25
100
AcDbCircle
 10
579.1552119409
 20
300.1161579917
 30
0.0
 40
1.999999999999204
  0
CIRCLE
  5
2BE
330
1F
100
AcDbEntity
  8
0
  6
Continuous
 62
     7
370
    25
100
AcDbCircle
 10
584.1552119409
 20
300.1161579917
 30
0.0
 40
1.999999999999318
  0
CIRCLE
  5
2BF
330
1F
100
AcDbEntity
  8
0
  6
Continuous
 62
     7
370
    25
100
AcDbCircle
 10
589.1552119409
 20
300.1161579917
 30
0.0
 40
1.999999999999204
  0
CIRCLE
  5
2C0
330
1F
100
AcDbEntity
  8
0
  6
Continuous
 62
     7
370
    25
100
AcDbCircle
 10
594.1552119409
 20
300.1161579917
 30
0.0
 40
1.999999999999204
  0
CIRCLE
  5
2C1
330
1F
100
AcDbEntity
  8
0
  6
Continuous
 62
     7
370
    25
100
AcDbCircle
 10
558.0552119409
 20
290.4161579917
 30
0.0
 40
2.449999999999932
  0
CIRCLE
  5
2C2
330
1F
100
AcDbEntity
  8
0
  6
Continuous
 62
     7
370
    25
100
AcDbCircle
 10
528.0552119409
 20
290.4161579917
 30
0.0
 40
2.450000000000045
  0
LINE
  5
2C3
330
1F
100
AcDbEntity
  8
0
  6
Continuous
 62
     7
370
    25
100
AcDbLine
 10
473.0552119409
 20
269.2161579917
 30
0.0
 11
613.0552119409
 21
269.2161579917
 31
0.0
  0
CIRCLE
  5
2C4
330
1F
100
AcDbEntity
  8
0
  6
Continuous
 62
     7
370
    25
100
AcDbCircle
 10
558.0552119409
 20
290.4161579917
 30
0.0
 40
2.0
  0
CIRCLE
  5
2C5
330
1F
100
AcDbEntity
  8
0
  6
Continuous
 62
     7
370
    25
100
AcDbCircle
 10
528.0552119409
 20
290.4161579917
 30
0.0
 40
2.0
  0
LINE
  5
2C6
330
1F
100
AcDbEntity
  8
0
  6
Continuous
 62
     7
370
    25
100
AcDbLine
 10
472.8552119409
 20
295.4621579917
 30
0.0
 11
472.8552119409
 21
298.9621579917
 31
0.0
  0
LINE
  5
2C7
330
1F
100
AcDbEntity
  8
0
  6
Continuous
 62
     7
370
    25
100
AcDbLine
 10
472.8552119409
 20
291.9621579917
 30
0.0
 11
472.8552119409
 21
295.4621579917
 31
0.0
  0
MTEXT
  5
2C8
330
1F
100
AcDbEntity
  8
SLD-0
100
AcDbMText
 10
622.7484825613
 20
331.084516243
 30
0.0
 40
4.7625
 41
0.0
 71
     1
 72
     1
  1
EXHAUST
  7
SLDTEXTSTYLE0
 73
     1
 44
1.0
  0
LEADER
  5
2C9
330
1F
100
AcDbEntity
  8
SLD-0
100
AcDbLeader
  3
SLDDIMSTYLE1
 76
     3
 10
605.4461883675
 20
306.6436984546
 30
0.0
 10
617.7129337539
 20
328.7564296847
 30
0.0
 10
621.7129337539
 20
328.7564296847
 30
0.0
  0
LINE
  5
2CA
330
1F
100
AcDbEntity
  8
0
  6
Continuous
 62
     7
370
    25
100
AcDbLine
 10
197.074113197
 20
291.9621579917
 30
0.0
 11
197.274113197
 21
291.9621579917
 31
0.0
  0
LINE
  5
2CB
330
1F
100
AcDbEntity
  8
0
  6
Continuous
 62
     7
370
    25
100
AcDbLine
 10
197.274113197
 20
298.9621579917
 30
0.0
 11
197.074113197
 21
298.9621579917
 31
0.0
  0
LINE
  5
2CC
330
1F
100
AcDbEntity
  8
0
  6
Continuous
 62
     7
370
    25
100
AcDbLine
 10
197.074113197
 20
311.6161579917
 30
0.0
 11
197.074113197
 21
269.2161579917
 31
0.0
  0
CIRCLE
  5
2CD
330
1F
100
AcDbEntity
  8
0
  6
Continuous
 62
     7
370
    25
100
AcDbCircle
 10
65.974113197
 20
305.1161579917
 30
0.0
 40
1.999999999999112
  0
CIRCLE
  5
2CE
330
1F
100
AcDbEntity
  8
0
  6
Continuous
 62
     7
370
    25
100
AcDbCircle
 10
65.974113197
 20
295.1161579917
 30
0.0
 40
1.999999999999112
  0
CIRCLE
  5
2CF
330
1F
100
AcDbEntity
  8
0
  6
Continuous
 62
     7
370
    25
100
AcDbCircle
 10
110.974113197
 20
305.1161579917
 30
0.0
 40
1.999999999999133
  0
CIRCLE
  5
2D0
330
1F
100
AcDbEntity
  8
0
  6
Continuous
 62
     7
370
    25
100
AcDbCircle
 10
100.974113197
 20
295.1161579917
 30
0.0
 40
1.999999999999119
  0
CIRCLE
  5
2D1
330
1F
100
AcDbEntity
  8
0
  6
Continuous
 62
     7
370
    25
100
AcDbCircle
 10
100.974113197
 20
300.1161579917
 30
0.0
 40
1.999999999999147
  0
CIRCLE
  5
2D2
330
1F
100
AcDbEntity
  8
0
  6
Continuous
 62
     7
370
    25
100
AcDbCircle
 10
65.974113197
 20
300.1161579917
 30
0.0
 40
1.999999999999133
  0
CIRCLE
  5
2D3
330
1F
100
AcDbEntity
  8
0
  6
Continuous
 62
     7
370
    25
100
AcDbCircle
 10
105.974113197
 20
305.1161579917
 30
0.0
 40
1.999999999999133
  0
CIRCLE
  5
2D4
330
1F
100
AcDbEntity
  8
0
  6
Continuous
 62
     7
370
    25
100
AcDbCircle
 10
90.974113197
 20
295.1161579917
 30
0.0
 40
1.999999999999133
  0
CIRCLE
  5
2D5
330
1F
100
AcDbEntity
  8
0
  6
Continuous
 62
     7
370
    25
100
AcDbCircle
 10
85.974113197
 20
295.1161579917
 30
0.0
 40
1.999999999999133
  0
CIRCLE
  5
2D6
330
1F
100
AcDbEntity
  8
0
  6
Continuous
 62
     7
370
    25
100
AcDbCircle
 10
95.974113197
 20
295.1161579917
 30
0.0
 40
1.999999999999133
  0
CIRCLE
  5
2D7
330
1F
100
AcDbEntity
  8
0
  6
Continuous
 62
     7
370
    25
100
AcDbCircle
 10
105.974113197
 20
300.1161579917
 30
0.0
 40
1.999999999999119
  0
CIRCLE
  5
2D8
330
1F
100
AcDbEntity
  8
0
  6
Continuous
 62
     7
370
    25
100
AcDbCircle
 10
90.974113197
 20
305.1161579917
 30
0.0
 40
1.999999999999147
  0
CIRCLE
  5
2D9
330
1F
100
AcDbEntity
  8
0
  6
Continuous
 62
     7
370
    25
100
AcDbCircle
 10
95.974113197
 20
305.1161579917
 30
0.0
 40
1.999999999999119
  0
CIRCLE
  5
2DA
330
1F
100
AcDbEntity
  8
0
  6
Continuous
 62
     7
370
    25
100
AcDbCircle
 10
100.974113197
 20
305.1161579917
 30
0.0
 40
1.999999999999133
  0
CIRCLE
  5
2DB
330
1F
100
AcDbEntity
  8
0
  6
Continuous
 62
     7
370
    25
100
AcDbCircle
 10
70.974113197
 20
300.1161579917
 30
0.0
 40
1.999999999999147
  0
CIRCLE
  5
2DC
330
1F
100
AcDbEntity
  8
0
  6
Continuous
 62
     7
370
    25
100
AcDbCircle
 10
85.974113197
 20
305.1161579917
 30
0.0
 40
1.999999999999162
  0
CIRCLE
  5
2DD
330
1F
100
AcDbEntity
  8
0
  6
Continuous
 62
     7
370
    25
100
AcDbCircle
 10
80.974113197
 20
305.1161579917
 30
0.0
 40
1.999999999999133
  0
CIRCLE
  5
2DE
330
1F
100
AcDbEntity
  8
0
  6
Continuous
 62
     7
370
    25
100
AcDbCircle
 10
75.974113197
 20
305.1161579917
 30
0.0
 40
1.999999999999147
  0
CIRCLE
  5
2DF
330
1F
100
AcDbEntity
  8
0
  6
Continuous
 62
     7
370
    25
100
AcDbCircle
 10
70.974113197
 20
305.1161579917
 30
0.0
 40
1.999999999999147
  0
CIRCLE
  5
2E0
330
1F
100
AcDbEntity
  8
0
  6
Continuous
 62
     7
370
    25
100
AcDbCircle
 10
95.974113197
 20
300.1161579917
 30
0.0
 40
1.999999999999147
  0
CIRCLE
  5
2E1
330
1F
100
AcDbEntity
  8
0
  6
Continuous
 62
     7
370
    25
100
AcDbCircle
 10
70.974113197
 20
295.1161579917
 30
0.0
 40
1.999999999999147
  0
CIRCLE
  5
2E2
330
1F
100
AcDbEntity
  8
0
  6
Continuous
 62
     7
370
    25
100
AcDbCircle
 10
75.974113197
 20
295.1161579917
 30
0.0
 40
1.999999999999147
  0
CIRCLE
  5
2E3
330
1F
100
AcDbEntity
  8
0
  6
Continuous
 62
     7
370
    25
100
AcDbCircle
 10
80.974113197
 20
295.1161579917
 30
0.0
 40
1.999999999999147
  0
CIRCLE
  5
2E4
330
1F
100
AcDbEntity
  8
0
  6
Continuous
 62
     7
370
    25
100
AcDbCircle
 10
90.974113197
 20
300.1161579917
 30
0.0
 40
1.999999999999133
  0
CIRCLE
  5
2E5
330
1F
100
AcDbEntity
  8
0
  6
Continuous
 62
     7
370
    25
100
AcDbCircle
 10
85.974113197
 20
300.1161579917
 30
0.0
 40
1.999999999999147
  0
CIRCLE
  5
2E6
330
1F
100
AcDbEntity
  8
0
  6
Continuous
 62
     7
370
    25
100
AcDbCircle
 10
80.974113197
 20
300.1161579917
 30
0.0
 40
1.999999999999133
  0
CIRCLE
  5
2E7
330
1F
100
AcDbEntity
  8
0
  6
Continuous
 62
     7
370
    25
100
AcDbCircle
 10
75.974113197
 20
300.1161579917
 30
0.0
 40
1.999999999999119
  0
CIRCLE
  5
2E8
330
1F
100
AcDbEntity
  8
0
  6
Continuous
 62
     7
370
    25
100
AcDbCircle
 10
112.074113197
 20
290.4161579917
 30
0.0
 40
2.450000000000017
  0
CIRCLE
  5
2E9
330
1F
100
AcDbEntity
  8
0
  6
Continuous
 62
     7
370
    25
100
AcDbCircle
 10
142.074113197
 20
290.4161579917
 30
0.0
 40
2.449999999999989
  0
LINE
  5
2EA
330
1F
100
AcDbEntity
  8
0
  6
Continuous
 62
     7
370
    25
100
AcDbLine
 10
197.074113197
 20
311.6161579917
 30
0.0
 11
57.074113197
 21
311.6161579917
 31
0.0
  0
LINE
  5
2EB
330
1F
100
AcDbEntity
  8
0
  6
Continuous
 62
     7
370
    25
100
AcDbLine
 10
57.074113197
 20
311.6161579917
 30
0.0
 11
57.074113197
 21
269.2161579917
 31
0.0
  0
LINE
  5
2EC
330
1F
100
AcDbEntity
  8
0
  6
Continuous
 62
     7
370
    25
100
AcDbLine
 10
197.074113197
 20
269.2161579917
 30
0.0
 11
57.074113197
 21
269.2161579917
 31
0.0
  0
CIRCLE
  5
2ED
330
1F
100
AcDbEntity
  8
0
  6
Continuous
 62
     7
370
    25
100
AcDbCircle
 10
112.074113197
 20
290.4161579917
 30
0.0
 40
1.999999999999986
  0
CIRCLE
  5
2EE
330
1F
100
AcDbEntity
  8
0
  6
Continuous
 62
     7
370
    25
100
AcDbCircle
 10
142.074113197
 20
290.4161579917
 30
0.0
 40
2.0
  0
LINE
  5
2EF
330
1F
100
AcDbEntity
  8
0
  6
Continuous
 62
     7
370
    25
100
AcDbLine
 10
197.274113197
 20
298.9621579917
 30
0.0
 11
197.274113197
 21
291.9621579917
 31
0.0
  0
DIMENSION
  5
2F0
330
1F
100
AcDbEntity
  8
SLD-0
100
AcDbDimension
  2
_D_4
 10
217.274113197
 20
269.2161579917
 30
0.0
 11
217.274113197
 21
290.4161579917
 31
0.0
 70
   160
  1
<>
 71
     2
 42
-1.0
  3
SLDDIMSTYLE3
100
AcDbAlignedDimension
 13
197.074113197
 23
311.6161579917
 33
0.0
 14
197.074113197
 24
269.2161579917
 34
0.0
 50
90.0
100
AcDbRotatedDimension
  0
MTEXT
  5
2FC
330
1F
100
AcDbEntity
  8
SLD-0
100
AcDbMText
 10
122.1032861878
 20
331.4726554817
 30
0.0
 40
4.7625
 41
0.0
 71
     1
 72
     1
  1
EXHAUST
  7
SLDTEXTSTYLE0
 73
     1
 44
1.0
  0
LEADER
  5
2FD
330
1F
100
AcDbEntity
  8
SLD-0
100
AcDbLeader
  3
SLDDIMSTYLE1
 76
     3
 10
101.8438291393
 20
306.9171560982
 30
0.0
 10
116.9768664564
 20
329.177039569
 30
0.0
 10
120.9768664564
 20
329.177039569
 30
0.0
  0
LINE
  5
2FE
330
1F
100
AcDbEntity
  8
0
  6
Continuous
 62
     7
370
    25
100
AcDbLine
 10
688.1425639986
 20
269.2161579917
 30
0.0
 11
688.1425639986
 21
311.6161579917
 31
0.0
  0
LINE
  5
2FF
330
1F
100
AcDbEntity
  8
0
  6
Continuous
 62
     7
370
    25
100
AcDbLine
 10
688.1425639986
 20
311.6161579917
 30
0.0
 11
797.1425639986
 21
311.6161579917
 31
0.0
  0
LINE
  5
300
330
1F
100
AcDbEntity
  8
0
  6
Continuous
 62
     7
370
    25
100
AcDbLine
 10
797.1425639986
 20
311.6161579917
 30
0.0
 11
797.1425639986
 21
269.2161579917
 31
0.0
  0
LINE
  5
301
330
1F
100
AcDbEntity
  8
0
  6
Continuous
 62
     7
370
    25
100
AcDbLine
 10
755.3425639986
 20
269.2161579917
 30
0.0
 11
755.3425639986
 21
273.7161579917
 31
0.0
  0
LINE
  5
302
330
1F
100
AcDbEntity
  8
0
  6
Continuous
 62
     7
370
    25
100
AcDbLine
 10
755.3425639986
 20
273.7161579917
 30
0.0
 11
749.3425639986
 21
273.7161579917
 31
0.0
  0
LINE
  5
303
330
1F
100
AcDbEntity
  8
0
  6
Continuous
 62
     7
370
    25
100
AcDbLine
 10
749.3425639986
 20
273.7161579917
 30
0.0
 11
749.3425639986
 21
269.2161579917
 31
0.0
  0
LINE
  5
304
330
1F
100
AcDbEntity
  8
0
  6
Continuous
 62
     7
370
    25
100
AcDbLine
 10
694.4425639986
 20
304.1661579917
 30
0.0
 11
694.4425639986
 21
307.6661579917
 31
0.0
  0
LINE
  5
305
330
1F
100
AcDbEntity
  8
0
  6
Continuous
 62
     7
370
    25
100
AcDbLine
 10
694.4425639986
 20
307.6661579917
 30
0.0
 11
690.9425639986
 21
307.6661579917
 31
0.0
  0
LINE
  5
306
330
1F
100
AcDbEntity
  8
0
  6
Continuous
 62
     7
370
    25
100
AcDbLine
 10
690.9425639986
 20
307.6661579917
 30
0.0
 11
690.9425639986
 21
304.1661579917
 31
0.0
  0
LINE
  5
307
330
1F
100
AcDbEntity
  8
0
  6
Continuous
 62
     7
370
    25
100
AcDbLine
 10
690.9425639986
 20
304.1661579917
 30
0.0
 11
694.4425639986
 21
304.1661579917
 31
0.0
  0
LINE
  5
308
330
1F
100
AcDbEntity
  8
0
  6
Continuous
 62
     7
370
    25
100
AcDbLine
 10
704.0425639986
 20
299.4661579917
 30
0.0
 11
704.0425639986
 21
302.9661579917
 31
0.0
  0
LINE
  5
309
330
1F
100
AcDbEntity
  8
0
  6
Continuous
 62
     7
370
    25
100
AcDbLine
 10
704.0425639986
 20
302.9661579917
 30
0.0
 11
700.5425639986
 21
302.9661579917
 31
0.0
  0
LINE
  5
30A
330
1F
100
AcDbEntity
  8
0
  6
Continuous
 62
     7
370
    25
100
AcDbLine
 10
700.5425639986
 20
302.9661579917
 30
0.0
 11
700.5425639986
 21
299.4661579917
 31
0.0
  0
LINE
  5
30B
330
1F
100
AcDbEntity
  8
0
  6
Continuous
 62
     7
370
    25
100
AcDbLine
 10
700.5425639986
 20
299.4661579917
 30
0.0
 11
704.0425639986
 21
299.4661579917
 31
0.0
  0
LINE
  5
30C
330
1F
100
AcDbEntity
  8
0
  6
Continuous
 62
     7
370
    25
100
AcDbLine
 10
741.6425639986
 20
299.4661579917
 30
0.0
 11
741.6425639986
 21
302.9661579917
 31
0.0
  0
LINE
  5
30D
330
1F
100
AcDbEntity
  8
0
  6
Continuous
 62
     7
370
    25
100
AcDbLine
 10
741.6425639986
 20
302.9661579917
 30
0.0
 11
738.1425639986
 21
302.9661579917
 31
0.0
  0
LINE
  5
30E
330
1F
100
AcDbEntity
  8
0
  6
Continuous
 62
     7
370
    25
100
AcDbLine
 10
738.1425639986
 20
302.9661579917
 30
0.0
 11
738.1425639986
 21
299.4661579917
 31
0.0
  0
LINE
  5
30F
330
1F
100
AcDbEntity
  8
0
  6
Continuous
 62
     7
370
    25
100
AcDbLine
 10
738.1425639986
 20
299.4661579917
 30
0.0
 11
741.6425639986
 21
299.4661579917
 31
0.0
  0
LINE
  5
310
330
1F
100
AcDbEntity
  8
0
  6
Continuous
 62
     7
370
    25
100
AcDbLine
 10
736.9425639986
 20
299.4661579917
 30
0.0
 11
736.9425639986
 21
302.9661579917
 31
0.0
  0
LINE
  5
311
330
1F
100
AcDbEntity
  8
0
  6
Continuous
 62
     7
370
    25
100
AcDbLine
 10
736.9425639986
 20
302.9661579917
 30
0.0
 11
733.4425639986
 21
302.9661579917
 31
0.0
  0
LINE
  5
312
330
1F
100
AcDbEntity
  8
0
  6
Continuous
 62
     7
370
    25
100
AcDbLine
 10
733.4425639986
 20
302.9661579917
 30
0.0
 11
733.4425639986
 21
299.4661579917
 31
0.0
  0
LINE
  5
313
330
1F
100
AcDbEntity
  8
0
  6
Continuous
 62
     7
370
    25
100
AcDbLine
 10
733.4425639986
 20
299.4661579917
 30
0.0
 11
736.9425639986
 21
299.4661579917
 31
0.0
  0
LINE
  5
314
330
1F
100
AcDbEntity
  8
0
  6
Continuous
 62
     7
370
    25
100
AcDbLine
 10
732.2425639986
 20
299.4661579917
 30
0.0
 11
732.2425639986
 21
302.9661579917
 31
0.0
  0
LINE
  5
315
330
1F
100
AcDbEntity
  8
0
  6
Continuous
 62
     7
370
    25
100
AcDbLine
 10
732.2425639986
 20
302.9661579917
 30
0.0
 11
728.7425639986
 21
302.9661579917
 31
0.0
  0
LINE
  5
316
330
1F
100
AcDbEntity
  8
0
  6
Continuous
 62
     7
370
    25
100
AcDbLine
 10
728.7425639986
 20
302.9661579917
 30
0.0
 11
728.7425639986
 21
299.4661579917
 31
0.0
  0
LINE
  5
317
330
1F
100
AcDbEntity
  8
0
  6
Continuous
 62
     7
370
    25
100
AcDbLine
 10
728.7425639986
 20
299.4661579917
 30
0.0
 11
732.2425639986
 21
299.4661579917
 31
0.0
  0
LINE
  5
318
330
1F
100
AcDbEntity
  8
0
  6
Continuous
 62
     7
370
    25
100
AcDbLine
 10
727.5425639986
 20
299.4661579917
 30
0.0
 11
727.5425639986
 21
302.9661579917
 31
0.0
  0
LINE
  5
319
330
1F
100
AcDbEntity
  8
0
  6
Continuous
 62
     7
370
    25
100
AcDbLine
 10
727.5425639986
 20
302.9661579917
 30
0.0
 11
724.0425639986
 21
302.9661579917
 31
0.0
  0
LINE
  5
31A
330
1F
100
AcDbEntity
  8
0
  6
Continuous
 62
     7
370
    25
100
AcDbLine
 10
724.0425639986
 20
302.9661579917
 30
0.0
 11
724.0425639986
 21
299.4661579917
 31
0.0
  0
LINE
  5
31B
330
1F
100
AcDbEntity
  8
0
  6
Continuous
 62
     7
370
    25
100
AcDbLine
 10
724.0425639986
 20
299.4661579917
 30
0.0
 11
727.5425639986
 21
299.4661579917
 31
0.0
  0
LINE
  5
31C
330
1F
100
AcDbEntity
  8
0
  6
Continuous
 62
     7
370
    25
100
AcDbLine
 10
695.8425639986
 20
304.1661579917
 30
0.0
 11
699.3425639986
 21
304.1661579917
 31
0.0
  0
LINE
  5
31D
330
1F
100
AcDbEntity
  8
0
  6
Continuous
 62
     7
370
    25
100
AcDbLine
 10
699.3425639986
 20
304.1661579917
 30
0.0
 11
699.3425639986
 21
307.6661579917
 31
0.0
  0
LINE
  5
31E
330
1F
100
AcDbEntity
  8
0
  6
Continuous
 62
     7
370
    25
100
AcDbLine
 10
699.3425639986
 20
307.6661579917
 30
0.0
 11
695.8425639986
 21
307.6661579917
 31
0.0
  0
LINE
  5
31F
330
1F
100
AcDbEntity
  8
0
  6
Continuous
 62
     7
370
    25
100
AcDbLine
 10
695.8425639986
 20
307.6661579917
 30
0.0
 11
695.8425639986
 21
304.1661579917
 31
0.0
  0
LINE
  5
320
330
1F
100
AcDbEntity
  8
0
  6
Continuous
 62
     7
370
    25
100
AcDbLine
 10
704.0425639986
 20
304.1661579917
 30
0.0
 11
704.0425639986
 21
307.6661579917
 31
0.0
  0
LINE
  5
321
330
1F
100
AcDbEntity
  8
0
  6
Continuous
 62
     7
370
    25
100
AcDbLine
 10
704.0425639986
 20
307.6661579917
 30
0.0
 11
700.5425639986
 21
307.6661579917
 31
0.0
  0
LINE
  5
322
330
1F
100
AcDbEntity
  8
0
  6
Continuous
 62
     7
370
    25
100
AcDbLine
 10
700.5425639986
 20
307.6661579917
 30
0.0
 11
700.5425639986
 21
304.1661579917
 31
0.0
  0
LINE
  5
323
330
1F
100
AcDbEntity
  8
0
  6
Continuous
 62
     7
370
    25
100
AcDbLine
 10
700.5425639986
 20
304.1661579917
 30
0.0
 11
704.0425639986
 21
304.1661579917
 31
0.0
  0
LINE
  5
324
330
1F
100
AcDbEntity
  8
0
  6
Continuous
 62
     7
370
    25
100
AcDbLine
 10
695.8425639986
 20
299.4661579917
 30
0.0
 11
699.3425639986
 21
299.4661579917
 31
0.0
  0
LINE
  5
325
330
1F
100
AcDbEntity
  8
0
  6
Continuous
 62
     7
370
    25
100
AcDbLine
 10
699.3425639986
 20
299.4661579917
 30
0.0
 11
699.3425639986
 21
302.9661579917
 31
0.0
  0
LINE
  5
326
330
1F
100
AcDbEntity
  8
0
  6
Continuous
 62
     7
370
    25
100
AcDbLine
 10
699.3425639986
 20
302.9661579917
 30
0.0
 11
695.8425639986
 21
302.9661579917
 31
0.0
  0
LINE
  5
327
330
1F
100
AcDbEntity
  8
0
  6
Continuous
 62
     7
370
    25
100
AcDbLine
 10
695.8425639986
 20
302.9661579917
 30
0.0
 11
695.8425639986
 21
299.4661579917
 31
0.0
  0
LINE
  5
328
330
1F
100
AcDbEntity
  8
0
  6
Continuous
 62
     7
370
    25
100
AcDbLine
 10
690.9425639986
 20
299.4661579917
 30
0.0
 11
694.4425639986
 21
299.4661579917
 31
0.0
  0
LINE
  5
329
330
1F
100
AcDbEntity
  8
0
  6
Continuous
 62
     7
370
    25
100
AcDbLine
 10
694.4425639986
 20
299.4661579917
 30
0.0
 11
694.4425639986
 21
302.9661579917
 31
0.0
  0
LINE
  5
32A
330
1F
100
AcDbEntity
  8
0
  6
Continuous
 62
     7
370
    25
100
AcDbLine
 10
694.4425639986
 20
302.9661579917
 30
0.0
 11
690.9425639986
 21
302.9661579917
 31
0.0
  0
LINE
  5
32B
330
1F
100
AcDbEntity
  8
0
  6
Continuous
 62
     7
370
    25
100
AcDbLine
 10
690.9425639986
 20
302.9661579917
 30
0.0
 11
690.9425639986
 21
299.4661579917
 31
0.0
  0
LINE
  5
32C
330
1F
100
AcDbEntity
  8
0
  6
Continuous
 62
     7
370
    25
100
AcDbLine
 10
708.7425639986
 20
304.1661579917
 30
0.0
 11
708.7425639986
 21
307.6661579917
 31
0.0
  0
LINE
  5
32D
330
1F
100
AcDbEntity
  8
0
  6
Continuous
 62
     7
370
    25
100
AcDbLine
 10
708.7425639986
 20
307.6661579917
 30
0.0
 11
705.2425639986
 21
307.6661579917
 31
0.0
  0
LINE
  5
32E
330
1F
100
AcDbEntity
  8
0
  6
Continuous
 62
     7
370
    25
100
AcDbLine
 10
705.2425639986
 20
307.6661579917
 30
0.0
 11
705.2425639986
 21
304.1661579917
 31
0.0
  0
LINE
  5
32F
330
1F
100
AcDbEntity
  8
0
  6
Continuous
 62
     7
370
    25
100
AcDbLine
 10
705.2425639986
 20
304.1661579917
 30
0.0
 11
708.7425639986
 21
304.1661579917
 31
0.0
  0
LINE
  5
330
330
1F
100
AcDbEntity
  8
0
  6
Continuous
 62
     7
370
    25
100
AcDbLine
 10
713.4425639986
 20
304.1661579917
 30
0.0
 11
713.4425639986
 21
307.6661579917
 31
0.0
  0
LINE
  5
331
330
1F
100
AcDbEntity
  8
0
  6
Continuous
 62
     7
370
    25
100
AcDbLine
 10
713.4425639986
 20
307.6661579917
 30
0.0
 11
709.9425639986
 21
307.6661579917
 31
0.0
  0
LINE
  5
332
330
1F
100
AcDbEntity
  8
0
  6
Continuous
 62
     7
370
    25
100
AcDbLine
 10
709.9425639986
 20
307.6661579917
 30
0.0
 11
709.9425639986
 21
304.1661579917
 31
0.0
  0
LINE
  5
333
330
1F
100
AcDbEntity
  8
0
  6
Continuous
 62
     7
370
    25
100
AcDbLine
 10
709.9425639986
 20
304.1661579917
 30
0.0
 11
713.4425639986
 21
304.1661579917
 31
0.0
  0
LINE
  5
334
330
1F
100
AcDbEntity
  8
0
  6
Continuous
 62
     7
370
    25
100
AcDbLine
 10
718.1425639986
 20
304.1661579917
 30
0.0
 11
718.1425639986
 21
307.6661579917
 31
0.0
  0
LINE
  5
335
330
1F
100
AcDbEntity
  8
0
  6
Continuous
 62
     7
370
    25
100
AcDbLine
 10
718.1425639986
 20
307.6661579917
 30
0.0
 11
714.6425639986
 21
307.6661579917
 31
0.0
  0
LINE
  5
336
330
1F
100
AcDbEntity
  8
0
  6
Continuous
 62
     7
370
    25
100
AcDbLine
 10
714.6425639986
 20
307.6661579917
 30
0.0
 11
714.6425639986
 21
304.1661579917
 31
0.0
  0
LINE
  5
337
330
1F
100
AcDbEntity
  8
0
  6
Continuous
 62
     7
370
    25
100
AcDbLine
 10
714.6425639986
 20
304.1661579917
 30
0.0
 11
718.1425639986
 21
304.1661579917
 31
0.0
  0
LINE
  5
338
330
1F
100
AcDbEntity
  8
0
  6
Continuous
 62
     7
370
    25
100
AcDbLine
 10
722.8425639986
 20
304.1661579917
 30
0.0
 11
722.8425639986
 21
307.6661579917
 31
0.0
  0
LINE
  5
339
330
1F
100
AcDbEntity
  8
0
  6
Continuous
 62
     7
370
    25
100
AcDbLine
 10
722.8425639986
 20
307.6661579917
 30
0.0
 11
719.3425639986
 21
307.6661579917
 31
0.0
  0
LINE
  5
33A
330
1F
100
AcDbEntity
  8
0
  6
Continuous
 62
     7
370
    25
100
AcDbLine
 10
719.3425639986
 20
307.6661579917
 30
0.0
 11
719.3425639986
 21
304.1661579917
 31
0.0
  0
LINE
  5
33B
330
1F
100
AcDbEntity
  8
0
  6
Continuous
 62
     7
370
    25
100
AcDbLine
 10
719.3425639986
 20
304.1661579917
 30
0.0
 11
722.8425639986
 21
304.1661579917
 31
0.0
  0
LINE
  5
33C
330
1F
100
AcDbEntity
  8
0
  6
Continuous
 62
     7
370
    25
100
AcDbLine
 10
727.5425639986
 20
304.1661579917
 30
0.0
 11
727.5425639986
 21
307.6661579917
 31
0.0
  0
LINE
  5
33D
330
1F
100
AcDbEntity
  8
0
  6
Continuous
 62
     7
370
    25
100
AcDbLine
 10
727.5425639986
 20
307.6661579917
 30
0.0
 11
724.0425639986
 21
307.6661579917
 31
0.0
  0
LINE
  5
33E
330
1F
100
AcDbEntity
  8
0
  6
Continuous
 62
     7
370
    25
100
AcDbLine
 10
724.0425639986
 20
307.6661579917
 30
0.0
 11
724.0425639986
 21
304.1661579917
 31
0.0
  0
LINE
  5
33F
330
1F
100
AcDbEntity
  8
0
  6
Continuous
 62
     7
370
    25
100
AcDbLine
 10
724.0425639986
 20
304.1661579917
 30
0.0
 11
727.5425639986
 21
304.1661579917
 31
0.0
  0
LINE
  5
340
330
1F
100
AcDbEntity
  8
0
  6
Continuous
 62
     7
370
    25
100
AcDbLine
 10
732.2425639986
 20
304.1661579917
 30
0.0
 11
732.2425639986
 21
307.6661579917
 31
0.0
  0
LINE
  5
341
330
1F
100
AcDbEntity
  8
0
  6
Continuous
 62
     7
370
    25
100
AcDbLine
 10
732.2425639986
 20
307.6661579917
 30
0.0
 11
728.7425639986
 21
307.6661579917
 31
0.0
  0
LINE
  5
342
330
1F
100
AcDbEntity
  8
0
  6
Continuous
 62
     7
370
    25
100
AcDbLine
 10
728.7425639986
 20
307.6661579917
 30
0.0
 11
728.7425639986
 21
304.1661579917
 31
0.0
  0
LINE
  5
343
330
1F
100
AcDbEntity
  8
0
  6
Continuous
 62
     7
370
    25
100
AcDbLine
 10
728.7425639986
 20
304.1661579917
 30
0.0
 11
732.2425639986
 21
304.1661579917
 31
0.0
  0
LINE
  5
344
330
1F
100
AcDbEntity
  8
0
  6
Continuous
 62
     7
370
    25
100
AcDbLine
 10
736.9425639986
 20
304.1661579917
 30
0.0
 11
736.9425639986
 21
307.6661579917
 31
0.0
  0
LINE
  5
345
330
1F
100
AcDbEntity
  8
0
  6
Continuous
 62
     7
370
    25
100
AcDbLine
 10
736.9425639986
 20
307.6661579917
 30
0.0
 11
733.4425639986
 21
307.6661579917
 31
0.0
  0
LINE
  5
346
330
1F
100
AcDbEntity
  8
0
  6
Continuous
 62
     7
370
    25
100
AcDbLine
 10
733.4425639986
 20
307.6661579917
 30
0.0
 11
733.4425639986
 21
304.1661579917
 31
0.0
  0
LINE
  5
347
330
1F
100
AcDbEntity
  8
0
  6
Continuous
 62
     7
370
    25
100
AcDbLine
 10
733.4425639986
 20
304.1661579917
 30
0.0
 11
736.9425639986
 21
304.1661579917
 31
0.0
  0
LINE
  5
348
330
1F
100
AcDbEntity
  8
0
  6
Continuous
 62
     7
370
    25
100
AcDbLine
 10
741.6425639986
 20
304.1661579917
 30
0.0
 11
741.6425639986
 21
307.6661579917
 31
0.0
  0
LINE
  5
349
330
1F
100
AcDbEntity
  8
0
  6
Continuous
 62
     7
370
    25
100
AcDbLine
 10
741.6425639986
 20
307.6661579917
 30
0.0
 11
738.1425639986
 21
307.6661579917
 31
0.0
  0
LINE
  5
34A
330
1F
100
AcDbEntity
  8
0
  6
Continuous
 62
     7
370
    25
100
AcDbLine
 10
738.1425639986
 20
307.6661579917
 30
0.0
 11
738.1425639986
 21
304.1661579917
 31
0.0
  0
LINE
  5
34B
330
1F
100
AcDbEntity
  8
0
  6
Continuous
 62
     7
370
    25
100
AcDbLine
 10
738.1425639986
 20
304.1661579917
 30
0.0
 11
741.6425639986
 21
304.1661579917
 31
0.0
  0
LINE
  5
34C
330
1F
100
AcDbEntity
  8
0
  6
Continuous
 62
     7
370
    25
100
AcDbLine
 10
708.7425639986
 20
299.4661579917
 30
0.0
 11
708.7425639986
 21
302.9661579917
 31
0.0
  0
LINE
  5
34D
330
1F
100
AcDbEntity
  8
0
  6
Continuous
 62
     7
370
    25
100
AcDbLine
 10
708.7425639986
 20
302.9661579917
 30
0.0
 11
705.2425639986
 21
302.9661579917
 31
0.0
  0
LINE
  5
34E
330
1F
100
AcDbEntity
  8
0
  6
Continuous
 62
     7
370
    25
100
AcDbLine
 10
705.2425639986
 20
302.9661579917
 30
0.0
 11
705.2425639986
 21
299.4661579917
 31
0.0
  0
LINE
  5
34F
330
1F
100
AcDbEntity
  8
0
  6
Continuous
 62
     7
370
    25
100
AcDbLine
 10
705.2425639986
 20
299.4661579917
 30
0.0
 11
708.7425639986
 21
299.4661579917
 31
0.0
  0
LINE
  5
350
330
1F
100
AcDbEntity
  8
0
  6
Continuous
 62
     7
370
    25
100
AcDbLine
 10
713.4425639986
 20
299.4661579917
 30
0.0
 11
713.4425639986
 21
302.9661579917
 31
0.0
  0
LINE
  5
351
330
1F
100
AcDbEntity
  8
0
  6
Continuous
 62
     7
370
    25
100
AcDbLine
 10
713.4425639986
 20
302.9661579917
 30
0.0
 11
709.9425639986
 21
302.9661579917
 31
0.0
  0
LINE
  5
352
330
1F
100
AcDbEntity
  8
0
  6
Continuous
 62
     7
370
    25
100
AcDbLine
 10
709.9425639986
 20
302.9661579917
 30
0.0
 11
709.9425639986
 21
299.4661579917
 31
0.0
  0
LINE
  5
353
330
1F
100
AcDbEntity
  8
0
  6
Continuous
 62
     7
370
    25
100
AcDbLine
 10
709.9425639986
 20
299.4661579917
 30
0.0
 11
713.4425639986
 21
299.4661579917
 31
0.0
  0
LINE
  5
354
330
1F
100
AcDbEntity
  8
0
  6
Continuous
 62
     7
370
    25
100
AcDbLine
 10
718.1425639986
 20
299.4661579917
 30
0.0
 11
718.1425639986
 21
302.9661579917
 31
0.0
  0
LINE
  5
355
330
1F
100
AcDbEntity
  8
0
  6
Continuous
 62
     7
370
    25
100
AcDbLine
 10
718.1425639986
 20
302.9661579917
 30
0.0
 11
714.6425639986
 21
302.9661579917
 31
0.0
  0
LINE
  5
356
330
1F
100
AcDbEntity
  8
0
  6
Continuous
 62
     7
370
    25
100
AcDbLine
 10
714.6425639986
 20
302.9661579917
 30
0.0
 11
714.6425639986
 21
299.4661579917
 31
0.0
  0
LINE
  5
357
330
1F
100
AcDbEntity
  8
0
  6
Continuous
 62
     7
370
    25
100
AcDbLine
 10
714.6425639986
 20
299.4661579917
 30
0.0
 11
718.1425639986
 21
299.4661579917
 31
0.0
  0
LINE
  5
358
330
1F
100
AcDbEntity
  8
0
  6
Continuous
 62
     7
370
    25
100
AcDbLine
 10
722.8425639986
 20
299.4661579917
 30
0.0
 11
722.8425639986
 21
302.9661579917
 31
0.0
  0
LINE
  5
359
330
1F
100
AcDbEntity
  8
0
  6
Continuous
 62
     7
370
    25
100
AcDbLine
 10
722.8425639986
 20
302.9661579917
 30
0.0
 11
719.3425639986
 21
302.9661579917
 31
0.0
  0
LINE
  5
35A
330
1F
100
AcDbEntity
  8
0
  6
Continuous
 62
     7
370
    25
100
AcDbLine
 10
719.3425639986
 20
302.9661579917
 30
0.0
 11
719.3425639986
 21
299.4661579917
 31
0.0
  0
LINE
  5
35B
330
1F
100
AcDbEntity
  8
0
  6
Continuous
 62
     7
370
    25
100
AcDbLine
 10
719.3425639986
 20
299.4661579917
 30
0.0
 11
722.8425639986
 21
299.4661579917
 31
0.0
  0
LINE
  5
35C
330
1F
100
AcDbEntity
  8
0
  6
Continuous
 62
     7
370
    25
100
AcDbLine
 10
694.4425639986
 20
294.7661579917
 30
0.0
 11
694.4425639986
 21
298.2661579917
 31
0.0
  0
LINE
  5
35D
330
1F
100
AcDbEntity
  8
0
  6
Continuous
 62
     7
370
    25
100
AcDbLine
 10
694.4425639986
 20
298.2661579917
 30
0.0
 11
690.9425639986
 21
298.2661579917
 31
0.0
  0
LINE
  5
35E
330
1F
100
AcDbEntity
  8
0
  6
Continuous
 62
     7
370
    25
100
AcDbLine
 10
690.9425639986
 20
298.2661579917
 30
0.0
 11
690.9425639986
 21
294.7661579917
 31
0.0
  0
LINE
  5
35F
330
1F
100
AcDbEntity
  8
0
  6
Continuous
 62
     7
370
    25
100
AcDbLine
 10
690.9425639986
 20
294.7661579917
 30
0.0
 11
694.4425639986
 21
294.7661579917
 31
0.0
  0
LINE
  5
360
330
1F
100
AcDbEntity
  8
0
  6
Continuous
 62
     7
370
    25
100
AcDbLine
 10
690.9425639986
 20
275.9661579917
 30
0.0
 11
694.4425639986
 21
275.9661579917
 31
0.0
  0
LINE
  5
361
330
1F
100
AcDbEntity
  8
0
  6
Continuous
 62
     7
370
    25
100
AcDbLine
 10
694.4425639986
 20
275.9661579917
 30
0.0
 11
694.4425639986
 21
279.4661579917
 31
0.0
  0
LINE
  5
362
330
1F
100
AcDbEntity
  8
0
  6
Continuous
 62
     7
370
    25
100
AcDbLine
 10
694.4425639986
 20
279.4661579917
 30
0.0
 11
690.9425639986
 21
279.4661579917
 31
0.0
  0
LINE
  5
363
330
1F
100
AcDbEntity
  8
0
  6
Continuous
 62
     7
370
    25
100
AcDbLine
 10
690.9425639986
 20
279.4661579917
 30
0.0
 11
690.9425639986
 21
275.9661579917
 31
0.0
  0
LINE
  5
364
330
1F
100
AcDbEntity
  8
0
  6
Continuous
 62
     7
370
    25
100
AcDbLine
 10
695.8425639986
 20
294.7661579917
 30
0.0
 11
699.3425639986
 21
294.7661579917
 31
0.0
  0
LINE
  5
365
330
1F
100
AcDbEntity
  8
0
  6
Continuous
 62
     7
370
    25
100
AcDbLine
 10
699.3425639986
 20
294.7661579917
 30
0.0
 11
699.3425639986
 21
298.2661579917
 31
0.0
  0
LINE
  5
366
330
1F
100
AcDbEntity
  8
0
  6
Continuous
 62
     7
370
    25
100
AcDbLine
 10
699.3425639986
 20
298.2661579917
 30
0.0
 11
695.8425639986
 21
298.2661579917
 31
0.0
  0
LINE
  5
367
330
1F
100
AcDbEntity
  8
0
  6
Continuous
 62
     7
370
    25
100
AcDbLine
 10
695.8425639986
 20
298.2661579917
 30
0.0
 11
695.8425639986
 21
294.7661579917
 31
0.0
  0
LINE
  5
368
330
1F
100
AcDbEntity
  8
0
  6
Continuous
 62
     7
370
    25
100
AcDbLine
 10
695.8425639986
 20
290.0661579917
 30
0.0
 11
699.3425639986
 21
290.0661579917
 31
0.0
  0
LINE
  5
369
330
1F
100
AcDbEntity
  8
0
  6
Continuous
 62
     7
370
    25
100
AcDbLine
 10
699.3425639986
 20
290.0661579917
 30
0.0
 11
699.3425639986
 21
293.5661579917
 31
0.0
  0
LINE
  5
36A
330
1F
100
AcDbEntity
  8
0
  6
Continuous
 62
     7
370
    25
100
AcDbLine
 10
699.3425639986
 20
293.5661579917
 30
0.0
 11
695.8425639986
 21
293.5661579917
 31
0.0
  0
LINE
  5
36B
330
1F
100
AcDbEntity
  8
0
  6
Continuous
 62
     7
370
    25
100
AcDbLine
 10
695.8425639986
 20
293.5661579917
 30
0.0
 11
695.8425639986
 21
290.0661579917
 31
0.0
  0
LINE
  5
36C
330
1F
100
AcDbEntity
  8
0
  6
Continuous
 62
     7
370
    25
100
AcDbLine
 10
695.8425639986
 20
285.3661579917
 30
0.0
 11
699.3425639986
 21
285.3661579917
 31
0.0
  0
LINE
  5
36D
330
1F
100
AcDbEntity
  8
0
  6
Continuous
 62
     7
370
    25
100
AcDbLine
 10
699.3425639986
 20
285.3661579917
 30
0.0
 11
699.3425639986
 21
288.8661579917
 31
0.0
  0
LINE
  5
36E
330
1F
100
AcDbEntity
  8
0
  6
Continuous
 62
     7
370
    25
100
AcDbLine
 10
699.3425639986
 20
288.8661579917
 30
0.0
 11
695.8425639986
 21
288.8661579917
 31
0.0
  0
LINE
  5
36F
330
1F
100
AcDbEntity
  8
0
  6
Continuous
 62
     7
370
    25
100
AcDbLine
 10
695.8425639986
 20
288.8661579917
 30
0.0
 11
695.8425639986
 21
285.3661579917
 31
0.0
  0
LINE
  5
370
330
1F
100
AcDbEntity
  8
0
  6
Continuous
 62
     7
370
    25
100
AcDbLine
 10
695.8425639986
 20
280.6661579917
 30
0.0
 11
699.3425639986
 21
280.6661579917
 31
0.0
  0
LINE
  5
371
330
1F
100
AcDbEntity
  8
0
  6
Continuous
 62
     7
370
    25
100
AcDbLine
 10
699.3425639986
 20
280.6661579917
 30
0.0
 11
699.3425639986
 21
284.1661579917
 31
0.0
  0
LINE
  5
372
330
1F
100
AcDbEntity
  8
0
  6
Continuous
 62
     7
370
    25
100
AcDbLine
 10
699.3425639986
 20
284.1661579917
 30
0.0
 11
695.8425639986
 21
284.1661579917
 31
0.0
  0
LINE
  5
373
330
1F
100
AcDbEntity
  8
0
  6
Continuous
 62
     7
370
    25
100
AcDbLine
 10
695.8425639986
 20
284.1661579917
 30
0.0
 11
695.8425639986
 21
280.6661579917
 31
0.0
  0
LINE
  5
374
330
1F
100
AcDbEntity
  8
0
  6
Continuous
 62
     7
370
    25
100
AcDbLine
 10
690.9425639986
 20
280.6661579917
 30
0.0
 11
694.4425639986
 21
280.6661579917
 31
0.0
  0
LINE
  5
375
330
1F
100
AcDbEntity
  8
0
  6
Continuous
 62
     7
370
    25
100
AcDbLine
 10
694.4425639986
 20
280.6661579917
 30
0.0
 11
694.4425639986
 21
284.1661579917
 31
0.0
  0
LINE
  5
376
330
1F
100
AcDbEntity
  8
0
  6
Continuous
 62
     7
370
    25
100
AcDbLine
 10
694.4425639986
 20
284.1661579917
 30
0.0
 11
690.9425639986
 21
284.1661579917
 31
0.0
  0
LINE
  5
377
330
1F
100
AcDbEntity
  8
0
  6
Continuous
 62
     7
370
    25
100
AcDbLine
 10
690.9425639986
 20
284.1661579917
 30
0.0
 11
690.9425639986
 21
280.6661579917
 31
0.0
  0
LINE
  5
378
330
1F
100
AcDbEntity
  8
0
  6
Continuous
 62
     7
370
    25
100
AcDbLine
 10
690.9425639986
 20
285.3661579917
 30
0.0
 11
694.4425639986
 21
285.3661579917
 31
0.0
  0
LINE
  5
379
330
1F
100
AcDbEntity
  8
0
  6
Continuous
 62
     7
370
    25
100
AcDbLine
 10
694.4425639986
 20
285.3661579917
 30
0.0
 11
694.4425639986
 21
288.8661579917
 31
0.0
  0
LINE
  5
37A
330
1F
100
AcDbEntity
  8
0
  6
Continuous
 62
     7
370
    25
100
AcDbLine
 10
694.4425639986
 20
288.8661579917
 30
0.0
 11
690.9425639986
 21
288.8661579917
 31
0.0
  0
LINE
  5
37B
330
1F
100
AcDbEntity
  8
0
  6
Continuous
 62
     7
370
    25
100
AcDbLine
 10
690.9425639986
 20
288.8661579917
 30
0.0
 11
690.9425639986
 21
285.3661579917
 31
0.0
  0
LINE
  5
37C
330
1F
100
AcDbEntity
  8
0
  6
Continuous
 62
     7
370
    25
100
AcDbLine
 10
690.9425639986
 20
290.0661579917
 30
0.0
 11
694.4425639986
 21
290.0661579917
 31
0.0
  0
LINE
  5
37D
330
1F
100
AcDbEntity
  8
0
  6
Continuous
 62
     7
370
    25
100
AcDbLine
 10
694.4425639986
 20
290.0661579917
 30
0.0
 11
694.4425639986
 21
293.5661579917
 31
0.0
  0
LINE
  5
37E
330
1F
100
AcDbEntity
  8
0
  6
Continuous
 62
     7
370
    25
100
AcDbLine
 10
694.4425639986
 20
293.5661579917
 30
0.0
 11
690.9425639986
 21
293.5661579917
 31
0.0
  0
LINE
  5
37F
330
1F
100
AcDbEntity
  8
0
  6
Continuous
 62
     7
370
    25
100
AcDbLine
 10
690.9425639986
 20
293.5661579917
 30
0.0
 11
690.9425639986
 21
290.0661579917
 31
0.0
  0
LINE
  5
380
330
1F
100
AcDbEntity
  8
0
  6
Continuous
 62
     7
370
    25
100
AcDbLine
 10
695.8425639986
 20
275.9661579917
 30
0.0
 11
699.3425639986
 21
275.9661579917
 31
0.0
  0
LINE
  5
381
330
1F
100
AcDbEntity
  8
0
  6
Continuous
 62
     7
370
    25
100
AcDbLine
 10
699.3425639986
 20
275.9661579917
 30
0.0
 11
699.3425639986
 21
279.4661579917
 31
0.0
  0
LINE
  5
382
330
1F
100
AcDbEntity
  8
0
  6
Continuous
 62
     7
370
    25
100
AcDbLine
 10
699.3425639986
 20
279.4661579917
 30
0.0
 11
695.8425639986
 21
279.4661579917
 31
0.0
  0
LINE
  5
383
330
1F
100
AcDbEntity
  8
0
  6
Continuous
 62
     7
370
    25
100
AcDbLine
 10
695.8425639986
 20
279.4661579917
 30
0.0
 11
695.8425639986
 21
275.9661579917
 31
0.0
  0
LINE
  5
384
330
1F
100
AcDbEntity
  8
0
  6
Continuous
 62
     7
370
    25
100
AcDbLine
 10
790.8425639986
 20
275.9661579917
 30
0.0
 11
794.3425639986
 21
275.9661579917
 31
0.0
  0
LINE
  5
385
330
1F
100
AcDbEntity
  8
0
  6
Continuous
 62
     7
370
    25
100
AcDbLine
 10
794.3425639986
 20
275.9661579917
 30
0.0
 11
794.3425639986
 21
279.4661579917
 31
0.0
  0
LINE
  5
386
330
1F
100
AcDbEntity
  8
0
  6
Continuous
 62
     7
370
    25
100
AcDbLine
 10
794.3425639986
 20
279.4661579917
 30
0.0
 11
790.8425639986
 21
279.4661579917
 31
0.0
  0
LINE
  5
387
330
1F
100
AcDbEntity
  8
0
  6
Continuous
 62
     7
370
    25
100
AcDbLine
 10
790.8425639986
 20
279.4661579917
 30
0.0
 11
790.8425639986
 21
275.9661579917
 31
0.0
  0
LINE
  5
388
330
1F
100
AcDbEntity
  8
0
  6
Continuous
 62
     7
370
    25
100
AcDbLine
 10
790.8425639986
 20
280.6661579917
 30
0.0
 11
794.3425639986
 21
280.6661579917
 31
0.0
  0
LINE
  5
389
330
1F
100
AcDbEntity
  8
0
  6
Continuous
 62
     7
370
    25
100
AcDbLine
 10
794.3425639986
 20
280.6661579917
 30
0.0
 11
794.3425639986
 21
284.1661579917
 31
0.0
  0
LINE
  5
38A
330
1F
100
AcDbEntity
  8
0
  6
Continuous
 62
     7
370
    25
100
AcDbLine
 10
794.3425639986
 20
284.1661579917
 30
0.0
 11
790.8425639986
 21
284.1661579917
 31
0.0
  0
LINE
  5
38B
330
1F
100
AcDbEntity
  8
0
  6
Continuous
 62
     7
370
    25
100
AcDbLine
 10
790.8425639986
 20
284.1661579917
 30
0.0
 11
790.8425639986
 21
280.6661579917
 31
0.0
  0
LINE
  5
38C
330
1F
100
AcDbEntity
  8
0
  6
Continuous
 62
     7
370
    25
100
AcDbLine
 10
790.8425639986
 20
285.3661579917
 30
0.0
 11
794.3425639986
 21
285.3661579917
 31
0.0
  0
LINE
  5
38D
330
1F
100
AcDbEntity
  8
0
  6
Continuous
 62
     7
370
    25
100
AcDbLine
 10
794.3425639986
 20
285.3661579917
 30
0.0
 11
794.3425639986
 21
288.8661579917
 31
0.0
  0
LINE
  5
38E
330
1F
100
AcDbEntity
  8
0
  6
Continuous
 62
     7
370
    25
100
AcDbLine
 10
794.3425639986
 20
288.8661579917
 30
0.0
 11
790.8425639986
 21
288.8661579917
 31
0.0
  0
LINE
  5
38F
330
1F
100
AcDbEntity
  8
0
  6
Continuous
 62
     7
370
    25
100
AcDbLine
 10
790.8425639986
 20
288.8661579917
 30
0.0
 11
790.8425639986
 21
285.3661579917
 31
0.0
  0
LINE
  5
390
330
1F
100
AcDbEntity
  8
0
  6
Continuous
 62
     7
370
    25
100
AcDbLine
 10
790.8425639986
 20
290.0661579917
 30
0.0
 11
794.3425639986
 21
290.0661579917
 31
0.0
  0
LINE
  5
391
330
1F
100
AcDbEntity
  8
0
  6
Continuous
 62
     7
370
    25
100
AcDbLine
 10
794.3425639986
 20
290.0661579917
 30
0.0
 11
794.3425639986
 21
293.5661579917
 31
0.0
  0
LINE
  5
392
330
1F
100
AcDbEntity
  8
0
  6
Continuous
 62
     7
370
    25
100
AcDbLine
 10
794.3425639986
 20
293.5661579917
 30
0.0
 11
790.8425639986
 21
293.5661579917
 31
0.0
  0
LINE
  5
393
330
1F
100
AcDbEntity
  8
0
  6
Continuous
 62
     7
370
    25
100
AcDbLine
 10
790.8425639986
 20
293.5661579917
 30
0.0
 11
790.8425639986
 21
290.0661579917
 31
0.0
  0
LINE
  5
394
330
1F
100
AcDbEntity
  8
0
  6
Continuous
 62
     7
370
    25
100
AcDbLine
 10
790.8425639986
 20
294.7661579917
 30
0.0
 11
794.3425639986
 21
294.7661579917
 31
0.0
  0
LINE
  5
395
330
1F
100
AcDbEntity
  8
0
  6
Continuous
 62
     7
370
    25
100
AcDbLine
 10
794.3425639986
 20
294.7661579917
 30
0.0
 11
794.3425639986
 21
298.2661579917
 31
0.0
  0
LINE
  5
396
330
1F
100
AcDbEntity
  8
0
  6
Continuous
 62
     7
370
    25
100
AcDbLine
 10
794.3425639986
 20
298.2661579917
 30
0.0
 11
790.8425639986
 21
298.2661579917
 31
0.0
  0
LINE
  5
397
330
1F
100
AcDbEntity
  8
0
  6
Continuous
 62
     7
370
    25
100
AcDbLine
 10
790.8425639986
 20
298.2661579917
 30
0.0
 11
790.8425639986
 21
294.7661579917
 31
0.0
  0
LINE
  5
398
330
1F
100
AcDbEntity
  8
0
  6
Continuous
 62
     7
370
    25
100
AcDbLine
 10
790.8425639986
 20
299.4661579917
 30
0.0
 11
794.3425639986
 21
299.4661579917
 31
0.0
  0
LINE
  5
399
330
1F
100
AcDbEntity
  8
0
  6
Continuous
 62
     7
370
    25
100
AcDbLine
 10
794.3425639986
 20
299.4661579917
 30
0.0
 11
794.3425639986
 21
302.9661579917
 31
0.0
  0
LINE
  5
39A
330
1F
100
AcDbEntity
  8
0
  6
Continuous
 62
     7
370
    25
100
AcDbLine
 10
794.3425639986
 20
302.9661579917
 30
0.0
 11
790.8425639986
 21
302.9661579917
 31
0.0
  0
LINE
  5
39B
330
1F
100
AcDbEntity
  8
0
  6
Continuous
 62
     7
370
    25
100
AcDbLine
 10
790.8425639986
 20
302.9661579917
 30
0.0
 11
790.8425639986
 21
299.4661579917
 31
0.0
  0
LINE
  5
39C
330
1F
100
AcDbEntity
  8
0
  6
Continuous
 62
     7
370
    25
100
AcDbLine
 10
794.3425639986
 20
304.1661579917
 30
0.0
 11
794.3425639986
 21
307.6661579917
 31
0.0
  0
LINE
  5
39D
330
1F
100
AcDbEntity
  8
0
  6
Continuous
 62
     7
370
    25
100
AcDbLine
 10
794.3425639986
 20
307.6661579917
 30
0.0
 11
790.8425639986
 21
307.6661579917
 31
0.0
  0
LINE
  5
39E
330
1F
100
AcDbEntity
  8
0
  6
Continuous
 62
     7
370
    25
100
AcDbLine
 10
790.8425639986
 20
307.6661579917
 30
0.0
 11
790.8425639986
 21
304.1661579917
 31
0.0
  0
LINE
  5
39F
330
1F
100
AcDbEntity
  8
0
  6
Continuous
 62
     7
370
    25
100
AcDbLine
 10
790.8425639986
 20
304.1661579917
 30
0.0
 11
794.3425639986
 21
304.1661579917
 31
0.0
  0
LINE
  5
3A0
330
1F
100
AcDbEntity
  8
0
  6
Continuous
 62
     7
370
    25
100
AcDbLine
 10
745.2605639986
 20
275.3841579917
 30
0.0
 11
745.2605639986
 21
283.1841579917
 31
0.0
  0
LINE
  5
3A1
330
1F
100
AcDbEntity
  8
0
  6
Continuous
 62
     7
370
    25
100
AcDbLine
 10
745.2605639986
 20
283.1841579917
 30
0.0
 11
700.9605639986
 21
283.1841579917
 31
0.0
  0
LINE
  5
3A2
330
1F
100
AcDbEntity
  8
0
  6
Continuous
 62
     7
370
    25
100
AcDbLine
 10
700.9605639986
 20
283.1841579917
 30
0.0
 11
700.9605639986
 21
275.3841579917
 31
0.0
  0
LINE
  5
3A3
330
1F
100
AcDbEntity
  8
0
  6
Continuous
 62
     7
370
    25
100
AcDbLine
 10
700.9605639986
 20
275.3841579917
 30
0.0
 11
745.2605639986
 21
275.3841579917
 31
0.0
  0
LINE
  5
3A4
330
1F
100
AcDbEntity
  8
0
  6
Continuous
 62
     7
370
    25
100
AcDbLine
 10
789.1575639986
 20
275.3161579917
 30
0.0
 11
789.1575639986
 21
283.5161579917
 31
0.0
  0
LINE
  5
3A5
330
1F
100
AcDbEntity
  8
0
  6
Continuous
 62
     7
370
    25
100
AcDbLine
 10
789.1575639986
 20
283.5161579917
 30
0.0
 11
779.9575639986
 21
283.5161579917
 31
0.0
  0
LINE
  5
3A6
330
1F
100
AcDbEntity
  8
0
  6
Continuous
 62
     7
370
    25
100
AcDbLine
 10
779.9575639986
 20
283.5161579917
 30
0.0
 11
779.9575639986
 21
275.3161579917
 31
0.0
  0
LINE
  5
3A7
330
1F
100
AcDbEntity
  8
0
  6
Continuous
 62
     7
370
    25
100
AcDbLine
 10
779.9575639986
 20
275.3161579917
 30
0.0
 11
789.1575639986
 21
275.3161579917
 31
0.0
  0
LINE
  5
3A8
330
1F
100
AcDbEntity
  8
0
  6
Continuous
 62
     7
370
    25
100
AcDbLine
 10
789.1575639986
 20
295.7161579917
 30
0.0
 11
789.1575639986
 21
304.5161579917
 31
0.0
  0
LINE
  5
3A9
330
1F
100
AcDbEntity
  8
0
  6
Continuous
 62
     7
370
    25
100
AcDbLine
 10
789.1575639986
 20
304.5161579917
 30
0.0
 11
779.9575639986
 21
304.5161579917
 31
0.0
  0
LINE
  5
3AA
330
1F
100
AcDbEntity
  8
0
  6
Continuous
 62
     7
370
    25
100
AcDbLine
 10
779.9575639986
 20
304.5161579917
 30
0.0
 11
779.9575639986
 21
295.7161579917
 31
0.0
  0
LINE
  5
3AB
330
1F
100
AcDbEntity
  8
0
  6
Continuous
 62
     7
370
    25
100
AcDbLine
 10
779.9575639986
 20
295.7161579917
 30
0.0
 11
789.1575639986
 21
295.7161579917
 31
0.0
  0
LINE
  5
3AC
330
1F
100
AcDbEntity
  8
0
  6
Continuous
 62
     7
370
    25
100
AcDbLine
 10
776.6725639986
 20
275.4961579917
 30
0.0
 11
776.6725639986
 21
302.6861579917
 31
0.0
  0
LINE
  5
3AD
330
1F
100
AcDbEntity
  8
0
  6
Continuous
 62
     7
370
    25
100
AcDbLine
 10
776.6725639986
 20
302.6861579917
 30
0.0
 11
759.0125639986
 21
302.6861579917
 31
0.0
  0
LINE
  5
3AE
330
1F
100
AcDbEntity
  8
0
  6
Continuous
 62
     7
370
    25
100
AcDbLine
 10
759.0125639986
 20
302.6861579917
 30
0.0
 11
759.0125639986
 21
275.4961579917
 31
0.0
  0
LINE
  5
3AF
330
1F
100
AcDbEntity
  8
0
  6
Continuous
 62
     7
370
    25
100
AcDbLine
 10
759.0125639986
 20
275.4961579917
 30
0.0
 11
776.6725639986
 21
275.4961579917
 31
0.0
  0
CIRCLE
  5
3B0
330
1F
100
AcDbEntity
  8
0
  6
Continuous
 62
     7
370
    25
100
AcDbCircle
 10
752.8425639986
 20
279.8661579917
 30
0.0
 40
1.600000000000023
  0
LINE
  5
3B1
330
1F
100
AcDbEntity
  8
0
  6
Continuous
 62
     7
370
    25
100
AcDbLine
 10
797.1425639986
 20
269.2161579917
 30
0.0
 11
755.3425639986
 21
269.2161579917
 31
0.0
  0
LINE
  5
3B2
330
1F
100
AcDbEntity
  8
0
  6
Continuous
 62
     7
370
    25
100
AcDbLine
 10
749.3425639986
 20
269.2161579917
 30
0.0
 11
688.1425639986
 21
269.2161579917
 31
0.0
  0
LINE
  5
3B3
330
1F
100
AcDbEntity
  8
0
  6
Continuous
 62
     7
370
    25
100
AcDbLine
 10
780.3575639986
 20
275.7971579917
 30
0.0
 11
788.7575639986
 21
275.7971579917
 31
0.0
  0
LINE
  5
3B4
330
1F
100
AcDbEntity
  8
0
  6
Continuous
 62
     7
370
    25
100
AcDbLine
 10
780.3575639986
 20
283.0971579917
 30
0.0
 11
780.3575639986
 21
275.7971579917
 31
0.0
  0
LINE
  5
3B5
330
1F
100
AcDbEntity
  8
0
  6
Continuous
 62
     7
370
    25
100
AcDbLine
 10
788.7575639986
 20
283.0971579917
 30
0.0
 11
780.3575639986
 21
283.0971579917
 31
0.0
  0
LINE
  5
3B6
330
1F
100
AcDbEntity
  8
0
  6
Continuous
 62
     7
370
    25
100
AcDbLine
 10
784.7075639986
 20
276.4971579917
 30
0.0
 11
787.8075639986
 21
276.4971579917
 31
0.0
  0
LINE
  5
3B7
330
1F
100
AcDbEntity
  8
0
  6
Continuous
 62
     7
370
    25
100
AcDbLine
 10
787.8075639986
 20
276.4971579917
 30
0.0
 11
787.8075639986
 21
282.5971579917
 31
0.0
  0
LINE
  5
3B8
330
1F
100
AcDbEntity
  8
0
  6
Continuous
 62
     7
370
    25
100
AcDbLine
 10
784.7075639986
 20
282.5971579917
 30
0.0
 11
784.7075639986
 21
276.4971579917
 31
0.0
  0
LINE
  5
3B9
330
1F
100
AcDbEntity
  8
0
  6
Continuous
 62
     7
370
    25
100
AcDbLine
 10
781.2075639986
 20
276.4971579917
 30
0.0
 11
784.3075639986
 21
276.4971579917
 31
0.0
  0
LINE
  5
3BA
330
1F
100
AcDbEntity
  8
0
  6
Continuous
 62
     7
370
    25
100
AcDbLine
 10
784.3075639986
 20
276.4971579917
 30
0.0
 11
784.3075639986
 21
282.5971579917
 31
0.0
  0
LINE
  5
3BB
330
1F
100
AcDbEntity
  8
0
  6
Continuous
 62
     7
370
    25
100
AcDbLine
 10
784.3075639986
 20
282.5971579917
 30
0.0
 11
781.2075639986
 21
282.5971579917
 31
0.0
  0
LINE
  5
3BC
330
1F
100
AcDbEntity
  8
0
  6
Continuous
 62
     7
370
    25
100
AcDbLine
 10
781.2075639986
 20
282.5971579917
 30
0.0
 11
781.2075639986
 21
276.4971579917
 31
0.0
  0
LINE
  5
3BD
330
1F
100
AcDbEntity
  8
0
  6
Continuous
 62
     7
370
    25
100
AcDbLine
 10
788.7575639986
 20
275.7971579917
 30
0.0
 11
788.7575639986
 21
283.0971579917
 31
0.0
  0
LINE
  5
3BE
330
1F
100
AcDbEntity
  8
0
  6
Continuous
 62
     7
370
    25
100
AcDbLine
 10
787.8075639986
 20
282.5971579917
 30
0.0
 11
784.7075639986
 21
282.5971579917
 31
0.0
  0
LINE
  5
3BF
330
1F
100
AcDbEntity
  8
0
  6
Continuous
 62
     7
370
    25
100
AcDbLine
 10
780.3575639986
 20
303.7971579917
 30
0.0
 11
780.3575639986
 21
296.4971579917
 31
0.0
  0
LINE
  5
3C0
330
1F
100
AcDbEntity
  8
0
  6
Continuous
 62
     7
370
    25
100
AcDbLine
 10
781.2075639986
 20
296.9971579917
 30
0.0
 11
784.3075639986
 21
296.9971579917
 31
0.0
  0
LINE
  5
3C1
330
1F
100
AcDbEntity
  8
0
  6
Continuous
 62
     7
370
    25
100
AcDbLine
 10
784.3075639986
 20
296.9971579917
 30
0.0
 11
784.3075639986
 21
303.0971579917
 31
0.0
  0
LINE
  5
3C2
330
1F
100
AcDbEntity
  8
0
  6
Continuous
 62
     7
370
    25
100
AcDbLine
 10
784.3075639986
 20
303.0971579917
 30
0.0
 11
781.2075639986
 21
303.0971579917
 31
0.0
  0
LINE
  5
3C3
330
1F
100
AcDbEntity
  8
0
  6
Continuous
 62
     7
370
    25
100
AcDbLine
 10
781.2075639986
 20
303.0971579917
 30
0.0
 11
781.2075639986
 21
296.9971579917
 31
0.0
  0
LINE
  5
3C4
330
1F
100
AcDbEntity
  8
0
  6
Continuous
 62
     7
370
    25
100
AcDbLine
 10
784.7075639986
 20
303.0971579917
 30
0.0
 11
784.7075639986
 21
296.9971579917
 31
0.0
  0
LINE
  5
3C5
330
1F
100
AcDbEntity
  8
0
  6
Continuous
 62
     7
370
    25
100
AcDbLine
 10
787.8075639986
 20
303.0971579917
 30
0.0
 11
784.7075639986
 21
303.0971579917
 31
0.0
  0
LINE
  5
3C6
330
1F
100
AcDbEntity
  8
0
  6
Continuous
 62
     7
370
    25
100
AcDbLine
 10
788.7575639986
 20
303.7971579917
 30
0.0
 11
780.3575639986
 21
303.7971579917
 31
0.0
  0
LINE
  5
3C7
330
1F
100
AcDbEntity
  8
0
  6
Continuous
 62
     7
370
    25
100
AcDbLine
 10
784.7075639986
 20
296.9971579917
 30
0.0
 11
787.8075639986
 21
296.9971579917
 31
0.0
  0
LINE
  5
3C8
330
1F
100
AcDbEntity
  8
0
  6
Continuous
 62
     7
370
    25
100
AcDbLine
 10
780.3575639986
 20
296.4971579917
 30
0.0
 11
788.7575639986
 21
296.4971579917
 31
0.0
  0
LINE
  5
3C9
330
1F
100
AcDbEntity
  8
0
  6
Continuous
 62
     7
370
    25
100
AcDbLine
 10
787.8075639986
 20
296.9971579917
 30
0.0
 11
787.8075639986
 21
303.0971579917
 31
0.0
  0
LINE
  5
3CA
330
1F
100
AcDbEntity
  8
0
  6
Continuous
 62
     7
370
    25
100
AcDbLine
 10
788.7575639986
 20
296.4971579917
 30
0.0
 11
788.7575639986
 21
303.7971579917
 31
0.0
  0
LINE
  5
3CB
330
1F
100
AcDbEntity
  8
0
  6
Continuous
 62
     7
370
    25
100
AcDbLine
 10
765.8425639986
 20
300.5341579917
 30
0.0
 11
764.7175639986
 21
300.5341579917
 31
0.0
  0
LINE
  5
3CC
330
1F
100
AcDbEntity
  8
0
  6
Continuous
 62
     7
370
    25
100
AcDbLine
 10
764.7175639986
 20
300.5341579917
 30
0.0
 11
764.7175639986
 21
299.0341579917
 31
0.0
  0
LINE
  5
3CD
330
1F
100
AcDbEntity
  8
0
  6
Continuous
 62
     7
370
    25
100
AcDbLine
 10
764.7175639986
 20
299.0341579917
 30
0.0
 11
761.8860639986
 21
299.0341579917
 31
0.0
  0
LINE
  5
3CE
330
1F
100
AcDbEntity
  8
0
  6
Continuous
 62
     7
370
    25
100
AcDbLine
 10
761.8860639986
 20
299.0341579917
 30
0.0
 11
761.8860639986
 21
291.7341579917
 31
0.0
  0
LINE
  5
3CF
330
1F
100
AcDbEntity
  8
0
  6
Continuous
 62
     7
370
    25
100
AcDbLine
 10
761.8860639986
 20
291.7341579917
 30
0.0
 11
773.7990639986
 21
291.7341579917
 31
0.0
  0
LINE
  5
3D0
330
1F
100
AcDbEntity
  8
0
  6
Continuous
 62
     7
370
    25
100
AcDbLine
 10
773.7990639986
 20
291.7341579917
 30
0.0
 11
773.7990639986
 21
299.0341579917
 31
0.0
  0
LINE
  5
3D1
330
1F
100
AcDbEntity
  8
0
  6
Continuous
 62
     7
370
    25
100
AcDbLine
 10
773.7990639986
 20
299.0341579917
 30
0.0
 11
770.9675639986
 21
299.0341579917
 31
0.0
  0
LINE
  5
3D2
330
1F
100
AcDbEntity
  8
0
  6
Continuous
 62
     7
370
    25
100
AcDbLine
 10
770.9675639986
 20
299.0341579917
 30
0.0
 11
770.9675639986
 21
300.5341579917
 31
0.0
  0
LINE
  5
3D3
330
1F
100
AcDbEntity
  8
0
  6
Continuous
 62
     7
370
    25
100
AcDbLine
 10
770.9675639986
 20
300.5341579917
 30
0.0
 11
769.8425639986
 21
300.5341579917
 31
0.0
  0
LINE
  5
3D4
330
1F
100
AcDbEntity
  8
0
  6
Continuous
 62
     7
370
    25
100
AcDbLine
 10
769.8425639986
 20
300.5341579917
 30
0.0
 11
769.8425639986
 21
302.2841579917
 31
0.0
  0
LINE
  5
3D5
330
1F
100
AcDbEntity
  8
0
  6
Continuous
 62
     7
370
    25
100
AcDbLine
 10
776.2925639986
 20
302.2841579917
 30
0.0
 11
769.8425639986
 21
302.2841579917
 31
0.0
  0
LINE
  5
3D6
330
1F
100
AcDbEntity
  8
0
  6
Continuous
 62
     7
370
    25
100
AcDbLine
 10
776.2925639986
 20
275.7841579917
 30
0.0
 11
776.2925639986
 21
302.2841579917
 31
0.0
  0
LINE
  5
3D7
330
1F
100
AcDbEntity
  8
0
  6
Continuous
 62
     7
370
    25
100
AcDbLine
 10
769.8425639986
 20
275.7841579917
 30
0.0
 11
769.8425639986
 21
277.5341579917
 31
0.0
  0
LINE
  5
3D8
330
1F
100
AcDbEntity
  8
0
  6
Continuous
 62
     7
370
    25
100
AcDbLine
 10
769.8425639986
 20
277.5341579917
 30
0.0
 11
770.9675639986
 21
277.5341579917
 31
0.0
  0
LINE
  5
3D9
330
1F
100
AcDbEntity
  8
0
  6
Continuous
 62
     7
370
    25
100
AcDbLine
 10
770.9675639986
 20
277.5341579917
 30
0.0
 11
770.9675639986
 21
279.0341579917
 31
0.0
  0
LINE
  5
3DA
330
1F
100
AcDbEntity
  8
0
  6
Continuous
 62
     7
370
    25
100
AcDbLine
 10
770.9675639986
 20
279.0341579917
 30
0.0
 11
773.7990639986
 21
279.0341579917
 31
0.0
  0
LINE
  5
3DB
330
1F
100
AcDbEntity
  8
0
  6
Continuous
 62
     7
370
    25
100
AcDbLine
 10
773.7990639986
 20
279.0341579917
 30
0.0
 11
773.7990639986
 21
286.3341579917
 31
0.0
  0
LINE
  5
3DC
330
1F
100
AcDbEntity
  8
0
  6
Continuous
 62
     7
370
    25
100
AcDbLine
 10
773.7990639986
 20
286.3341579917
 30
0.0
 11
761.8860639986
 21
286.3341579917
 31
0.0
  0
LINE
  5
3DD
330
1F
100
AcDbEntity
  8
0
  6
Continuous
 62
     7
370
    25
100
AcDbLine
 10
761.8860639986
 20
286.3341579917
 30
0.0
 11
761.8860639986
 21
279.0341579917
 31
0.0
  0
LINE
  5
3DE
330
1F
100
AcDbEntity
  8
0
  6
Continuous
 62
     7
370
    25
100
AcDbLine
 10
761.8860639986
 20
279.0341579917
 30
0.0
 11
764.7175639986
 21
279.0341579917
 31
0.0
  0
LINE
  5
3DF
330
1F
100
AcDbEntity
  8
0
  6
Continuous
 62
     7
370
    25
100
AcDbLine
 10
764.7175639986
 20
279.0341579917
 30
0.0
 11
764.7175639986
 21
277.5341579917
 31
0.0
  0
LINE
  5
3E0
330
1F
100
AcDbEntity
  8
0
  6
Continuous
 62
     7
370
    25
100
AcDbLine
 10
764.7175639986
 20
277.5341579917
 30
0.0
 11
765.8425639986
 21
277.5341579917
 31
0.0
  0
LINE
  5
3E1
330
1F
100
AcDbEntity
  8
0
  6
Continuous
 62
     7
370
    25
100
AcDbLine
 10
765.8425639986
 20
277.5341579917
 30
0.0
 11
765.8425639986
 21
275.7841579917
 31
0.0
  0
LINE
  5
3E2
330
1F
100
AcDbEntity
  8
0
  6
Continuous
 62
     7
370
    25
100
AcDbLine
 10
759.3925639986
 20
275.7841579917
 30
0.0
 11
765.8425639986
 21
275.7841579917
 31
0.0
  0
LINE
  5
3E3
330
1F
100
AcDbEntity
  8
0
  6
Continuous
 62
     7
370
    25
100
AcDbLine
 10
759.3925639986
 20
302.2841579917
 30
0.0
 11
759.3925639986
 21
275.7841579917
 31
0.0
  0
LINE
  5
3E4
330
1F
100
AcDbEntity
  8
0
  6
Continuous
 62
     7
370
    25
100
AcDbLine
 10
765.8425639986
 20
302.2841579917
 30
0.0
 11
759.3925639986
 21
302.2841579917
 31
0.0
  0
LINE
  5
3E5
330
1F
100
AcDbEntity
  8
0
  6
Continuous
 62
     7
370
    25
100
AcDbLine
 10
765.8425639986
 20
302.2841579917
 30
0.0
 11
765.8425639986
 21
300.5341579917
 31
0.0
  0
LINE
  5
3E6
330
1F
100
AcDbEntity
  8
0
  6
Continuous
 62
     7
370
    25
100
AcDbLine
 10
769.8425639986
 20
275.7841579917
 30
0.0
 11
776.2925639986
 21
275.7841579917
 31
0.0
  0
LINE
  5
3E7
330
1F
100
AcDbEntity
  8
0
  6
Continuous
 62
     7
370
    25
100
AcDbLine
 10
744.6635639986
 20
282.7861579917
 30
0.0
 11
701.5425639986
 21
282.7861579917
 31
0.0
  0
LINE
  5
3E8
330
1F
100
AcDbEntity
  8
0
  6
Continuous
 62
     7
370
    25
100
AcDbLine
 10
701.5425639986
 20
275.7861579917
 30
0.0
 11
744.6635639986
 21
275.7861579917
 31
0.0
  0
LINE
  5
3E9
330
1F
100
AcDbEntity
  8
0
  6
Continuous
 62
     7
370
    25
100
AcDbLine
 10
701.5425639986
 20
282.7861579917
 30
0.0
 11
701.5425639986
 21
275.7861579917
 31
0.0
  0
LINE
  5
3EA
330
1F
100
AcDbEntity
  8
0
  6
Continuous
 62
     7
370
    25
100
AcDbLine
 10
740.8205639986
 20
280.8311579917
 30
0.0
 11
740.8205639986
 21
276.2311579917
 31
0.0
  0
LINE
  5
3EB
330
1F
100
AcDbEntity
  8
0
  6
Continuous
 62
     7
370
    25
100
AcDbLine
 10
740.8205639986
 20
276.2311579917
 30
0.0
 11
741.3705639986
 21
276.2311579917
 31
0.0
  0
ARC
  5
3EC
330
1F
100
AcDbEntity
  8
0
  6
Continuous
 62
     7
370
    25
100
AcDbCircle
 10
742.3530639986
 20
275.2338146456
 30
0.0
 40
1.400000000000056
100
AcDbArc
 50
45.4295517385
 51
134.5704482615
  0
LINE
  5
3ED
330
1F
100
AcDbEntity
  8
0
  6
Continuous
 62
     7
370
    25
100
AcDbLine
 10
743.8855639986
 20
276.2311579917
 30
0.0
 11
743.8855639986
 21
280.8311579917
 31
0.0
  0
LINE
  5
3EE
330
1F
100
AcDbEntity
  8
0
  6
Continuous
 62
     7
370
    25
100
AcDbLine
 10
743.8855639986
 20
280.8311579917
 30
0.0
 11
743.1355639986
 21
280.8311579917
 31
0.0
  0
LINE
  5
3EF
330
1F
100
AcDbEntity
  8
0
  6
Continuous
 62
     7
370
    25
100
AcDbLine
 10
743.1355639986
 20
280.8311579917
 30
0.0
 11
743.1355639986
 21
281.4311579917
 31
0.0
  0
LINE
  5
3F0
330
1F
100
AcDbEntity
  8
0
  6
Continuous
 62
     7
370
    25
100
AcDbLine
 10
743.1355639986
 20
281.4311579917
 30
0.0
 11
743.5825639986
 21
281.4311579917
 31
0.0
  0
LINE
  5
3F1
330
1F
100
AcDbEntity
  8
0
  6
Continuous
 62
     7
370
    25
100
AcDbLine
 10
743.8380639986
 20
282.1377394812
 30
0.0
 11
743.8380639986
 21
282.2717394812
 31
0.0
  0
LINE
  5
3F2
330
1F
100
AcDbEntity
  8
0
  6
Continuous
 62
     7
370
    25
100
AcDbLine
 10
743.8380639986
 20
282.2717394812
 30
0.0
 11
740.8680639986
 21
282.2717394812
 31
0.0
  0
LINE
  5
3F3
330
1F
100
AcDbEntity
  8
0
  6
Continuous
 62
     7
370
    25
100
AcDbLine
 10
740.8680639986
 20
282.2717394812
 30
0.0
 11
740.8680639986
 21
282.1377394812
 31
0.0
  0
LINE
  5
3F4
330
1F
100
AcDbEntity
  8
0
  6
Continuous
 62
     7
370
    25
100
AcDbLine
 10
740.8680639986
 20
282.1377394812
 30
0.0
 11
741.1235639986
 21
281.4311579917
 31
0.0
  0
LINE
  5
3F5
330
1F
100
AcDbEntity
  8
0
  6
Continuous
 62
     7
370
    25
100
AcDbLine
 10
741.1235639986
 20
281.4311579917
 30
0.0
 11
741.5705639986
 21
281.4311579917
 31
0.0
  0
LINE
  5
3F6
330
1F
100
AcDbEntity
  8
0
  6
Continuous
 62
     7
370
    25
100
AcDbLine
 10
741.5705639986
 20
281.4311579917
 30
0.0
 11
741.5705639986
 21
280.8311579917
 31
0.0
  0
LINE
  5
3F7
330
1F
100
AcDbEntity
  8
0
  6
Continuous
 62
     7
370
    25
100
AcDbLine
 10
741.5705639986
 20
280.8311579917
 30
0.0
 11
740.8205639986
 21
280.8311579917
 31
0.0
  0
LINE
  5
3F8
330
1F
100
AcDbEntity
  8
0
  6
Continuous
 62
     7
370
    25
100
AcDbLine
 10
737.3205639986
 20
280.8311579917
 30
0.0
 11
737.3205639986
 21
276.2311579917
 31
0.0
  0
LINE
  5
3F9
330
1F
100
AcDbEntity
  8
0
  6
Continuous
 62
     7
370
    25
100
AcDbLine
 10
737.3205639986
 20
276.2311579917
 30
0.0
 11
737.8705639986
 21
276.2311579917
 31
0.0
  0
ARC
  5
3FA
330
1F
100
AcDbEntity
  8
0
  6
Continuous
 62
     7
370
    25
100
AcDbCircle
 10
738.8530639986
 20
275.2338146456
 30
0.0
 40
1.400000000000056
100
AcDbArc
 50
45.4295517385
 51
134.5704482615
  0
LINE
  5
3FB
330
1F
100
AcDbEntity
  8
0
  6
Continuous
 62
     7
370
    25
100
AcDbLine
 10
739.8355639986
 20
276.2311579917
 30
0.0
 11
740.3855639986
 21
276.2311579917
 31
0.0
  0
LINE
  5
3FC
330
1F
100
AcDbEntity
  8
0
  6
Continuous
 62
     7
370
    25
100
AcDbLine
 10
740.3855639986
 20
276.2311579917
 30
0.0
 11
740.3855639986
 21
280.8311579917
 31
0.0
  0
LINE
  5
3FD
330
1F
100
AcDbEntity
  8
0
  6
Continuous
 62
     7
370
    25
100
AcDbLine
 10
740.3855639986
 20
280.8311579917
 30
0.0
 11
739.6355639986
 21
280.8311579917
 31
0.0
  0
LINE
  5
3FE
330
1F
100
AcDbEntity
  8
0
  6
Continuous
 62
     7
370
    25
100
AcDbLine
 10
739.6355639986
 20
280.8311579917
 30
0.0
 11
739.6355639986
 21
281.4311579917
 31
0.0
  0
LINE
  5
3FF
330
1F
100
AcDbEntity
  8
0
  6
Continuous
 62
     7
370
    25
100
AcDbLine
 10
739.6355639986
 20
281.4311579917
 30
0.0
 11
740.0825639986
 21
281.4311579917
 31
0.0
  0
LINE
  5
400
330
1F
100
AcDbEntity
  8
0
  6
Continuous
 62
     7
370
    25
100
AcDbLine
 10
740.0825639986
 20
281.4311579917
 30
0.0
 11
740.3380639986
 21
282.1377394812
 31
0.0
  0
LINE
  5
401
330
1F
100
AcDbEntity
  8
0
  6
Continuous
 62
     7
370
    25
100
AcDbLine
 10
740.3380639986
 20
282.1377394812
 30
0.0
 11
740.3380639986
 21
282.2717394812
 31
0.0
  0
LINE
  5
402
330
1F
100
AcDbEntity
  8
0
  6
Continuous
 62
     7
370
    25
100
AcDbLine
 10
740.3380639986
 20
282.2717394812
 30
0.0
 11
737.3680639986
 21
282.2717394812
 31
0.0
  0
LINE
  5
403
330
1F
100
AcDbEntity
  8
0
  6
Continuous
 62
     7
370
    25
100
AcDbLine
 10
737.3680639986
 20
282.2717394812
 30
0.0
 11
737.3680639986
 21
282.1377394812
 31
0.0
  0
LINE
  5
404
330
1F
100
AcDbEntity
  8
0
  6
Continuous
 62
     7
370
    25
100
AcDbLine
 10
737.3680639986
 20
282.1377394812
 30
0.0
 11
737.6235639986
 21
281.4311579917
 31
0.0
  0
LINE
  5
405
330
1F
100
AcDbEntity
  8
0
  6
Continuous
 62
     7
370
    25
100
AcDbLine
 10
737.6235639986
 20
281.4311579917
 30
0.0
 11
738.0705639986
 21
281.4311579917
 31
0.0
  0
LINE
  5
406
330
1F
100
AcDbEntity
  8
0
  6
Continuous
 62
     7
370
    25
100
AcDbLine
 10
738.0705639986
 20
281.4311579917
 30
0.0
 11
738.0705639986
 21
280.8311579917
 31
0.0
  0
LINE
  5
407
330
1F
100
AcDbEntity
  8
0
  6
Continuous
 62
     7
370
    25
100
AcDbLine
 10
738.0705639986
 20
280.8311579917
 30
0.0
 11
737.3205639986
 21
280.8311579917
 31
0.0
  0
LINE
  5
408
330
1F
100
AcDbEntity
  8
0
  6
Continuous
 62
     7
370
    25
100
AcDbLine
 10
733.8205639986
 20
280.8311579917
 30
0.0
 11
733.8205639986
 21
276.2311579917
 31
0.0
  0
LINE
  5
409
330
1F
100
AcDbEntity
  8
0
  6
Continuous
 62
     7
370
    25
100
AcDbLine
 10
733.8205639986
 20
276.2311579917
 30
0.0
 11
734.3705639986
 21
276.2311579917
 31
0.0
  0
ARC
  5
40A
330
1F
100
AcDbEntity
  8
0
  6
Continuous
 62
     7
370
    25
100
AcDbCircle
 10
735.3530639986
 20
275.2338146456
 30
0.0
 40
1.400000000000056
100
AcDbArc
 50
45.4295517385
 51
134.5704482615
  0
LINE
  5
40B
330
1F
100
AcDbEntity
  8
0
  6
Continuous
 62
     7
370
    25
100
AcDbLine
 10
736.3355639986
 20
276.2311579917
 30
0.0
 11
736.8855639986
 21
276.2311579917
 31
0.0
  0
LINE
  5
40C
330
1F
100
AcDbEntity
  8
0
  6
Continuous
 62
     7
370
    25
100
AcDbLine
 10
736.8855639986
 20
276.2311579917
 30
0.0
 11
736.8855639986
 21
280.8311579917
 31
0.0
  0
LINE
  5
40D
330
1F
100
AcDbEntity
  8
0
  6
Continuous
 62
     7
370
    25
100
AcDbLine
 10
736.8855639986
 20
280.8311579917
 30
0.0
 11
736.1355639986
 21
280.8311579917
 31
0.0
  0
LINE
  5
40E
330
1F
100
AcDbEntity
  8
0
  6
Continuous
 62
     7
370
    25
100
AcDbLine
 10
736.1355639986
 20
280.8311579917
 30
0.0
 11
736.1355639986
 21
281.4311579917
 31
0.0
  0
LINE
  5
40F
330
1F
100
AcDbEntity
  8
0
  6
Continuous
 62
     7
370
    25
100
AcDbLine
 10
736.1355639986
 20
281.4311579917
 30
0.0
 11
736.5825639986
 21
281.4311579917
 31
0.0
  0
LINE
  5
410
330
1F
100
AcDbEntity
  8
0
  6
Continuous
 62
     7
370
    25
100
AcDbLine
 10
736.5825639986
 20
281.4311579917
 30
0.0
 11
736.8380639986
 21
282.1377394812
 31
0.0
  0
LINE
  5
411
330
1F
100
AcDbEntity
  8
0
  6
Continuous
 62
     7
370
    25
100
AcDbLine
 10
736.8380639986
 20
282.1377394812
 30
0.0
 11
736.8380639986
 21
282.2717394812
 31
0.0
  0
LINE
  5
412
330
1F
100
AcDbEntity
  8
0
  6
Continuous
 62
     7
370
    25
100
AcDbLine
 10
736.8380639986
 20
282.2717394812
 30
0.0
 11
733.8680639986
 21
282.2717394812
 31
0.0
  0
LINE
  5
413
330
1F
100
AcDbEntity
  8
0
  6
Continuous
 62
     7
370
    25
100
AcDbLine
 10
733.8680639986
 20
282.2717394812
 30
0.0
 11
733.8680639986
 21
282.1377394812
 31
0.0
  0
LINE
  5
414
330
1F
100
AcDbEntity
  8
0
  6
Continuous
 62
     7
370
    25
100
AcDbLine
 10
733.8680639986
 20
282.1377394812
 30
0.0
 11
734.1235639986
 21
281.4311579917
 31
0.0
  0
LINE
  5
415
330
1F
100
AcDbEntity
  8
0
  6
Continuous
 62
     7
370
    25
100
AcDbLine
 10
734.1235639986
 20
281.4311579917
 30
0.0
 11
734.5705639986
 21
281.4311579917
 31
0.0
  0
LINE
  5
416
330
1F
100
AcDbEntity
  8
0
  6
Continuous
 62
     7
370
    25
100
AcDbLine
 10
734.5705639986
 20
281.4311579917
 30
0.0
 11
734.5705639986
 21
280.8311579917
 31
0.0
  0
LINE
  5
417
330
1F
100
AcDbEntity
  8
0
  6
Continuous
 62
     7
370
    25
100
AcDbLine
 10
734.5705639986
 20
280.8311579917
 30
0.0
 11
733.8205639986
 21
280.8311579917
 31
0.0
  0
LINE
  5
418
330
1F
100
AcDbEntity
  8
0
  6
Continuous
 62
     7
370
    25
100
AcDbLine
 10
730.3205639986
 20
280.8311579917
 30
0.0
 11
730.3205639986
 21
276.2311579917
 31
0.0
  0
LINE
  5
419
330
1F
100
AcDbEntity
  8
0
  6
Continuous
 62
     7
370
    25
100
AcDbLine
 10
730.3205639986
 20
276.2311579917
 30
0.0
 11
730.8705639986
 21
276.2311579917
 31
0.0
  0
ARC
  5
41A
330
1F
100
AcDbEntity
  8
0
  6
Continuous
 62
     7
370
    25
100
AcDbCircle
 10
731.8530639986
 20
275.2338146456
 30
0.0
 40
1.399999999999976
100
AcDbArc
 50
45.4295517385
 51
134.5704482615
  0
LINE
  5
41B
330
1F
100
AcDbEntity
  8
0
  6
Continuous
 62
     7
370
    25
100
AcDbLine
 10
732.8355639986
 20
276.2311579917
 30
0.0
 11
733.3855639986
 21
276.2311579917
 31
0.0
  0
LINE
  5
41C
330
1F
100
AcDbEntity
  8
0
  6
Continuous
 62
     7
370
    25
100
AcDbLine
 10
733.3855639986
 20
276.2311579917
 30
0.0
 11
733.3855639986
 21
280.8311579917
 31
0.0
  0
LINE
  5
41D
330
1F
100
AcDbEntity
  8
0
  6
Continuous
 62
     7
370
    25
100
AcDbLine
 10
733.3855639986
 20
280.8311579917
 30
0.0
 11
732.6355639986
 21
280.8311579917
 31
0.0
  0
LINE
  5
41E
330
1F
100
AcDbEntity
  8
0
  6
Continuous
 62
     7
370
    25
100
AcDbLine
 10
732.6355639986
 20
280.8311579917
 30
0.0
 11
732.6355639986
 21
281.4311579917
 31
0.0
  0
LINE
  5
41F
330
1F
100
AcDbEntity
  8
0
  6
Continuous
 62
     7
370
    25
100
AcDbLine
 10
732.6355639986
 20
281.4311579917
 30
0.0
 11
733.0825639986
 21
281.4311579917
 31
0.0
  0
LINE
  5
420
330
1F
100
AcDbEntity
  8
0
  6
Continuous
 62
     7
370
    25
100
AcDbLine
 10
733.0825639986
 20
281.4311579917
 30
0.0
 11
733.3380639986
 21
282.1377394812
 31
0.0
  0
LINE
  5
421
330
1F
100
AcDbEntity
  8
0
  6
Continuous
 62
     7
370
    25
100
AcDbLine
 10
733.3380639986
 20
282.1377394812
 30
0.0
 11
733.3380639986
 21
282.2717394812
 31
0.0
  0
LINE
  5
422
330
1F
100
AcDbEntity
  8
0
  6
Continuous
 62
     7
370
    25
100
AcDbLine
 10
733.3380639986
 20
282.2717394812
 30
0.0
 11
730.3680639986
 21
282.2717394812
 31
0.0
  0
LINE
  5
423
330
1F
100
AcDbEntity
  8
0
  6
Continuous
 62
     7
370
    25
100
AcDbLine
 10
730.3680639986
 20
282.2717394812
 30
0.0
 11
730.3680639986
 21
282.1377394812
 31
0.0
  0
LINE
  5
424
330
1F
100
AcDbEntity
  8
0
  6
Continuous
 62
     7
370
    25
100
AcDbLine
 10
730.3680639986
 20
282.1377394812
 30
0.0
 11
730.6235639986
 21
281.4311579917
 31
0.0
  0
LINE
  5
425
330
1F
100
AcDbEntity
  8
0
  6
Continuous
 62
     7
370
    25
100
AcDbLine
 10
730.6235639986
 20
281.4311579917
 30
0.0
 11
731.0705639986
 21
281.4311579917
 31
0.0
  0
LINE
  5
426
330
1F
100
AcDbEntity
  8
0
  6
Continuous
 62
     7
370
    25
100
AcDbLine
 10
731.0705639986
 20
281.4311579917
 30
0.0
 11
731.0705639986
 21
280.8311579917
 31
0.0
  0
LINE
  5
427
330
1F
100
AcDbEntity
  8
0
  6
Continuous
 62
     7
370
    25
100
AcDbLine
 10
731.0705639986
 20
280.8311579917
 30
0.0
 11
730.3205639986
 21
280.8311579917
 31
0.0
  0
LINE
  5
428
330
1F
100
AcDbEntity
  8
0
  6
Continuous
 62
     7
370
    25
100
AcDbLine
 10
726.8205639986
 20
280.8311579917
 30
0.0
 11
726.8205639986
 21
276.2311579917
 31
0.0
  0
LINE
  5
429
330
1F
100
AcDbEntity
  8
0
  6
Continuous
 62
     7
370
    25
100
AcDbLine
 10
726.8205639986
 20
276.2311579917
 30
0.0
 11
727.3705639986
 21
276.2311579917
 31
0.0
  0
ARC
  5
42A
330
1F
100
AcDbEntity
  8
0
  6
Continuous
 62
     7
370
    25
100
AcDbCircle
 10
728.3530639986
 20
275.2338146456
 30
0.0
 40
1.400000000000056
100
AcDbArc
 50
45.4295517385
 51
134.5704482615
  0
LINE
  5
42B
330
1F
100
AcDbEntity
  8
0
  6
Continuous
 62
     7
370
    25
100
AcDbLine
 10
729.3355639986
 20
276.2311579917
 30
0.0
 11
729.8855639986
 21
276.2311579917
 31
0.0
  0
LINE
  5
42C
330
1F
100
AcDbEntity
  8
0
  6
Continuous
 62
     7
370
    25
100
AcDbLine
 10
729.8855639986
 20
276.2311579917
 30
0.0
 11
729.8855639986
 21
280.8311579917
 31
0.0
  0
LINE
  5
42D
330
1F
100
AcDbEntity
  8
0
  6
Continuous
 62
     7
370
    25
100
AcDbLine
 10
729.8855639986
 20
280.8311579917
 30
0.0
 11
729.1355639986
 21
280.8311579917
 31
0.0
  0
LINE
  5
42E
330
1F
100
AcDbEntity
  8
0
  6
Continuous
 62
     7
370
    25
100
AcDbLine
 10
729.1355639986
 20
280.8311579917
 30
0.0
 11
729.1355639986
 21
281.4311579917
 31
0.0
  0
LINE
  5
42F
330
1F
100
AcDbEntity
  8
0
  6
Continuous
 62
     7
370
    25
100
AcDbLine
 10
729.1355639986
 20
281.4311579917
 30
0.0
 11
729.5825639986
 21
281.4311579917
 31
0.0
  0
LINE
  5
430
330
1F
100
AcDbEntity
  8
0
  6
Continuous
 62
     7
370
    25
100
AcDbLine
 10
729.5825639986
 20
281.4311579917
 30
0.0
 11
729.8380639986
 21
282.1377394812
 31
0.0
  0
LINE
  5
431
330
1F
100
AcDbEntity
  8
0
  6
Continuous
 62
     7
370
    25
100
AcDbLine
 10
729.8380639986
 20
282.1377394812
 30
0.0
 11
729.8380639986
 21
282.2717394812
 31
0.0
  0
LINE
  5
432
330
1F
100
AcDbEntity
  8
0
  6
Continuous
 62
     7
370
    25
100
AcDbLine
 10
729.8380639986
 20
282.2717394812
 30
0.0
 11
726.8680639986
 21
282.2717394812
 31
0.0
  0
LINE
  5
433
330
1F
100
AcDbEntity
  8
0
  6
Continuous
 62
     7
370
    25
100
AcDbLine
 10
726.8680639986
 20
282.2717394812
 30
0.0
 11
726.8680639986
 21
282.1377394812
 31
0.0
  0
LINE
  5
434
330
1F
100
AcDbEntity
  8
0
  6
Continuous
 62
     7
370
    25
100
AcDbLine
 10
726.8680639986
 20
282.1377394812
 30
0.0
 11
727.1235639986
 21
281.4311579917
 31
0.0
  0
LINE
  5
435
330
1F
100
AcDbEntity
  8
0
  6
Continuous
 62
     7
370
    25
100
AcDbLine
 10
727.1235639986
 20
281.4311579917
 30
0.0
 11
727.5705639986
 21
281.4311579917
 31
0.0
  0
LINE
  5
436
330
1F
100
AcDbEntity
  8
0
  6
Continuous
 62
     7
370
    25
100
AcDbLine
 10
727.5705639986
 20
281.4311579917
 30
0.0
 11
727.5705639986
 21
280.8311579917
 31
0.0
  0
LINE
  5
437
330
1F
100
AcDbEntity
  8
0
  6
Continuous
 62
     7
370
    25
100
AcDbLine
 10
727.5705639986
 20
280.8311579917
 30
0.0
 11
726.8205639986
 21
280.8311579917
 31
0.0
  0
LINE
  5
438
330
1F
100
AcDbEntity
  8
0
  6
Continuous
 62
     7
370
    25
100
AcDbLine
 10
723.3205639986
 20
280.8311579917
 30
0.0
 11
723.3205639986
 21
276.2311579917
 31
0.0
  0
LINE
  5
439
330
1F
100
AcDbEntity
  8
0
  6
Continuous
 62
     7
370
    25
100
AcDbLine
 10
723.3205639986
 20
276.2311579917
 30
0.0
 11
723.8705639986
 21
276.2311579917
 31
0.0
  0
ARC
  5
43A
330
1F
100
AcDbEntity
  8
0
  6
Continuous
 62
     7
370
    25
100
AcDbCircle
 10
724.8530639986
 20
275.2338146456
 30
0.0
 40
1.399999999999976
100
AcDbArc
 50
45.4295517385
 51
134.5704482615
  0
LINE
  5
43B
330
1F
100
AcDbEntity
  8
0
  6
Continuous
 62
     7
370
    25
100
AcDbLine
 10
725.8355639986
 20
276.2311579917
 30
0.0
 11
726.3855639986
 21
276.2311579917
 31
0.0
  0
LINE
  5
43C
330
1F
100
AcDbEntity
  8
0
  6
Continuous
 62
     7
370
    25
100
AcDbLine
 10
726.3855639986
 20
276.2311579917
 30
0.0
 11
726.3855639986
 21
280.8311579917
 31
0.0
  0
LINE
  5
43D
330
1F
100
AcDbEntity
  8
0
  6
Continuous
 62
     7
370
    25
100
AcDbLine
 10
726.3855639986
 20
280.8311579917
 30
0.0
 11
725.6355639986
 21
280.8311579917
 31
0.0
  0
LINE
  5
43E
330
1F
100
AcDbEntity
  8
0
  6
Continuous
 62
     7
370
    25
100
AcDbLine
 10
725.6355639986
 20
280.8311579917
 30
0.0
 11
725.6355639986
 21
281.4311579917
 31
0.0
  0
LINE
  5
43F
330
1F
100
AcDbEntity
  8
0
  6
Continuous
 62
     7
370
    25
100
AcDbLine
 10
725.6355639986
 20
281.4311579917
 30
0.0
 11
726.0825639986
 21
281.4311579917
 31
0.0
  0
LINE
  5
440
330
1F
100
AcDbEntity
  8
0
  6
Continuous
 62
     7
370
    25
100
AcDbLine
 10
726.0825639986
 20
281.4311579917
 30
0.0
 11
726.3380639986
 21
282.1377394812
 31
0.0
  0
LINE
  5
441
330
1F
100
AcDbEntity
  8
0
  6
Continuous
 62
     7
370
    25
100
AcDbLine
 10
726.3380639986
 20
282.1377394812
 30
0.0
 11
726.3380639986
 21
282.2717394812
 31
0.0
  0
LINE
  5
442
330
1F
100
AcDbEntity
  8
0
  6
Continuous
 62
     7
370
    25
100
AcDbLine
 10
726.3380639986
 20
282.2717394812
 30
0.0
 11
723.3680639986
 21
282.2717394812
 31
0.0
  0
LINE
  5
443
330
1F
100
AcDbEntity
  8
0
  6
Continuous
 62
     7
370
    25
100
AcDbLine
 10
723.3680639986
 20
282.2717394812
 30
0.0
 11
723.3680639986
 21
282.1377394812
 31
0.0
  0
LINE
  5
444
330
1F
100
AcDbEntity
  8
0
  6
Continuous
 62
     7
370
    25
100
AcDbLine
 10
723.3680639986
 20
282.1377394812
 30
0.0
 11
723.6235639986
 21
281.4311579917
 31
0.0
  0
LINE
  5
445
330
1F
100
AcDbEntity
  8
0
  6
Continuous
 62
     7
370
    25
100
AcDbLine
 10
723.6235639986
 20
281.4311579917
 30
0.0
 11
724.0705639986
 21
281.4311579917
 31
0.0
  0
LINE
  5
446
330
1F
100
AcDbEntity
  8
0
  6
Continuous
 62
     7
370
    25
100
AcDbLine
 10
724.0705639986
 20
281.4311579917
 30
0.0
 11
724.0705639986
 21
280.8311579917
 31
0.0
  0
LINE
  5
447
330
1F
100
AcDbEntity
  8
0
  6
Continuous
 62
     7
370
    25
100
AcDbLine
 10
724.0705639986
 20
280.8311579917
 30
0.0
 11
723.3205639986
 21
280.8311579917
 31
0.0
  0
LINE
  5
448
330
1F
100
AcDbEntity
  8
0
  6
Continuous
 62
     7
370
    25
100
AcDbLine
 10
719.8205639986
 20
280.8311579917
 30
0.0
 11
719.8205639986
 21
276.2311579917
 31
0.0
  0
LINE
  5
449
330
1F
100
AcDbEntity
  8
0
  6
Continuous
 62
     7
370
    25
100
AcDbLine
 10
719.8205639986
 20
276.2311579917
 30
0.0
 11
720.3705639986
 21
276.2311579917
 31
0.0
  0
ARC
  5
44A
330
1F
100
AcDbEntity
  8
0
  6
Continuous
 62
     7
370
    25
100
AcDbCircle
 10
721.3530639986
 20
275.2338146456
 30
0.0
 40
1.400000000000056
100
AcDbArc
 50
45.4295517385
 51
134.5704482615
  0
LINE
  5
44B
330
1F
100
AcDbEntity
  8
0
  6
Continuous
 62
     7
370
    25
100
AcDbLine
 10
722.3355639986
 20
276.2311579917
 30
0.0
 11
722.8855639986
 21
276.2311579917
 31
0.0
  0
LINE
  5
44C
330
1F
100
AcDbEntity
  8
0
  6
Continuous
 62
     7
370
    25
100
AcDbLine
 10
722.8855639986
 20
276.2311579917
 30
0.0
 11
722.8855639986
 21
280.8311579917
 31
0.0
  0
LINE
  5
44D
330
1F
100
AcDbEntity
  8
0
  6
Continuous
 62
     7
370
    25
100
AcDbLine
 10
722.8855639986
 20
280.8311579917
 30
0.0
 11
722.1355639986
 21
280.8311579917
 31
0.0
  0
LINE
  5
44E
330
1F
100
AcDbEntity
  8
0
  6
Continuous
 62
     7
370
    25
100
AcDbLine
 10
722.1355639986
 20
280.8311579917
 30
0.0
 11
722.1355639986
 21
281.4311579917
 31
0.0
  0
LINE
  5
44F
330
1F
100
AcDbEntity
  8
0
  6
Continuous
 62
     7
370
    25
100
AcDbLine
 10
722.1355639986
 20
281.4311579917
 30
0.0
 11
722.5825639986
 21
281.4311579917
 31
0.0
  0
LINE
  5
450
330
1F
100
AcDbEntity
  8
0
  6
Continuous
 62
     7
370
    25
100
AcDbLine
 10
722.5825639986
 20
281.4311579917
 30
0.0
 11
722.8380639986
 21
282.1377394812
 31
0.0
  0
LINE
  5
451
330
1F
100
AcDbEntity
  8
0
  6
Continuous
 62
     7
370
    25
100
AcDbLine
 10
722.8380639986
 20
282.1377394812
 30
0.0
 11
722.8380639986
 21
282.2717394812
 31
0.0
  0
LINE
  5
452
330
1F
100
AcDbEntity
  8
0
  6
Continuous
 62
     7
370
    25
100
AcDbLine
 10
722.8380639986
 20
282.2717394812
 30
0.0
 11
719.8680639986
 21
282.2717394812
 31
0.0
  0
LINE
  5
453
330
1F
100
AcDbEntity
  8
0
  6
Continuous
 62
     7
370
    25
100
AcDbLine
 10
719.8680639986
 20
282.2717394812
 30
0.0
 11
719.8680639986
 21
282.1377394812
 31
0.0
  0
LINE
  5
454
330
1F
100
AcDbEntity
  8
0
  6
Continuous
 62
     7
370
    25
100
AcDbLine
 10
719.8680639986
 20
282.1377394812
 30
0.0
 11
720.1235639986
 21
281.4311579917
 31
0.0
  0
LINE
  5
455
330
1F
100
AcDbEntity
  8
0
  6
Continuous
 62
     7
370
    25
100
AcDbLine
 10
720.1235639986
 20
281.4311579917
 30
0.0
 11
720.5705639986
 21
281.4311579917
 31
0.0
  0
LINE
  5
456
330
1F
100
AcDbEntity
  8
0
  6
Continuous
 62
     7
370
    25
100
AcDbLine
 10
720.5705639986
 20
281.4311579917
 30
0.0
 11
720.5705639986
 21
280.8311579917
 31
0.0
  0
LINE
  5
457
330
1F
100
AcDbEntity
  8
0
  6
Continuous
 62
     7
370
    25
100
AcDbLine
 10
720.5705639986
 20
280.8311579917
 30
0.0
 11
719.8205639986
 21
280.8311579917
 31
0.0
  0
LINE
  5
458
330
1F
100
AcDbEntity
  8
0
  6
Continuous
 62
     7
370
    25
100
AcDbLine
 10
716.3205639986
 20
280.8311579917
 30
0.0
 11
716.3205639986
 21
276.2311579917
 31
0.0
  0
LINE
  5
459
330
1F
100
AcDbEntity
  8
0
  6
Continuous
 62
     7
370
    25
100
AcDbLine
 10
716.3205639986
 20
276.2311579917
 30
0.0
 11
716.8705639986
 21
276.2311579917
 31
0.0
  0
ARC
  5
45A
330
1F
100
AcDbEntity
  8
0
  6
Continuous
 62
     7
370
    25
100
AcDbCircle
 10
717.8530639986
 20
275.2338146456
 30
0.0
 40
1.399999999999976
100
AcDbArc
 50
45.4295517385
 51
134.5704482615
  0
LINE
  5
45B
330
1F
100
AcDbEntity
  8
0
  6
Continuous
 62
     7
370
    25
100
AcDbLine
 10
718.8355639986
 20
276.2311579917
 30
0.0
 11
719.3855639986
 21
276.2311579917
 31
0.0
  0
LINE
  5
45C
330
1F
100
AcDbEntity
  8
0
  6
Continuous
 62
     7
370
    25
100
AcDbLine
 10
719.3855639986
 20
276.2311579917
 30
0.0
 11
719.3855639986
 21
280.8311579917
 31
0.0
  0
LINE
  5
45D
330
1F
100
AcDbEntity
  8
0
  6
Continuous
 62
     7
370
    25
100
AcDbLine
 10
719.3855639986
 20
280.8311579917
 30
0.0
 11
718.6355639986
 21
280.8311579917
 31
0.0
  0
LINE
  5
45E
330
1F
100
AcDbEntity
  8
0
  6
Continuous
 62
     7
370
    25
100
AcDbLine
 10
718.6355639986
 20
280.8311579917
 30
0.0
 11
718.6355639986
 21
281.4311579917
 31
0.0
  0
LINE
  5
45F
330
1F
100
AcDbEntity
  8
0
  6
Continuous
 62
     7
370
    25
100
AcDbLine
 10
718.6355639986
 20
281.4311579917
 30
0.0
 11
719.0825639986
 21
281.4311579917
 31
0.0
  0
LINE
  5
460
330
1F
100
AcDbEntity
  8
0
  6
Continuous
 62
     7
370
    25
100
AcDbLine
 10
719.0825639986
 20
281.4311579917
 30
0.0
 11
719.3380639986
 21
282.1377394812
 31
0.0
  0
LINE
  5
461
330
1F
100
AcDbEntity
  8
0
  6
Continuous
 62
     7
370
    25
100
AcDbLine
 10
719.3380639986
 20
282.1377394812
 30
0.0
 11
719.3380639986
 21
282.2717394812
 31
0.0
  0
LINE
  5
462
330
1F
100
AcDbEntity
  8
0
  6
Continuous
 62
     7
370
    25
100
AcDbLine
 10
719.3380639986
 20
282.2717394812
 30
0.0
 11
716.3680639986
 21
282.2717394812
 31
0.0
  0
LINE
  5
463
330
1F
100
AcDbEntity
  8
0
  6
Continuous
 62
     7
370
    25
100
AcDbLine
 10
716.3680639986
 20
282.2717394812
 30
0.0
 11
716.3680639986
 21
282.1377394812
 31
0.0
  0
LINE
  5
464
330
1F
100
AcDbEntity
  8
0
  6
Continuous
 62
     7
370
    25
100
AcDbLine
 10
716.3680639986
 20
282.1377394812
 30
0.0
 11
716.6235639986
 21
281.4311579917
 31
0.0
  0
LINE
  5
465
330
1F
100
AcDbEntity
  8
0
  6
Continuous
 62
     7
370
    25
100
AcDbLine
 10
716.6235639986
 20
281.4311579917
 30
0.0
 11
717.0705639986
 21
281.4311579917
 31
0.0
  0
LINE
  5
466
330
1F
100
AcDbEntity
  8
0
  6
Continuous
 62
     7
370
    25
100
AcDbLine
 10
717.0705639986
 20
281.4311579917
 30
0.0
 11
717.0705639986
 21
280.8311579917
 31
0.0
  0
LINE
  5
467
330
1F
100
AcDbEntity
  8
0
  6
Continuous
 62
     7
370
    25
100
AcDbLine
 10
717.0705639986
 20
280.8311579917
 30
0.0
 11
716.3205639986
 21
280.8311579917
 31
0.0
  0
LINE
  5
468
330
1F
100
AcDbEntity
  8
0
  6
Continuous
 62
     7
370
    25
100
AcDbLine
 10
712.8205639986
 20
280.8311579917
 30
0.0
 11
712.8205639986
 21
276.2311579917
 31
0.0
  0
LINE
  5
469
330
1F
100
AcDbEntity
  8
0
  6
Continuous
 62
     7
370
    25
100
AcDbLine
 10
712.8205639986
 20
276.2311579917
 30
0.0
 11
713.3705639986
 21
276.2311579917
 31
0.0
  0
ARC
  5
46A
330
1F
100
AcDbEntity
  8
0
  6
Continuous
 62
     7
370
    25
100
AcDbCircle
 10
714.3530639986
 20
275.2338146456
 30
0.0
 40
1.400000000000056
100
AcDbArc
 50
45.4295517385
 51
134.5704482615
  0
LINE
  5
46B
330
1F
100
AcDbEntity
  8
0
  6
Continuous
 62
     7
370
    25
100
AcDbLine
 10
715.3355639986
 20
276.2311579917
 30
0.0
 11
715.8855639986
 21
276.2311579917
 31
0.0
  0
LINE
  5
46C
330
1F
100
AcDbEntity
  8
0
  6
Continuous
 62
     7
370
    25
100
AcDbLine
 10
715.8855639986
 20
276.2311579917
 30
0.0
 11
715.8855639986
 21
280.8311579917
 31
0.0
  0
LINE
  5
46D
330
1F
100
AcDbEntity
  8
0
  6
Continuous
 62
     7
370
    25
100
AcDbLine
 10
715.8855639986
 20
280.8311579917
 30
0.0
 11
715.1355639986
 21
280.8311579917
 31
0.0
  0
LINE
  5
46E
330
1F
100
AcDbEntity
  8
0
  6
Continuous
 62
     7
370
    25
100
AcDbLine
 10
715.1355639986
 20
280.8311579917
 30
0.0
 11
715.1355639986
 21
281.4311579917
 31
0.0
  0
LINE
  5
46F
330
1F
100
AcDbEntity
  8
0
  6
Continuous
 62
     7
370
    25
100
AcDbLine
 10
715.1355639986
 20
281.4311579917
 30
0.0
 11
715.5825639986
 21
281.4311579917
 31
0.0
  0
LINE
  5
470
330
1F
100
AcDbEntity
  8
0
  6
Continuous
 62
     7
370
    25
100
AcDbLine
 10
715.5825639986
 20
281.4311579917
 30
0.0
 11
715.8380639986
 21
282.1377394812
 31
0.0
  0
LINE
  5
471
330
1F
100
AcDbEntity
  8
0
  6
Continuous
 62
     7
370
    25
100
AcDbLine
 10
715.8380639986
 20
282.1377394812
 30
0.0
 11
715.8380639986
 21
282.2717394812
 31
0.0
  0
LINE
  5
472
330
1F
100
AcDbEntity
  8
0
  6
Continuous
 62
     7
370
    25
100
AcDbLine
 10
715.8380639986
 20
282.2717394812
 30
0.0
 11
712.8680639986
 21
282.2717394812
 31
0.0
  0
LINE
  5
473
330
1F
100
AcDbEntity
  8
0
  6
Continuous
 62
     7
370
    25
100
AcDbLine
 10
712.8680639986
 20
282.2717394812
 30
0.0
 11
712.8680639986
 21
282.1377394812
 31
0.0
  0
LINE
  5
474
330
1F
100
AcDbEntity
  8
0
  6
Continuous
 62
     7
370
    25
100
AcDbLine
 10
712.8680639986
 20
282.1377394812
 30
0.0
 11
713.1235639986
 21
281.4311579917
 31
0.0
  0
LINE
  5
475
330
1F
100
AcDbEntity
  8
0
  6
Continuous
 62
     7
370
    25
100
AcDbLine
 10
713.1235639986
 20
281.4311579917
 30
0.0
 11
713.5705639986
 21
281.4311579917
 31
0.0
  0
LINE
  5
476
330
1F
100
AcDbEntity
  8
0
  6
Continuous
 62
     7
370
    25
100
AcDbLine
 10
713.5705639986
 20
281.4311579917
 30
0.0
 11
713.5705639986
 21
280.8311579917
 31
0.0
  0
LINE
  5
477
330
1F
100
AcDbEntity
  8
0
  6
Continuous
 62
     7
370
    25
100
AcDbLine
 10
713.5705639986
 20
280.8311579917
 30
0.0
 11
712.8205639986
 21
280.8311579917
 31
0.0
  0
LINE
  5
478
330
1F
100
AcDbEntity
  8
0
  6
Continuous
 62
     7
370
    25
100
AcDbLine
 10
709.3205639986
 20
280.8311579917
 30
0.0
 11
709.3205639986
 21
276.2311579917
 31
0.0
  0
LINE
  5
479
330
1F
100
AcDbEntity
  8
0
  6
Continuous
 62
     7
370
    25
100
AcDbLine
 10
709.3205639986
 20
276.2311579917
 30
0.0
 11
709.8705639986
 21
276.2311579917
 31
0.0
  0
ARC
  5
47A
330
1F
100
AcDbEntity
  8
0
  6
Continuous
 62
     7
370
    25
100
AcDbCircle
 10
710.8530639986
 20
275.2338146456
 30
0.0
 40
1.399999999999976
100
AcDbArc
 50
45.4295517385
 51
134.5704482615
  0
LINE
  5
47B
330
1F
100
AcDbEntity
  8
0
  6
Continuous
 62
     7
370
    25
100
AcDbLine
 10
711.8355639986
 20
276.2311579917
 30
0.0
 11
712.3855639986
 21
276.2311579917
 31
0.0
  0
LINE
  5
47C
330
1F
100
AcDbEntity
  8
0
  6
Continuous
 62
     7
370
    25
100
AcDbLine
 10
712.3855639986
 20
276.2311579917
 30
0.0
 11
712.3855639986
 21
280.8311579917
 31
0.0
  0
LINE
  5
47D
330
1F
100
AcDbEntity
  8
0
  6
Continuous
 62
     7
370
    25
100
AcDbLine
 10
712.3855639986
 20
280.8311579917
 30
0.0
 11
711.6355639986
 21
280.8311579917
 31
0.0
  0
LINE
  5
47E
330
1F
100
AcDbEntity
  8
0
  6
Continuous
 62
     7
370
    25
100
AcDbLine
 10
711.6355639986
 20
280.8311579917
 30
0.0
 11
711.6355639986
 21
281.4311579917
 31
0.0
  0
LINE
  5
47F
330
1F
100
AcDbEntity
  8
0
  6
Continuous
 62
     7
370
    25
100
AcDbLine
 10
711.6355639986
 20
281.4311579917
 30
0.0
 11
712.0825639986
 21
281.4311579917
 31
0.0
  0
LINE
  5
480
330
1F
100
AcDbEntity
  8
0
  6
Continuous
 62
     7
370
    25
100
AcDbLine
 10
712.0825639986
 20
281.4311579917
 30
0.0
 11
712.3380639986
 21
282.1377394812
 31
0.0
  0
LINE
  5
481
330
1F
100
AcDbEntity
  8
0
  6
Continuous
 62
     7
370
    25
100
AcDbLine
 10
712.3380639986
 20
282.1377394812
 30
0.0
 11
712.3380639986
 21
282.2717394812
 31
0.0
  0
LINE
  5
482
330
1F
100
AcDbEntity
  8
0
  6
Continuous
 62
     7
370
    25
100
AcDbLine
 10
712.3380639986
 20
282.2717394812
 30
0.0
 11
709.3680639986
 21
282.2717394812
 31
0.0
  0
LINE
  5
483
330
1F
100
AcDbEntity
  8
0
  6
Continuous
 62
     7
370
    25
100
AcDbLine
 10
709.3680639986
 20
282.2717394812
 30
0.0
 11
709.3680639986
 21
282.1377394812
 31
0.0
  0
LINE
  5
484
330
1F
100
AcDbEntity
  8
0
  6
Continuous
 62
     7
370
    25
100
AcDbLine
 10
709.3680639986
 20
282.1377394812
 30
0.0
 11
709.6235639986
 21
281.4311579917
 31
0.0
  0
LINE
  5
485
330
1F
100
AcDbEntity
  8
0
  6
Continuous
 62
     7
370
    25
100
AcDbLine
 10
709.6235639986
 20
281.4311579917
 30
0.0
 11
710.0705639986
 21
281.4311579917
 31
0.0
  0
LINE
  5
486
330
1F
100
AcDbEntity
  8
0
  6
Continuous
 62
     7
370
    25
100
AcDbLine
 10
710.0705639986
 20
281.4311579917
 30
0.0
 11
710.0705639986
 21
280.8311579917
 31
0.0
  0
LINE
  5
487
330
1F
100
AcDbEntity
  8
0
  6
Continuous
 62
     7
370
    25
100
AcDbLine
 10
710.0705639986
 20
280.8311579917
 30
0.0
 11
709.3205639986
 21
280.8311579917
 31
0.0
  0
LINE
  5
488
330
1F
100
AcDbEntity
  8
0
  6
Continuous
 62
     7
370
    25
100
AcDbLine
 10
705.8205639986
 20
280.8311579917
 30
0.0
 11
705.8205639986
 21
276.2311579917
 31
0.0
  0
LINE
  5
489
330
1F
100
AcDbEntity
  8
0
  6
Continuous
 62
     7
370
    25
100
AcDbLine
 10
705.8205639986
 20
276.2311579917
 30
0.0
 11
706.3705639986
 21
276.2311579917
 31
0.0
  0
ARC
  5
48A
330
1F
100
AcDbEntity
  8
0
  6
Continuous
 62
     7
370
    25
100
AcDbCircle
 10
707.3530639986
 20
275.2338146456
 30
0.0
 40
1.400000000000056
100
AcDbArc
 50
45.4295517385
 51
134.5704482615
  0
LINE
  5
48B
330
1F
100
AcDbEntity
  8
0
  6
Continuous
 62
     7
370
    25
100
AcDbLine
 10
708.3355639986
 20
276.2311579917
 30
0.0
 11
708.8855639986
 21
276.2311579917
 31
0.0
  0
LINE
  5
48C
330
1F
100
AcDbEntity
  8
0
  6
Continuous
 62
     7
370
    25
100
AcDbLine
 10
708.8855639986
 20
276.2311579917
 30
0.0
 11
708.8855639986
 21
280.8311579917
 31
0.0
  0
LINE
  5
48D
330
1F
100
AcDbEntity
  8
0
  6
Continuous
 62
     7
370
    25
100
AcDbLine
 10
708.8855639986
 20
280.8311579917
 30
0.0
 11
708.1355639986
 21
280.8311579917
 31
0.0
  0
LINE
  5
48E
330
1F
100
AcDbEntity
  8
0
  6
Continuous
 62
     7
370
    25
100
AcDbLine
 10
708.1355639986
 20
280.8311579917
 30
0.0
 11
708.1355639986
 21
281.4311579917
 31
0.0
  0
LINE
  5
48F
330
1F
100
AcDbEntity
  8
0
  6
Continuous
 62
     7
370
    25
100
AcDbLine
 10
708.1355639986
 20
281.4311579917
 30
0.0
 11
708.5825639986
 21
281.4311579917
 31
0.0
  0
LINE
  5
490
330
1F
100
AcDbEntity
  8
0
  6
Continuous
 62
     7
370
    25
100
AcDbLine
 10
708.5825639986
 20
281.4311579917
 30
0.0
 11
708.8380639986
 21
282.1377394812
 31
0.0
  0
LINE
  5
491
330
1F
100
AcDbEntity
  8
0
  6
Continuous
 62
     7
370
    25
100
AcDbLine
 10
708.8380639986
 20
282.1377394812
 30
0.0
 11
708.8380639986
 21
282.2717394812
 31
0.0
  0
LINE
  5
492
330
1F
100
AcDbEntity
  8
0
  6
Continuous
 62
     7
370
    25
100
AcDbLine
 10
708.8380639986
 20
282.2717394812
 30
0.0
 11
705.8680639986
 21
282.2717394812
 31
0.0
  0
LINE
  5
493
330
1F
100
AcDbEntity
  8
0
  6
Continuous
 62
     7
370
    25
100
AcDbLine
 10
705.8680639986
 20
282.2717394812
 30
0.0
 11
705.8680639986
 21
282.1377394812
 31
0.0
  0
LINE
  5
494
330
1F
100
AcDbEntity
  8
0
  6
Continuous
 62
     7
370
    25
100
AcDbLine
 10
705.8680639986
 20
282.1377394812
 30
0.0
 11
706.1235639986
 21
281.4311579917
 31
0.0
  0
LINE
  5
495
330
1F
100
AcDbEntity
  8
0
  6
Continuous
 62
     7
370
    25
100
AcDbLine
 10
706.1235639986
 20
281.4311579917
 30
0.0
 11
706.5705639986
 21
281.4311579917
 31
0.0
  0
LINE
  5
496
330
1F
100
AcDbEntity
  8
0
  6
Continuous
 62
     7
370
    25
100
AcDbLine
 10
706.5705639986
 20
281.4311579917
 30
0.0
 11
706.5705639986
 21
280.8311579917
 31
0.0
  0
LINE
  5
497
330
1F
100
AcDbEntity
  8
0
  6
Continuous
 62
     7
370
    25
100
AcDbLine
 10
706.5705639986
 20
280.8311579917
 30
0.0
 11
705.8205639986
 21
280.8311579917
 31
0.0
  0
LINE
  5
498
330
1F
100
AcDbEntity
  8
0
  6
Continuous
 62
     7
370
    25
100
AcDbLine
 10
702.3205639986
 20
276.2311579917
 30
0.0
 11
702.8705639986
 21
276.2311579917
 31
0.0
  0
ARC
  5
499
330
1F
100
AcDbEntity
  8
0
  6
Continuous
 62
     7
370
    25
100
AcDbCircle
 10
703.8530639986
 20
275.2338146456
 30
0.0
 40
1.399999999999976
100
AcDbArc
 50
45.4295517385
 51
134.5704482615
  0
LINE
  5
49A
330
1F
100
AcDbEntity
  8
0
  6
Continuous
 62
     7
370
    25
100
AcDbLine
 10
704.8355639986
 20
276.2311579917
 30
0.0
 11
705.3855639986
 21
276.2311579917
 31
0.0
  0
LINE
  5
49B
330
1F
100
AcDbEntity
  8
0
  6
Continuous
 62
     7
370
    25
100
AcDbLine
 10
705.3855639986
 20
276.2311579917
 30
0.0
 11
705.3855639986
 21
280.8311579917
 31
0.0
  0
LINE
  5
49C
330
1F
100
AcDbEntity
  8
0
  6
Continuous
 62
     7
370
    25
100
AcDbLine
 10
705.3855639986
 20
280.8311579917
 30
0.0
 11
704.6355639986
 21
280.8311579917
 31
0.0
  0
LINE
  5
49D
330
1F
100
AcDbEntity
  8
0
  6
Continuous
 62
     7
370
    25
100
AcDbLine
 10
704.6355639986
 20
280.8311579917
 30
0.0
 11
704.6355639986
 21
281.4311579917
 31
0.0
  0
LINE
  5
49E
330
1F
100
AcDbEntity
  8
0
  6
Continuous
 62
     7
370
    25
100
AcDbLine
 10
704.6355639986
 20
281.4311579917
 30
0.0
 11
705.0825639986
 21
281.4311579917
 31
0.0
  0
LINE
  5
49F
330
1F
100
AcDbEntity
  8
0
  6
Continuous
 62
     7
370
    25
100
AcDbLine
 10
705.0825639986
 20
281.4311579917
 30
0.0
 11
705.3380639986
 21
282.1377394812
 31
0.0
  0
LINE
  5
4A0
330
1F
100
AcDbEntity
  8
0
  6
Continuous
 62
     7
370
    25
100
AcDbLine
 10
705.3380639986
 20
282.1377394812
 30
0.0
 11
705.3380639986
 21
282.2717394812
 31
0.0
  0
LINE
  5
4A1
330
1F
100
AcDbEntity
  8
0
  6
Continuous
 62
     7
370
    25
100
AcDbLine
 10
705.3380639986
 20
282.2717394812
 30
0.0
 11
702.3680639986
 21
282.2717394812
 31
0.0
  0
LINE
  5
4A2
330
1F
100
AcDbEntity
  8
0
  6
Continuous
 62
     7
370
    25
100
AcDbLine
 10
702.3680639986
 20
282.2717394812
 30
0.0
 11
702.3680639986
 21
282.1377394812
 31
0.0
  0
LINE
  5
4A3
330
1F
100
AcDbEntity
  8
0
  6
Continuous
 62
     7
370
    25
100
AcDbLine
 10
702.3680639986
 20
282.1377394812
 30
0.0
 11
702.6235639986
 21
281.4311579917
 31
0.0
  0
LINE
  5
4A4
330
1F
100
AcDbEntity
  8
0
  6
Continuous
 62
     7
370
    25
100
AcDbLine
 10
702.6235639986
 20
281.4311579917
 30
0.0
 11
703.0705639986
 21
281.4311579917
 31
0.0
  0
LINE
  5
4A5
330
1F
100
AcDbEntity
  8
0
  6
Continuous
 62
     7
370
    25
100
AcDbLine
 10
703.0705639986
 20
281.4311579917
 30
0.0
 11
703.0705639986
 21
280.8311579917
 31
0.0
  0
LINE
  5
4A6
330
1F
100
AcDbEntity
  8
0
  6
Continuous
 62
     7
370
    25
100
AcDbLine
 10
703.0705639986
 20
280.8311579917
 30
0.0
 11
702.3205639986
 21
280.8311579917
 31
0.0
  0
LINE
  5
4A7
330
1F
100
AcDbEntity
  8
0
  6
Continuous
 62
     7
370
    25
100
AcDbLine
 10
702.3205639986
 20
280.8311579917
 30
0.0
 11
702.3205639986
 21
276.2311579917
 31
0.0
  0
LINE
  5
4A8
330
1F
100
AcDbEntity
  8
0
  6
Continuous
 62
     7
370
    25
100
AcDbLine
 10
743.5825639986
 20
281.4311579917
 30
0.0
 11
743.8380639986
 21
282.1377394812
 31
0.0
  0
LINE
  5
4A9
330
1F
100
AcDbEntity
  8
0
  6
Continuous
 62
     7
370
    25
100
AcDbLine
 10
743.3355639986
 20
276.2311579917
 30
0.0
 11
743.8855639986
 21
276.2311579917
 31
0.0
  0
LINE
  5
4AA
330
1F
100
AcDbEntity
  8
0
  6
Continuous
 62
     7
370
    25
100
AcDbLine
 10
744.6635639986
 20
275.7861579917
 30
0.0
 11
744.6635639986
 21
282.7861579917
 31
0.0
  0
CIRCLE
  5
4AB
330
1F
100
AcDbEntity
  8
0
  6
Continuous
 62
     7
370
    25
100
AcDbCircle
 10
786.2575639986
 20
300.0471579917
 30
0.0
 40
0.5
  0
CIRCLE
  5
4AC
330
1F
100
AcDbEntity
  8
0
  6
Continuous
 62
     7
370
    25
100
AcDbCircle
 10
786.2575639986
 20
279.5471579917
 30
0.0
 40
0.5
  0
CIRCLE
  5
4AD
330
1F
100
AcDbEntity
  8
0
  6
Continuous
 62
     7
370
    25
100
AcDbCircle
 10
782.7575639986
 20
300.0471579917
 30
0.0
 40
0.5
  0
CIRCLE
  5
4AE
330
1F
100
AcDbEntity
  8
0
  6
Continuous
 62
     7
370
    25
100
AcDbCircle
 10
782.7575639986
 20
279.5471579917
 30
0.0
 40
0.5
  0
LINE
  5
4AF
330
1F
100
AcDbEntity
  8
0
  6
Continuous
 62
     7
370
    25
100
AcDbLine
 10
742.7605639986
 20
278.3861579917
 30
0.0
 11
742.7605639986
 21
279.1861579917
 31
0.0
  0
LINE
  5
4B0
330
1F
100
AcDbEntity
  8
0
  6
Continuous
 62
     7
370
    25
100
AcDbLine
 10
741.9605639986
 20
278.3861579917
 30
0.0
 11
742.7605639986
 21
278.3861579917
 31
0.0
  0
LINE
  5
4B1
330
1F
100
AcDbEntity
  8
0
  6
Continuous
 62
     7
370
    25
100
AcDbLine
 10
742.7605639986
 20
279.1861579917
 30
0.0
 11
741.9605639986
 21
279.1861579917
 31
0.0
  0
LINE
  5
4B2
330
1F
100
AcDbEntity
  8
0
  6
Continuous
 62
     7
370
    25
100
AcDbLine
 10
741.9605639986
 20
279.1861579917
 30
0.0
 11
741.9605639986
 21
278.3861579917
 31
0.0
  0
LINE
  5
4B3
330
1F
100
AcDbEntity
  8
0
  6
Continuous
 62
     7
370
    25
100
AcDbLine
 10
738.4605639986
 20
278.3861579917
 30
0.0
 11
739.2605639986
 21
278.3861579917
 31
0.0
  0
LINE
  5
4B4
330
1F
100
AcDbEntity
  8
0
  6
Continuous
 62
     7
370
    25
100
AcDbLine
 10
738.4605639986
 20
279.1861579917
 30
0.0
 11
738.4605639986
 21
278.3861579917
 31
0.0
  0
LINE
  5
4B5
330
1F
100
AcDbEntity
  8
0
  6
Continuous
 62
     7
370
    25
100
AcDbLine
 10
739.2605639986
 20
278.3861579917
 30
0.0
 11
739.2605639986
 21
279.1861579917
 31
0.0
  0
LINE
  5
4B6
330
1F
100
AcDbEntity
  8
0
  6
Continuous
 62
     7
370
    25
100
AcDbLine
 10
739.2605639986
 20
279.1861579917
 30
0.0
 11
738.4605639986
 21
279.1861579917
 31
0.0
  0
LINE
  5
4B7
330
1F
100
AcDbEntity
  8
0
  6
Continuous
 62
     7
370
    25
100
AcDbLine
 10
734.9605639986
 20
279.1861579917
 30
0.0
 11
734.9605639986
 21
278.3861579917
 31
0.0
  0
LINE
  5
4B8
330
1F
100
AcDbEntity
  8
0
  6
Continuous
 62
     7
370
    25
100
AcDbLine
 10
734.9605639986
 20
278.3861579917
 30
0.0
 11
735.7605639986
 21
278.3861579917
 31
0.0
  0
LINE
  5
4B9
330
1F
100
AcDbEntity
  8
0
  6
Continuous
 62
     7
370
    25
100
AcDbLine
 10
735.7605639986
 20
279.1861579917
 30
0.0
 11
734.9605639986
 21
279.1861579917
 31
0.0
  0
LINE
  5
4BA
330
1F
100
AcDbEntity
  8
0
  6
Continuous
 62
     7
370
    25
100
AcDbLine
 10
735.7605639986
 20
278.3861579917
 30
0.0
 11
735.7605639986
 21
279.1861579917
 31
0.0
  0
LINE
  5
4BB
330
1F
100
AcDbEntity
  8
0
  6
Continuous
 62
     7
370
    25
100
AcDbLine
 10
731.4605639986
 20
279.1861579917
 30
0.0
 11
731.4605639986
 21
278.3861579917
 31
0.0
  0
LINE
  5
4BC
330
1F
100
AcDbEntity
  8
0
  6
Continuous
 62
     7
370
    25
100
AcDbLine
 10
732.2605639986
 20
279.1861579917
 30
0.0
 11
731.4605639986
 21
279.1861579917
 31
0.0
  0
LINE
  5
4BD
330
1F
100
AcDbEntity
  8
0
  6
Continuous
 62
     7
370
    25
100
AcDbLine
 10
731.4605639986
 20
278.3861579917
 30
0.0
 11
732.2605639986
 21
278.3861579917
 31
0.0
  0
LINE
  5
4BE
330
1F
100
AcDbEntity
  8
0
  6
Continuous
 62
     7
370
    25
100
AcDbLine
 10
732.2605639986
 20
278.3861579917
 30
0.0
 11
732.2605639986
 21
279.1861579917
 31
0.0
  0
LINE
  5
4BF
330
1F
100
AcDbEntity
  8
0
  6
Continuous
 62
     7
370
    25
100
AcDbLine
 10
727.9605639986
 20
278.3861579917
 30
0.0
 11
728.7605639986
 21
278.3861579917
 31
0.0
  0
LINE
  5
4C0
330
1F
100
AcDbEntity
  8
0
  6
Continuous
 62
     7
370
    25
100
AcDbLine
 10
727.9605639986
 20
279.1861579917
 30
0.0
 11
727.9605639986
 21
278.3861579917
 31
0.0
  0
LINE
  5
4C1
330
1F
100
AcDbEntity
  8
0
  6
Continuous
 62
     7
370
    25
100
AcDbLine
 10
728.7605639986
 20
279.1861579917
 30
0.0
 11
727.9605639986
 21
279.1861579917
 31
0.0
  0
LINE
  5
4C2
330
1F
100
AcDbEntity
  8
0
  6
Continuous
 62
     7
370
    25
100
AcDbLine
 10
728.7605639986
 20
278.3861579917
 30
0.0
 11
728.7605639986
 21
279.1861579917
 31
0.0
  0
LINE
  5
4C3
330
1F
100
AcDbEntity
  8
0
  6
Continuous
 62
     7
370
    25
100
AcDbLine
 10
725.2605639986
 20
278.3861579917
 30
0.0
 11
725.2605639986
 21
279.1861579917
 31
0.0
  0
LINE
  5
4C4
330
1F
100
AcDbEntity
  8
0
  6
Continuous
 62
     7
370
    25
100
AcDbLine
 10
724.4605639986
 20
278.3861579917
 30
0.0
 11
725.2605639986
 21
278.3861579917
 31
0.0
  0
LINE
  5
4C5
330
1F
100
AcDbEntity
  8
0
  6
Continuous
 62
     7
370
    25
100
AcDbLine
 10
724.4605639986
 20
279.1861579917
 30
0.0
 11
724.4605639986
 21
278.3861579917
 31
0.0
  0
LINE
  5
4C6
330
1F
100
AcDbEntity
  8
0
  6
Continuous
 62
     7
370
    25
100
AcDbLine
 10
725.2605639986
 20
279.1861579917
 30
0.0
 11
724.4605639986
 21
279.1861579917
 31
0.0
  0
LINE
  5
4C7
330
1F
100
AcDbEntity
  8
0
  6
Continuous
 62
     7
370
    25
100
AcDbLine
 10
720.9605639986
 20
278.3861579917
 30
0.0
 11
721.7605639986
 21
278.3861579917
 31
0.0
  0
LINE
  5
4C8
330
1F
100
AcDbEntity
  8
0
  6
Continuous
 62
     7
370
    25
100
AcDbLine
 10
720.9605639986
 20
279.1861579917
 30
0.0
 11
720.9605639986
 21
278.3861579917
 31
0.0
  0
LINE
  5
4C9
330
1F
100
AcDbEntity
  8
0
  6
Continuous
 62
     7
370
    25
100
AcDbLine
 10
721.7605639986
 20
279.1861579917
 30
0.0
 11
720.9605639986
 21
279.1861579917
 31
0.0
  0
LINE
  5
4CA
330
1F
100
AcDbEntity
  8
0
  6
Continuous
 62
     7
370
    25
100
AcDbLine
 10
721.7605639986
 20
278.3861579917
 30
0.0
 11
721.7605639986
 21
279.1861579917
 31
0.0
  0
LINE
  5
4CB
330
1F
100
AcDbEntity
  8
0
  6
Continuous
 62
     7
370
    25
100
AcDbLine
 10
718.2605639986
 20
278.3861579917
 30
0.0
 11
718.2605639986
 21
279.1861579917
 31
0.0
  0
LINE
  5
4CC
330
1F
100
AcDbEntity
  8
0
  6
Continuous
 62
     7
370
    25
100
AcDbLine
 10
717.4605639986
 20
279.1861579917
 30
0.0
 11
717.4605639986
 21
278.3861579917
 31
0.0
  0
LINE
  5
4CD
330
1F
100
AcDbEntity
  8
0
  6
Continuous
 62
     7
370
    25
100
AcDbLine
 10
718.2605639986
 20
279.1861579917
 30
0.0
 11
717.4605639986
 21
279.1861579917
 31
0.0
  0
LINE
  5
4CE
330
1F
100
AcDbEntity
  8
0
  6
Continuous
 62
     7
370
    25
100
AcDbLine
 10
717.4605639986
 20
278.3861579917
 30
0.0
 11
718.2605639986
 21
278.3861579917
 31
0.0
  0
LINE
  5
4CF
330
1F
100
AcDbEntity
  8
0
  6
Continuous
 62
     7
370
    25
100
AcDbLine
 10
714.7605639986
 20
278.3861579917
 30
0.0
 11
714.7605639986
 21
279.1861579917
 31
0.0
  0
LINE
  5
4D0
330
1F
100
AcDbEntity
  8
0
  6
Continuous
 62
     7
370
    25
100
AcDbLine
 10
713.9605639986
 20
278.3861579917
 30
0.0
 11
714.7605639986
 21
278.3861579917
 31
0.0
  0
LINE
  5
4D1
330
1F
100
AcDbEntity
  8
0
  6
Continuous
 62
     7
370
    25
100
AcDbLine
 10
713.9605639986
 20
279.1861579917
 30
0.0
 11
713.9605639986
 21
278.3861579917
 31
0.0
  0
LINE
  5
4D2
330
1F
100
AcDbEntity
  8
0
  6
Continuous
 62
     7
370
    25
100
AcDbLine
 10
714.7605639986
 20
279.1861579917
 30
0.0
 11
713.9605639986
 21
279.1861579917
 31
0.0
  0
LINE
  5
4D3
330
1F
100
AcDbEntity
  8
0
  6
Continuous
 62
     7
370
    25
100
AcDbLine
 10
711.2605639986
 20
278.3861579917
 30
0.0
 11
711.2605639986
 21
279.1861579917
 31
0.0
  0
LINE
  5
4D4
330
1F
100
AcDbEntity
  8
0
  6
Continuous
 62
     7
370
    25
100
AcDbLine
 10
710.4605639986
 20
278.3861579917
 30
0.0
 11
711.2605639986
 21
278.3861579917
 31
0.0
  0
LINE
  5
4D5
330
1F
100
AcDbEntity
  8
0
  6
Continuous
 62
     7
370
    25
100
AcDbLine
 10
710.4605639986
 20
279.1861579917
 30
0.0
 11
710.4605639986
 21
278.3861579917
 31
0.0
  0
LINE
  5
4D6
330
1F
100
AcDbEntity
  8
0
  6
Continuous
 62
     7
370
    25
100
AcDbLine
 10
711.2605639986
 20
279.1861579917
 30
0.0
 11
710.4605639986
 21
279.1861579917
 31
0.0
  0
LINE
  5
4D7
330
1F
100
AcDbEntity
  8
0
  6
Continuous
 62
     7
370
    25
100
AcDbLine
 10
707.7605639986
 20
278.3861579917
 30
0.0
 11
707.7605639986
 21
279.1861579917
 31
0.0
  0
LINE
  5
4D8
330
1F
100
AcDbEntity
  8
0
  6
Continuous
 62
     7
370
    25
100
AcDbLine
 10
706.9605639986
 20
278.3861579917
 30
0.0
 11
707.7605639986
 21
278.3861579917
 31
0.0
  0
LINE
  5
4D9
330
1F
100
AcDbEntity
  8
0
  6
Continuous
 62
     7
370
    25
100
AcDbLine
 10
707.7605639986
 20
279.1861579917
 30
0.0
 11
706.9605639986
 21
279.1861579917
 31
0.0
  0
LINE
  5
4DA
330
1F
100
AcDbEntity
  8
0
  6
Continuous
 62
     7
370
    25
100
AcDbLine
 10
706.9605639986
 20
279.1861579917
 30
0.0
 11
706.9605639986
 21
278.3861579917
 31
0.0
  0
LINE
  5
4DB
330
1F
100
AcDbEntity
  8
0
  6
Continuous
 62
     7
370
    25
100
AcDbLine
 10
704.2605639986
 20
279.1861579917
 30
0.0
 11
703.4605639986
 21
279.1861579917
 31
0.0
  0
LINE
  5
4DC
330
1F
100
AcDbEntity
  8
0
  6
Continuous
 62
     7
370
    25
100
AcDbLine
 10
704.2605639986
 20
278.3861579917
 30
0.0
 11
704.2605639986
 21
279.1861579917
 31
0.0
  0
LINE
  5
4DD
330
1F
100
AcDbEntity
  8
0
  6
Continuous
 62
     7
370
    25
100
AcDbLine
 10
703.4605639986
 20
278.3861579917
 30
0.0
 11
704.2605639986
 21
278.3861579917
 31
0.0
  0
LINE
  5
4DE
330
1F
100
AcDbEntity
  8
0
  6
Continuous
 62
     7
370
    25
100
AcDbLine
 10
703.4605639986
 20
279.1861579917
 30
0.0
 11
703.4605639986
 21
278.3861579917
 31
0.0
  0
LINE
  5
4DF
330
1F
100
AcDbEntity
  8
0
  6
Continuous
 62
     7
370
    25
100
AcDbLine
 10
749.3425639986
 20
269.2161579917
 30
0.0
 11
755.3425639986
 21
269.2161579917
 31
0.0
  0
MTEXT
  5
4E0
330
1F
100
AcDbEntity
  8
SLD-0
100
AcDbMText
 10
711.2036799242
 20
330.5160958128
 30
0.0
 40
4.7625
 41
0.0
 71
     1
 72
     1
  1
EXHAUST
  7
SLDTEXTSTYLE0
 73
     1
 44
1.0
  0
LEADER
  5
4E1
330
1F
100
AcDbEntity
  8
SLD-0
100
AcDbLeader
  3
SLDDIMSTYLE1
 76
     3
 10
697.8443478144
 20
307.6661579917
 30
0.0
 10
706.0410094637
 20
328.1255148582
 30
0.0
 10
710.0410094637
 20
328.1255148582
 30
0.0
  0
OLE2FRAME
  5
4E2
330
1F
100
AcDbEntity
  8
0
100
AcDbOle2Frame
 70
     2
  3
Picture (Enhanced Metafile)
 10
13.4047356173
 20
31.1336361838
 30
0.0
 11
87.8295611312
 21
15.3393002226
 31
0.0
 71
     3
 72
     0
 73
     1
 90
     5248
310
80554E67BF8139CF2A4087E11EFB35223F4000000000000000006221928717F5
310
554087E11EFB35223F4000000000000000006221928717F55540725E3FC2B8AD
310
2E4000000000000000004E67BF8139CF2A40725E3FC2B8AD2E40000000000000
310
0000000000000100000000010000010000000100000000000100000000140000
310
D0CF11E0A1B11AE1000000000000000000000000000000003E000300FEFF0900
310
0600000000000000000000000100000001000000000000000010000002000000
310
01000000FEFFFFFF0000000000000000FFFFFFFFFFFFFFFFFFFFFFFFFFFFFFFF
310
FFFFFFFFFFFFFFFFFFFFFFFFFFFFFFFFFFFFFFFFFFFFFFFFFFFFFFFFFFFFFFFF
310
FFFFFFFFFFFFFFFFFFFFFFFFFFFFFFFFFFFFFFFFFFFFFFFFFFFFFFFFFFFFFFFF
310
FFFFFFFFFFFFFFFFFFFFFFFFFFFFFFFFFFFFFFFFFFFFFFFFFFFFFFFFFFFFFFFF
310
FFFFFFFFFFFFFFFFFFFFFFFFFFFFFFFFFFFFFFFFFFFFFFFFFFFFFFFFFFFFFFFF
310
FFFFFFFFFFFFFFFFFFFFFFFFFFFFFFFFFFFFFFFFFFFFFFFFFFFFFFFFFFFFFFFF
310
FFFFFFFFFFFFFFFFFFFFFFFFFFFFFFFFFFFFFFFFFFFFFFFFFFFFFFFFFFFFFFFF
310
FFFFFFFFFFFFFFFFFFFFFFFFFFFFFFFFFFFFFFFFFFFFFFFFFFFFFFFFFFFFFFFF
310
FFFFFFFFFFFFFFFFFFFFFFFFFFFFFFFFFFFFFFFFFFFFFFFFFFFFFFFFFFFFFFFF
310
FFFFFFFFFFFFFFFFFFFFFFFFFFFFFFFFFFFFFFFFFFFFFFFFFFFFFFFFFFFFFFFF
310
FFFFFFFFFFFFFFFFFFFFFFFFFFFFFFFFFFFFFFFFFFFFFFFFFFFFFFFFFFFFFFFF
310
FFFFFFFFFFFFFFFFFFFFFFFFFFFFFFFFFFFFFFFFFFFFFFFFFFFFFFFFFFFFFFFF
310
FFFFFFFFFFFFFFFFFFFFFFFFFFFFFFFFFFFFFFFFFFFFFFFFFFFFFFFFFFFFFFFF
310
FFFFFFFFFFFFFFFFFFFFFFFFFFFFFFFFFFFFFFFFFFFFFFFFFFFFFFFFFFFFFFFF
310
FDFFFFFFFEFFFFFFFEFFFFFF0400000005000000060000000700000008000000
310
FEFFFFFFFFFFFFFFFFFFFFFFFFFFFFFFFFFFFFFFFFFFFFFFFFFFFFFFFFFFFFFF
310
FFFFFFFFFFFFFFFFFFFFFFFFFFFFFFFFFFFFFFFFFFFFFFFFFFFFFFFFFFFFFFFF
310
FFFFFFFFFFFFFFFFFFFFFFFFFFFFFFFFFFFFFFFFFFFFFFFFFFFFFFFFFFFFFFFF
310
FFFFFFFFFFFFFFFFFFFFFFFFFFFFFFFFFFFFFFFFFFFFFFFFFFFFFFFFFFFFFFFF
310
FFFFFFFFFFFFFFFFFFFFFFFFFFFFFFFFFFFFFFFFFFFFFFFFFFFFFFFFFFFFFFFF
310
FFFFFFFFFFFFFFFFFFFFFFFFFFFFFFFFFFFFFFFFFFFFFFFFFFFFFFFFFFFFFFFF
310
FFFFFFFFFFFFFFFFFFFFFFFFFFFFFFFFFFFFFFFFFFFFFFFFFFFFFFFFFFFFFFFF
310
FFFFFFFFFFFFFFFFFFFFFFFFFFFFFFFFFFFFFFFFFFFFFFFFFFFFFFFFFFFFFFFF
310
FFFFFFFFFFFFFFFFFFFFFFFFFFFFFFFFFFFFFFFFFFFFFFFFFFFFFFFFFFFFFFFF
310
FFFFFFFFFFFFFFFFFFFFFFFFFFFFFFFFFFFFFFFFFFFFFFFFFFFFFFFFFFFFFFFF
310
FFFFFFFFFFFFFFFFFFFFFFFFFFFFFFFFFFFFFFFFFFFFFFFFFFFFFFFFFFFFFFFF
310
FFFFFFFFFFFFFFFFFFFFFFFFFFFFFFFFFFFFFFFFFFFFFFFFFFFFFFFFFFFFFFFF
310
FFFFFFFFFFFFFFFFFFFFFFFFFFFFFFFFFFFFFFFFFFFFFFFFFFFFFFFFFFFFFFFF
310
FFFFFFFFFFFFFFFFFFFFFFFFFFFFFFFFFFFFFFFFFFFFFFFFFFFFFFFFFFFFFFFF
310
FFFFFFFFFFFFFFFFFFFFFFFFFFFFFFFFFFFFFFFFFFFFFFFFFFFFFFFFFFFFFFFF
310
52006F006F007400200045006E00740072007900000000000000000000000000
310
0000000000000000000000000000000000000000000000000000000000000000
310
16000500FFFFFFFFFFFFFFFF020000001903000000000000C000000000000046
310
00000000000000000000000020187351ABB2DA0103000000000C000000000000
310
01004F006C006500000000000000000000000000000000000000000000000000
310
0000000000000000000000000000000000000000000000000000000000000000
310
0A000200FFFFFFFFFFFFFFFFFFFFFFFF00000000000000000000000000000000
310
0000000000000000000000000000000000000000000000001400000000000000
310
010043006F006D0070004F0062006A0000000000000000000000000000000000
310
0000000000000000000000000000000000000000000000000000000000000000
310
120002010100000003000000FFFFFFFF00000000000000000000000000000000
310
0000000000000000000000000000000000000000010000005800000000000000
310
43004F004E00540045004E005400530000000000000000000000000000000000
310
0000000000000000000000000000000000000000000000000000000000000000
310
12000200FFFFFFFFFFFFFFFFFFFFFFFF00000000000000000000000000000000
310
000000000000000000000000000000000000000003000000040B000000000000
310
FEFFFFFF02000000FEFFFFFF0400000005000000060000000700000008000000
310
090000000A0000000B0000000C0000000D0000000E0000000F00000010000000
310
1100000012000000130000001400000015000000160000001700000018000000
310
190000001A0000001B0000001C0000001D0000001E0000001F00000020000000
310
2100000022000000230000002400000025000000260000002700000028000000
310
290000002A0000002B0000002C0000002D0000002E0000002F000000FEFFFFFF
310
FFFFFFFFFFFFFFFFFFFFFFFFFFFFFFFFFFFFFFFFFFFFFFFFFFFFFFFFFFFFFFFF
310
FFFFFFFFFFFFFFFFFFFFFFFFFFFFFFFFFFFFFFFFFFFFFFFFFFFFFFFFFFFFFFFF
310
FFFFFFFFFFFFFFFFFFFFFFFFFFFFFFFFFFFFFFFFFFFFFFFFFFFFFFFFFFFFFFFF
310
FFFFFFFFFFFFFFFFFFFFFFFFFFFFFFFFFFFFFFFFFFFFFFFFFFFFFFFFFFFFFFFF
310
FFFFFFFFFFFFFFFFFFFFFFFFFFFFFFFFFFFFFFFFFFFFFFFFFFFFFFFFFFFFFFFF
310
FFFFFFFFFFFFFFFFFFFFFFFFFFFFFFFFFFFFFFFFFFFFFFFFFFFFFFFFFFFFFFFF
310
FFFFFFFFFFFFFFFFFFFFFFFFFFFFFFFFFFFFFFFFFFFFFFFFFFFFFFFFFFFFFFFF
310
FFFFFFFFFFFFFFFFFFFFFFFFFFFFFFFFFFFFFFFFFFFFFFFFFFFFFFFFFFFFFFFF
310
FFFFFFFFFFFFFFFFFFFFFFFFFFFFFFFFFFFFFFFFFFFFFFFFFFFFFFFFFFFFFFFF
310
FFFFFFFFFFFFFFFFFFFFFFFFFFFFFFFFFFFFFFFFFFFFFFFFFFFFFFFFFFFFFFFF
310
0100000200000000000000000000000000000000000000000000000000000000
310
0000000000000000000000000000000000000000000000000000000000000000
310
0100FEFF030A0000FFFFFFFF1903000000000000C0000000000000461C000000
310
506963747572652028456E68616E636564204D65746166696C652900FFFFFFFF
310
0E00000000000000F439B2710000000000000000000000000000000000000000
310
0000000000000000000000000000000000000000000000000000000000000000
310
74000000010000006C000000FD0A000094000000870B0000B200000062570100
310
111200003B680100BB15000020454D46000001008C0A00003800000003000000
310
0D0000005800000000000000000400000003000040010000F000000041006400
310
6F00620065002000530079007300740064006500780000000100000074000000
310
FD0A000094000000870B0000B200000062570100111200003B680100BB150000
310
20454D46000001008C0A000038000000030000000D0000005800000000000000
310
000400000003000040010000F0000000410064006F0062006500200053007900
310
7300740065006D0073000000110000000C00000008000000120000000C000000
310
010000000A0000001000000000000000000000000C0000001000000000000000
310
000000000900000010000000D7040000110100000B000000100000009D010000
310
5B000000130000000C0000000200000027000000180000000100000000000000
310
0000000000000000250000000C000000010000005F0000003400000002000000
310
2C000000000000002C0000000000000005000000000000000000000000000000
310
0000000000000000250000000C000000020000003B000000080000001B000000
310
100000003D210000F20100005800000048010000FC0A000093000000190B0000
310
B30000004B0000004921F9014921F9014921F9014921DA014921DA014921DA01
310
4921D5014621D0014221CD012821BE012821BE012821BE012321BB011D21BB01
310
1821BE01FE20CD01FE20CD01FE20CD01FA20D001F720D501F720DA01F720F801
310
F720F801F720F801F720FE01FA200302FE200602182115021821150218211502
310
1D21170223211702282115024321050243210502432105023721FE013721FE01
310
3721FE013521FD013521FD013521FD0122210902222109022221090221210902
310
1F2109021E2109020621FA010621FA010621FA010521FA010421F9010421F701
310
0421DB010421DB010421DB010421DA010521D9010621D8011E21CA011E21CA01
310
1E21CA011F21CA012121CA012221CA013A21D8013A21D8013A21D8013B21D901
310
3C21DA013C21DB013C21F2013C21F2013C21F2013D000000080000003C000000
310
080000003E000000180000009F8601009F8601006179FEFF6179FEFF13000000
310
0C000000020000003B000000080000001B000000100000002F210000E4010000
310
58000000C4000000050B00009D000000100B0000A90000002A0000002F21EF01
310
2F21EF012F21EF012F21F1012E21F2012C21F3012321F9012321F9012321F901
310
2221FA012121FA012021FA011F21FA011E21FA011D21F9011421F4011421F401
310
1421F4011221F3011121F1011121EF011121E4011121E4011121E4011121E201
310
1221E0011321DF011D21DA011D21DA011D21DA011E21D9011F21D9012021D901
310
2121D9012221D9012321DA012C21DF012C21DF012C21DF012E21E0012F21E201
310
2F21E4013D000000080000003C000000080000003E000000180000009F860100
310
9F8601006179FEFF6179FEFF130000000C000000020000005B00000038000000
310
3D0B0000A3000000430B0000A6000000010000000500000005000000B821F001
310
C821F001C821EB01B821EB01B821F001130000000C000000020000003B000000
310
080000001B0000001000000004220000E70100005800000084010000450B0000
310
9B000000590B0000AA0000005A0000000122E601FD21E501F621E501E421E501
310
E421E501E421E501D921E501D921E301D921E001D921DD01DA21DB01DC21DA01
310
DE21DA01E221D901E921D901EF21D901EF21D901EF21D9010022D9010022DB01
310
0022E0010022E1010022E1010022E1010722E1010722E1010722E1010722DF01
310
0722DF010722DF010722DB010622D8010322D6010022D401FB21D401F321D401
310
E521D401E521D401E521D401D921D401D121D601D121DF01D121E501D321E801
310
D721E901DB21EB01E221EB01EC21EB01F821EB01F821EB01F821EB010022EB01
310
0122ED010122F1010122F5010022F701F621F701E221F701E221F701E221F701
310
DA21F701D921F501D921F201D921EF01D921EF01D921EF01D121EF01D121EF01
310
D121EF01D121F201D121F201D121F201D121FC01DB21FD01E421FD01F521FD01
310
F521FD01F521FD01F921FD01FE21FD010222FB010622FA010922F6010922F201
310
0922EF010922EF010922EF010922EC010722E9010422E7013C00000008000000
310
3E000000180000009F8601009F8601006179FEFF6179FEFF130000000C000000
310
020000005B0000004C000000590B00009B0000006F0B0000AA00000001000000
310
0A0000000A0000002C22E6011722D4010C22D4012822EC012822FC013022FC01
310
3022EC014C22D4014122D4012C22E601130000000C000000020000003B000000
310
080000001B0000001000000082220000E701000058000000780100006F0B0000
310
9B000000830B0000AA000000570000007F22E6017B22E5017422E5016122E501
310
6122E5016122E5015722E5015722E3015722E0015722DB015822D9016622D901
310
6D22D9016D22D9016D22D9017E22D9017E22DB017E22E0017E22E1017E22E101
310
7E22E1018522E1018522E1018522E1018522DF018522DF018522DF018522DB01
310
8422D8018122D6017E22D4017922D4017122D4016322D4016322D4016322D401
310
5722D4014F22D6014F22DF014F22E5015122E8015522E9015922EB015F22EB01
310
6A22EB017622EB017622EB017622EB017E22EB017F22ED017F22F1017F22F501
310
7D22F7017422F7016022F7016022F7016022F7015822F7015722F5015722F201
310
5722EF015722EF015722EF014F22EF014F22EF014F22EF014F22F2014F22F201
310
4F22F2014F22FC015822FD016122FD017322FD017322FD017322FD017722FD01
310
7C22FD018022FB018422FA018622F6018622F2018622EF018622EF018622EF01
310
8622EC018522E9018222E7013C000000080000003E000000180000009F860100
310
9F8601006179FEFF6179FEFF130000000C000000020000005B00000038000000
310
300B0000A6000000340B0000AC00000001000000050000000500000093210202
310
9A2102029A21F3019321F30193210202130000000C000000020000003B000000
310
080000001B000000100000009B210000D40100005800000018010000240B0000
310
9B0000003A0B0000AA0000003F0000008021D4018021D4018021D4017421D401
310
6F21D8016F21E3016F21EE016F21EE016F21EE016F21F8017421FD018021FD01
310
8F21FD018F21FD018F21FD018F21F7018F21F7018F21F7018121F7018121F701
310
8121F7017921F7017621F5017621F0017621E1017621E1017621E1017621DC01
310
7921D9018121D9019A21D9019A21D9019A21D901A121D901A421DC01A421E101
310
A421F001A421F001A421F001A421F401A321F6019E21F7019E21F7019E21F701
310
9E21F7019E21FD019E21FD019E21FD019F21FD019F21FD019F21FD01A421FC01
310
A721FB01A921F801AB21F601AC21F201AC21EE01AC21E301AC21E301AC21E301
310
AC21D801A721D4019B21D4013C000000080000003E000000180000009F860100
310
9F8601006179FEFF6179FEFF130000000C000000020000005B0000006C000000
310
840B00009B000000870B00009F0000000100000012000000120000009222D401
310
9122D8019022D4018E22D4018E22DA018F22DA018F22D6018F22D5019022D601
310
9122DA019122DA019222D6019322D5019322D6019322DA019422DA019422D401
310
9222D401130000000C000000020000005B00000048000000830B00009B000000
310
850B00009F0000000100000009000000090000008A22D5018B22D5018B22DA01
310
8C22DA018C22D5018E22D5018E22D4018A22D4018A22D501280000000C000000
310
01000000280000000C000000020000000E000000140000000000000010000000
310
1400000000000000000000000000000000000000000000000000000000000000
310
0000000000000000000000000000000000000000000000000000000000000000
  1
OLE
  0
ENDSEC
  0
SECTION
  2
OBJECTS
  0
DICTIONARY
  5
C
330
0
100
AcDbDictionary
281
     1
  3
ACAD_GROUP
350
D
  3
ACAD_LAYOUT
350
1A
  3
ACAD_MLINESTYLE
350
17
  3
ACAD_PLOTSETTINGS
350
19
  3
ACAD_PLOTSTYLENAME
350
E
  3
ACAD_SCALELIST
350
47
  3
DWGPROPS
350
4E3
  0
DICTIONARY
  5
D
102
{ACAD_REACTORS
330
C
102
}
330
C
100
AcDbDictionary
281
     1
  0
DICTIONARY
  5
1A
102
{ACAD_REACTORS
330
C
102
}
330
C
100
AcDbDictionary
281
     1
  3
Layout1
350
1E
  3
Layout2
350
26
  3
Model
350
22
  0
DICTIONARY
  5
17
102
{ACAD_REACTORS
330
C
102
}
330
C
100
AcDbDictionary
281
     1
  3
Standard
350
18
  0
DICTIONARY
  5
19
102
{ACAD_REACTORS
330
C
102
}
330
C
100
AcDbDictionary
281
     1
  0
ACDBDICTIONARYWDFLT
  5
E
102
{ACAD_REACTORS
330
C
102
}
330
C
100
AcDbDictionary
281
     1
  3
Normal
350
F
100
AcDbDictionaryWithDefault
340
F
  0
DICTIONARY
  5
47
102
{ACAD_REACTORS
330
C
102
}
330
C
100
AcDbDictionary
281
     1
  3
A0
350
48
  3
A1
350
49
  3
A2
350
4A
  3
A3
350
4B
  3
A4
350
4C
  3
A5
350
4D
  3
A6
350
4E
  3
A7
350
4F
  3
A8
350
50
  3
A9
350
51
  3
B0
350
52
  3
B1
350
53
  3
B2
350
54
  3
B3
350
55
  3
B4
350
56
  3
B5
350
57
  3
B6
350
58
  0
XRECORD
  5
4E3
102
{ACAD_REACTORS
330
C
102
}
330
C
100
AcDbXrecord
280
     1
  1
DWGPROPS COOKIE
  2

  3

  4

  6

  7

  8
Douglas.Green
  9

300
=
301
=
302
=
303
=
304
=
305
=
306
=
307
=
308
=
309
=
 40
0.0
 41
2460461.671104479
 42
2460461.671107107
  1

 90
        0
  0
LAYOUT
  5
1E
102
{ACAD_REACTORS
330
1A
102
}
330
1A
100
AcDbPlotSettings
  1

  2
none_device
  4

  6

 40
0.0
 41
0.0
 42
0.0
 43
0.0
 44
0.0
 45
0.0
 46
0.0
 47
0.0
 48
0.0
 49
0.0
140
0.0
141
0.0
142
1.0
143
1.0
 70
   688
 72
     1
 73
     0
 74
     5
  7

 75
    16
147
1.0
148
0.0
149
0.0
100
AcDbLayout
  1
Layout1
 70
     1
 71
     1
 10
0.0
 20
0.0
 11
420.0
 21
297.0
 12
0.0
 22
0.0
 32
0.0
 14
1.0000000000E+20
 24
1.0000000000E+20
 34
1.0000000000E+20
 15
-1.0000000000E+20
 25
-1.0000000000E+20
 35
-1.0000000000E+20
146
0.0
 13
0.0
 23
0.0
 33
0.0
 16
1.0
 26
0.0
 36
0.0
 17
0.0
 27
1.0
 37
0.0
 76
     0
330
1B
  0
LAYOUT
  5
26
102
{ACAD_REACTORS
330
1A
102
}
330
1A
100
AcDbPlotSettings
  1

  2
none_device
  4

  6

 40
0.0
 41
0.0
 42
0.0
 43
0.0
 44
0.0
 45
0.0
 46
0.0
 47
0.0
 48
0.0
 49
0.0
140
0.0
141
0.0
142
1.0
143
1.0
 70
   688
 72
     1
 73
     0
 74
     5
  7

 75
    16
147
1.0
148
0.0
149
0.0
100
AcDbLayout
  1
Layout2
 70
     1
 71
     2
 10
0.0
 20
0.0
 11
0.0
 21
0.0
 12
0.0
 22
0.0
 32
0.0
 14
0.0
 24
0.0
 34
0.0
 15
0.0
 25
0.0
 35
0.0
146
0.0
 13
0.0
 23
0.0
 33
0.0
 16
1.0
 26
0.0
 36
0.0
 17
0.0
 27
1.0
 37
0.0
 76
     0
330
23
  0
LAYOUT
  5
22
102
{ACAD_REACTORS
330
1A
102
}
330
1A
100
AcDbPlotSettings
  1

  2
none_device
  4
Letter_(8.50_x_11.00_Inches)
  6

 40
6.35
 41
6.35
 42
6.35000508
 43
6.35000508
 44
215.9
 45
279.4
 46
0.0
 47
0.0
 48
0.0
 49
0.0
140
0.0
141
0.0
142
1.0
143
1.0
 70
  1712
 72
     1
 73
     0
 74
     0
  7

 75
     0
147
1.0
148
0.0
149
0.0
100
AcDbLayout
  1
Model
 70
     1
 71
     0
 10
0.0
 20
0.0
 11
863.6
 21
558.8
 12
0.0
 22
0.0
 32
0.0
 14
0.0
 24
0.0
 34
0.0
 15
863.6
 25
558.8
 35
0.0
146
0.0
 13
0.0
 23
0.0
 33
0.0
 16
1.0
 26
0.0
 36
0.0
 17
0.0
 27
1.0
 37
0.0
 76
     0
330
1F
331
29
  0
MLINESTYLE
  5
18
102
{ACAD_REACTORS
330
17
102
}
330
17
100
AcDbMlineStyle
  2
Standard
 70
     0
  3

 62
   256
 51
90.0
 52
90.0
 71
     2
 49
0.5
 62
   256
  6
BYLAYER
 49
-0.5
 62
   256
  6
BYLAYER
  0
ACDBPLACEHOLDER
  5
F
102
{ACAD_REACTORS
330
E
102
}
330
E
  0
SCALE
  5
48
102
{ACAD_REACTORS
330
47
102
}
330
47
100
AcDbScale
 70
     0
300
1:1
140
1.0
141
1.0
290
     1
  0
SCALE
  5
49
102
{ACAD_REACTORS
330
47
102
}
330
47
100
AcDbScale
 70
     0
300
1:2
140
1.0
141
2.0
290
     0
  0
SCALE
  5
4A
102
{ACAD_REACTORS
330
47
102
}
330
47
100
AcDbScale
 70
     0
300
1:4
140
1.0
141
4.0
290
     0
  0
SCALE
  5
4B
102
{ACAD_REACTORS
330
47
102
}
330
47
100
AcDbScale
 70
     0
300
1:5
140
1.0
141
5.0
290
     0
  0
SCALE
  5
4C
102
{ACAD_REACTORS
330
47
102
}
330
47
100
AcDbScale
 70
     0
300
1:8
140
1.0
141
8.0
290
     0
  0
SCALE
  5
4D
102
{ACAD_REACTORS
330
47
102
}
330
47
100
AcDbScale
 70
     0
300
1:10
140
1.0
141
10.0
290
     0
  0
SCALE
  5
4E
102
{ACAD_REACTORS
330
47
102
}
330
47
100
AcDbScale
 70
     0
300
1:16
140
1.0
141
16.0
290
     0
  0
SCALE
  5
4F
102
{ACAD_REACTORS
330
47
102
}
330
47
100
AcDbScale
 70
     0
300
1:20
140
1.0
141
20.0
290
     0
  0
SCALE
  5
50
102
{ACAD_REACTORS
330
47
102
}
330
47
100
AcDbScale
 70
     0
300
1:30
140
1.0
141
30.0
290
     0
  0
SCALE
  5
51
102
{ACAD_REACTORS
330
47
102
}
330
47
100
AcDbScale
 70
     0
300
1:40
140
1.0
141
40.0
290
     0
  0
SCALE
  5
52
102
{ACAD_REACTORS
330
47
102
}
330
47
100
AcDbScale
 70
     0
300
1:50
140
1.0
141
50.0
290
     0
  0
SCALE
  5
53
102
{ACAD_REACTORS
330
47
102
}
330
47
100
AcDbScale
 70
     0
300
1:100
140
1.0
141
100.0
290
     0
  0
SCALE
  5
54
102
{ACAD_REACTORS
330
47
102
}
330
47
100
AcDbScale
 70
     0
300
2:1
140
2.0
141
1.0
290
     0
  0
SCALE
  5
55
102
{ACAD_REACTORS
330
47
102
}
330
47
100
AcDbScale
 70
     0
300
4:1
140
4.0
141
1.0
290
     0
  0
SCALE
  5
56
102
{ACAD_REACTORS
330
47
102
}
330
47
100
AcDbScale
 70
     0
300
8:1
140
8.0
141
1.0
290
     0
  0
SCALE
  5
57
102
{ACAD_REACTORS
330
47
102
}
330
47
100
AcDbScale
 70
     0
300
10:1
140
10.0
141
1.0
290
     0
  0
SCALE
  5
58
102
{ACAD_REACTORS
330
47
102
}
330
47
100
AcDbScale
 70
     0
300
100:1
140
100.0
141
1.0
290
     0
  0
ENDSEC
  0
EOF
